  0
SECTION
  2
HEADER
  9
$ACADVER
  1
AC1009
  9
$INSBASE
 10
0.0
 20
0.0
 30
0.0
  9
$EXTMIN
 10
3669.3603967289928
 20
394374.44655880192
 30
0.0
  9
$EXTMAX
 10
27434.566556488098
 20
409224.44655880192
 30
0.0
  9
$LIMMIN
 10
-127022.6804658414
 20
-67144.462473645661
  9
$LIMMAX
 10
-873.19720690528334
 20
6755.1563308572058
  9
$ORTHOMODE
 70
     1
  9
$REGENMODE
 70
     1
  9
$FILLMODE
 70
     1
  9
$QTEXTMODE
 70
     0
  9
$MIRRTEXT
 70
     0
  9
$DRAGMODE
 70
     2
  9
$LTSCALE
 40
50.0
  9
$OSMODE
 70
   679
  9
$ATTMODE
 70
     1
  9
$TEXTSIZE
 40
200.0
  9
$TRACEWID
 40
10.0
  9
$TEXTSTYLE
  7
R
  9
$CLAYER
  8
S-OBRYS
  9
$CELTYPE
  6
CONTINUOUS
  9
$CECOLOR
 62
   256
  9
$DIMSCALE
 40
50.0
  9
$DIMASZ
 40
2.0
  9
$DIMEXO
 40
0.063
  9
$DIMDLI
 40
5.0
  9
$DIMRND
 40
0.0
  9
$DIMDLE
 40
0.0
  9
$DIMEXE
 40
0.2
  9
$DIMTP
 40
0.0
  9
$DIMTM
 40
0.0
  9
$DIMTXT
 40
2.0
  9
$DIMCEN
 40
2.0
  9
$DIMTSZ
 40
0.0
  9
$DIMTOL
 70
     0
  9
$DIMLIM
 70
     0
  9
$DIMTIH
 70
     0
  9
$DIMTOH
 70
     0
  9
$DIMSE1
 70
     0
  9
$DIMSE2
 70
     0
  9
$DIMTAD
 70
     1
  9
$DIMZIN
 70
    12
  9
$DIMBLK
  1

  9
$DIMASO
 70
     1
  9
$DIMSHO
 70
     0
  9
$DIMPOST
  1

  9
$DIMAPOST
  1

  9
$DIMALT
 70
     0
  9
$DIMALTD
 70
     2
  9
$DIMALTF
 40
25.399999999999999
  9
$DIMLFAC
 40
1.0
  9
$DIMTOFL
 70
     1
  9
$DIMTVP
 40
0.0
  9
$DIMTIX
 70
     0
  9
$DIMSOXD
 70
     0
  9
$DIMSAH
 70
     1
  9
$DIMBLK1
  1
OPEN
  9
$DIMBLK2
  1
OPEN
  9
$DIMSTYLE
  2
EMBABA
  9
$DIMCLRD
 70
   256
  9
$DIMCLRE
 70
   256
  9
$DIMCLRT
 70
   256
  9
$DIMTFAC
 40
1.0
  9
$DIMGAP
 40
0.5
  9
$LUNITS
 70
     2
  9
$LUPREC
 70
     0
  9
$SKETCHINC
 40
10.0
  9
$FILLETRAD
 40
400.0
  9
$AUNITS
 70
     0
  9
$AUPREC
 70
     4
  9
$MENU
  1
ACAD
  9
$ELEVATION
 40
0.0
  9
$PELEVATION
 40
0.0
  9
$THICKNESS
 40
0.0
  9
$LIMCHECK
 70
     0
  9
$BLIPMODE
 70
     0
  9
$CHAMFERA
 40
0.0
  9
$CHAMFERB
 40
0.0
  9
$SKPOLY
 70
     0
  9
$TDCREATE
 40
2450205.720229167
  9
$TDUPDATE
 40
2453529.393130058
  9
$TDINDWG
 40
42.390546041699999
  9
$TDUSRTIMER
 40
42.390546041699999
  9
$USRTIMER
 70
     1
  9
$ANGBASE
 50
0.0
  9
$ANGDIR
 70
     0
  9
$PDMODE
 70
     2
  9
$PDSIZE
 40
-5.0
  9
$PLINEWID
 40
0.0
  9
$COORDS
 70
     0
  9
$SPLFRAME
 70
     0
  9
$SPLINETYPE
 70
     6
  9
$SPLINESEGS
 70
     8
  9
$ATTDIA
 70
     0
  9
$ATTREQ
 70
     1
  9
$HANDLING
 70
     1
  9
$HANDSEED
  5
65167
  9
$SURFTAB1
 70
    18
  9
$SURFTAB2
 70
    18
  9
$SURFTYPE
 70
     6
  9
$SURFU
 70
    18
  9
$SURFV
 70
    18
  9
$UCSNAME
  2

  9
$UCSORG
 10
0.0
 20
0.0
 30
0.0
  9
$UCSXDIR
 10
1.0
 20
0.0
 30
0.0
  9
$UCSYDIR
 10
0.0
 20
1.0
 30
0.0
  9
$PUCSNAME
  2

  9
$PUCSORG
 10
0.0
 20
0.0
 30
0.0
  9
$PUCSXDIR
 10
1.0
 20
0.0
 30
0.0
  9
$PUCSYDIR
 10
0.0
 20
1.0
 30
0.0
  9
$USERI1
 70
     0
  9
$USERI2
 70
     0
  9
$USERI3
 70
     0
  9
$USERI4
 70
     0
  9
$USERI5
 70
     0
  9
$USERR1
 40
0.0
  9
$USERR2
 40
50.0
  9
$USERR3
 40
0.0
  9
$USERR4
 40
0.0
  9
$USERR5
 40
0.0
  9
$WORLDVIEW
 70
     1
  9
$SHADEDGE
 70
     3
  9
$SHADEDIF
 70
    70
  9
$TILEMODE
 70
     1
  9
$MAXACTVP
 70
    16
  9
$PLIMCHECK
 70
     0
  9
$PEXTMIN
 10
1.049999952316284
 20
0.7999999523162842
 30
0.0
  9
$PEXTMAX
 10
9.4499995708465558
 20
7.1999995708465558
 30
0.0
  9
$PLIMMIN
 10
-0.2500002402958907
 20
-0.2499999962453767
  9
$PLIMMAX
 10
10.74999951940821
 20
8.2499997634587316
  9
$UNITMODE
 70
     0
  9
$VISRETAIN
 70
     0
  9
$PLINEGEN
 70
     0
  9
$PSLTSCALE
 70
     1
  0
ENDSEC
  0
SECTION
  2
TABLES
  0
TABLE
  2
VPORT
 70
     4
  0
VPORT
  2
*ACTIVE
 70
     0
 10
0.0
 20
0.0
 11
1.0
 21
1.0
 12
16798.874989307351
 22
401296.27413107158
 13
0.0
 23
0.0
 14
1.0
 24
1.0
 15
1.0
 25
1.0
 16
0.0
 26
0.0
 36
1.0
 17
0.0
 27
0.0
 37
0.0
 40
25671.183309256681
 41
1.6116303219106951
 42
50.0
 43
0.0
 44
0.0
 50
0.0
 51
0.0
 71
     0
 72
   100
 73
     1
 74
     0
 75
     0
 76
     1
 77
     0
 78
     0
  0
ENDTAB
  0
TABLE
  2
LTYPE
 70
     2
  0
LTYPE
  2
CONTINUOUS
 70
     0
  3
Solid line
 72
    65
 73
     0
 40
0.0
  0
LTYPE
  2
ČERCHOVANÁ
 70
     0
  3
Čerchovaná __ . __ . __ . __ . __ . __ . __ . _
 72
    65
 73
     4
 40
1.0
 49
0.5
 49
-0.25
 49
0.0
 49
-0.25
  0
ENDTAB
  0
TABLE
  2
LAYER
 70
    10
  0
LAYER
  2
0
 70
     0
 62
     7
  6
CONTINUOUS
  0
LAYER
  2
RAZ
 70
     0
 62
     7
  6
CONTINUOUS
  0
LAYER
  2
KOTY
 70
     0
 62
     2
  6
CONTINUOUS
  0
LAYER
  2
DEFPOINTS
 70
     0
 62
     7
  6
CONTINUOUS
  0
LAYER
  2
2-VZT
 70
     0
 62
     4
  6
CONTINUOUS
  0
LAYER
  2
OBRYS
 70
     0
 62
     7
  6
CONTINUOUS
  0
LAYER
  2
S-OBRYS
 70
     0
 62
     7
  6
CONTINUOUS
  0
ENDTAB
  0
TABLE
  2
STYLE
 70
     6
  0
STYLE
  2
STANDARD
 70
     0
 40
0.0
 41
0.8
 50
0.0
 71
     0
 42
200.0
  3
ROMANS.SHX
  4

  0
STYLE
  2
R
 70
     0
 40
0.0
 41
1.0
 50
0.0
 71
     0
 42
200.0
  3
romans.shx
  4

  0
STYLE
  2
ROMANS
 70
     0
 40
0.0
 41
0.8
 50
0.0
 71
     0
 42
300.0
  3
ROMANS.shx
  4

  0
STYLE
  2
R08
 70
     0
 40
0.0
 41
0.8
 50
0.0
 71
     0
 42
800.0
  3
ROMANS.shx
  4

  0
STYLE
  2
ROMANT
 70
     0
 40
0.0
 41
0.7
 50
0.0
 71
     0
 42
3.0
  3
romant
  4

  0
STYLE
  2
CYRILLIC
 70
     0
 40
2.2999999999999989
 41
0.7
 50
0.0
 71
     0
 42
2.2999999999999989
  3
cyrillic
  4

  0
ENDTAB
  0
TABLE
  2
VIEW
 70
     0
  0
ENDTAB
  0
TABLE
  2
UCS
 70
     0
  0
ENDTAB
  0
TABLE
  2
APPID
 70
     6
  0
APPID
  2
ACAD
 70
     0
  0
APPID
  2
PHOENIX7010
 70
     0
  0
APPID
  2
CONTENTBLOCKICON
 70
     0
  0
APPID
  2
CONTENTLONGBLOCKNAME
 70
     0
  0
APPID
  2
ACAD_DSTYLE_DIMTEXT_FILL
 70
     0
  0
APPID
  2
DCO15
 70
     0
  0
ENDTAB
  0
TABLE
  2
DIMSTYLE
 70
     4
  0
DIMSTYLE
  2
STANDARD
 70
     0
  3

  4

  5

  6
OPEN
  7
OPEN
 40
1.0
 41
80.0
 42
1.0
 43
0.0
 44
1.0
 45
0.0
 46
0.8
 47
0.0
 48
0.0
140
70.0
141
-3.0
142
0.0
143
0.0394
144
1.0
145
1.0
146
0.5
147
1.0
 71
     0
 72
     0
 73
     0
 74
     0
 75
     0
 76
     0
 77
     0
 78
     8
170
     0
171
     2
172
     1
173
     1
174
     0
175
     0
176
     7
177
     7
178
     2
  0
DIMSTYLE
  2
EMBABA
 70
     0
  3

  4

  5

  6
OPEN
  7
OPEN
 40
50.0
 41
2.0
 42
0.063
 43
5.0
 44
0.2
 45
0.0
 46
0.0
 47
0.0
 48
0.0
140
2.0
141
2.0
142
0.0
143
25.399999999999999
144
1.0
145
0.0
146
1.0
147
0.5
 71
     0
 72
     0
 73
     0
 74
     0
 75
     0
 76
     0
 77
     1
 78
    12
170
     0
171
     2
172
     1
173
     1
174
     0
175
     0
176
   256
177
   256
178
   256
  0
ENDTAB
  0
ENDSEC
  0
SECTION
  2
BLOCKS
  0
BLOCK
  8
0
  2
$MODEL_SPACE
 70
     0
 10
0.0
 20
0.0
 30
0.0
  3
$MODEL_SPACE
  1

  0
ENDBLK
  5
9
  8
0
  0
BLOCK
 67
     1
  8
0
  2
$PAPER_SPACE
 70
     0
 10
0.0
 20
0.0
 30
0.0
  3
$PAPER_SPACE
  1

  0
ENDBLK
  5
E
 67
     1
  8
0
  0
BLOCK
  8
0
  2
_OPEN
 70
     0
 10
0.0
 20
0.0
 30
0.0
  3
_OPEN
  1

  0
LINE
  5
28
  8
0
  6
BYBLOCK
 62
     0
 10
-1.0
 20
0.1666666666666666
 30
0.0
 11
0.0
 21
0.0
 31
0.0
  0
LINE
  5
29
  8
0
  6
BYBLOCK
 62
     0
 10
0.0
 20
0.0
 30
0.0
 11
-1.0
 21
-0.1666666666666666
 31
0.0
  0
LINE
  5
2A
  8
0
  6
BYBLOCK
 62
     0
 10
0.0
 20
0.0
 30
0.0
 11
-1.0
 21
0.0
 31
0.0
  0
ENDBLK
  5
2C
  8
0
  0
BLOCK
  8
0
  2
*D12
 70
     1
 10
0.0
 20
0.0
 30
0.0
  3
*D12
  1

  0
LINE
  5
64FE6
  8
S-OBRYS
  6
CONTINUOUS
 10
7743.9647933015358
 20
400134.4518152778
 30
0.0
 11
8306.4247723224398
 21
399160.24255438952
 31
0.0
  0
LINE
  5
64FE7
  8
S-OBRYS
  6
CONTINUOUS
 10
9753.1437300814141
 20
401294.4518152778
 30
0.0
 11
10315.60370910235
 21
400320.24255438941
 31
0.0
  0
LINE
  5
64FE8
  8
S-OBRYS
  6
CONTINUOUS
 10
8388.0273127008677
 20
399218.9028084274
 30
0.0
 11
10224.001168723909
 21
400278.90280842729
 31
0.0
  0
INSERT
  5
64FE9
  8
S-OBRYS
  6
CONTINUOUS
  2
_OPEN
 10
8301.4247723224398
 20
399168.90280842729
 30
0.0
 41
100.0
 42
100.0
 43
100.0
 50
209.99999999999869
  0
INSERT
  5
64FEA
  8
S-OBRYS
  6
CONTINUOUS
  2
_OPEN
 10
10310.603709102341
 20
400328.90280842729
 30
0.0
 41
100.0
 42
100.0
 43
100.0
 50
29.999999999998689
  0
INSERT
  5
64FEB
  8
S-OBRYS
  6
CONTINUOUS
  2
*U35
 10
0.0
 20
0.0
 30
0.0
  0
POINT
  5
64FEC
  8
DEFPOINTS
  6
CONTINUOUS
 62
     0
 10
7742.3897933015251
 20
400137.17979529977
 30
0.0
  0
POINT
  5
64FED
  8
DEFPOINTS
  6
CONTINUOUS
 62
     0
 10
9751.5687300814025
 20
401297.17979529977
 30
0.0
  0
POINT
  5
64FEE
  8
DEFPOINTS
  6
CONTINUOUS
 62
     0
 10
10310.603709102341
 20
400328.90280842729
 30
0.0
  0
ENDBLK
  5
64F6A
  8
0
  0
BLOCK
  8
0
  2
*D13
 70
     1
 10
0.0
 20
0.0
 30
0.0
  3
*D13
  1

  0
LINE
  5
64FEF
  8
S-OBRYS
  6
CONTINUOUS
 10
8442.5421605706651
 20
404259.15642057109
 30
0.0
 11
8442.5421605706651
 21
403901.0058552273
 31
0.0
  0
LINE
  5
64FF0
  8
S-OBRYS
  6
CONTINUOUS
 10
8832.5421605706651
 20
404259.15642057109
 30
0.0
 11
8832.5421605706651
 21
403901.0058552273
 31
0.0
  0
LINE
  5
64FF1
  8
S-OBRYS
  6
CONTINUOUS
 10
8542.542160570667
 20
403911.0058552273
 30
0.0
 11
8732.5421605706633
 21
403911.0058552273
 31
0.0
  0
INSERT
  5
64FF2
  8
S-OBRYS
  6
CONTINUOUS
  2
_OPEN
 10
8442.5421605706651
 20
403911.0058552273
 30
0.0
 41
100.0
 42
100.0
 43
100.0
 50
180.0
  0
INSERT
  5
64FF3
  8
S-OBRYS
  6
CONTINUOUS
  2
_OPEN
 10
8832.5421605706651
 20
403911.0058552273
 30
0.0
 41
100.0
 42
100.0
 43
100.0
  0
INSERT
  5
64FF4
  8
S-OBRYS
  6
CONTINUOUS
  2
*U36
 10
0.0
 20
0.0
 30
0.0
  0
POINT
  5
64FF5
  8
DEFPOINTS
  6
CONTINUOUS
 62
     0
 10
8442.5421605706651
 20
404262.30642057111
 30
0.0
  0
POINT
  5
64FF6
  8
DEFPOINTS
  6
CONTINUOUS
 62
     0
 10
8832.5421605706651
 20
404262.30642057111
 30
0.0
  0
POINT
  5
64FF7
  8
DEFPOINTS
  6
CONTINUOUS
 62
     0
 10
8832.5421605706651
 20
403911.0058552273
 30
0.0
  0
ENDBLK
  5
64F76
  8
0
  0
BLOCK
  8
0
  2
*D14
 70
     1
 10
0.0
 20
0.0
 30
0.0
  3
*D14
  1

  0
LINE
  5
64FF8
  8
S-OBRYS
  6
CONTINUOUS
 10
7887.5421605706551
 20
405009.48814415792
 30
0.0
 11
7887.5421605706551
 21
404410.4471263336
 31
0.0
  0
LINE
  5
64FF9
  8
S-OBRYS
  6
CONTINUOUS
 10
9387.5421605706724
 20
405049.4881441578
 30
0.0
 11
9387.5421605706724
 21
404410.4471263336
 31
0.0
  0
LINE
  5
64FFA
  8
S-OBRYS
  6
CONTINUOUS
 10
7987.5421605706542
 20
404420.4471263336
 30
0.0
 11
9287.5421605706706
 21
404420.4471263336
 31
0.0
  0
INSERT
  5
64FFB
  8
S-OBRYS
  6
CONTINUOUS
  2
_OPEN
 10
7887.5421605706551
 20
404420.4471263336
 30
0.0
 41
100.0
 42
100.0
 43
100.0
 50
180.0
  0
INSERT
  5
64FFC
  8
S-OBRYS
  6
CONTINUOUS
  2
_OPEN
 10
9387.5421605706724
 20
404420.4471263336
 30
0.0
 41
100.0
 42
100.0
 43
100.0
  0
INSERT
  5
64FFD
  8
S-OBRYS
  6
CONTINUOUS
  2
*U37
 10
0.0
 20
0.0
 30
0.0
  0
POINT
  5
64FFE
  8
DEFPOINTS
  6
CONTINUOUS
 62
     0
 10
7887.5421605706551
 20
405012.63814415789
 30
0.0
  0
POINT
  5
64FFF
  8
DEFPOINTS
  6
CONTINUOUS
 62
     0
 10
9387.5421605706724
 20
405052.638144158
 30
0.0
  0
POINT
  5
65000
  8
DEFPOINTS
  6
CONTINUOUS
 62
     0
 10
9387.5421605706724
 20
404420.4471263336
 30
0.0
  0
ENDBLK
  5
64F82
  8
0
  0
BLOCK
  8
0
  2
*D15
 70
     1
 10
0.0
 20
0.0
 30
0.0
  3
*D15
  1

  0
LINE
  5
65001
  8
S-OBRYS
  6
CONTINUOUS
 10
9156.5814715734432
 20
400179.33821343369
 30
0.0
 11
9163.4032053832798
 21
400184.23687305342
 31
0.0
  0
LINE
  5
65002
  8
S-OBRYS
  6
CONTINUOUS
 10
8182.4943342976912
 20
401535.82420635578
 30
0.0
 11
8189.3160681075242
 21
401540.7228659754
 31
0.0
  0
LINE
  5
65003
  8
S-OBRYS
  6
CONTINUOUS
 10
9096.951963672589
 20
400259.6307221069
 30
0.0
 11
8239.5219685855845
 21
401453.663302703
 31
0.0
  0
LINE
  5
65004
  8
S-OBRYS
  6
CONTINUOUS
 10
8181.1933974912099
 20
401534.89000886591
 30
0.0
 11
7870.0992046952588
 21
401968.11091781611
 31
0.0
  0
INSERT
  5
65005
  8
S-OBRYS
  6
CONTINUOUS
  2
_OPEN
 10
9155.2805347669637
 20
400178.40401594399
 30
0.0
 41
100.0
 42
100.0
 43
100.0
 50
305.68197544879177
  0
INSERT
  5
65006
  8
S-OBRYS
  6
CONTINUOUS
  2
_OPEN
 10
8181.1933974912099
 20
401534.89000886591
 30
0.0
 41
100.0
 42
100.0
 43
100.0
 50
125.6819754487917
  0
INSERT
  5
65007
  8
S-OBRYS
  6
CONTINUOUS
  2
*U38
 10
0.0
 20
0.0
 30
0.0
  0
POINT
  5
65008
  8
DEFPOINTS
  6
CONTINUOUS
 62
     0
 10
9154.0228303293115
 20
400177.50086344418
 30
0.0
  0
POINT
  5
65009
  8
DEFPOINTS
  6
CONTINUOUS
 62
     0
 10
8179.9356930535578
 20
401533.98685636627
 30
0.0
  0
POINT
  5
6500A
  8
DEFPOINTS
  6
CONTINUOUS
 62
     0
 10
8181.1933974912099
 20
401534.89000886591
 30
0.0
  0
ENDBLK
  5
64F8F
  8
0
  0
BLOCK
  8
0
  2
*D16
 70
     1
 10
0.0
 20
0.0
 30
0.0
  3
*D16
  1

  0
LINE
  5
6500B
  8
S-OBRYS
  6
CONTINUOUS
 10
8154.3510666118818
 20
400140.46611237671
 30
0.0
 11
8142.9800914149964
 21
400148.5540578377
 31
0.0
  0
LINE
  5
6500C
  8
S-OBRYS
  6
CONTINUOUS
 10
9174.4736473719822
 20
401574.67318258079
 30
0.0
 11
9163.1026721750986
 21
401582.76112804178
 31
0.0
  0
LINE
  5
6500D
  8
S-OBRYS
  6
CONTINUOUS
 10
8209.0905054934265
 20
400224.24694489042
 30
0.0
 11
9113.2900657126156
 21
401495.47593893501
 31
0.0
  0
LINE
  5
6500E
  8
S-OBRYS
  6
CONTINUOUS
 10
9171.2515759830694
 20
401576.96497701481
 30
0.0
 11
9448.2145620689262
 21
401966.35178240557
 31
0.0
  0
INSERT
  5
6500F
  8
S-OBRYS
  6
CONTINUOUS
  2
_OPEN
 10
8151.1289952229718
 20
400142.75790681061
 30
0.0
 41
100.0
 42
100.0
 43
100.0
 50
234.57652443341291
  0
INSERT
  5
65010
  8
S-OBRYS
  6
CONTINUOUS
  2
_OPEN
 10
9171.2515759830694
 20
401576.96497701481
 30
0.0
 41
100.0
 42
100.0
 43
100.0
 50
54.576524433412871
  0
INSERT
  5
65011
  8
S-OBRYS
  6
CONTINUOUS
  2
*U39
 10
0.0
 20
0.0
 30
0.0
  0
POINT
  5
65012
  8
DEFPOINTS
  6
CONTINUOUS
 62
     0
 10
8156.9179713113699
 20
400138.64032480319
 30
0.0
  0
POINT
  5
65013
  8
DEFPOINTS
  6
CONTINUOUS
 62
     0
 10
9177.0405520715012
 20
401572.84739500732
 30
0.0
  0
POINT
  5
65014
  8
DEFPOINTS
  6
CONTINUOUS
 62
     0
 10
9171.2515759830694
 20
401576.96497701481
 30
0.0
  0
ENDBLK
  5
64F9C
  8
0
  0
BLOCK
  8
0
  2
*D17
 70
     1
 10
0.0
 20
0.0
 30
0.0
  3
*D17
  1

  0
LINE
  5
65015
  8
S-OBRYS
  6
CONTINUOUS
 10
8637.5421605706615
 20
404205.76696419099
 30
0.0
 11
8637.5421605706615
 21
404085.80755749228
 31
0.0
  0
LINE
  5
65016
  8
S-OBRYS
  6
CONTINUOUS
 10
7469.1387742688739
 20
404907.70097355283
 30
0.0
 11
7469.1387742688739
 21
404085.80755749228
 31
0.0
  0
LINE
  5
65017
  8
S-OBRYS
  6
CONTINUOUS
 10
8537.5421605706615
 20
404095.80755749228
 30
0.0
 11
7569.1387742688748
 21
404095.80755749228
 31
0.0
  0
INSERT
  5
65018
  8
S-OBRYS
  6
CONTINUOUS
  2
_OPEN
 10
8637.5421605706615
 20
404095.80755749228
 30
0.0
 41
100.0
 42
100.0
 43
100.0
  0
INSERT
  5
65019
  8
S-OBRYS
  6
CONTINUOUS
  2
_OPEN
 10
7469.1387742688739
 20
404095.80755749228
 30
0.0
 41
100.0
 42
100.0
 43
100.0
 50
180.0
  0
INSERT
  5
6501A
  8
S-OBRYS
  6
CONTINUOUS
  2
*U40
 10
0.0
 20
0.0
 30
0.0
  0
POINT
  5
6501B
  8
DEFPOINTS
  6
CONTINUOUS
 62
     0
 10
8637.5421605706615
 20
404208.91696419113
 30
0.0
  0
POINT
  5
6501C
  8
DEFPOINTS
  6
CONTINUOUS
 62
     0
 10
7469.1387742688739
 20
404910.85097355267
 30
0.0
  0
POINT
  5
6501D
  8
DEFPOINTS
  6
CONTINUOUS
 62
     0
 10
7469.1387742688739
 20
404095.80755749228
 30
0.0
  0
ENDBLK
  5
64FA8
  8
0
  0
BLOCK
  8
0
  2
*D18
 70
     1
 10
0.0
 20
0.0
 30
0.0
  3
*D18
  1

  0
LINE
  5
6501E
  8
S-OBRYS
  6
CONTINUOUS
 10
9520.6921605706611
 20
405481.32643171953
 30
0.0
 11
10004.648765240099
 21
405481.32643171953
 31
0.0
  0
LINE
  5
6501F
  8
S-OBRYS
  6
CONTINUOUS
 10
8880.6921605706611
 20
404262.30642057111
 30
0.0
 11
10004.648765240099
 21
404262.30642057111
 31
0.0
  0
LINE
  5
65020
  8
S-OBRYS
  6
CONTINUOUS
 10
9994.6487652400974
 20
405381.32643171941
 30
0.0
 11
9994.6487652400974
 21
404362.30642057111
 31
0.0
  0
INSERT
  5
65021
  8
S-OBRYS
  6
CONTINUOUS
  2
_OPEN
 10
9994.6487652400974
 20
405481.32643171953
 30
0.0
 41
100.0
 42
100.0
 43
100.0
 50
90.0
  0
INSERT
  5
65022
  8
S-OBRYS
  6
CONTINUOUS
  2
_OPEN
 10
9994.6487652400974
 20
404262.30642057111
 30
0.0
 41
100.0
 42
100.0
 43
100.0
 50
270.0
  0
INSERT
  5
65023
  8
S-OBRYS
  6
CONTINUOUS
  2
*U41
 10
0.0
 20
0.0
 30
0.0
  0
POINT
  5
65024
  8
DEFPOINTS
  6
CONTINUOUS
 62
     0
 10
9517.5421605706615
 20
405481.32643171953
 30
0.0
  0
POINT
  5
65025
  8
DEFPOINTS
  6
CONTINUOUS
 62
     0
 10
8877.5421605706597
 20
404262.30642057111
 30
0.0
  0
POINT
  5
65026
  8
DEFPOINTS
  6
CONTINUOUS
 62
     0
 10
9994.6487652400974
 20
404262.30642057111
 30
0.0
  0
ENDBLK
  5
64FB4
  8
0
  0
BLOCK
  8
0
  2
*D19
 70
     1
 10
0.0
 20
0.0
 30
0.0
  3
*D19
  1

  0
LINE
  5
65027
  8
S-OBRYS
  6
CONTINUOUS
 10
9517.5421605706615
 20
405484.47643171938
 30
0.0
 11
9517.5421605706615
 21
406051.70139882062
 31
0.0
  0
LINE
  5
65028
  8
S-OBRYS
  6
CONTINUOUS
 10
7757.5421605706624
 20
405484.47643171938
 30
0.0
 11
7757.5421605706624
 21
406051.70139882062
 31
0.0
  0
LINE
  5
65029
  8
S-OBRYS
  6
CONTINUOUS
 10
9417.5421605706615
 20
406041.7013988205
 30
0.0
 11
7857.5421605706633
 21
406041.7013988205
 31
0.0
  0
INSERT
  5
6502A
  8
S-OBRYS
  6
CONTINUOUS
  2
_OPEN
 10
9517.5421605706615
 20
406041.7013988205
 30
0.0
 41
100.0
 42
100.0
 43
100.0
  0
INSERT
  5
6502B
  8
S-OBRYS
  6
CONTINUOUS
  2
_OPEN
 10
7757.5421605706624
 20
406041.7013988205
 30
0.0
 41
100.0
 42
100.0
 43
100.0
 50
180.0
  0
INSERT
  5
6502C
  8
S-OBRYS
  6
CONTINUOUS
  2
*U42
 10
0.0
 20
0.0
 30
0.0
  0
POINT
  5
6502D
  8
DEFPOINTS
  6
CONTINUOUS
 62
     0
 10
9517.5421605706615
 20
405481.32643171953
 30
0.0
  0
POINT
  5
6502E
  8
DEFPOINTS
  6
CONTINUOUS
 62
     0
 10
7757.5421605706624
 20
405481.32643171953
 30
0.0
  0
POINT
  5
6502F
  8
DEFPOINTS
  6
CONTINUOUS
 62
     0
 10
7757.5421605706624
 20
406041.7013988205
 30
0.0
  0
ENDBLK
  5
64FC0
  8
0
  0
BLOCK
  8
0
  2
*D20
 70
     1
 10
0.0
 20
0.0
 30
0.0
  3
*D20
  1

  0
LINE
  5
65030
  8
S-OBRYS
  6
CONTINUOUS
 10
7802.5421605706606
 20
405484.47643171938
 30
0.0
 11
7802.5421605706606
 21
405767.39446759142
 31
0.0
  0
LINE
  5
65031
  8
S-OBRYS
  6
CONTINUOUS
 10
9472.5421605706615
 20
405484.47643171938
 30
0.0
 11
9472.5421605706615
 21
405767.39446759142
 31
0.0
  0
LINE
  5
65032
  8
S-OBRYS
  6
CONTINUOUS
 10
7902.5421605706606
 20
405757.39446759142
 30
0.0
 11
9372.5421605706615
 21
405757.39446759142
 31
0.0
  0
INSERT
  5
65033
  8
S-OBRYS
  6
CONTINUOUS
  2
_OPEN
 10
7802.5421605706606
 20
405757.39446759142
 30
0.0
 41
100.0
 42
100.0
 43
100.0
 50
180.0
  0
INSERT
  5
65034
  8
S-OBRYS
  6
CONTINUOUS
  2
_OPEN
 10
9472.5421605706615
 20
405757.39446759142
 30
0.0
 41
100.0
 42
100.0
 43
100.0
  0
INSERT
  5
65035
  8
S-OBRYS
  6
CONTINUOUS
  2
*U43
 10
0.0
 20
0.0
 30
0.0
  0
POINT
  5
65036
  8
DEFPOINTS
  6
CONTINUOUS
 62
     0
 10
7802.5421605706606
 20
405481.32643171953
 30
0.0
  0
POINT
  5
65037
  8
DEFPOINTS
  6
CONTINUOUS
 62
     0
 10
9472.5421605706615
 20
405481.32643171953
 30
0.0
  0
POINT
  5
65038
  8
DEFPOINTS
  6
CONTINUOUS
 62
     0
 10
9472.5421605706615
 20
405757.39446759142
 30
0.0
  0
ENDBLK
  5
64FCC
  8
0
  0
BLOCK
  8
0
  2
*D21
 70
     1
 10
0.0
 20
0.0
 30
0.0
  3
*D21
  1

  0
LINE
  5
65039
  8
S-OBRYS
  6
CONTINUOUS
 10
9594.2967101032846
 20
401575.88292451069
 30
0.0
 11
9848.7835301696323
 21
401722.81095858128
 31
0.0
  0
LINE
  5
6503A
  8
S-OBRYS
  6
CONTINUOUS
 10
9754.2967101033137
 20
401298.75479529978
 30
0.0
 11
10008.78353016966
 21
401445.68282937031
 31
0.0
  0
LINE
  5
6503B
  8
S-OBRYS
  6
CONTINUOUS
 10
9890.1232761318097
 20
401631.20841820282
 30
0.0
 11
9950.1232761317806
 21
401527.28536974877
 31
0.0
  0
INSERT
  5
6503C
  8
S-OBRYS
  6
CONTINUOUS
  2
_OPEN
 10
9840.1232761317824
 20
401717.81095858128
 30
0.0
 41
100.0
 42
100.0
 43
100.0
 50
120.0000000000085
  0
INSERT
  5
6503D
  8
S-OBRYS
  6
CONTINUOUS
  2
_OPEN
 10
10000.12327613181
 20
401440.68282937031
 30
0.0
 41
100.0
 42
100.0
 43
100.0
 50
300.00000000000853
  0
INSERT
  5
6503E
  8
S-OBRYS
  6
CONTINUOUS
  2
*U44
 10
0.0
 20
0.0
 30
0.0
  0
POINT
  5
6503F
  8
DEFPOINTS
  6
CONTINUOUS
 62
     0
 10
9591.5687300813734
 20
401574.30792451068
 30
0.0
  0
POINT
  5
65040
  8
DEFPOINTS
  6
CONTINUOUS
 62
     0
 10
9751.5687300814025
 20
401297.17979529977
 30
0.0
  0
POINT
  5
65041
  8
DEFPOINTS
  6
CONTINUOUS
 62
     0
 10
10000.12327613181
 20
401440.68282937031
 30
0.0
  0
ENDBLK
  5
64FD8
  8
0
  0
BLOCK
  8
0
  2
*D22
 70
     1
 10
0.0
 20
0.0
 30
0.0
  3
*D22
  1

  0
LINE
  5
65134
  8
S-OBRYS
  6
CONTINUOUS
 10
7594.7924909045396
 20
401468.00338565628
 30
0.0
 11
7477.7790523978038
 21
401533.03277038533
 31
0.0
  0
ARC
  5
65135
  8
S-OBRYS
  6
CONTINUOUS
 10
8696.4881730228371
 20
400855.74385990528
 30
0.0
 40
1384.2640312916949
 50
155.07717460342249
 51
175.86002061307391
  0
INSERT
  5
65136
  8
S-OBRYS
  6
CONTINUOUS
  2
_OPEN
 10
7486.5199299738752
 20
401528.17508995108
 30
0.0
 41
100.0
 42
100.0
 43
100.0
 50
63.007184909959911
  0
INSERT
  5
65137
  8
S-OBRYS
  6
CONTINUOUS
  2
_OPEN
 10
7312.2241417311461
 20
400855.74385990528
 30
0.0
 41
100.0
 42
100.0
 43
100.0
 50
267.93001030653647
  0
TEXT
  8
S-OBRYS
  40
100
  5
65166
  72
0
  71
0
 10
7083.91
 20
401045.
 30
0.000000
  1
30%%d
  0
POINT
  5
65139
  8
DEFPOINTS
  6
CONTINUOUS
 62
     0
 10
7390.6201019696591
 20
401314.97744897712
 30
0.0
  0
POINT
  5
6513A
  8
DEFPOINTS
  6
CONTINUOUS
 62
     0
 10
6715.0486607318744
 20
400855.74385990528
 30
0.0
  0
POINT
  5
6513B
  8
DEFPOINTS
  6
CONTINUOUS
 62
     0
 10
7597.545867341003
 20
401466.47321631957
 30
0.0
  0
POINT
  5
6513C
  8
DEFPOINTS
  6
CONTINUOUS
 62
     0
 10
8095.3969301700854
 20
401189.79603534308
 30
0.0
  0
POINT
  5
6513D
  8
DEFPOINTS
  6
CONTINUOUS
 62
     0
 10
9640.0419207231171
 20
400855.74385990528
 30
0.0
  0
ENDBLK
  5
64FE5
  8
0
  0
BLOCK
  8
0
  2
*U23
 70
     1
 10
0.0
 20
0.0
 30
0.0
  3
*U23
  1

  0
TEXT
  5
65105
  8
S-OBRYS
  6
CONTINUOUS
 10
21790.273751288842
 20
406066.70139882038
 30
0.0
 40
100.0
  1
1760
 41
0.8
  0
ENDBLK
  5
65107
  8
0
  0
BLOCK
  8
0
  2
*U24
 70
     1
 10
0.0
 20
0.0
 30
0.0
  3
*U24
  1

  0
TEXT
  5
65109
  8
S-OBRYS
  6
CONTINUOUS
 10
21790.273751288842
 20
405782.39446759148
 30
0.0
 40
100.0
  1
1670
 41
0.8
  0
ENDBLK
  5
6510B
  8
0
  0
BLOCK
  8
0
  2
*U25
 70
     1
 10
0.0
 20
0.0
 30
0.0
  3
*U25
  1

  0
TEXT
  5
6510D
  8
S-OBRYS
  6
CONTINUOUS
 10
23280.475594053441
 20
404713.72118805
 30
0.0
 40
100.0
  1
1267
 50
90.0
 41
0.8
  0
ENDBLK
  5
6510F
  8
0
  0
BLOCK
  8
0
  2
*U26
 70
     1
 10
0.0
 20
0.0
 30
0.0
  3
*U26
  1

  0
TEXT
  5
65111
  8
S-OBRYS
  6
CONTINUOUS
 10
21206.07205813795
 20
404120.80755749228
 30
0.0
 40
100.0
  1
1168
 41
0.8
  0
ENDBLK
  5
65113
  8
0
  0
BLOCK
  8
0
  2
*U27
 70
     1
 10
0.0
 20
0.0
 30
0.0
  3
*U27
  1

  0
TEXT
  5
65115
  8
S-OBRYS
  6
CONTINUOUS
 10
22320.450213058091
 20
404445.44712633349
 30
0.0
 40
100.0
  1
1500
 41
0.8
  0
ENDBLK
  5
65117
  8
0
  0
BLOCK
  8
0
  2
*U28
 70
     1
 10
0.0
 20
0.0
 30
0.0
  3
*U28
  1

  0
TEXT
  5
65119
  8
S-OBRYS
  6
CONTINUOUS
 10
21834.083275098372
 20
403936.0058552273
 30
0.0
 40
100.0
  1
390
 41
0.8
  0
ENDBLK
  5
6511B
  8
0
  0
BLOCK
  8
0
  2
*U29
 70
     1
 10
0.0
 20
0.0
 30
0.0
  3
*U29
  1

  0
TEXT
  5
6511D
  8
S-OBRYS
  6
CONTINUOUS
 10
22472.375293711
 20
399694.36296733149
 30
0.0
 40
100.0
  1
2332
 50
29.999999999998689
 41
0.8
  0
ENDBLK
  5
6511F
  8
0
  0
BLOCK
  8
0
  2
*U30
 70
     1
 10
0.0
 20
0.0
 30
0.0
  3
*U30
  1

  0
TEXT
  5
65121
  8
S-OBRYS
  6
CONTINUOUS
 10
20620.192553074201
 20
401120.83932517481
 30
0.0
 40
100.0
  1
30°
 50
75.468597608247535
 41
0.8
  0
ENDBLK
  5
65123
  8
0
  0
BLOCK
  8
0
  2
*U31
 70
     1
 10
0.0
 20
0.0
 30
0.0
  3
*U31
  1

  0
TEXT
  5
65125
  8
S-OBRYS
  6
CONTINUOUS
 10
23195.45788289707
 20
401690.72122583701
 30
0.0
 40
100.0
  1
320
 50
300.00000000000853
 41
0.8
  0
ENDBLK
  5
65127
  8
0
  0
BLOCK
  8
0
  2
*U32
 70
     1
 10
0.0
 20
0.0
 30
0.0
  3
*U32
  1

  0
TEXT
  5
65129
  8
S-OBRYS
  6
CONTINUOUS
 10
22554.158323668122
 20
401721.43538875249
 30
0.0
 40
100.0
  1
1760
 50
54.576524433412871
 41
0.8
  0
ENDBLK
  5
6512B
  8
0
  0
BLOCK
  8
0
  2
*U33
 70
     1
 10
0.0
 20
0.0
 30
0.0
  3
*U33
  1

  0
TEXT
  5
6512D
  8
S-OBRYS
  6
CONTINUOUS
 10
21202.482608001461
 20
401980.95248831459
 30
0.0
 40
100.0
  1
1670
 50
305.68197544879177
 41
0.8
  0
ENDBLK
  5
6512F
  8
0
  0
BLOCK
  8
0
  2
*U34
 70
     1
 10
0.0
 20
0.0
 30
0.0
  3
*U34
  1

  0
TEXT
  5
65131
  8
OBRYS
  6
CONTINUOUS
 10
6106.3061605341809
 20
407607.95843584777
 30
0.0
 40
400.0
  1
Vibrační dno VD 1500
  7
R
  0
ENDBLK
  5
65133
  8
0
  0
BLOCK
  8
0
  2
*U35
 70
     1
 10
0.0
 20
0.0
 30
0.0
  3
*U35
  1

  0
TEXT
  5
6513F
  8
S-OBRYS
  6
CONTINUOUS
 10
9161.548464897618
 20
399694.36296733143
 30
0.0
 40
100.0
  1
2332
 50
29.999999999998689
 41
0.8
  0
ENDBLK
  5
65141
  8
0
  0
BLOCK
  8
0
  2
*U36
 70
     1
 10
0.0
 20
0.0
 30
0.0
  3
*U36
  1

  0
TEXT
  5
65143
  8
S-OBRYS
  6
CONTINUOUS
 10
8523.2564462849514
 20
403936.0058552273
 30
0.0
 40
100.0
  1
390
 41
0.8
  0
ENDBLK
  5
65145
  8
0
  0
BLOCK
  8
0
  2
*U37
 70
     1
 10
0.0
 20
0.0
 30
0.0
  3
*U37
  1

  0
TEXT
  5
65147
  8
S-OBRYS
  6
CONTINUOUS
 10
9009.6233842446818
 20
404445.44712633349
 30
0.0
 40
100.0
  1
1500
 41
0.8
  0
ENDBLK
  5
65149
  8
0
  0
BLOCK
  8
0
  2
*U38
 70
     1
 10
0.0
 20
0.0
 30
0.0
  3
*U38
  1

  0
TEXT
  5
6514B
  8
S-OBRYS
  6
CONTINUOUS
 10
7891.6557791880168
 20
401980.95248831459
 30
0.0
 40
100.0
  1
1670
 50
305.68197544879177
 41
0.8
  0
ENDBLK
  5
6514D
  8
0
  0
BLOCK
  8
0
  2
*U39
 70
     1
 10
0.0
 20
0.0
 30
0.0
  3
*U39
  1

  0
TEXT
  5
6514F
  8
S-OBRYS
  6
CONTINUOUS
 10
9243.3314948547068
 20
401721.43538875272
 30
0.0
 40
100.0
  1
1760
 50
54.576524433412871
 41
0.8
  0
ENDBLK
  5
65151
  8
0
  0
BLOCK
  8
0
  2
*U40
 70
     1
 10
0.0
 20
0.0
 30
0.0
  3
*U40
  1

  0
TEXT
  5
65153
  8
S-OBRYS
  6
CONTINUOUS
 10
7895.2452293245296
 20
404120.80755749228
 30
0.0
 40
100.0
  1
1168
 41
0.8
  0
ENDBLK
  5
65155
  8
0
  0
BLOCK
  8
0
  2
*U41
 70
     1
 10
0.0
 20
0.0
 30
0.0
  3
*U41
  1

  0
TEXT
  5
65157
  8
S-OBRYS
  6
CONTINUOUS
 10
9969.6487652400338
 20
404713.72118805
 30
0.0
 40
100.0
  1
1267
 50
90.0
 41
0.8
  0
ENDBLK
  5
65159
  8
0
  0
BLOCK
  8
0
  2
*U42
 70
     1
 10
0.0
 20
0.0
 30
0.0
  3
*U42
  1

  0
TEXT
  5
6515B
  8
S-OBRYS
  6
CONTINUOUS
 10
8479.446922475423
 20
406066.70139882038
 30
0.0
 40
100.0
  1
1760
 41
0.8
  0
ENDBLK
  5
6515D
  8
0
  0
BLOCK
  8
0
  2
*U43
 70
     1
 10
0.0
 20
0.0
 30
0.0
  3
*U43
  1

  0
TEXT
  5
6515F
  8
S-OBRYS
  6
CONTINUOUS
 10
8479.446922475423
 20
405782.39446759148
 30
0.0
 40
100.0
  1
1670
 41
0.8
  0
ENDBLK
  5
65161
  8
0
  0
BLOCK
  8
0
  2
*U44
 70
     1
 10
0.0
 20
0.0
 30
0.0
  3
*U44
  1

  0
TEXT
  5
65163
  8
S-OBRYS
  6
CONTINUOUS
 10
9884.6310540835912
 20
401690.7212258369
 30
0.0
 40
100.0
  1
320
 50
300.00000000000853
 41
0.8
  0
ENDBLK
  5
65165
  8
0
  0
ENDSEC
  0
SECTION
  2
ENTITIES
  0
TEXT
  5
2F7A5
  8
KOTY
 10
-393803.77638965531
 20
-299016.15321175661
 30
0.0
 40
150.0
  1

 41
0.7
  7
ROMANT
  0
TEXT
  5
3AD8B
  8
KOTY
 10
-14797.18019204357
 20
454294.55370899959
 30
0.0
 40
150.0
  1

 41
0.7
  7
ROMANT
  0
TEXT
  5
404AD
  8
KOTY
 10
44010.2314385153
 20
465617.23741859582
 30
0.0
 40
92.0
  1

 41
0.7
  7
CYRILLIC
  0
TEXT
  5
404B4
  8
KOTY
 10
39575.071591094718
 20
465613.29777162091
 30
0.0
 40
92.0
  1

 41
0.7
  7
CYRILLIC
  0
TEXT
  5
40B14
  8
KOTY
 10
5856.0590664841584
 20
486921.1132385282
 30
0.0
 40
150.0
  1

 41
0.7
  7
ROMANT
  0
TEXT
  5
40BFC
  8
KOTY
 10
8767.7265956277752
 20
466337.2608060218
 30
0.0
 40
150.0
  1

 41
0.7
  7
ROMANS
  0
TEXT
  5
51A7C
  8
KOTY
 10
-47677.341387967608
 20
395133.71812193602
 30
0.0
 40
150.0
  1

 41
0.7
  7
ROMANS
  0
TEXT
  5
51A94
  8
KOTY
 10
-45176.819295693742
 20
395133.7181219359
 30
0.0
 40
150.0
  1

 41
0.7
  7
ROMANS
  0
TEXT
  5
51A9B
  8
KOTY
 10
-48084.423320344351
 20
397411.27855615731
 30
0.0
 40
150.0
  1

 41
0.7
  7
ROMANT
  0
TEXT
  5
51B05
  8
RAZ
 62
     6
 10
-47365.887544580757
 20
392999.37567832542
 30
0.0
 40
193.54103193599991
  1

 41
0.8
  7
R08
  0
TEXT
  5
51B06
  8
RAZ
 62
     1
 10
-47245.037660778231
 20
393401.77274166199
 30
0.0
 40
125.41458869452801
  1

  7
ROMANS
  0
TEXT
  5
58307
  8
KOTY
 10
22966.528519463162
 20
383405.87475258159
 30
0.0
 40
150.0
  1

 41
0.7
  7
ROMANS
  0
TEXT
  5
58308
  8
KOTY
 10
22966.528519463169
 20
383855.87475258159
 30
0.0
 40
150.0
  1

 41
0.7
  7
ROMANS
  0
TEXT
  5
58315
  8
KOTY
 10
25467.050611737021
 20
383855.87475258141
 30
0.0
 40
150.0
  1

 41
0.7
  7
ROMANS
  0
TEXT
  5
58316
  8
KOTY
 10
25467.050611737021
 20
383405.87475258141
 30
0.0
 40
150.0
  1

 41
0.7
  7
ROMANS
  0
TEXT
  5
5833F
  8
KOTY
 10
22966.528519463162
 20
385205.87475258153
 30
0.0
 40
150.0
  1

 41
0.7
  7
ROMANS
  0
TEXT
  5
58340
  8
KOTY
 10
22966.528519463169
 20
385655.87475258159
 30
0.0
 40
150.0
  1

 41
0.7
  7
ROMANS
  0
TEXT
  5
58354
  8
KOTY
 10
25467.050611737021
 20
385655.87475258141
 30
0.0
 40
150.0
  1

 41
0.7
  7
ROMANS
  0
TEXT
  5
58355
  8
KOTY
 10
25467.050611737021
 20
385205.87475258141
 30
0.0
 40
150.0
  1

 41
0.7
  7
ROMANS
  0
TEXT
  5
58397
  8
KOTY
 10
25467.050611737039
 20
390605.87475258129
 30
0.0
 40
150.0
  1

 41
0.7
  7
ROMANS
  0
TEXT
  5
58398
  8
KOTY
 10
25467.050611737039
 20
391055.87475258141
 30
0.0
 40
150.0
  1

 41
0.7
  7
ROMANS
  0
TEXT
  5
583C1
  8
KOTY
 10
25467.050611737031
 20
389255.87475258141
 30
0.0
 40
150.0
  1

 41
0.7
  7
ROMANS
  0
TEXT
  5
58C84
  8
KOTY
 10
22966.52851946322
 20
387905.87475258153
 30
0.0
 40
150.0
  1

 41
0.7
  7
ROMANS
  0
LINE
  5
64C96
  8
S-OBRYS
  6
CONTINUOUS
 10
3669.3603967289928
 20
394374.44655880192
 30
0.0
 11
14169.360396728989
 21
394374.44655880192
 31
0.0
  0
LINE
  5
64C97
  8
S-OBRYS
  6
CONTINUOUS
 10
14169.360396728989
 20
394374.44655880192
 30
0.0
 11
14169.360396728989
 21
409224.44655880192
 31
0.0
  0
LINE
  5
64C98
  8
S-OBRYS
  6
CONTINUOUS
 10
14169.360396728989
 20
409224.44655880192
 30
0.0
 11
3669.3603967289969
 21
409224.44655880192
 31
0.0
  0
LINE
  5
64C99
  8
S-OBRYS
  6
CONTINUOUS
 10
3669.3603967289969
 20
409224.44655880192
 30
0.0
 11
3669.3603967289928
 21
394374.44655880192
 31
0.0
  0
LINE
  5
64F03
  8
S-OBRYS
  6
CONTINUOUS
 10
6715.0486607318744
 20
400855.74385990528
 30
0.0
 11
9640.0419207231171
 21
400855.74385990528
 31
0.0
  0
CIRCLE
  5
64F04
  8
S-OBRYS
  6
CONTINUOUS
 10
8666.9792616914365
 20
400855.74385990528
 30
0.0
 40
750.0
  0
CIRCLE
  5
64F05
  8
S-OBRYS
  6
CONTINUOUS
 10
8666.9792616914365
 20
400855.74385990528
 30
0.0
 40
835.0
  0
CIRCLE
  5
64F06
  8
S-OBRYS
  6
CONTINUOUS
 10
8666.9792616914365
 20
400855.74385990528
 30
0.0
 40
880.0
  0
CIRCLE
  5
64F07
  8
S-OBRYS
  6
CONTINUOUS
 10
8666.9792616914365
 20
400855.74385990528
 30
0.0
 40
506.99999999997982
  0
LINE
  5
64F08
  8
S-OBRYS
  6
CONTINUOUS
 10
7582.3897933014823
 20
400414.30792451079
 30
0.0
 11
7836.6119147253703
 21
400561.0831347488
 31
0.0
  0
LINE
  5
64F09
  8
S-OBRYS
  6
CONTINUOUS
 10
8666.9792616914365
 20
401820.98992890422
 30
0.0
 11
8666.9792616914365
 21
399890.4977909064
 31
0.0
  0
LINE
  5
64F0A
  8
S-OBRYS
  6
CONTINUOUS
 10
7742.3897933014878
 20
400137.17979529977
 30
0.0
 11
7996.6119147253821
 21
400283.95500553778
 31
0.0
  0
LINE
  5
64F0B
  8
S-OBRYS
  6
CONTINUOUS
 10
7597.545867341003
 20
400245.01450349099
 30
0.0
 11
8095.3969301700754
 21
400521.69168446749
 31
0.0
  0
LINE
  5
64F0C
  8
S-OBRYS
  6
CONTINUOUS
 10
7582.3897933014823
 20
400414.30792451079
 30
0.0
 11
7742.3897933014932
 21
400137.17979529977
 31
0.0
  0
LINE
  5
64F0D
  8
S-OBRYS
  6
CONTINUOUS
 10
7577.1936408787742
 20
401300.17979529971
 30
0.0
 11
7836.6119147253703
 21
401150.40458506171
 31
0.0
  0
LINE
  5
64F0E
  8
S-OBRYS
  6
CONTINUOUS
 10
7597.545867341003
 20
401466.47321631951
 30
0.0
 11
8095.3969301700754
 21
401189.79603534308
 31
0.0
  0
CIRCLE
  5
64F0F
  8
S-OBRYS
  6
CONTINUOUS
 10
7614.6044566712444
 20
400855.32070501201
 30
0.0
 40
135.0
  0
LINE
  5
64F10
  8
S-OBRYS
  6
CONTINUOUS
 10
7724.7159783364623
 20
400721.37249596359
 30
0.0
 11
7797.2986671324652
 21
400721.37249596359
 31
0.0
  0
LINE
  5
64F11
  8
S-OBRYS
  6
CONTINUOUS
 10
7724.7159783364623
 20
400721.37249596359
 30
0.0
 11
7724.7159783364623
 21
400777.21530957369
 31
0.0
  0
LINE
  5
64F12
  8
S-OBRYS
  6
CONTINUOUS
 10
7724.7159783364623
 20
400990.9030553574
 30
0.0
 11
7797.420757687968
 21
400990.9030553574
 31
0.0
  0
LINE
  5
64F13
  8
S-OBRYS
  6
CONTINUOUS
 10
7724.7159783364623
 20
400933.42610045028
 30
0.0
 11
7724.7159783364623
 21
400990.9030553574
 31
0.0
  0
LINE
  5
64F14
  8
S-OBRYS
  6
CONTINUOUS
 10
7737.1936408787851
 20
401577.30792451079
 30
0.0
 11
7996.6119147253821
 21
401427.53271427267
 31
0.0
  0
LINE
  5
64F15
  8
S-OBRYS
  6
CONTINUOUS
 10
7577.1936408787742
 20
401300.17979529971
 30
0.0
 11
7737.1936408787851
 21
401577.30792451079
 31
0.0
  0
LINE
  5
64F16
  8
S-OBRYS
  6
CONTINUOUS
 10
9756.7648825040997
 20
400411.30792451068
 30
0.0
 11
9497.346608657499
 21
400561.0831347488
 31
0.0
  0
LINE
  5
64F17
  8
S-OBRYS
  6
CONTINUOUS
 10
9596.7648825040887
 20
400134.17979529977
 30
0.0
 11
9337.3466086574917
 21
400283.95500553778
 31
0.0
  0
LINE
  5
64F18
  8
S-OBRYS
  6
CONTINUOUS
 10
9736.4126560418736
 20
400245.01450349099
 30
0.0
 11
9238.5615932127985
 21
400521.69168446749
 31
0.0
  0
LINE
  5
64F19
  8
S-OBRYS
  6
CONTINUOUS
 10
9756.7648825040997
 20
400411.30792451068
 30
0.0
 11
9596.7648825040887
 21
400134.17979529977
 31
0.0
  0
LINE
  5
64F1A
  8
S-OBRYS
  6
CONTINUOUS
 10
9751.5687300813934
 20
401297.17979529977
 30
0.0
 11
9497.346608657499
 21
401150.40458506171
 31
0.0
  0
LINE
  5
64F1B
  8
S-OBRYS
  6
CONTINUOUS
 10
9736.4126560418736
 20
401466.47321631951
 30
0.0
 11
9238.5615932127985
 21
401189.79603534308
 31
0.0
  0
LINE
  5
64F1C
  8
S-OBRYS
  6
CONTINUOUS
 10
9591.5687300813825
 20
401574.30792451068
 30
0.0
 11
9337.3466086574917
 21
401427.53271427267
 31
0.0
  0
LINE
  5
64F1D
  8
S-OBRYS
  6
CONTINUOUS
 10
9751.5687300813952
 20
401297.17979529977
 30
0.0
 11
9591.5687300813825
 21
401574.30792451068
 31
0.0
  0
CIRCLE
  5
64F1E
  8
S-OBRYS
  6
CONTINUOUS
 10
8666.9792616914365
 20
400855.74385990528
 30
0.0
 40
195.0
  0
LINE
  5
64F1F
  8
S-OBRYS
  6
CONTINUOUS
 10
7467.7056628128603
 20
405141.76473456481
 30
0.0
 11
7802.5421605706606
 21
405481.32643171953
 31
0.0
  0
LINE
  5
64F20
  8
S-OBRYS
  6
CONTINUOUS
 10
7467.7056628128603
 20
405141.76473456481
 30
0.0
 11
7887.5421605706551
 21
405141.76473456481
 31
0.0
  0
ARC
  5
64F21
  8
S-OBRYS
  6
CONTINUOUS
 10
7645.1387742688748
 20
405090.85097355279
 30
0.0
 40
50.0
 50
0.0
 51
90.0
  0
LINE
  5
64F22
  8
S-OBRYS
  6
CONTINUOUS
 10
7695.1387742688748
 20
404730.85097355279
 30
0.0
 11
8134.454733727237
 21
404730.85097355279
 31
0.0
  0
ARC
  5
64F23
  8
S-OBRYS
  6
CONTINUOUS
 10
7645.1387742688748
 20
404730.85097355279
 30
0.0
 40
50.0
 50
270.0
 51
0.0
  0
LINE
  5
64F24
  8
S-OBRYS
  6
CONTINUOUS
 10
7469.1387742688739
 20
405090.85097355279
 30
0.0
 11
7469.1387742688739
 21
404730.85097355279
 31
0.0
  0
LINE
  5
64F25
  8
S-OBRYS
  6
CONTINUOUS
 10
7695.1387742688748
 20
405090.85097355279
 30
0.0
 11
7695.1387742688748
 21
404730.85097355279
 31
0.0
  0
LINE
  5
64F26
  8
S-OBRYS
  6
CONTINUOUS
 10
7581.6194960822677
 20
405172.02807185968
 30
0.0
 11
7581.6194960822677
 21
404596.36230799661
 31
0.0
  0
LINE
  5
64F27
  8
S-OBRYS
  6
CONTINUOUS
 10
7645.1387742688748
 20
404680.85097355267
 30
0.0
 11
7519.1387742688739
 21
404680.85097355267
 31
0.0
  0
ARC
  5
64F28
  8
S-OBRYS
  6
CONTINUOUS
 10
7519.1387742688739
 20
404730.85097355279
 30
0.0
 40
50.0
 50
180.0
 51
270.0
  0
LINE
  5
64F29
  8
S-OBRYS
  6
CONTINUOUS
 10
7645.1387742688748
 20
405140.85097355279
 30
0.0
 11
7519.1387742688739
 21
405140.85097355279
 31
0.0
  0
ARC
  5
64F2A
  8
S-OBRYS
  6
CONTINUOUS
 10
7519.1387742688739
 20
405090.85097355279
 30
0.0
 40
50.0
 50
90.0
 51
180.0
  0
LINE
  5
64F2B
  8
S-OBRYS
  6
CONTINUOUS
 10
9087.5421605706615
 20
404707.30642057111
 30
0.0
 11
8832.5421605706651
 21
404262.30642057111
 31
0.0
  0
LINE
  5
64F2C
  8
S-OBRYS
  6
CONTINUOUS
 10
7887.5421605706551
 20
405052.638144158
 30
0.0
 11
9387.5421605706724
 21
405052.638144158
 31
0.0
  0
LINE
  5
64F2D
  8
S-OBRYS
  6
CONTINUOUS
 10
7887.5421605706551
 20
405012.63814415789
 30
0.0
 11
9387.5421605706724
 21
405012.63814415789
 31
0.0
  0
LINE
  5
64F2E
  8
S-OBRYS
  6
CONTINUOUS
 10
7757.5421605706624
 20
405481.32643171953
 30
0.0
 11
9517.5421605706615
 21
405481.32643171953
 31
0.0
  0
LINE
  5
64F2F
  8
S-OBRYS
  6
CONTINUOUS
 10
8187.5421605706706
 20
404707.30642057111
 30
0.0
 11
9087.5421605706615
 21
404707.30642057111
 31
0.0
  0
LINE
  5
64F30
  8
S-OBRYS
  6
CONTINUOUS
 10
8187.5421605706633
 20
404707.30642057111
 30
0.0
 11
8442.5421605706651
 21
404262.30642057111
 31
0.0
  0
LINE
  5
64F31
  8
S-OBRYS
  6
CONTINUOUS
 10
8637.5421605706615
 20
405565.88221354841
 30
0.0
 11
8637.5421605706615
 21
404208.91696419113
 31
0.0
  0
LINE
  5
64F32
  8
S-OBRYS
  6
CONTINUOUS
 10
8397.5421605706615
 20
404262.30642057111
 30
0.0
 11
8877.5421605706597
 21
404262.30642057111
 31
0.0
  0
LINE
  5
64F33
  8
S-OBRYS
  6
CONTINUOUS
 10
7802.5421605706606
 20
405481.32643171953
 30
0.0
 11
7909.8525691004261
 21
405052.638144158
 31
0.0
  0
ARC
  5
64F34
  8
S-OBRYS
  6
CONTINUOUS
 10
8122.8292771810384
 20
404993.95953411679
 30
0.0
 40
236.0273664554544
 50
175.4610104386247
 51
243.8344699441102
  0
LINE
  5
64F35
  8
S-OBRYS
  6
CONTINUOUS
 10
7785.1019011476119
 20
405172.02807185968
 30
0.0
 11
7785.1019011476119
 21
404669.01067659952
 31
0.0
  0
LINE
  5
64F36
  8
S-OBRYS
  6
CONTINUOUS
 10
7887.5421605706551
 20
405012.63814415789
 30
0.0
 11
7887.5421605706551
 21
405136.32643171953
 31
0.0
  0
LINE
  5
64F37
  8
S-OBRYS
  6
CONTINUOUS
 10
8187.5421605706633
 20
404707.30642057111
 30
0.0
 11
8016.6609317544207
 21
404783.0931441827
 31
0.0
  0
LINE
  5
64F38
  8
S-OBRYS
  6
CONTINUOUS
 10
7782.5421605706624
 20
405526.60945016303
 30
0.0
 11
7782.5421605706624
 21
405433.83066548238
 31
0.0
  0
LINE
  5
64F39
  8
S-OBRYS
  6
CONTINUOUS
 10
9807.3786583284655
 20
405141.76473456481
 30
0.0
 11
9387.5421605706724
 21
405141.76473456481
 31
0.0
  0
LINE
  5
64F3A
  8
S-OBRYS
  6
CONTINUOUS
 10
9807.3786583284655
 20
405141.76473456481
 30
0.0
 11
9472.5421605706615
 21
405481.32643171953
 31
0.0
  0
LINE
  5
64F3B
  8
S-OBRYS
  6
CONTINUOUS
 10
9387.5421605706724
 20
405076.6395903501
 30
0.0
 11
9592.4226794167535
 21
405076.6395903501
 31
0.0
  0
LINE
  5
64F3C
  8
S-OBRYS
  6
CONTINUOUS
 10
9743.5227504022296
 20
404745.09077930509
 30
0.0
 11
9381.167165939034
 21
404936.44294410071
 31
0.0
  0
LINE
  5
64F3D
  8
S-OBRYS
  6
CONTINUOUS
 10
9404.1873735636691
 20
404677.89233927138
 30
0.0
 11
9575.7774664237568
 21
404677.89233927138
 31
0.0
  0
LINE
  5
64F3E
  8
S-OBRYS
  6
CONTINUOUS
 10
9387.5421605706724
 20
404707.35642393923
 30
0.0
 11
9592.4226794167535
 21
404707.35642393923
 31
0.0
  0
LINE
  5
64F3F
  8
S-OBRYS
  6
CONTINUOUS
 10
9743.5227504022296
 20
404745.09077930509
 30
0.0
 11
9172.7369987008115
 21
404745.09077930509
 31
0.0
  0
LINE
  5
64F40
  8
S-OBRYS
  6
CONTINUOUS
 10
9365.2317520409015
 20
405052.638144158
 30
0.0
 11
9472.5421605706615
 21
405481.32643171953
 31
0.0
  0
LINE
  5
64F41
  8
S-OBRYS
  6
CONTINUOUS
 10
9087.5421605706615
 20
404707.30642057111
 30
0.0
 11
9258.4233893869023
 21
404783.0931441827
 31
0.0
  0
ARC
  5
64F42
  8
S-OBRYS
  6
CONTINUOUS
 10
9152.2550439602855
 20
404993.95953411679
 30
0.0
 40
236.0273664554544
 50
296.1655300558898
 51
4.5389895613752991
  0
LINE
  5
64F43
  8
S-OBRYS
  6
CONTINUOUS
 10
9489.9824199937138
 20
405172.02807185968
 30
0.0
 11
9489.9824199937138
 21
404640.5308585653
 31
0.0
  0
LINE
  5
64F44
  8
S-OBRYS
  6
CONTINUOUS
 10
9387.5421605706724
 20
405141.76473456481
 30
0.0
 11
9387.5421605706724
 21
405076.6395903501
 31
0.0
  0
LINE
  5
64F45
  8
S-OBRYS
  6
CONTINUOUS
 10
9387.5421605706724
 20
405012.63814415789
 30
0.0
 11
9387.5421605706724
 21
405136.32643171953
 31
0.0
  0
LINE
  5
64F46
  8
S-OBRYS
  6
CONTINUOUS
 10
9508.5759972777814
 20
405031.46133521898
 30
0.0
 11
9508.5759972777814
 21
404869.16108965687
 31
0.0
  0
LINE
  5
64F47
  8
S-OBRYS
  6
CONTINUOUS
 10
9473.925681216082
 20
405031.46133521898
 30
0.0
 11
9473.925681216082
 21
404887.45917384152
 31
0.0
  0
LINE
  5
64F48
  8
S-OBRYS
  6
CONTINUOUS
 10
9415.5109136842802
 20
405031.46133521898
 30
0.0
 11
9566.8687675467227
 21
405031.46133521898
 31
0.0
  0
LINE
  5
64F49
  8
S-OBRYS
  6
CONTINUOUS
 10
9415.5109136842802
 20
405076.6395903501
 30
0.0
 11
9415.5109136842802
 21
405031.46133521898
 31
0.0
  0
LINE
  5
64F4A
  8
S-OBRYS
  6
CONTINUOUS
 10
9415.5109136842802
 20
405076.6395903501
 30
0.0
 11
9415.5109136842802
 21
405031.46133521898
 31
0.0
  0
LINE
  5
64F4B
  8
S-OBRYS
  6
CONTINUOUS
 10
9566.8687675467227
 20
405031.46133521898
 30
0.0
 11
9566.8687675467227
 21
405076.6395903501
 31
0.0
  0
LINE
  5
64F4C
  8
S-OBRYS
  6
CONTINUOUS
 10
9492.5421605706615
 20
405526.36579498212
 30
0.0
 11
9492.5421605706615
 21
405433.83066548238
 31
0.0
  0
LINE
  5
64F4D
  8
S-OBRYS
  6
CONTINUOUS
 10
9592.4226794167535
 20
404707.35642393923
 30
0.0
 11
9575.7774664237568
 21
404677.89233927138
 31
0.0
  0
LINE
  5
64F4E
  8
S-OBRYS
  6
CONTINUOUS
 10
9592.4226794167535
 20
404707.35642393923
 30
0.0
 11
9592.4226794167535
 21
404745.09077930509
 31
0.0
  0
LINE
  5
64F4F
  8
S-OBRYS
  6
CONTINUOUS
 10
9592.4226794167535
 20
405076.6395903501
 30
0.0
 11
9592.4226794167535
 21
405141.76473456481
 31
0.0
  0
LINE
  5
64F50
  8
S-OBRYS
  6
CONTINUOUS
 10
9387.5421605706724
 20
404745.09077930509
 30
0.0
 11
9387.5421605706724
 21
404707.35642393923
 31
0.0
  0
LINE
  5
64F51
  8
S-OBRYS
  6
CONTINUOUS
 10
9387.5421605706724
 20
404707.35642393923
 30
0.0
 11
9404.1873735636691
 21
404677.89233927138
 31
0.0
  0
LINE
  5
64F52
  8
S-OBRYS
  6
CONTINUOUS
 10
9387.5421605706724
 20
404707.35642393923
 30
0.0
 11
9404.1873735636691
 21
404677.89233927138
 31
0.0
  0
DIMENSION
  5
64F53
  8
S-OBRYS
  6
CONTINUOUS
  2
*D13
 10
8832.5421605706651
 20
403911.0058552273
 30
0.0
 11
8637.5421605706651
 21
403986.0058552273
 31
0.0
 70
     0
 13
8442.5421605706651
 23
404262.30642057111
 33
0.0
 14
8832.5421605706651
 24
404262.30642057111
 34
0.0
  0
INSERT
  5
64F54
  8
S-OBRYS
  6
CONTINUOUS
  2
*U34
 10
0.0
 20
0.0
 30
0.0
  0
DIMENSION
  5
64F55
  8
S-OBRYS
  6
CONTINUOUS
  2
*D14
 10
9387.5421605706724
 20
404420.4471263336
 30
0.0
 11
9167.7186223399185
 21
404420.4471263336
 31
0.0
 70
   128
 13
7887.5421605706551
 23
405012.63814415789
 33
0.0
 14
9387.5421605706724
 24
405052.638144158
 34
0.0
  0
DIMENSION
  5
64F56
  8
S-OBRYS
  6
CONTINUOUS
  2
*D15
 10
8181.1933974912099
 20
401534.89000886591
 30
0.0
 11
7963.5637959964233
 21
401837.95479103568
 31
0.0
 70
   129
 13
9154.0228303293188
 23
400177.50086344418
 33
0.0
 14
8179.9356930535469
 24
401533.98685636627
 34
0.0
  0
DIMENSION
  5
64F57
  8
S-OBRYS
  6
CONTINUOUS
  2
*D16
 10
9171.2515759830694
 20
401576.96497701481
 30
0.0
 11
9355.3381420403311
 21
401835.77529995871
 31
0.0
 70
   129
 13
8156.9179713114127
 23
400138.6403248033
 33
0.0
 14
9177.040552071463
 24
401572.84739500732
 34
0.0
  0
DIMENSION
  5
64F58
  8
S-OBRYS
  6
CONTINUOUS
  2
*D17
 10
7469.1387742688739
 20
404095.80755749228
 30
0.0
 11
8053.3404674197691
 21
404170.80755749228
 31
0.0
 70
     0
  1
1168
 13
8637.5421605706615
 23
404208.91696419113
 33
0.0
 14
7469.1387742688739
 24
404910.85097355267
 34
0.0
  0
DIMENSION
  5
64F59
  8
S-OBRYS
  6
CONTINUOUS
  2
*D18
 10
9994.6487652400974
 20
404262.30642057111
 30
0.0
 11
9919.6487652400338
 21
404871.81642614532
 31
0.0
 70
     0
  1
1267
 13
9517.5421605706615
 23
405481.32643171953
 33
0.0
 14
8877.5421605706597
 24
404262.30642057111
 34
0.0
 50
90.0
  0
DIMENSION
  5
64F5A
  8
S-OBRYS
  6
CONTINUOUS
  2
*D19
 10
7757.5421605706624
 20
406041.7013988205
 30
0.0
 11
8637.5421605706615
 21
406116.7013988205
 31
0.0
 70
     0
 13
9517.5421605706615
 23
405481.32643171953
 33
0.0
 14
7757.5421605706624
 24
405481.32643171953
 34
0.0
  0
DIMENSION
  5
64F5B
  8
S-OBRYS
  6
CONTINUOUS
  2
*D20
 10
9472.5421605706615
 20
405757.39446759142
 30
0.0
 11
8637.5421605706615
 21
405832.39446759142
 31
0.0
 70
     0
 13
7802.5421605706606
 23
405481.32643171953
 33
0.0
 14
9472.5421605706615
 24
405481.32643171953
 34
0.0
  0
DIMENSION
  5
64F5C
  8
S-OBRYS
  6
CONTINUOUS
  2
*D21
 10
10000.12327613181
 20
401440.68282937031
 30
0.0
 11
9985.0751814156847
 21
401616.74689397583
 31
0.0
 70
     1
 13
9591.5687300813825
 23
401574.30792451068
 33
0.0
 14
9751.5687300814025
 24
401297.17979529989
 34
0.0
  0
DIMENSION
  5
64F5D
  8
S-OBRYS
  6
CONTINUOUS
  2
*D22
 10
9640.0419207231171
 20
400855.74385990528
 30
0.0
 11
7283.9056071220984
 21
401221.88865030248
 31
0.0
 70
     2
  1
30°
 13
7597.545867341003
 23
401466.47321631951
 33
0.0
 14
8095.3969301700754
 24
401189.79603534308
 34
0.0
 15
6715.0486607318744
 25
400855.74385990528
 35
0.0
 16
7390.6201019696591
 26
401314.97744897712
 36
0.0
1001
ACAD
1000
DSTYLE
1002
{
1070
   271
1070
     0
1002
}
  0
DIMENSION
  5
64F5E
  8
S-OBRYS
  6
CONTINUOUS
  2
*D12
 10
10310.603709102341
 20
400328.90280842729
 30
0.0
 11
9268.5142407123931
 21
399813.85471371107
 31
0.0
 70
     1
  1
2332
 13
7742.3897933014932
 23
400137.17979529977
 33
0.0
 14
9751.5687300813952
 24
401297.17979529977
 34
0.0
  0
VIEWPORT
  5
1FAB5
 67
     1
  8
0
  6
ČERCHOVANÁ
 10
12.669026204836801
 20
9.4585013259736659
 30
0.0
 40
41.707206501782828
 41
24.2248555085413
 68
     1
 69
     1
1001
ACAD
1000
MVIEW
1002
{
1070
    16
1010
0.0
1020
0.0
1030
0.0
1010
0.0
1020
0.0
1030
1.0
1040
0.0
1040
24.2248555085413
1040
12.669026204836801
1040
9.4585013259736659
1040
50.0
1040
0.0
1040
0.0
1070
     0
1070
   100
1070
     1
1070
     1
1070
     0
1070
     0
1070
     0
1070
     0
1040
0.0
1040
0.0
1040
0.0
1040
10.0
1040
10.0
1040
10.0
1040
10.0
1070
     0
1002
{
1002
}
1002
}
  0
VIEWPORT
  5
1FAB7
 67
     1
  8
2-VZT
  6
ČERCHOVANÁ
 10
5.24999976158142
 20
3.99999976158142
 30
0.0
 40
8.3999996185302717
 41
6.3999996185302717
 68
     2
 69
     2
1001
ACAD
1000
MVIEW
1002
{
1070
    16
1010
0.0
1020
0.0
1030
0.0
1010
0.0
1020
0.0
1030
1.0
1040
0.0
1040
517776.44812413253
1040
-335493.7046016907
1040
-205251.99203018961
1040
50.0
1040
0.0
1040
0.0
1070
     0
1070
   100
1070
     1
1070
     0
1070
     0
1070
     0
1070
     0
1070
     0
1040
0.0
1040
0.0
1040
0.0
1040
1.0
1040
1.0
1040
1.0
1040
1.0
1070
     0
1002
{
1002
}
1002
}
  0
ENDSEC
  0
EOF
