  0
SECTION
  2
HEADER
  9
$ACADVER
  1
AC1009
  9
$INSBASE
 10
0.0
 20
0.0
 30
0.0
  9
$EXTMIN
 10
42238.344302864738
 20
401942.64677707822
 30
0.0
  9
$EXTMAX
 10
53772.729290413226
 20
409367.64677707822
 30
0.0
  9
$LIMMIN
 10
-127022.6804658414
 20
-67144.462473645661
  9
$LIMMAX
 10
-873.19720690528334
 20
6755.1563308572058
  9
$ORTHOMODE
 70
     1
  9
$REGENMODE
 70
     1
  9
$FILLMODE
 70
     1
  9
$QTEXTMODE
 70
     0
  9
$MIRRTEXT
 70
     0
  9
$DRAGMODE
 70
     2
  9
$LTSCALE
 40
50.0
  9
$OSMODE
 70
   679
  9
$ATTMODE
 70
     1
  9
$TEXTSIZE
 40
200.0
  9
$TRACEWID
 40
10.0
  9
$TEXTSTYLE
  7
R
  9
$CLAYER
  8
S-OBRYS
  9
$CELTYPE
  6
CONTINUOUS
  9
$CECOLOR
 62
   256
  9
$DIMSCALE
 40
50.0
  9
$DIMASZ
 40
2.0
  9
$DIMEXO
 40
0.063
  9
$DIMDLI
 40
5.0
  9
$DIMRND
 40
0.0
  9
$DIMDLE
 40
0.0
  9
$DIMEXE
 40
0.2
  9
$DIMTP
 40
0.0
  9
$DIMTM
 40
0.0
  9
$DIMTXT
 40
2.0
  9
$DIMCEN
 40
2.0
  9
$DIMTSZ
 40
0.0
  9
$DIMTOL
 70
     0
  9
$DIMLIM
 70
     0
  9
$DIMTIH
 70
     0
  9
$DIMTOH
 70
     0
  9
$DIMSE1
 70
     0
  9
$DIMSE2
 70
     0
  9
$DIMTAD
 70
     1
  9
$DIMZIN
 70
    12
  9
$DIMBLK
  1

  9
$DIMASO
 70
     1
  9
$DIMSHO
 70
     0
  9
$DIMPOST
  1

  9
$DIMAPOST
  1

  9
$DIMALT
 70
     0
  9
$DIMALTD
 70
     2
  9
$DIMALTF
 40
25.399999999999999
  9
$DIMLFAC
 40
1.0
  9
$DIMTOFL
 70
     1
  9
$DIMTVP
 40
0.0
  9
$DIMTIX
 70
     0
  9
$DIMSOXD
 70
     0
  9
$DIMSAH
 70
     1
  9
$DIMBLK1
  1
OPEN
  9
$DIMBLK2
  1
OPEN
  9
$DIMSTYLE
  2
EMBABA
  9
$DIMCLRD
 70
     0
  9
$DIMCLRE
 70
     0
  9
$DIMCLRT
 70
     7
  9
$DIMTFAC
 40
1.0
  9
$DIMGAP
 40
0.5
  9
$LUNITS
 70
     2
  9
$LUPREC
 70
     0
  9
$SKETCHINC
 40
10.0
  9
$FILLETRAD
 40
400.0
  9
$AUNITS
 70
     0
  9
$AUPREC
 70
     4
  9
$MENU
  1
ACAD
  9
$ELEVATION
 40
0.0
  9
$PELEVATION
 40
0.0
  9
$THICKNESS
 40
0.0
  9
$LIMCHECK
 70
     0
  9
$BLIPMODE
 70
     0
  9
$CHAMFERA
 40
0.0
  9
$CHAMFERB
 40
0.0
  9
$SKPOLY
 70
     0
  9
$TDCREATE
 40
2450205.720229167
  9
$TDUPDATE
 40
2453552.4502240629
  9
$TDINDWG
 40
42.623048796299997
  9
$TDUSRTIMER
 40
42.623048796299997
  9
$USRTIMER
 70
     1
  9
$ANGBASE
 50
0.0
  9
$ANGDIR
 70
     0
  9
$PDMODE
 70
     2
  9
$PDSIZE
 40
-5.0
  9
$PLINEWID
 40
0.0
  9
$COORDS
 70
     0
  9
$SPLFRAME
 70
     0
  9
$SPLINETYPE
 70
     6
  9
$SPLINESEGS
 70
     8
  9
$ATTDIA
 70
     0
  9
$ATTREQ
 70
     1
  9
$HANDLING
 70
     1
  9
$HANDSEED
  5
674D8
  9
$SURFTAB1
 70
    18
  9
$SURFTAB2
 70
    18
  9
$SURFTYPE
 70
     6
  9
$SURFU
 70
    18
  9
$SURFV
 70
    18
  9
$UCSNAME
  2

  9
$UCSORG
 10
0.0
 20
0.0
 30
0.0
  9
$UCSXDIR
 10
1.0
 20
0.0
 30
0.0
  9
$UCSYDIR
 10
0.0
 20
1.0
 30
0.0
  9
$PUCSNAME
  2

  9
$PUCSORG
 10
0.0
 20
0.0
 30
0.0
  9
$PUCSXDIR
 10
1.0
 20
0.0
 30
0.0
  9
$PUCSYDIR
 10
0.0
 20
1.0
 30
0.0
  9
$USERI1
 70
     0
  9
$USERI2
 70
     0
  9
$USERI3
 70
     0
  9
$USERI4
 70
     0
  9
$USERI5
 70
     0
  9
$USERR1
 40
0.0
  9
$USERR2
 40
50.0
  9
$USERR3
 40
0.0
  9
$USERR4
 40
0.0
  9
$USERR5
 40
0.0
  9
$WORLDVIEW
 70
     1
  9
$SHADEDGE
 70
     3
  9
$SHADEDIF
 70
    70
  9
$TILEMODE
 70
     1
  9
$MAXACTVP
 70
    16
  9
$PLIMCHECK
 70
     0
  9
$PEXTMIN
 10
1.049999952316284
 20
0.7999999523162842
 30
0.0
  9
$PEXTMAX
 10
9.4499995708465558
 20
7.1999995708465558
 30
0.0
  9
$PLIMMIN
 10
-0.2500002402958907
 20
-0.2499999962453767
  9
$PLIMMAX
 10
10.74999951940821
 20
8.2499997634587316
  9
$UNITMODE
 70
     0
  9
$VISRETAIN
 70
     0
  9
$PLINEGEN
 70
     0
  9
$PSLTSCALE
 70
     1
  0
ENDSEC
  0
SECTION
  2
TABLES
  0
TABLE
  2
VPORT
 70
     6
  0
VPORT
  2
*ACTIVE
 70
     0
 10
0.0
 20
0.0
 11
1.0
 21
1.0
 12
52880.570820373629
 22
405547.62655372749
 13
0.0
 23
0.0
 14
1.0
 24
1.0
 15
1.0
 25
1.0
 16
0.0
 26
0.0
 36
1.0
 17
0.0
 27
0.0
 37
0.0
 40
14773.22253760889
 41
1.6116303219106951
 42
50.0
 43
0.0
 44
0.0
 50
0.0
 51
0.0
 71
     0
 72
   100
 73
     1
 74
     0
 75
     0
 76
     1
 77
     0
 78
     0
  0
ENDTAB
  0
TABLE
  2
LTYPE
 70
    13
  0
LTYPE
  2
CONTINUOUS
 70
     0
  3
Solid line
 72
    65
 73
     0
 40
0.0
  0
LTYPE
  2
ČERCHOVANÁ
 70
     0
  3
Čerchovaná __ . __ . __ . __ . __ . __ . __ . _
 72
    65
 73
     4
 40
1.0
 49
0.5
 49
-0.25
 49
0.0
 49
-0.25
  0
ENDTAB
  0
TABLE
  2
LAYER
 70
    37
  0
LAYER
  2
0
 70
     0
 62
     7
  6
CONTINUOUS
  0
LAYER
  2
RAZ
 70
     0
 62
     7
  6
CONTINUOUS
  0
LAYER
  2
KOTY
 70
     0
 62
     2
  6
CONTINUOUS
  0
LAYER
  2
DEFPOINTS
 70
     0
 62
     7
  6
CONTINUOUS
  0
LAYER
  2
2-VZT
 70
     0
 62
     4
  6
CONTINUOUS
  0
LAYER
  2
OBRYS
 70
     0
 62
     7
  6
CONTINUOUS
  0
LAYER
  2
S-OBRYS
 70
     0
 62
     7
  6
CONTINUOUS
  0
ENDTAB
  0
TABLE
  2
STYLE
 70
    11
  0
STYLE
  2
STANDARD
 70
     0
 40
0.0
 41
0.8
 50
0.0
 71
     0
 42
200.0
  3
ROMANS.SHX
  4

  0
STYLE
  2
R
 70
     0
 40
0.0
 41
1.0
 50
0.0
 71
     0
 42
200.0
  3
romans.shx
  4

  0
STYLE
  2
ROMANS
 70
     0
 40
0.0
 41
0.8
 50
0.0
 71
     0
 42
300.0
  3
ROMANS.shx
  4

  0
STYLE
  2
R08
 70
     0
 40
0.0
 41
0.8
 50
0.0
 71
     0
 42
800.0
  3
ROMANS.shx
  4

  0
STYLE
  2
ROMANT
 70
     0
 40
0.0
 41
0.7
 50
0.0
 71
     0
 42
3.0
  3
romant
  4

  0
STYLE
  2
CYRILLIC
 70
     0
 40
2.2999999999999989
 41
0.7
 50
0.0
 71
     0
 42
2.2999999999999989
  3
cyrillic
  4

  0
ENDTAB
  0
TABLE
  2
VIEW
 70
     0
  0
ENDTAB
  0
TABLE
  2
UCS
 70
     0
  0
ENDTAB
  0
TABLE
  2
APPID
 70
     6
  0
APPID
  2
ACAD
 70
     0
  0
APPID
  2
PHOENIX7010
 70
     0
  0
APPID
  2
CONTENTBLOCKICON
 70
     0
  0
APPID
  2
CONTENTLONGBLOCKNAME
 70
     0
  0
APPID
  2
ACAD_DSTYLE_DIMTEXT_FILL
 70
     0
  0
APPID
  2
DCO15
 70
     0
  0
ENDTAB
  0
TABLE
  2
DIMSTYLE
 70
     9
  0
DIMSTYLE
  2
STANDARD
 70
     0
  3

  4

  5

  6
OPEN
  7
OPEN
 40
1.0
 41
80.0
 42
1.0
 43
0.0
 44
1.0
 45
0.0
 46
0.8
 47
0.0
 48
0.0
140
70.0
141
-3.0
142
0.0
143
0.0394
144
1.0
145
1.0
146
0.5
147
1.0
 71
     0
 72
     0
 73
     0
 74
     0
 75
     0
 76
     0
 77
     0
 78
     8
170
     0
171
     2
172
     1
173
     1
174
     0
175
     0
176
     7
177
     7
178
     2
  0
DIMSTYLE
  2
EMBABA
 70
     0
  3

  4

  5

  6
OPEN
  7
OPEN
 40
50.0
 41
2.0
 42
0.063
 43
5.0
 44
0.2
 45
0.0
 46
0.0
 47
0.0
 48
0.0
140
2.0
141
2.0
142
0.0
143
25.399999999999999
144
1.0
145
0.0
146
1.0
147
0.5
 71
     0
 72
     0
 73
     0
 74
     0
 75
     0
 76
     0
 77
     1
 78
    12
170
     0
171
     2
172
     1
173
     1
174
     0
175
     0
176
     0
177
     0
178
     7
  0
ENDTAB
  0
ENDSEC
  0
SECTION
  2
BLOCKS
  0
BLOCK
  8
0
  2
$MODEL_SPACE
 70
     0
 10
0.0
 20
0.0
 30
0.0
  3
$MODEL_SPACE
  1

  0
ENDBLK
  5
9
  8
0
  0
BLOCK
 67
     1
  8
0
  2
$PAPER_SPACE
 70
     0
 10
0.0
 20
0.0
 30
0.0
  3
$PAPER_SPACE
  1

  0
ENDBLK
  5
E
 67
     1
  8
0
  0
BLOCK
  8
0
  2
_OPEN
 70
     0
 10
0.0
 20
0.0
 30
0.0
  3
_OPEN
  1

  0
LINE
  5
28
  8
0
  6
BYBLOCK
 62
     0
 10
-1.0
 20
0.1666666666666666
 30
0.0
 11
0.0
 21
0.0
 31
0.0
  0
LINE
  5
29
  8
0
  6
BYBLOCK
 62
     0
 10
0.0
 20
0.0
 30
0.0
 11
-1.0
 21
-0.1666666666666666
 31
0.0
  0
LINE
  5
2A
  8
0
  6
BYBLOCK
 62
     0
 10
0.0
 20
0.0
 30
0.0
 11
-1.0
 21
0.0
 31
0.0
  0
ENDBLK
  5
2C
  8
0
  0
BLOCK
  8
0
  2
*D128
 70
     1
 10
0.0
 20
0.0
 30
0.0
  3
*D128
  1

  0
LINE
  5
66AB7
  8
S-OBRYS
  6
CONTINUOUS
 62
     0
 10
51124.360145211343
 20
407127.16412343847
 30
0.0
 11
51124.360145211343
 21
407245.11609872658
 31
0.0
  0
LINE
  5
66AB8
  8
S-OBRYS
  6
CONTINUOUS
 62
     0
 10
51244.360145211343
 20
407127.16412343847
 30
0.0
 11
51244.360145211343
 21
407245.11609872658
 31
0.0
  0
LINE
  5
66AB9
  8
S-OBRYS
  6
CONTINUOUS
 62
     0
 10
51024.360145211343
 20
407235.11609872658
 30
0.0
 11
50924.360145211343
 21
407235.11609872658
 31
0.0
  0
LINE
  5
66ABA
  8
S-OBRYS
  6
CONTINUOUS
 62
     0
 10
51344.360145211343
 20
407235.11609872658
 30
0.0
 11
51777.30109864087
 21
407235.11609872658
 31
0.0
  0
LINE
  5
66ABB
  8
S-OBRYS
  6
CONTINUOUS
 62
     0
 10
51124.360145211343
 20
407235.11609872658
 30
0.0
 11
51244.360145211343
 21
407235.11609872658
 31
0.0
  0
INSERT
  5
66ABC
  8
S-OBRYS
  6
CONTINUOUS
 62
     0
  2
_OPEN
 10
51124.360145211343
 20
407235.11609872658
 30
0.0
 41
100.0
 42
100.0
 43
100.0
  0
INSERT
  5
66ABD
  8
S-OBRYS
  6
CONTINUOUS
 62
     0
  2
_OPEN
 10
51244.360145211343
 20
407235.11609872658
 30
0.0
 41
100.0
 42
100.0
 43
100.0
 50
180.0
  0
INSERT
  5
66ABE
  8
S-OBRYS
  6
CONTINUOUS
  2
*U235
 10
0.0
 20
0.0
 30
0.0
  0
POINT
  5
66ABF
  8
DEFPOINTS
  6
CONTINUOUS
 62
     0
 10
51124.360145211343
 20
407124.01412343839
 30
0.0
  0
POINT
  5
66AC0
  8
DEFPOINTS
  6
CONTINUOUS
 62
     0
 10
51244.360145211343
 20
407124.01412343839
 30
0.0
  0
POINT
  5
66AC1
  8
DEFPOINTS
  6
CONTINUOUS
 62
     0
 10
51244.360145211343
 20
407235.11609872658
 30
0.0
  0
ENDBLK
  5
669D2
  8
0
  0
BLOCK
  8
0
  2
*D129
 70
     1
 10
0.0
 20
0.0
 30
0.0
  3
*D129
  1

  0
LINE
  5
66AC2
  8
S-OBRYS
  6
CONTINUOUS
 62
     0
 10
51076.360145211343
 20
407135.16412343847
 30
0.0
 11
51076.360145211343
 21
407404.69995376491
 31
0.0
  0
LINE
  5
66AC3
  8
S-OBRYS
  6
CONTINUOUS
 62
     0
 10
51292.360145211343
 20
407135.16412343847
 30
0.0
 11
51292.360145211343
 21
407404.69995376491
 31
0.0
  0
LINE
  5
66AC4
  8
S-OBRYS
  6
CONTINUOUS
 62
     0
 10
50976.360145211351
 20
407394.69995376491
 30
0.0
 11
50876.360145211343
 21
407394.69995376491
 31
0.0
  0
LINE
  5
66AC5
  8
S-OBRYS
  6
CONTINUOUS
 62
     0
 10
51392.360145211343
 20
407394.69995376491
 30
0.0
 11
51766.044052107958
 21
407394.69995376491
 31
0.0
  0
LINE
  5
66AC6
  8
S-OBRYS
  6
CONTINUOUS
 62
     0
 10
51076.360145211343
 20
407394.69995376491
 30
0.0
 11
51292.360145211343
 21
407394.69995376491
 31
0.0
  0
INSERT
  5
66AC7
  8
S-OBRYS
  6
CONTINUOUS
 62
     0
  2
_OPEN
 10
51076.360145211343
 20
407394.69995376491
 30
0.0
 41
100.0
 42
100.0
 43
100.0
  0
INSERT
  5
66AC8
  8
S-OBRYS
  6
CONTINUOUS
 62
     0
  2
_OPEN
 10
51292.360145211343
 20
407394.69995376491
 30
0.0
 41
100.0
 42
100.0
 43
100.0
 50
180.0
  0
INSERT
  5
66AC9
  8
S-OBRYS
  6
CONTINUOUS
  2
*U236
 10
0.0
 20
0.0
 30
0.0
  0
POINT
  5
66ACA
  8
DEFPOINTS
  6
CONTINUOUS
 62
     0
 10
51076.360145211343
 20
407132.01412343851
 30
0.0
  0
POINT
  5
66ACB
  8
DEFPOINTS
  6
CONTINUOUS
 62
     0
 10
51292.360145211343
 20
407132.01412343851
 30
0.0
  0
POINT
  5
66ACC
  8
DEFPOINTS
  6
CONTINUOUS
 62
     0
 10
51292.360145211343
 20
407394.69995376491
 30
0.0
  0
ENDBLK
  5
669E0
  8
0
  0
BLOCK
  8
0
  2
*D130
 70
     1
 10
0.0
 20
0.0
 30
0.0
  3
*D130
  1

  0
LINE
  5
66ACD
  8
S-OBRYS
  6
CONTINUOUS
 62
     0
 10
51483.510145211338
 20
406628.01412343839
 30
0.0
 11
51712.935101207091
 21
406628.01412343839
 31
0.0
  0
LINE
  5
66ACE
  8
S-OBRYS
  6
CONTINUOUS
 62
     0
 10
51523.510145211338
 20
405572.01412343839
 30
0.0
 11
51712.935101207091
 21
405572.01412343839
 31
0.0
  0
LINE
  5
66ACF
  8
S-OBRYS
  6
CONTINUOUS
 62
     0
 10
51702.935101207091
 20
406528.01412343839
 30
0.0
 11
51702.935101207091
 21
405672.01412343851
 31
0.0
  0
INSERT
  5
66AD0
  8
S-OBRYS
  6
CONTINUOUS
 62
     0
  2
_OPEN
 10
51702.935101207091
 20
406628.01412343839
 30
0.0
 41
100.0
 42
100.0
 43
100.0
 50
90.0
  0
INSERT
  5
66AD1
  8
S-OBRYS
  6
CONTINUOUS
 62
     0
  2
_OPEN
 10
51702.935101207091
 20
405572.01412343839
 30
0.0
 41
100.0
 42
100.0
 43
100.0
 50
270.0
  0
INSERT
  5
66AD2
  8
S-OBRYS
  6
CONTINUOUS
  2
*U237
 10
0.0
 20
0.0
 30
0.0
  0
POINT
  5
66AD3
  8
DEFPOINTS
  6
CONTINUOUS
 62
     0
 10
51480.360145211343
 20
406628.01412343839
 30
0.0
  0
POINT
  5
66AD4
  8
DEFPOINTS
  6
CONTINUOUS
 62
     0
 10
51520.360145211343
 20
405572.01412343839
 30
0.0
  0
POINT
  5
66AD5
  8
DEFPOINTS
  6
CONTINUOUS
 62
     0
 10
51702.935101207091
 20
405572.01412343839
 30
0.0
  0
ENDBLK
  5
669EC
  8
0
  0
BLOCK
  8
0
  2
*D131
 70
     1
 10
0.0
 20
0.0
 30
0.0
  3
*D131
  1

  0
LINE
  5
66AD6
  8
S-OBRYS
  6
CONTINUOUS
 62
     0
 10
51295.510145211338
 20
407132.01412343851
 30
0.0
 11
51960.752904354107
 21
407132.01412343851
 31
0.0
  0
LINE
  5
66AD7
  8
S-OBRYS
  6
CONTINUOUS
 62
     0
 10
51523.510145211338
 20
405572.01412343839
 30
0.0
 11
51960.752904354107
 21
405572.01412343839
 31
0.0
  0
LINE
  5
66AD8
  8
S-OBRYS
  6
CONTINUOUS
 62
     0
 10
51950.7529043541
 20
407032.01412343839
 30
0.0
 11
51950.7529043541
 21
405672.01412343851
 31
0.0
  0
INSERT
  5
66AD9
  8
S-OBRYS
  6
CONTINUOUS
 62
     0
  2
_OPEN
 10
51950.7529043541
 20
407132.01412343851
 30
0.0
 41
100.0
 42
100.0
 43
100.0
 50
90.0
  0
INSERT
  5
66ADA
  8
S-OBRYS
  6
CONTINUOUS
 62
     0
  2
_OPEN
 10
51950.7529043541
 20
405572.01412343839
 30
0.0
 41
100.0
 42
100.0
 43
100.0
 50
270.0
  0
INSERT
  5
66ADB
  8
S-OBRYS
  6
CONTINUOUS
  2
*U238
 10
0.0
 20
0.0
 30
0.0
  0
POINT
  5
66ADC
  8
DEFPOINTS
  6
CONTINUOUS
 62
     0
 10
51292.360145211343
 20
407132.01412343851
 30
0.0
  0
POINT
  5
66ADD
  8
DEFPOINTS
  6
CONTINUOUS
 62
     0
 10
51520.360145211343
 20
405572.01412343839
 30
0.0
  0
POINT
  5
66ADE
  8
DEFPOINTS
  6
CONTINUOUS
 62
     0
 10
51950.7529043541
 20
405572.01412343839
 30
0.0
  0
ENDBLK
  5
669F8
  8
0
  0
BLOCK
  8
0
  2
*D132
 70
     1
 10
0.0
 20
0.0
 30
0.0
  3
*D132
  1

  0
LINE
  5
66ADF
  8
S-OBRYS
  6
CONTINUOUS
 62
     0
 10
51100.360145211343
 20
405580.86412343843
 30
0.0
 11
51100.360145211343
 21
405185.2992037111
 31
0.0
  0
LINE
  5
66AE0
  8
S-OBRYS
  6
CONTINUOUS
 62
     0
 10
51268.360145211343
 20
405580.86412343843
 30
0.0
 11
51268.360145211343
 21
405185.2992037111
 31
0.0
  0
LINE
  5
66AE1
  8
S-OBRYS
  6
CONTINUOUS
 62
     0
 10
51000.360145211343
 20
405195.29920371121
 30
0.0
 11
50900.360145211343
 21
405195.29920371121
 31
0.0
  0
LINE
  5
66AE2
  8
S-OBRYS
  6
CONTINUOUS
 62
     0
 10
51368.360145211343
 20
405195.29920371121
 30
0.0
 11
51726.931573782771
 21
405195.29920371121
 31
0.0
  0
LINE
  5
66AE3
  8
S-OBRYS
  6
CONTINUOUS
 62
     0
 10
51100.360145211343
 20
405195.29920371121
 30
0.0
 11
51268.360145211343
 21
405195.29920371121
 31
0.0
  0
INSERT
  5
66AE4
  8
S-OBRYS
  6
CONTINUOUS
 62
     0
  2
_OPEN
 10
51100.360145211343
 20
405195.29920371121
 30
0.0
 41
100.0
 42
100.0
 43
100.0
  0
INSERT
  5
66AE5
  8
S-OBRYS
  6
CONTINUOUS
 62
     0
  2
_OPEN
 10
51268.360145211343
 20
405195.29920371121
 30
0.0
 41
100.0
 42
100.0
 43
100.0
 50
180.0
  0
INSERT
  5
66AE6
  8
S-OBRYS
  6
CONTINUOUS
  2
*U239
 10
0.0
 20
0.0
 30
0.0
  0
POINT
  5
66AE7
  8
DEFPOINTS
  6
CONTINUOUS
 62
     0
 10
51100.360145211343
 20
405584.01412343839
 30
0.0
  0
POINT
  5
66AE8
  8
DEFPOINTS
  6
CONTINUOUS
 62
     0
 10
51268.360145211343
 20
405584.01412343839
 30
0.0
  0
POINT
  5
66AE9
  8
DEFPOINTS
  6
CONTINUOUS
 62
     0
 10
51268.360145211343
 20
405195.29920371121
 30
0.0
  0
ENDBLK
  5
66A06
  8
0
  0
BLOCK
  8
0
  2
*D133
 70
     1
 10
0.0
 20
0.0
 30
0.0
  3
*D133
  1

  0
LINE
  5
66AEA
  8
S-OBRYS
  6
CONTINUOUS
 62
     0
 10
51108.360145211343
 20
405636.86412343831
 30
0.0
 11
51108.360145211343
 21
405367.3341622306
 31
0.0
  0
LINE
  5
66AEB
  8
S-OBRYS
  6
CONTINUOUS
 62
     0
 10
51260.3601452113
 20
405636.86412343843
 30
0.0
 11
51260.3601452113
 21
405367.3341622306
 31
0.0
  0
LINE
  5
66AEC
  8
S-OBRYS
  6
CONTINUOUS
 62
     0
 10
51008.360145211343
 20
405377.3341622306
 30
0.0
 11
50908.360145211343
 21
405377.3341622306
 31
0.0
  0
LINE
  5
66AED
  8
S-OBRYS
  6
CONTINUOUS
 62
     0
 10
51360.360145211293
 20
405377.3341622306
 30
0.0
 11
51718.93157378272
 21
405377.3341622306
 31
0.0
  0
LINE
  5
66AEE
  8
S-OBRYS
  6
CONTINUOUS
 62
     0
 10
51108.360145211343
 20
405377.3341622306
 30
0.0
 11
51260.3601452113
 21
405377.3341622306
 31
0.0
  0
INSERT
  5
66AEF
  8
S-OBRYS
  6
CONTINUOUS
 62
     0
  2
_OPEN
 10
51108.360145211343
 20
405377.3341622306
 30
0.0
 41
100.0
 42
100.0
 43
100.0
  0
INSERT
  5
66AF0
  8
S-OBRYS
  6
CONTINUOUS
 62
     0
  2
_OPEN
 10
51260.3601452113
 20
405377.3341622306
 30
0.0
 41
100.0
 42
100.0
 43
100.0
 50
180.0
  0
INSERT
  5
66AF1
  8
S-OBRYS
  6
CONTINUOUS
  2
*U240
 10
0.0
 20
0.0
 30
0.0
  0
POINT
  5
66AF2
  8
DEFPOINTS
  6
CONTINUOUS
 62
     0
 10
51108.360145211343
 20
405640.01412343828
 30
0.0
  0
POINT
  5
66AF3
  8
DEFPOINTS
  6
CONTINUOUS
 62
     0
 10
51260.3601452113
 20
405640.01412343839
 30
0.0
  0
POINT
  5
66AF4
  8
DEFPOINTS
  6
CONTINUOUS
 62
     0
 10
51260.3601452113
 20
405377.3341622306
 30
0.0
  0
ENDBLK
  5
66A14
  8
0
  0
BLOCK
  8
0
  2
*D134
 70
     1
 10
0.0
 20
0.0
 30
0.0
  3
*D134
  1

  0
LINE
  5
66AF5
  8
S-OBRYS
  6
CONTINUOUS
 62
     0
 10
51344.360145211343
 20
407007.16412343847
 30
0.0
 11
51344.360145211343
 21
407094.87421735958
 31
0.0
  0
LINE
  5
66AF6
  8
S-OBRYS
  6
CONTINUOUS
 62
     0
 10
51024.360145211343
 20
407007.16412343847
 30
0.0
 11
51024.360145211343
 21
407094.87421735958
 31
0.0
  0
LINE
  5
66AF7
  8
S-OBRYS
  6
CONTINUOUS
 62
     0
 10
51244.360145211343
 20
407084.8742173597
 30
0.0
 11
51124.360145211343
 21
407084.8742173597
 31
0.0
  0
LINE
  5
66AF8
  8
S-OBRYS
  6
CONTINUOUS
 62
     0
 10
51024.360145211343
 20
407084.8742173597
 30
0.0
 11
50604.421375129961
 21
407084.8742173597
 31
0.0
  0
INSERT
  5
66AF9
  8
S-OBRYS
  6
CONTINUOUS
 62
     0
  2
_OPEN
 10
51344.360145211343
 20
407084.8742173597
 30
0.0
 41
100.0
 42
100.0
 43
100.0
  0
INSERT
  5
66AFA
  8
S-OBRYS
  6
CONTINUOUS
 62
     0
  2
_OPEN
 10
51024.360145211343
 20
407084.8742173597
 30
0.0
 41
100.0
 42
100.0
 43
100.0
 50
180.0
  0
INSERT
  5
66AFB
  8
S-OBRYS
  6
CONTINUOUS
  2
*U241
 10
0.0
 20
0.0
 30
0.0
  0
POINT
  5
66AFC
  8
DEFPOINTS
  6
CONTINUOUS
 62
     0
 10
51344.360145211343
 20
407004.01412343839
 30
0.0
  0
POINT
  5
66AFD
  8
DEFPOINTS
  6
CONTINUOUS
 62
     0
 10
51024.360145211343
 20
407004.01412343839
 30
0.0
  0
POINT
  5
66AFE
  8
DEFPOINTS
  6
CONTINUOUS
 62
     0
 10
51024.360145211343
 20
407084.8742173597
 30
0.0
  0
ENDBLK
  5
66A21
  8
0
  0
BLOCK
  8
0
  2
*D135
 70
     1
 10
0.0
 20
0.0
 30
0.0
  3
*D135
  1

  0
LINE
  5
66AFF
  8
S-OBRYS
  6
CONTINUOUS
 62
     0
 10
51324.360145211343
 20
406855.16412343842
 30
0.0
 11
51324.360145211343
 21
406884.59731987893
 31
0.0
  0
LINE
  5
66B00
  8
S-OBRYS
  6
CONTINUOUS
 62
     0
 10
51044.360145211343
 20
406855.16412343842
 30
0.0
 11
51044.360145211343
 21
406884.59731987893
 31
0.0
  0
LINE
  5
66B01
  8
S-OBRYS
  6
CONTINUOUS
 62
     0
 10
51224.360145211343
 20
406874.59731987881
 30
0.0
 11
51144.360145211343
 21
406874.59731987881
 31
0.0
  0
LINE
  5
66B02
  8
S-OBRYS
  6
CONTINUOUS
 62
     0
 10
51044.360145211343
 20
406874.59731987881
 30
0.0
 11
50606.569583299839
 21
406874.59731987881
 31
0.0
  0
INSERT
  5
66B03
  8
S-OBRYS
  6
CONTINUOUS
 62
     0
  2
_OPEN
 10
51324.360145211343
 20
406874.59731987881
 30
0.0
 41
100.0
 42
100.0
 43
100.0
  0
INSERT
  5
66B04
  8
S-OBRYS
  6
CONTINUOUS
 62
     0
  2
_OPEN
 10
51044.360145211343
 20
406874.59731987881
 30
0.0
 41
100.0
 42
100.0
 43
100.0
 50
180.0
  0
INSERT
  5
66B05
  8
S-OBRYS
  6
CONTINUOUS
  2
*U242
 10
0.0
 20
0.0
 30
0.0
  0
POINT
  5
66B06
  8
DEFPOINTS
  6
CONTINUOUS
 62
     0
 10
51324.360145211343
 20
406852.01412343839
 30
0.0
  0
POINT
  5
66B07
  8
DEFPOINTS
  6
CONTINUOUS
 62
     0
 10
51044.360145211343
 20
406852.01412343839
 30
0.0
  0
POINT
  5
66B08
  8
DEFPOINTS
  6
CONTINUOUS
 62
     0
 10
51044.360145211343
 20
406874.59731987881
 30
0.0
  0
ENDBLK
  5
66A2E
  8
0
  0
BLOCK
  8
0
  2
*D136
 70
     1
 10
0.0
 20
0.0
 30
0.0
  3
*D136
  1

  0
LINE
  5
66B09
  8
S-OBRYS
  6
CONTINUOUS
 62
     0
 10
51280.360145211343
 20
406631.16412343842
 30
0.0
 11
51280.360145211343
 21
406712.94178604562
 31
0.0
  0
LINE
  5
66B0A
  8
S-OBRYS
  6
CONTINUOUS
 62
     0
 10
51088.360145211343
 20
406631.16412343842
 30
0.0
 11
51088.360145211343
 21
406712.94178604562
 31
0.0
  0
LINE
  5
66B0B
  8
S-OBRYS
  6
CONTINUOUS
 62
     0
 10
51380.360145211351
 20
406702.94178604562
 30
0.0
 11
51480.360145211343
 21
406702.94178604562
 31
0.0
  0
LINE
  5
66B0C
  8
S-OBRYS
  6
CONTINUOUS
 62
     0
 10
50988.360145211343
 20
406702.94178604562
 30
0.0
 11
50595.026811878008
 21
406702.94178604562
 31
0.0
  0
LINE
  5
66B0D
  8
S-OBRYS
  6
CONTINUOUS
 62
     0
 10
51280.360145211343
 20
406702.94178604562
 30
0.0
 11
51088.360145211343
 21
406702.94178604562
 31
0.0
  0
INSERT
  5
66B0E
  8
S-OBRYS
  6
CONTINUOUS
 62
     0
  2
_OPEN
 10
51280.360145211343
 20
406702.94178604562
 30
0.0
 41
100.0
 42
100.0
 43
100.0
 50
180.0
  0
INSERT
  5
66B0F
  8
S-OBRYS
  6
CONTINUOUS
 62
     0
  2
_OPEN
 10
51088.360145211343
 20
406702.94178604562
 30
0.0
 41
100.0
 42
100.0
 43
100.0
  0
INSERT
  5
66B10
  8
S-OBRYS
  6
CONTINUOUS
  2
*U243
 10
0.0
 20
0.0
 30
0.0
  0
POINT
  5
66B11
  8
DEFPOINTS
  6
CONTINUOUS
 62
     0
 10
51280.360145211343
 20
406628.01412343839
 30
0.0
  0
POINT
  5
66B12
  8
DEFPOINTS
  6
CONTINUOUS
 62
     0
 10
51088.360145211343
 20
406628.01412343839
 30
0.0
  0
POINT
  5
66B13
  8
DEFPOINTS
  6
CONTINUOUS
 62
     0
 10
51088.360145211343
 20
406702.94178604562
 30
0.0
  0
ENDBLK
  5
66A3C
  8
0
  0
BLOCK
  8
0
  2
*D137
 70
     1
 10
0.0
 20
0.0
 30
0.0
  3
*D137
  1

  0
LINE
  5
66B14
  8
S-OBRYS
  6
CONTINUOUS
 62
     0
 10
51344.360145211343
 20
406436.86412343843
 30
0.0
 11
51344.360145211343
 21
406243.17424745642
 31
0.0
  0
LINE
  5
66B15
  8
S-OBRYS
  6
CONTINUOUS
 62
     0
 10
51024.360145211343
 20
406436.86412343848
 30
0.0
 11
51024.360145211343
 21
406243.17424745642
 31
0.0
  0
LINE
  5
66B16
  8
S-OBRYS
  6
CONTINUOUS
 62
     0
 10
51244.360145211343
 20
406253.17424745642
 30
0.0
 11
51124.360145211343
 21
406253.17424745642
 31
0.0
  0
LINE
  5
66B17
  8
S-OBRYS
  6
CONTINUOUS
 62
     0
 10
51024.360145211343
 20
406253.17424745642
 30
0.0
 11
50534.205230615393
 21
406253.17424745642
 31
0.0
  0
INSERT
  5
66B18
  8
S-OBRYS
  6
CONTINUOUS
 62
     0
  2
_OPEN
 10
51344.360145211343
 20
406253.17424745642
 30
0.0
 41
100.0
 42
100.0
 43
100.0
  0
INSERT
  5
66B19
  8
S-OBRYS
  6
CONTINUOUS
 62
     0
  2
_OPEN
 10
51024.360145211343
 20
406253.17424745642
 30
0.0
 41
100.0
 42
100.0
 43
100.0
 50
180.0
  0
INSERT
  5
66B1A
  8
S-OBRYS
  6
CONTINUOUS
  2
*U244
 10
0.0
 20
0.0
 30
0.0
  0
POINT
  5
66B1B
  8
DEFPOINTS
  6
CONTINUOUS
 62
     0
 10
51344.360145211343
 20
406440.01412343851
 30
0.0
  0
POINT
  5
66B1C
  8
DEFPOINTS
  6
CONTINUOUS
 62
     0
 10
51024.360145211343
 20
406440.01412343851
 30
0.0
  0
POINT
  5
66B1D
  8
DEFPOINTS
  6
CONTINUOUS
 62
     0
 10
51024.360145211343
 20
406253.17424745642
 30
0.0
  0
ENDBLK
  5
66A49
  8
0
  0
BLOCK
  8
0
  2
*D138
 70
     1
 10
0.0
 20
0.0
 30
0.0
  3
*D138
  1

  0
LINE
  5
66B1E
  8
S-OBRYS
  6
CONTINUOUS
 62
     0
 10
50938.360145211343
 20
405978.11935857282
 30
0.0
 11
50938.360145211343
 21
406107.0388264815
 31
0.0
  0
LINE
  5
66B1F
  8
S-OBRYS
  6
CONTINUOUS
 62
     0
 10
50888.360145211343
 20
405978.11935857288
 30
0.0
 11
50888.360145211343
 21
406107.0388264815
 31
0.0
  0
LINE
  5
66B20
  8
S-OBRYS
  6
CONTINUOUS
 62
     0
 10
51038.360145211343
 20
406097.03882648161
 30
0.0
 11
51138.360145211343
 21
406097.03882648161
 31
0.0
  0
LINE
  5
66B21
  8
S-OBRYS
  6
CONTINUOUS
 62
     0
 10
50788.360145211343
 20
406097.03882648161
 30
0.0
 11
50541.217288068481
 21
406097.03882648161
 31
0.0
  0
LINE
  5
66B22
  8
S-OBRYS
  6
CONTINUOUS
 62
     0
 10
50938.360145211343
 20
406097.03882648161
 30
0.0
 11
50888.360145211343
 21
406097.03882648161
 31
0.0
  0
INSERT
  5
66B23
  8
S-OBRYS
  6
CONTINUOUS
 62
     0
  2
_OPEN
 10
50938.360145211343
 20
406097.03882648161
 30
0.0
 41
100.0
 42
100.0
 43
100.0
 50
180.0
  0
INSERT
  5
66B24
  8
S-OBRYS
  6
CONTINUOUS
 62
     0
  2
_OPEN
 10
50888.360145211343
 20
406097.03882648161
 30
0.0
 41
100.0
 42
100.0
 43
100.0
  0
INSERT
  5
66B25
  8
S-OBRYS
  6
CONTINUOUS
  2
*U245
 10
0.0
 20
0.0
 30
0.0
  0
POINT
  5
66B26
  8
DEFPOINTS
  6
CONTINUOUS
 62
     0
 10
50938.360145211343
 20
405974.96935857279
 30
0.0
  0
POINT
  5
66B27
  8
DEFPOINTS
  6
CONTINUOUS
 62
     0
 10
50888.360145211343
 20
405974.96935857291
 30
0.0
  0
POINT
  5
66B28
  8
DEFPOINTS
  6
CONTINUOUS
 62
     0
 10
50888.360145211343
 20
406097.03882648161
 30
0.0
  0
ENDBLK
  5
66A57
  8
0
  0
BLOCK
  8
0
  2
*D139
 70
     1
 10
0.0
 20
0.0
 30
0.0
  3
*D139
  1

  0
LINE
  5
66B29
  8
S-OBRYS
  6
CONTINUOUS
 62
     0
 10
51376.360145211343
 20
405896.86412343843
 30
0.0
 11
51376.360145211343
 21
405875.57344252057
 31
0.0
  0
LINE
  5
66B2A
  8
S-OBRYS
  6
CONTINUOUS
 62
     0
 10
50992.360145211343
 20
405896.86412343831
 30
0.0
 11
50992.360145211343
 21
405875.57344252057
 31
0.0
  0
LINE
  5
66B2B
  8
S-OBRYS
  6
CONTINUOUS
 62
     0
 10
51276.360145211343
 20
405885.57344252057
 30
0.0
 11
51092.360145211343
 21
405885.57344252057
 31
0.0
  0
LINE
  5
66B2C
  8
S-OBRYS
  6
CONTINUOUS
 62
     0
 10
50992.360145211343
 20
405885.57344252057
 30
0.0
 11
50571.210728776903
 21
405885.57344252057
 31
0.0
  0
INSERT
  5
66B2D
  8
S-OBRYS
  6
CONTINUOUS
 62
     0
  2
_OPEN
 10
51376.360145211343
 20
405885.57344252057
 30
0.0
 41
100.0
 42
100.0
 43
100.0
  0
INSERT
  5
66B2E
  8
S-OBRYS
  6
CONTINUOUS
 62
     0
  2
_OPEN
 10
50992.360145211343
 20
405885.57344252057
 30
0.0
 41
100.0
 42
100.0
 43
100.0
 50
180.0
  0
INSERT
  5
66B2F
  8
S-OBRYS
  6
CONTINUOUS
  2
*U246
 10
0.0
 20
0.0
 30
0.0
  0
POINT
  5
66B30
  8
DEFPOINTS
  6
CONTINUOUS
 62
     0
 10
51376.360145211343
 20
405900.01412343839
 30
0.0
  0
POINT
  5
66B31
  8
DEFPOINTS
  6
CONTINUOUS
 62
     0
 10
50992.360145211343
 20
405900.01412343839
 30
0.0
  0
POINT
  5
66B32
  8
DEFPOINTS
  6
CONTINUOUS
 62
     0
 10
50992.360145211343
 20
405885.57344252057
 30
0.0
  0
ENDBLK
  5
66A64
  8
0
  0
BLOCK
  8
0
  2
*D140
 70
     1
 10
0.0
 20
0.0
 30
0.0
  3
*D140
  1

  0
LINE
  5
66B33
  8
S-OBRYS
  6
CONTINUOUS
 62
     0
 10
50882.587140027987
 20
404484.89370785368
 30
0.0
 11
50882.587140027987
 21
404634.65964934282
 31
0.0
  0
LINE
  5
66B34
  8
S-OBRYS
  6
CONTINUOUS
 62
     0
 10
51482.587140027987
 20
404484.89370785368
 30
0.0
 11
51482.587140027987
 21
404634.65964934282
 31
0.0
  0
LINE
  5
66B35
  8
S-OBRYS
  6
CONTINUOUS
 62
     0
 10
50982.587140027987
 20
404624.65964934271
 30
0.0
 11
51382.587140027987
 21
404624.65964934271
 31
0.0
  0
INSERT
  5
66B36
  8
S-OBRYS
  6
CONTINUOUS
 62
     0
  2
_OPEN
 10
50882.587140027987
 20
404624.65964934271
 30
0.0
 41
100.0
 42
100.0
 43
100.0
 50
180.0
  0
INSERT
  5
66B37
  8
S-OBRYS
  6
CONTINUOUS
 62
     0
  2
_OPEN
 10
51482.587140027987
 20
404624.65964934271
 30
0.0
 41
100.0
 42
100.0
 43
100.0
  0
INSERT
  5
66B38
  8
S-OBRYS
  6
CONTINUOUS
  2
*U247
 10
0.0
 20
0.0
 30
0.0
  0
POINT
  5
66B39
  8
DEFPOINTS
  6
CONTINUOUS
 62
     0
 10
50882.587140027987
 20
404481.74370785372
 30
0.0
  0
POINT
  5
66B3A
  8
DEFPOINTS
  6
CONTINUOUS
 62
     0
 10
51482.587140027987
 20
404481.74370785372
 30
0.0
  0
POINT
  5
66B3B
  8
DEFPOINTS
  6
CONTINUOUS
 62
     0
 10
51482.587140027987
 20
404624.65964934271
 30
0.0
  0
ENDBLK
  5
66A70
  8
0
  0
BLOCK
  8
0
  2
*D141
 70
     1
 10
0.0
 20
0.0
 30
0.0
  3
*D141
  1

  0
LINE
  5
66B3C
  8
S-OBRYS
  6
CONTINUOUS
 62
     0
 10
51485.737140027988
 20
403881.74370785372
 30
0.0
 11
51674.760669913609
 21
403881.74370785372
 31
0.0
  0
LINE
  5
66B3D
  8
S-OBRYS
  6
CONTINUOUS
 62
     0
 10
51485.737140027988
 20
404481.74370785372
 30
0.0
 11
51674.760669913609
 21
404481.74370785372
 31
0.0
  0
LINE
  5
66B3E
  8
S-OBRYS
  6
CONTINUOUS
 62
     0
 10
51664.760669913623
 20
403981.74370785378
 30
0.0
 11
51664.760669913623
 21
404381.74370785372
 31
0.0
  0
INSERT
  5
66B3F
  8
S-OBRYS
  6
CONTINUOUS
 62
     0
  2
_OPEN
 10
51664.760669913623
 20
403881.74370785372
 30
0.0
 41
100.0
 42
100.0
 43
100.0
 50
270.0
  0
INSERT
  5
66B40
  8
S-OBRYS
  6
CONTINUOUS
 62
     0
  2
_OPEN
 10
51664.760669913623
 20
404481.74370785372
 30
0.0
 41
100.0
 42
100.0
 43
100.0
 50
90.0
  0
INSERT
  5
66B41
  8
S-OBRYS
  6
CONTINUOUS
  2
*U248
 10
0.0
 20
0.0
 30
0.0
  0
POINT
  5
66B42
  8
DEFPOINTS
  6
CONTINUOUS
 62
     0
 10
51482.587140027987
 20
403881.74370785372
 30
0.0
  0
POINT
  5
66B43
  8
DEFPOINTS
  6
CONTINUOUS
 62
     0
 10
51482.587140027987
 20
404481.74370785372
 30
0.0
  0
POINT
  5
66B44
  8
DEFPOINTS
  6
CONTINUOUS
 62
     0
 10
51664.760669913623
 20
404481.74370785372
 30
0.0
  0
ENDBLK
  5
66A7C
  8
0
  0
BLOCK
  8
0
  2
*D142
 70
     1
 10
0.0
 20
0.0
 30
0.0
  3
*D142
  1

  0
LINE
  5
66B45
  8
S-OBRYS
  6
CONTINUOUS
 62
     0
 10
51483.510145211338
 20
406631.16412343842
 30
0.0
 11
51483.510145211338
 21
406667.31258395081
 31
0.0
  0
LINE
  5
66B46
  8
S-OBRYS
  6
CONTINUOUS
 62
     0
 10
50888.360145211351
 20
406631.16412343842
 30
0.0
 11
50888.360145211351
 21
406667.31258395081
 31
0.0
  0
LINE
  5
66B47
  8
S-OBRYS
  6
CONTINUOUS
 62
     0
 10
51383.51014521133
 20
406657.31258395081
 30
0.0
 11
50988.360145211343
 21
406657.31258395081
 31
0.0
  0
LINE
  5
66B48
  8
S-OBRYS
  6
CONTINUOUS
 62
     0
 10
50888.360145211351
 20
406657.31258395081
 30
0.0
 11
50275.421565602803
 21
406657.31258395081
 31
0.0
  0
INSERT
  5
66B49
  8
S-OBRYS
  6
CONTINUOUS
 62
     0
  2
_OPEN
 10
51483.510145211338
 20
406657.31258395081
 30
0.0
 41
100.0
 42
100.0
 43
100.0
  0
INSERT
  5
66B4A
  8
S-OBRYS
  6
CONTINUOUS
 62
     0
  2
_OPEN
 10
50888.360145211351
 20
406657.31258395081
 30
0.0
 41
100.0
 42
100.0
 43
100.0
 50
180.0
  0
INSERT
  5
66B4B
  8
S-OBRYS
  6
CONTINUOUS
  2
*U249
 10
0.0
 20
0.0
 30
0.0
  0
POINT
  5
66B4C
  8
DEFPOINTS
  6
CONTINUOUS
 62
     0
 10
51483.510145211338
 20
406628.01412343839
 30
0.0
  0
POINT
  5
66B4D
  8
DEFPOINTS
  6
CONTINUOUS
 62
     0
 10
50888.360145211351
 20
406628.01412343839
 30
0.0
  0
POINT
  5
66B4E
  8
DEFPOINTS
  6
CONTINUOUS
 62
     0
 10
50888.360145211351
 20
406657.31258395081
 30
0.0
  0
ENDBLK
  5
66A89
  8
0
  0
BLOCK
  8
0
  2
*D143
 70
     1
 10
0.0
 20
0.0
 30
0.0
  3
*D143
  1

  0
LINE
  5
66B4F
  8
S-OBRYS
  6
CONTINUOUS
 62
     0
 10
50631.871432409251
 20
404048.64452282409
 30
0.0
 11
50980.40810061981
 21
404132.8802652405
 31
0.0
  0
LINE
  5
66B50
  8
S-OBRYS
  6
CONTINUOUS
 62
     0
 10
51384.766179436192
 20
404230.60715046612
 30
0.0
 11
51481.967640690142
 21
404254.09919018392
 31
0.0
  0
INSERT
  5
66B51
  8
S-OBRYS
  6
CONTINUOUS
  2
*U250
 10
0.0
 20
0.0
 30
0.0
  0
LINE
  5
66B52
  8
S-OBRYS
  6
CONTINUOUS
 62
     0
 10
51287.564718182271
 20
404207.11511074851
 30
0.0
 11
51077.60956187376
 21
404156.37230495817
 31
0.0
  0
INSERT
  5
66B53
  8
S-OBRYS
  6
CONTINUOUS
 62
     0
  2
_OPEN
 10
51287.564718182271
 20
404207.11511074851
 30
0.0
 41
100.0
 42
100.0
 43
100.0
 50
193.58693050814449
  0
INSERT
  5
66B54
  8
S-OBRYS
  6
CONTINUOUS
 62
     0
  2
_OPEN
 10
51077.60956187376
 20
404156.37230495817
 30
0.0
 41
100.0
 42
100.0
 43
100.0
 50
13.586930508144571
  0
POINT
  5
66B55
  8
DEFPOINTS
  6
CONTINUOUS
 62
     0
 10
51077.60956187376
 20
404156.37230495817
 30
0.0
  0
POINT
  5
66B56
  8
DEFPOINTS
  6
CONTINUOUS
 62
     0
 10
51287.564718182271
 20
404207.11511074851
 30
0.0
  0
ENDBLK
  5
66A94
  8
0
  0
BLOCK
  8
0
  2
*D144
 70
     1
 10
0.0
 20
0.0
 30
0.0
  3
*D144
  1

  0
LINE
  5
66B57
  8
S-OBRYS
  6
CONTINUOUS
 62
     0
 10
50564.066674696252
 20
404395.4290502239
 30
0.0
 11
51031.357811617847
 21
404233.99014532688
 31
0.0
  0
LINE
  5
66B58
  8
S-OBRYS
  6
CONTINUOUS
 62
     0
 10
51333.816468438163
 20
404129.49727038079
 30
0.0
 11
51428.334798694501
 21
404096.84324696031
 31
0.0
  0
INSERT
  5
66B59
  8
S-OBRYS
  6
CONTINUOUS
  2
*U251
 10
0.0
 20
0.0
 30
0.0
  0
LINE
  5
66B5A
  8
S-OBRYS
  6
CONTINUOUS
 62
     0
 10
51239.298138181832
 20
404162.15129380138
 30
0.0
 11
51125.876141874192
 21
404201.33612190618
 31
0.0
  0
INSERT
  5
66B5B
  8
S-OBRYS
  6
CONTINUOUS
 62
     0
  2
_OPEN
 10
51239.298138181832
 20
404162.15129380138
 30
0.0
 41
100.0
 42
100.0
 43
100.0
 50
160.9410842473888
  0
INSERT
  5
66B5C
  8
S-OBRYS
  6
CONTINUOUS
 62
     0
  2
_OPEN
 10
51125.876141874192
 20
404201.33612190618
 30
0.0
 41
100.0
 42
100.0
 43
100.0
 50
340.9410842473888
  0
POINT
  5
66B5D
  8
DEFPOINTS
  6
CONTINUOUS
 62
     0
 10
51125.876141874192
 20
404201.33612190618
 30
0.0
  0
POINT
  5
66B5E
  8
DEFPOINTS
  6
CONTINUOUS
 62
     0
 10
51239.298138181832
 20
404162.15129380138
 30
0.0
  0
ENDBLK
  5
66A9F
  8
0
  0
BLOCK
  8
0
  2
*D145
 70
     1
 10
0.0
 20
0.0
 30
0.0
  3
*D145
  1

  0
LINE
  5
66B5F
  8
S-OBRYS
  6
CONTINUOUS
 62
     0
 10
50999.360145211343
 20
406510.8762144855
 30
0.0
 11
50999.360145211343
 21
406440.35018200852
 31
0.0
  0
LINE
  5
66B60
  8
S-OBRYS
  6
CONTINUOUS
 62
     0
 10
51369.360145211343
 20
406510.8762144855
 30
0.0
 11
51369.360145211343
 21
406440.35018200852
 31
0.0
  0
LINE
  5
66B61
  8
S-OBRYS
  6
CONTINUOUS
 62
     0
 10
51099.360145211343
 20
406450.35018200852
 30
0.0
 11
51269.360145211343
 21
406450.35018200852
 31
0.0
  0
INSERT
  5
66B62
  8
S-OBRYS
  6
CONTINUOUS
 62
     0
  2
_OPEN
 10
50999.360145211343
 20
406450.35018200852
 30
0.0
 41
100.0
 42
100.0
 43
100.0
 50
180.0
  0
INSERT
  5
66B63
  8
S-OBRYS
  6
CONTINUOUS
 62
     0
  2
_OPEN
 10
51369.360145211343
 20
406450.35018200852
 30
0.0
 41
100.0
 42
100.0
 43
100.0
  0
INSERT
  5
66B64
  8
S-OBRYS
  6
CONTINUOUS
  2
*U252
 10
0.0
 20
0.0
 30
0.0
  0
POINT
  5
66B65
  8
DEFPOINTS
  6
CONTINUOUS
 62
     0
 10
50999.360145211343
 20
406514.02621448552
 30
0.0
  0
POINT
  5
66B66
  8
DEFPOINTS
  6
CONTINUOUS
 62
     0
 10
51369.360145211343
 20
406514.02621448541
 30
0.0
  0
POINT
  5
66B67
  8
DEFPOINTS
  6
CONTINUOUS
 62
     0
 10
51369.360145211343
 20
406450.35018200852
 30
0.0
  0
ENDBLK
  5
66AAB
  8
0
  0
BLOCK
  8
0
  2
*D146
 70
     1
 10
0.0
 20
0.0
 30
0.0
  3
*D146
  1

  0
LINE
  5
66B68
  8
S-OBRYS
  6
CONTINUOUS
 62
     0
 10
50635.22097521479
 20
403833.8426018249
 30
0.0
 11
50937.839713911519
 21
404026.18440273509
 31
0.0
  0
LINE
  5
66B69
  8
S-OBRYS
  6
CONTINUOUS
 62
     0
 10
51427.334566146099
 20
404337.30301297217
 30
0.0
 11
51511.730230324487
 21
404390.94415266818
 31
0.0
  0
INSERT
  5
66B6A
  8
S-OBRYS
  6
CONTINUOUS
  2
*U253
 10
0.0
 20
0.0
 30
0.0
  0
LINE
  5
66B6B
  8
S-OBRYS
  6
CONTINUOUS
 62
     0
 10
51342.938901967747
 20
404283.66187327611
 30
0.0
 11
51022.235378089877
 21
404079.82554243109
 31
0.0
  0
INSERT
  5
66B6C
  8
S-OBRYS
  6
CONTINUOUS
 62
     0
  2
_OPEN
 10
51342.938901967747
 20
404283.66187327611
 30
0.0
 41
100.0
 42
100.0
 43
100.0
 50
212.43967959613431
  0
INSERT
  5
66B6D
  8
S-OBRYS
  6
CONTINUOUS
 62
     0
  2
_OPEN
 10
51022.235378089877
 20
404079.82554243109
 30
0.0
 41
100.0
 42
100.0
 43
100.0
 50
32.439679596134297
  0
POINT
  5
66B6E
  8
DEFPOINTS
  6
CONTINUOUS
 62
     0
 10
51022.235378089877
 20
404079.82554243109
 30
0.0
  0
POINT
  5
66B6F
  8
DEFPOINTS
  6
CONTINUOUS
 62
     0
 10
51342.938901967747
 20
404283.66187327611
 30
0.0
  0
ENDBLK
  5
66AB6
  8
0
  0
BLOCK
  8
0
  2
*U147
 70
     1
 10
0.0
 20
0.0
 30
0.0
  3
*U147
  1

  0
TEXT
  5
6704A
  8
S-OBRYS
  6
CONTINUOUS
 10
-16.449777305735289
 20
47.447339193138752
 30
0.0
 40
80.0
  1
1b
  7
R
  0
ENDBLK
  5
6704C
  8
0
  0
BLOCK
  8
0
  2
*U148
 70
     1
 10
0.0
 20
0.0
 30
0.0
  3
*U148
  1

  0
TEXT
  5
6704E
  8
S-OBRYS
  6
CONTINUOUS
 10
23.348488544496441
 20
49.591841048852068
 30
0.0
 40
20.0
  1
1a
  7
R
  0
ENDBLK
  5
67050
  8
0
  0
BLOCK
  8
0
  2
*U149
 70
     1
 10
0.0
 20
0.0
 30
0.0
  3
*U149
  1

  0
TEXT
  5
67052
  8
S-OBRYS
  6
CONTINUOUS
 10
-3.9222036020662499
 20
557.31871110200882
 30
0.0
 40
100.0
  1
příruba prosévačka
  7
R
  0
ENDBLK
  5
67054
  8
0
  0
BLOCK
  8
0
  2
*U150
 70
     1
 10
0.0
 20
0.0
 30
0.0
  3
*U150
  1

  0
SOLID
  5
6722C
  8
S-OBRYS
  6
CONTINUOUS
 10
0.0000000000009095
 20
139.99744886101851
 30
0.0
 11
-28.328988224175969
 21
132.40671934395951
 31
0.0
 12
0.0000000000008972
 22
132.40671934395951
 32
0.0
 13
0.0000000000008972
 23
132.40671934395951
 33
0.0
210
0.0
220
0.0
230
1.0
  0
SOLID
  5
6722D
  8
S-OBRYS
  6
CONTINUOUS
 10
0.0000000000009332
 20
139.99744886101851
 30
0.0
 11
0.0000000000009263
 21
132.40671934395951
 31
0.0
 12
45.472905011396342
 22
132.40671934395951
 32
0.0
 13
45.472905011396342
 23
132.40671934395951
 33
0.0
210
0.0
220
0.0
230
1.0
  0
SOLID
  5
6722E
  8
S-OBRYS
  6
CONTINUOUS
 10
-28.328988224175969
 20
132.40671934395951
 30
0.0
 11
-69.999999999999034
 21
121.2410053908398
 31
0.0
 12
0.0000000000008792
 22
121.2410053908398
 32
0.0
 13
0.0000000000008792
 23
121.2410053908398
 33
0.0
210
0.0
220
0.0
230
1.0
  0
SOLID
  5
6722F
  8
S-OBRYS
  6
CONTINUOUS
 10
28.328988224175969
 20
132.40671934395951
 30
0.0
 11
-0.0000000000008972
 21
132.40671934395951
 31
0.0
 12
-0.0000000000008792
 22
121.2410053908398
 32
0.0
 13
-0.0000000000008792
 23
121.2410053908398
 33
0.0
210
0.0
220
0.0
230
-1.0
  0
SOLID
  5
67230
  8
S-OBRYS
  6
CONTINUOUS
 10
0.0000000000009263
 20
132.40671934395951
 30
0.0
 11
0.0000000000009163
 21
121.2410053908398
 31
0.0
 12
66.096975654973562
 22
121.2410053908398
 32
0.0
 13
66.096975654973562
 23
121.2410053908398
 33
0.0
210
0.0
220
0.0
230
1.0
  0
SOLID
  5
67231
  8
S-OBRYS
  6
CONTINUOUS
 10
-0.0000000000009263
 20
132.40671934395951
 30
0.0
 11
-45.472905011396342
 21
132.40671934395951
 31
0.0
 12
-66.096975654973562
 22
121.2410053908398
 32
0.0
 13
-66.096975654973562
 23
121.2410053908398
 33
0.0
210
0.0
220
0.0
230
-1.0
  0
SOLID
  5
67232
  8
S-OBRYS
  6
CONTINUOUS
 10
-69.999999999999034
 20
121.2410053908398
 30
0.0
 11
-72.418169034466786
 21
118.82283635637209
 31
0.0
 12
0.0000000000008752
 22
118.82283635637209
 32
0.0
 13
0.0000000000008752
 23
118.82283635637209
 33
0.0
  0
SOLID
  5
67233
  8
S-OBRYS
  6
CONTINUOUS
 10
69.999999999999034
 20
121.2410053908398
 30
0.0
 11
-0.0000000000008792
 21
121.2410053908398
 31
0.0
 12
-0.0000000000008752
 22
118.82283635637209
 32
0.0
 13
-0.0000000000008752
 23
118.82283635637209
 33
0.0
210
0.0
220
0.0
230
-1.0
  0
SOLID
  5
67234
  8
S-OBRYS
  6
CONTINUOUS
 10
0.0000000000009163
 20
121.2410053908398
 30
0.0
 11
0.0000000000009141
 21
118.82283635637209
 31
0.0
 12
70.563549776822697
 22
118.82283635637209
 32
0.0
 13
70.563549776822697
 23
118.82283635637209
 33
0.0
  0
SOLID
  5
67235
  8
S-OBRYS
  6
CONTINUOUS
 10
-0.0000000000009163
 20
121.2410053908398
 30
0.0
 11
-66.096975654973562
 21
121.2410053908398
 31
0.0
 12
-70.563549776822697
 22
118.82283635637209
 32
0.0
 13
-70.563549776822697
 23
118.82283635637209
 33
0.0
210
0.0
220
0.0
230
-1.0
  0
SOLID
  5
67236
  8
S-OBRYS
  6
CONTINUOUS
 10
-72.418169034466786
 20
118.82283635637209
 30
0.0
 11
-77.601735326679147
 21
113.6392700641597
 31
0.0
 12
0.0000000000008669
 22
113.6392700641597
 32
0.0
 13
0.0000000000008669
 23
113.6392700641597
 33
0.0
210
0.0
220
0.0
230
1.0
  0
SOLID
  5
67237
  8
S-OBRYS
  6
CONTINUOUS
 10
72.418169034466786
 20
118.82283635637209
 30
0.0
 11
-0.0000000000008752
 21
118.82283635637209
 31
0.0
 12
-0.0000000000008669
 22
113.6392700641597
 32
0.0
 13
-0.0000000000008669
 23
113.6392700641597
 33
0.0
210
0.0
220
0.0
230
-1.0
  0
SOLID
  5
67238
  8
S-OBRYS
  6
CONTINUOUS
 10
-0.0000000000009141
 20
118.82283635637209
 30
0.0
 11
-43.257964790378153
 21
118.82283635637209
 31
0.0
 12
-0.0000000000008669
 22
113.6392700641597
 32
0.0
 13
-0.0000000000008669
 23
113.6392700641597
 33
0.0
210
0.0
220
0.0
230
-1.0
  0
SOLID
  5
67239
  8
S-OBRYS
  6
CONTINUOUS
 10
43.257964790378153
 20
118.82283635637209
 30
0.0
 11
69.752660745180563
 21
113.6392700641597
 31
0.0
 12
80.138059552472512
 22
113.6392700641597
 32
0.0
 13
80.138059552472512
 23
113.6392700641597
 33
0.0
210
0.0
220
0.0
230
1.0
  0
SOLID
  5
6723A
  8
S-OBRYS
  6
CONTINUOUS
 10
-43.257964790378153
 20
118.82283635637209
 30
0.0
 11
-70.563549776822697
 21
118.82283635637209
 31
0.0
 12
-80.138059552472512
 22
113.6392700641597
 32
0.0
 13
-80.138059552472512
 23
113.6392700641597
 33
0.0
210
0.0
220
0.0
230
-1.0
  0
SOLID
  5
6723B
  8
S-OBRYS
  6
CONTINUOUS
 10
-77.601735326679147
 20
113.6392700641597
 30
0.0
 11
-80.783343532325802
 21
110.45766185851311
 31
0.0
 12
-5.0574841518304217
 22
110.45766185851311
 32
0.0
 13
-5.0574841518304217
 23
110.45766185851311
 33
0.0
210
0.0
220
0.0
230
1.0
  0
SOLID
  5
6723C
  8
S-OBRYS
  6
CONTINUOUS
 10
77.601735326679147
 20
113.6392700641597
 30
0.0
 11
-0.0000000000009095
 21
113.6392700641597
 31
0.0
 12
5.0574841518304217
 22
110.45766185851311
 32
0.0
 13
5.0574841518304217
 23
110.45766185851311
 33
0.0
210
0.0
220
0.0
230
-1.0
  0
SOLID
  5
6723D
  8
S-OBRYS
  6
CONTINUOUS
 10
-69.752660745180563
 20
113.6392700641597
 30
0.0
 11
-80.138059552472512
 21
113.6392700641597
 31
0.0
 12
-86.014773989985784
 22
110.45766185851311
 32
0.0
 13
-86.014773989985784
 23
110.45766185851311
 33
0.0
210
0.0
220
0.0
230
-1.0
  0
SOLID
  5
6723E
  8
S-OBRYS
  6
CONTINUOUS
 10
-80.783343532325802
 20
110.45766185851311
 30
0.0
 11
-119.6701191573716
 21
71.570886233467292
 31
0.0
 12
-66.871899607022399
 22
71.570886233467292
 32
0.0
 13
-66.871899607022399
 23
71.570886233467292
 33
0.0
210
0.0
220
0.0
230
1.0
  0
SOLID
  5
6723F
  8
S-OBRYS
  6
CONTINUOUS
 10
80.783343532325802
 20
110.45766185851311
 30
0.0
 11
5.0574841518304217
 21
110.45766185851311
 31
0.0
 12
66.871899607022399
 22
71.570886233467292
 32
0.0
 13
66.871899607022399
 23
71.570886233467292
 33
0.0
210
0.0
220
0.0
230
-1.0
  0
SOLID
  5
67240
  8
S-OBRYS
  6
CONTINUOUS
 10
-119.6701191573716
 20
71.570886233467292
 30
0.0
 11
-121.2435565298204
 21
69.997448861018484
 31
0.0
 12
-67.607229376915711
 22
69.997448861018484
 32
0.0
 13
-67.607229376915711
 23
69.997448861018484
 33
0.0
210
0.0
220
0.0
230
1.0
  0
SOLID
  5
67241
  8
S-OBRYS
  6
CONTINUOUS
 10
119.6701191573716
 20
71.570886233467292
 30
0.0
 11
66.871899607022399
 21
71.570886233467292
 31
0.0
 12
67.607229376915711
 22
69.997448861018484
 32
0.0
 13
67.607229376915711
 23
69.997448861018484
 33
0.0
210
0.0
220
0.0
230
-1.0
  0
SOLID
  5
67242
  8
S-OBRYS
  6
CONTINUOUS
 10
-121.2435565298204
 20
69.997448861018484
 30
0.0
 11
-139.99999999999909
 21
-0.0025511389815165
 31
0.0
 12
-100.3210092793351
 22
-0.0025511389815165
 32
0.0
 13
-100.3210092793351
 23
-0.0025511389815165
 33
0.0
210
0.0
220
0.0
230
1.0
  0
SOLID
  5
67243
  8
S-OBRYS
  6
CONTINUOUS
 10
121.2435565298204
 20
69.997448861018484
 30
0.0
 11
67.607229376915711
 21
69.997448861018484
 31
0.0
 12
100.3210092793351
 22
-0.0025511389815165
 32
0.0
 13
100.3210092793351
 23
-0.0025511389815165
 33
0.0
210
0.0
220
0.0
230
-1.0
  0
SOLID
  5
67244
  8
S-OBRYS
  6
CONTINUOUS
 10
-139.99999999999909
 20
-0.0025511389815165
 30
0.0
 11
-139.99999999999909
 21
-0.0025511389815165
 31
0.0
 12
-100.3210092793351
 22
-0.0025511389815165
 32
0.0
 13
-100.3210092793351
 23
-0.0025511389815165
 33
0.0
210
0.0
220
0.0
230
1.0
  0
SOLID
  5
67245
  8
S-OBRYS
  6
CONTINUOUS
 10
-139.99999999999909
 20
-0.0025511389815165
 30
0.0
 11
-139.99999999999909
 21
-0.0025511389815165
 31
0.0
 12
-100.3210092793351
 22
-0.0025511389815165
 32
0.0
 13
-100.3210092793351
 23
-0.0025511389815165
 33
0.0
210
0.0
220
0.0
230
1.0
  0
SOLID
  5
67246
  8
S-OBRYS
  6
CONTINUOUS
 10
-139.99999999999909
 20
-0.0025511389815165
 30
0.0
 11
-117.02828563153059
 21
-72.883147809960434
 31
0.0
 12
-91.980753483793407
 22
-72.883147809960434
 32
0.0
 13
-91.980753483793407
 23
-72.883147809960434
 33
0.0
210
0.0
220
0.0
230
1.0
  0
SOLID
  5
67247
  8
S-OBRYS
  6
CONTINUOUS
 10
139.99999999999909
 20
-0.0025511389815165
 30
0.0
 11
100.3210092793351
 21
-0.0025511389815165
 31
0.0
 12
91.980753483793407
 22
-72.883147809960434
 32
0.0
 13
91.980753483793407
 23
-72.883147809960434
 33
0.0
210
0.0
220
0.0
230
-1.0
  0
SOLID
  5
67248
  8
S-OBRYS
  6
CONTINUOUS
 10
-117.02828563153059
 20
-72.883147809960434
 30
0.0
 11
-114.69621614817829
 21
-80.281925833171329
 31
0.0
 12
-86.424720604643284
 22
-80.281925833171329
 32
0.0
 13
-86.424720604643284
 23
-80.281925833171329
 33
0.0
  0
SOLID
  5
67249
  8
S-OBRYS
  6
CONTINUOUS
 10
117.02828563153059
 20
-72.883147809960434
 30
0.0
 11
91.980753483793407
 21
-72.883147809960434
 31
0.0
 12
86.424720604643284
 22
-80.281925833171329
 32
0.0
 13
86.424720604643284
 23
-80.281925833171329
 33
0.0
210
0.0
220
0.0
230
-1.0
  0
SOLID
  5
6724A
  8
S-OBRYS
  6
CONTINUOUS
 10
114.69621614817829
 20
-80.281925833171329
 30
0.0
 11
86.424720604643284
 21
-80.281925833171329
 31
0.0
 12
47.931742838711259
 22
-131.54170131277371
 32
0.0
 13
47.931742838711259
 23
-131.54170131277371
 33
0.0
210
0.0
220
0.0
230
-1.0
  0
LINE
  5
6724B
  8
S-OBRYS
  6
CONTINUOUS
 10
0.0000000000008972
 20
132.40671934395951
 30
0.0
 11
0.0000000000009095
 21
139.99744886101851
 31
0.0
  0
LINE
  5
6724C
  8
S-OBRYS
  6
CONTINUOUS
 10
0.0000000000009332
 20
139.99744886101851
 30
0.0
 11
0.0000000000009263
 21
132.40671934395951
 31
0.0
  0
LINE
  5
6724D
  8
S-OBRYS
  6
CONTINUOUS
 10
-28.328988224175969
 20
132.40671934395951
 30
0.0
 11
-69.999999999999034
 21
121.2410053908398
 31
0.0
  0
LINE
  5
6724E
  8
S-OBRYS
  6
CONTINUOUS
 10
0.0000000000008972
 20
132.40671934395951
 30
0.0
 11
0.0000000000008792
 21
121.2410053908398
 31
0.0
  0
LINE
  5
6724F
  8
S-OBRYS
  6
CONTINUOUS
 10
0.0000000000009263
 20
132.40671934395951
 30
0.0
 11
0.0000000000009163
 21
121.2410053908398
 31
0.0
  0
LINE
  5
67250
  8
S-OBRYS
  6
CONTINUOUS
 10
45.472905011396342
 20
132.40671934395951
 30
0.0
 11
66.096975654973562
 21
121.2410053908398
 31
0.0
  0
LINE
  5
67251
  8
S-OBRYS
  6
CONTINUOUS
 10
-69.999999999999034
 20
121.2410053908398
 30
0.0
 11
-72.418169034466786
 21
118.82283635637209
 31
0.0
  0
LINE
  5
67252
  8
S-OBRYS
  6
CONTINUOUS
 10
0.0000000000008792
 20
121.2410053908398
 30
0.0
 11
0.0000000000008752
 21
118.82283635637209
 31
0.0
  0
LINE
  5
67253
  8
S-OBRYS
  6
CONTINUOUS
 10
0.0000000000009163
 20
121.2410053908398
 30
0.0
 11
0.0000000000009141
 21
118.82283635637209
 31
0.0
  0
LINE
  5
67254
  8
S-OBRYS
  6
CONTINUOUS
 10
66.096975654973562
 20
121.2410053908398
 30
0.0
 11
70.563549776822697
 21
118.82283635637209
 31
0.0
  0
LINE
  5
67255
  8
S-OBRYS
  6
CONTINUOUS
 10
-72.418169034466786
 20
118.82283635637209
 30
0.0
 11
-77.601735326679147
 21
113.6392700641597
 31
0.0
  0
LINE
  5
67256
  8
S-OBRYS
  6
CONTINUOUS
 10
43.257964790378153
 20
118.82283635637209
 30
0.0
 11
0.0000000000008669
 21
113.6392700641597
 31
0.0
  0
LINE
  5
67257
  8
S-OBRYS
  6
CONTINUOUS
 10
0.0000000000008669
 20
113.6392700641597
 30
0.0
 11
0.0000000000009141
 21
118.82283635637209
 31
0.0
  0
LINE
  5
67258
  8
S-OBRYS
  6
CONTINUOUS
 10
70.563549776822697
 20
118.82283635637209
 30
0.0
 11
80.138059552472512
 21
113.6392700641597
 31
0.0
  0
LINE
  5
67259
  8
S-OBRYS
  6
CONTINUOUS
 10
-77.601735326679147
 20
113.6392700641597
 30
0.0
 11
-80.783343532325802
 21
110.45766185851311
 31
0.0
  0
LINE
  5
6725A
  8
S-OBRYS
  6
CONTINUOUS
 10
0.0000000000009095
 20
113.6392700641597
 30
0.0
 11
-5.0574841518304217
 21
110.45766185851311
 31
0.0
  0
LINE
  5
6725B
  8
S-OBRYS
  6
CONTINUOUS
 10
80.138059552472512
 20
113.6392700641597
 30
0.0
 11
86.014773989985784
 21
110.45766185851311
 31
0.0
  0
LINE
  5
6725C
  8
S-OBRYS
  6
CONTINUOUS
 10
86.014773989985784
 20
110.45766185851311
 30
0.0
 11
69.752660745180563
 21
113.6392700641597
 31
0.0
  0
LINE
  5
6725D
  8
S-OBRYS
  6
CONTINUOUS
 10
-80.783343532325802
 20
110.45766185851311
 30
0.0
 11
-119.6701191573716
 21
71.570886233467292
 31
0.0
  0
LINE
  5
6725E
  8
S-OBRYS
  6
CONTINUOUS
 10
-5.0574841518304217
 20
110.45766185851311
 30
0.0
 11
-66.871899607022399
 21
71.570886233467292
 31
0.0
  0
LINE
  5
6725F
  8
S-OBRYS
  6
CONTINUOUS
 10
-119.6701191573716
 20
71.570886233467292
 30
0.0
 11
-121.2435565298204
 21
69.997448861018484
 31
0.0
  0
LINE
  5
67260
  8
S-OBRYS
  6
CONTINUOUS
 10
-66.871899607022399
 20
71.570886233467292
 30
0.0
 11
-67.607229376915711
 21
69.997448861018484
 31
0.0
  0
LINE
  5
67261
  8
S-OBRYS
  6
CONTINUOUS
 10
-121.2435565298204
 20
69.997448861018484
 30
0.0
 11
-139.99999999999909
 21
-0.0025511389815165
 31
0.0
  0
LINE
  5
67262
  8
S-OBRYS
  6
CONTINUOUS
 10
-67.607229376915711
 20
69.997448861018484
 30
0.0
 11
-100.3210092793351
 21
-0.0025511389815165
 31
0.0
  0
LINE
  5
67263
  8
S-OBRYS
  6
CONTINUOUS
 10
-139.99999999999909
 20
-0.0025511389815165
 30
0.0
 11
-100.3210092793351
 21
-0.0025511389815165
 31
0.0
  0
LINE
  5
67264
  8
S-OBRYS
  6
CONTINUOUS
 10
-139.99999999999909
 20
-0.0025511389815165
 30
0.0
 11
-100.3210092793351
 21
-0.0025511389815165
 31
0.0
  0
LINE
  5
67265
  8
S-OBRYS
  6
CONTINUOUS
 10
-139.99999999999909
 20
-0.0025511389815165
 30
0.0
 11
-117.02828563153059
 21
-72.883147809960434
 31
0.0
  0
LINE
  5
67266
  8
S-OBRYS
  6
CONTINUOUS
 10
-100.3210092793351
 20
-0.0025511389815165
 30
0.0
 11
-91.980753483793407
 21
-72.883147809960434
 31
0.0
  0
LINE
  5
67267
  8
S-OBRYS
  6
CONTINUOUS
 10
-117.02828563153059
 20
-72.883147809960434
 30
0.0
 11
-114.69621614817829
 21
-80.281925833171329
 31
0.0
  0
LINE
  5
67268
  8
S-OBRYS
  6
CONTINUOUS
 10
-91.980753483793407
 20
-72.883147809960434
 30
0.0
 11
-86.424720604643284
 21
-80.281925833171329
 31
0.0
  0
LINE
  5
67269
  8
S-OBRYS
  6
CONTINUOUS
 10
-86.424720604643284
 20
-80.281925833171329
 30
0.0
 11
-47.931742838711259
 21
-131.54170131277371
 31
0.0
  0
LINE
  5
6726A
  8
S-OBRYS
  6
CONTINUOUS
 10
-47.931742838711259
 20
-131.54170131277371
 30
0.0
 11
-114.69621614817829
 21
-80.281925833171329
 31
0.0
  0
ENDBLK
  5
6726C
  8
0
  0
BLOCK
  8
0
  2
*U151
 70
     1
 10
0.0
 20
0.0
 30
0.0
  3
*U151
  1

  0
SOLID
  5
67277
  8
S-OBRYS
  6
CONTINUOUS
 10
2000.0000000000421
 20
549.9974488602569
 30
0.0
 11
2000.0000000000421
 21
-0.0025511389934536
 31
0.0
 12
2012.2676761359601
 22
-0.0025511389934536
 32
0.0
 13
2012.2676761359601
 23
-0.0025511389934536
 33
0.0
210
0.0
220
0.0
230
1.0
  0
SOLID
  5
67278
  8
S-OBRYS
  6
CONTINUOUS
 10
2000.0000000000421
 20
-0.0025511389934536
 30
0.0
 11
2000.0000000000421
 21
-0.0025511389934536
 31
0.0
 12
2012.2676761359601
 22
-0.0025511389934536
 32
0.0
 13
2012.2676761359601
 23
-0.0025511389934536
 33
0.0
210
0.0
220
0.0
230
1.0
  0
SOLID
  5
67279
  8
S-OBRYS
  6
CONTINUOUS
 10
2000.0000000000421
 20
-0.0025511389934536
 30
0.0
 11
2000.0000000000421
 21
-0.0025511389934536
 31
0.0
 12
2012.2676761359601
 22
-0.0025511389934536
 32
0.0
 13
2012.2676761359601
 23
-0.0025511389934536
 33
0.0
210
0.0
220
0.0
230
1.0
  0
SOLID
  5
6727A
  8
S-OBRYS
  6
CONTINUOUS
 10
2000.0000000000421
 20
-0.0025511389934536
 30
0.0
 11
2000.0000000000421
 21
-526.00255113898993
 31
0.0
 12
2024.0000354950589
 22
-526.00255113898993
 32
0.0
 13
2024.0000354950589
 23
-526.00255113898993
 33
0.0
210
0.0
220
0.0
230
1.0
  0
SOLID
  5
6727B
  8
S-OBRYS
  6
CONTINUOUS
 10
-2000.0000000000421
 20
-0.0025511389934536
 30
0.0
 11
-2012.2676761359601
 21
-0.0025511389934536
 31
0.0
 12
-2024.0000354950589
 22
-526.00255113898993
 32
0.0
 13
-2024.0000354950589
 23
-526.00255113898993
 33
0.0
210
0.0
220
0.0
230
-1.0
  0
SOLID
  5
6727C
  8
S-OBRYS
  6
CONTINUOUS
 10
2000.0000000000421
 20
-526.00255113898993
 30
0.0
 11
2000.0000000000421
 21
-545.98193239837519
 31
0.0
 12
2670.0000000000268
 22
-545.98193239837519
 32
0.0
 13
2670.0000000000268
 23
-545.98193239837519
 33
0.0
  0
SOLID
  5
6727D
  8
S-OBRYS
  6
CONTINUOUS
 10
-2000.0000000000421
 20
-526.00255113898993
 30
0.0
 11
-2024.0000354950589
 21
-526.00255113898993
 31
0.0
 12
-2670.0000000000268
 22
-545.98193239837519
 32
0.0
 13
-2670.0000000000268
 23
-545.98193239837519
 33
0.0
210
0.0
220
0.0
230
-1.0
  0
SOLID
  5
6727E
  8
S-OBRYS
  6
CONTINUOUS
 10
2000.0000000000421
 20
-545.98193239837519
 30
0.0
 11
2000.0000000000421
 21
-550.00255113897902
 31
0.0
 12
2670.0000000000268
 22
-550.00255113897902
 32
0.0
 13
2670.0000000000268
 23
-550.00255113897902
 33
0.0
  0
SOLID
  5
6727F
  8
S-OBRYS
  6
CONTINUOUS
 10
-2000.0000000000421
 20
-545.98193239837519
 30
0.0
 11
-2669.9999999999241
 21
-545.98193239837519
 31
0.0
 12
-2670.0000000000268
 22
-550.00255113897902
 32
0.0
 13
-2670.0000000000268
 23
-550.00255113897902
 33
0.0
210
0.0
220
0.0
230
-1.0
  0
SOLID
  5
67280
  8
S-OBRYS
  6
CONTINUOUS
 10
2670.0000000000268
 20
-545.98193239837519
 30
0.0
 11
2670.0000000000418
 21
-550.00255113897902
 31
0.0
 12
2800.0000000000568
 22
-550.00255113897902
 32
0.0
 13
2800.0000000000568
 23
-550.00255113897902
 33
0.0
  0
SOLID
  5
67281
  8
S-OBRYS
  6
CONTINUOUS
 10
2000.0000000000421
 20
-550.00255113897902
 30
0.0
 11
2000.0000000000421
 21
-550.00255113897902
 31
0.0
 12
2670.0000000000268
 22
-550.00255113897902
 32
0.0
 13
2670.0000000000268
 23
-550.00255113897902
 33
0.0
210
0.0
220
0.0
230
1.0
  0
SOLID
  5
67282
  8
S-OBRYS
  6
CONTINUOUS
 10
2670.0000000000418
 20
-550.00255113897902
 30
0.0
 11
2670.0000000000418
 21
-550.00255113897902
 31
0.0
 12
2800.0000000000568
 22
-550.00255113897902
 32
0.0
 13
2800.0000000000568
 23
-550.00255113897902
 33
0.0
210
0.0
220
0.0
230
1.0
  0
LINE
  5
67283
  8
S-OBRYS
  6
CONTINUOUS
 10
2000.0000000000421
 20
549.9974488602569
 30
0.0
 11
2000.0000000000421
 21
-0.0025511389934536
 31
0.0
  0
LINE
  5
67284
  8
S-OBRYS
  6
CONTINUOUS
 10
2012.2676761359601
 20
-0.0025511389934536
 30
0.0
 11
2000.0000000000421
 21
549.9974488602569
 31
0.0
  0
LINE
  5
67285
  8
S-OBRYS
  6
CONTINUOUS
 10
2000.0000000000421
 20
-0.0025511389934536
 30
0.0
 11
2012.2676761359601
 21
-0.0025511389934536
 31
0.0
  0
LINE
  5
67286
  8
S-OBRYS
  6
CONTINUOUS
 10
2000.0000000000421
 20
-0.0025511389934536
 30
0.0
 11
2012.2676761359601
 21
-0.0025511389934536
 31
0.0
  0
LINE
  5
67287
  8
S-OBRYS
  6
CONTINUOUS
 10
2000.0000000000421
 20
-0.0025511389934536
 30
0.0
 11
2000.0000000000421
 21
-526.00255113898993
 31
0.0
  0
LINE
  5
67288
  8
S-OBRYS
  6
CONTINUOUS
 10
2012.2676761359601
 20
-0.0025511389934536
 30
0.0
 11
2024.0000354950589
 21
-526.00255113898993
 31
0.0
  0
LINE
  5
67289
  8
S-OBRYS
  6
CONTINUOUS
 10
2000.0000000000421
 20
-526.00255113898993
 30
0.0
 11
2000.0000000000421
 21
-545.98193239837519
 31
0.0
  0
LINE
  5
6728A
  8
S-OBRYS
  6
CONTINUOUS
 10
2024.0000354950589
 20
-526.00255113898993
 30
0.0
 11
2670.0000000000268
 21
-545.98193239837519
 31
0.0
  0
LINE
  5
6728B
  8
S-OBRYS
  6
CONTINUOUS
 10
2000.0000000000421
 20
-545.98193239837519
 30
0.0
 11
2000.0000000000421
 21
-550.00255113897902
 31
0.0
  0
LINE
  5
6728C
  8
S-OBRYS
  6
CONTINUOUS
 10
2670.0000000000268
 20
-545.98193239837519
 30
0.0
 11
2670.0000000000418
 21
-550.00255113897902
 31
0.0
  0
LINE
  5
6728D
  8
S-OBRYS
  6
CONTINUOUS
 10
2000.0000000000421
 20
-550.00255113897902
 30
0.0
 11
2670.0000000000268
 21
-550.00255113897902
 31
0.0
  0
LINE
  5
6728E
  8
S-OBRYS
  6
CONTINUOUS
 10
2670.0000000000418
 20
-550.00255113897902
 30
0.0
 11
2800.0000000000568
 21
-550.00255113897902
 31
0.0
  0
ENDBLK
  5
67290
  8
0
  0
BLOCK
  8
0
  2
*X152
 70
     1
 10
0.0
 20
0.0
 30
0.0
  3
*X152
  1

  0
LINE
  5
67297
  8
0
  6
CONTINUOUS
 62
     0
 10
2800.00000000004
 20
654.33382523685566
 30
0.0
 11
2754.3363763758612
 21
699.99744886103508
 31
0.0
  0
LINE
  5
67298
  8
0
  6
CONTINUOUS
 62
     0
 10
2740.0000000000368
 20
624.53126402616181
 30
0.0
 11
2670.00000000004
 21
694.53126402615806
 31
0.0
  0
LINE
  5
67299
  8
0
  6
CONTINUOUS
 62
     0
 10
2670.00000000004
 20
694.53126402615806
 30
0.0
 11
2664.5338151651781
 21
699.99744886102053
 31
0.0
  0
LINE
  5
6729A
  8
0
  6
CONTINUOUS
 62
     0
 10
2741.5338151651699
 20
622.99744886102405
 30
0.0
 11
2740.0000000000368
 21
624.53126402616181
 31
0.0
  0
LINE
  5
6729B
  8
0
  6
CONTINUOUS
 62
     0
 10
2603.2868620971822
 20
671.44184071832569
 30
0.0
 11
2600.0000000000332
 21
674.72870281547512
 31
0.0
  0
LINE
  5
6729C
  8
0
  6
CONTINUOUS
 62
     0
 10
2600.0000000000332
 20
674.72870281547512
 30
0.0
 11
2574.7312539544769
 21
699.99744886103144
 31
0.0
  0
LINE
  5
6729D
  8
0
  6
CONTINUOUS
 62
     0
 10
2651.7312539544769
 20
622.99744886103144
 30
0.0
 11
2609.4443918573311
 21
665.28431095817723
 31
0.0
  0
LINE
  5
6729E
  8
0
  6
CONTINUOUS
 62
     0
 10
2561.9286927437902
 20
622.99744886103497
 30
0.0
 11
2540.0000000000359
 21
644.92614160478468
 31
0.0
  0
LINE
  5
6729F
  8
0
  6
CONTINUOUS
 62
     0
 10
2740.00000000004
 20
-632.70459292351734
 30
0.0
 11
2730.2979582154881
 21
-623.00255113896492
 31
0.0
  0
LINE
  5
672A0
  8
0
  6
CONTINUOUS
 62
     0
 10
2800.0000000000441
 20
-692.70459292352098
 30
0.0
 11
2740.00000000004
 21
-632.70459292351734
 31
0.0
  0
LINE
  5
672A1
  8
0
  6
CONTINUOUS
 62
     0
 10
2670.00000000004
 20
-652.50715413421494
 30
0.0
 11
2640.495397004805
 21
-623.00255113897936
 31
0.0
  0
LINE
  5
672A2
  8
0
  6
CONTINUOUS
 62
     0
 10
2717.4953970047859
 20
-700.00255113896492
 30
0.0
 11
2670.00000000004
 21
-652.50715413421494
 31
0.0
  0
LINE
  5
672A3
  8
0
  6
CONTINUOUS
 62
     0
 10
2600.00000000004
 20
-672.30971534490516
 30
0.0
 11
2598.593417944765
 21
-670.9031332896302
 31
0.0
  0
LINE
  5
672A4
  8
0
  6
CONTINUOUS
 62
     0
 10
2590.0994178493752
 20
-662.40913319423987
 30
0.0
 11
2550.6928357941042
 21
-623.00255113896856
 31
0.0
  0
LINE
  5
672A5
  8
0
  6
CONTINUOUS
 62
     0
 10
2627.6928357941042
 20
-700.00255113896856
 30
0.0
 11
2600.00000000004
 21
-672.30971534490516
 31
0.0
  0
ENDBLK
  5
672A7
  8
0
  0
BLOCK
  8
0
  2
*X153
 70
     1
 10
0.0
 20
0.0
 30
0.0
  3
*X153
  1

  0
LINE
  5
672A9
  8
0
  6
CONTINUOUS
 62
     0
 10
450.00000000003268
 20
-657.76862319080817
 30
0.0
 11
414.23392794820018
 21
-622.00255113897583
 31
0.0
  0
LINE
  5
672AA
  8
0
  6
CONTINUOUS
 62
     0
 10
388.00000000003638
 20
-685.57118440149861
 30
0.0
 11
324.43136673751718
 21
-622.00255113897947
 31
0.0
  0
LINE
  5
672AB
  8
0
  6
CONTINUOUS
 62
     0
 10
402.43136673751718
 20
-700.00255113897583
 30
0.0
 11
388.00000000003638
 21
-685.57118440149861
 31
0.0
  0
LINE
  5
672AC
  8
0
  6
CONTINUOUS
 62
     0
 10
312.62880552682691
 20
-700.00255113897583
 30
0.0
 11
234.62880552682691
 21
-622.00255113897583
 31
0.0
  0
LINE
  5
672AD
  8
0
  6
CONTINUOUS
 62
     0
 10
222.82624431612561
 20
-700.00255113897583
 30
0.0
 11
144.82624431612561
 21
-622.00255113897583
 31
0.0
  0
LINE
  5
672AE
  8
0
  6
CONTINUOUS
 62
     0
 10
88.000000000032742
 20
-654.97886803356948
 30
0.0
 11
55.023683105442622
 21
-622.00255113897947
 31
0.0
  0
LINE
  5
672AF
  8
0
  6
CONTINUOUS
 62
     0
 10
133.02368310544259
 20
-700.00255113897583
 30
0.0
 11
88.000000000032742
 21
-654.97886803356948
 31
0.0
  0
LINE
  5
672B0
  8
0
  6
CONTINUOUS
 62
     0
 10
43.221121894745011
 20
-700.00255113896856
 30
0.0
 11
0.0000000000400178
 21
-656.78142924426345
 31
0.0
  0
ENDBLK
  5
672B2
  8
0
  0
BLOCK
  8
0
  2
*X154
 70
     1
 10
0.0
 20
0.0
 30
0.0
  3
*X154
  1

  0
LINE
  5
672B4
  8
0
  6
CONTINUOUS
 62
     0
 10
450.00000000003268
 20
664.2313768091916
 30
0.0
 11
414.23392794820018
 21
699.99744886102405
 31
0.0
  0
LINE
  5
672B5
  8
0
  6
CONTINUOUS
 62
     0
 10
388.00000000003638
 20
636.42881559850139
 30
0.0
 11
324.43136673751718
 21
699.99744886102053
 31
0.0
  0
LINE
  5
672B6
  8
0
  6
CONTINUOUS
 62
     0
 10
402.43136673751718
 20
621.99744886102405
 30
0.0
 11
388.00000000003638
 21
636.42881559850139
 31
0.0
  0
LINE
  5
672B7
  8
0
  6
CONTINUOUS
 62
     0
 10
312.62880552682691
 20
621.99744886102405
 30
0.0
 11
234.62880552682691
 21
699.99744886102405
 31
0.0
  0
LINE
  5
672B8
  8
0
  6
CONTINUOUS
 62
     0
 10
222.82624431612561
 20
621.99744886102405
 30
0.0
 11
144.82624431612561
 21
699.99744886102405
 31
0.0
  0
LINE
  5
672B9
  8
0
  6
CONTINUOUS
 62
     0
 10
88.000000000032742
 20
667.0211319664304
 30
0.0
 11
55.023683105442622
 21
699.99744886102053
 31
0.0
  0
LINE
  5
672BA
  8
0
  6
CONTINUOUS
 62
     0
 10
133.02368310544259
 20
621.99744886102405
 30
0.0
 11
88.000000000032742
 21
667.0211319664304
 31
0.0
  0
LINE
  5
672BB
  8
0
  6
CONTINUOUS
 62
     0
 10
43.221121894745011
 20
621.99744886103144
 30
0.0
 11
0.0000000000400178
 21
665.21857075573644
 31
0.0
  0
ENDBLK
  5
672BD
  8
0
  0
BLOCK
  8
0
  2
*U155
 70
     1
 10
0.0
 20
0.0
 30
0.0
  3
*U155
  1

  0
SOLID
  5
672E7
  8
S-OBRYS
  6
CONTINUOUS
 10
44.550954280146847
 20
194.9749064097808
 30
0.0
 11
-58.905193272164617
 21
191.12870947265139
 31
0.0
 12
51.824089074327802
 22
191.12870947265139
 32
0.0
 13
51.824089074327802
 23
191.12870947265139
 33
0.0
210
0.0
220
0.0
230
1.0
  0
SOLID
  5
672E8
  8
S-OBRYS
  6
CONTINUOUS
 10
-58.90519327216461
 20
191.12870947265139
 30
0.0
 11
-117.0139769732118
 21
154.63598606144831
 31
0.0
 12
120.8316049958943
 22
154.63598606144831
 32
0.0
 13
120.8316049958943
 23
154.63598606144831
 33
0.0
210
0.0
220
0.0
230
1.0
  0
SOLID
  5
672E9
  8
S-OBRYS
  6
CONTINUOUS
 10
58.90519327216461
 20
191.12870947265139
 30
0.0
 11
-51.824089074327802
 21
191.12870947265139
 31
0.0
 12
-120.8316049958943
 22
154.63598606144831
 32
0.0
 13
-120.8316049958943
 23
154.63598606144831
 33
0.0
210
0.0
220
0.0
230
-1.0
  0
SOLID
  5
672EA
  8
S-OBRYS
  6
CONTINUOUS
 10
-117.0139769732118
 20
154.63598606144831
 30
0.0
 11
-129.8454407389228
 21
146.5777368891373
 31
0.0
 12
-7.9187739383873028
 22
146.5777368891373
 32
0.0
 13
-7.9187739383873028
 23
146.5777368891373
 33
0.0
210
0.0
220
0.0
230
1.0
  0
SOLID
  5
672EB
  8
S-OBRYS
  6
CONTINUOUS
 10
117.0139769732118
 20
154.63598606144831
 30
0.0
 11
-6.5672195654881156
 21
154.63598606144831
 31
0.0
 12
7.9187739383873028
 22
146.5777368891373
 32
0.0
 13
7.9187739383873028
 23
146.5777368891373
 33
0.0
210
0.0
220
0.0
230
-1.0
  0
SOLID
  5
672EC
  8
S-OBRYS
  6
CONTINUOUS
 10
6.5672195654881156
 20
154.63598606144831
 30
0.0
 11
72.201549540798865
 21
146.5777368891373
 31
0.0
 12
136.06970470668469
 22
146.5777368891373
 32
0.0
 13
136.06970470668469
 23
146.5777368891373
 33
0.0
210
0.0
220
0.0
230
1.0
  0
SOLID
  5
672ED
  8
S-OBRYS
  6
CONTINUOUS
 10
-6.5672195654881156
 20
154.63598606144831
 30
0.0
 11
-120.8316049958943
 21
154.63598606144831
 31
0.0
 12
-136.06970470668469
 22
146.5777368891373
 32
0.0
 13
-136.06970470668469
 23
146.5777368891373
 33
0.0
210
0.0
220
0.0
230
-1.0
  0
SOLID
  5
672EE
  8
S-OBRYS
  6
CONTINUOUS
 10
-129.8454407389228
 20
146.5777368891373
 30
0.0
 11
-141.0541275151094
 21
139.5386030392437
 31
0.0
 12
-20.572744427763961
 22
139.5386030392437
 32
0.0
 13
-20.572744427763961
 23
139.5386030392437
 33
0.0
210
0.0
220
0.0
230
1.0
  0
SOLID
  5
672EF
  8
S-OBRYS
  6
CONTINUOUS
 10
129.8454407389228
 20
146.5777368891373
 30
0.0
 11
7.9187739383873028
 21
146.5777368891373
 31
0.0
 12
20.572744427763961
 22
139.5386030392437
 32
0.0
 13
20.572744427763961
 23
139.5386030392437
 33
0.0
210
0.0
220
0.0
230
-1.0
  0
SOLID
  5
672F0
  8
S-OBRYS
  6
CONTINUOUS
 10
-72.201549540798865
 20
146.5777368891373
 30
0.0
 11
-136.0697047066846
 21
146.5777368891373
 31
0.0
 12
-129.53519906752251
 22
139.5386030392437
 32
0.0
 13
-129.53519906752251
 23
139.5386030392437
 33
0.0
210
0.0
220
0.0
230
-1.0
  0
SOLID
  5
672F1
  8
S-OBRYS
  6
CONTINUOUS
 10
136.0697047066846
 20
146.5777368891373
 30
0.0
 11
129.5351990675228
 21
139.5386030392437
 31
0.0
 12
143.09108860080289
 22
139.5386030392437
 32
0.0
 13
143.09108860080289
 23
139.5386030392437
 33
0.0
210
0.0
220
0.0
230
1.0
  0
SOLID
  5
672F2
  8
S-OBRYS
  6
CONTINUOUS
 10
-141.0541275151094
 20
139.5386030392437
 30
0.0
 11
-146.577746761573
 21
136.06973144098379
 31
0.0
 12
-26.808596703322301
 22
136.06973144098379
 32
0.0
 13
-26.808596703322301
 23
136.06973144098379
 33
0.0
210
0.0
220
0.0
230
1.0
  0
SOLID
  5
672F3
  8
S-OBRYS
  6
CONTINUOUS
 10
141.0541275151094
 20
139.5386030392437
 30
0.0
 11
20.572744427763961
 21
139.5386030392437
 31
0.0
 12
26.808596703322301
 22
136.06973144098379
 32
0.0
 13
26.808596703322301
 23
136.06973144098379
 33
0.0
210
0.0
220
0.0
230
-1.0
  0
SOLID
  5
672F4
  8
S-OBRYS
  6
CONTINUOUS
 10
129.53519906752311
 20
139.5386030392437
 30
0.0
 11
136.25658556636
 21
136.06973144098379
 31
0.0
 12
146.55121305505739
 22
136.06973144098379
 32
0.0
 13
146.55121305505739
 23
136.06973144098379
 33
0.0
210
0.0
220
0.0
230
1.0
  0
SOLID
  5
672F5
  8
S-OBRYS
  6
CONTINUOUS
 10
-129.53519906752311
 20
139.5386030392437
 30
0.0
 11
-143.09108860080289
 21
139.5386030392437
 31
0.0
 12
-146.55121305505739
 22
136.06973144098379
 32
0.0
 13
-146.55121305505739
 23
136.06973144098379
 33
0.0
210
0.0
220
0.0
230
-1.0
  0
SOLID
  5
672F6
  8
S-OBRYS
  6
CONTINUOUS
 10
-146.577746761573
 20
136.06973144098379
 30
0.0
 11
-146.77368165489949
 21
135.69921976065609
 31
0.0
 12
-146.17862225930841
 22
135.69921976065609
 32
0.0
 13
-146.17862225930841
 23
135.69921976065609
 33
0.0
210
0.0
220
0.0
230
1.0
  0
SOLID
  5
672F7
  8
S-OBRYS
  6
CONTINUOUS
 10
-146.577746761573
 20
136.06973144098379
 30
0.0
 11
-146.1786222593083
 21
135.69921976065609
 31
0.0
 12
-27.47465079020499
 22
135.69921976065609
 32
0.0
 13
-27.47465079020499
 23
135.69921976065609
 33
0.0
210
0.0
220
0.0
230
1.0
  0
SOLID
  5
672F8
  8
S-OBRYS
  6
CONTINUOUS
 10
146.577746761573
 20
136.06973144098379
 30
0.0
 11
26.808596703322301
 21
136.06973144098379
 31
0.0
 12
27.47465079020499
 22
135.69921976065609
 32
0.0
 13
27.47465079020499
 23
135.69921976065609
 33
0.0
210
0.0
220
0.0
230
-1.0
  0
SOLID
  5
672F9
  8
S-OBRYS
  6
CONTINUOUS
 10
136.25658556636
 20
136.06973144098379
 30
0.0
 11
136.9744997742728
 21
135.69921976065609
 31
0.0
 12
146.92079044913899
 22
135.69921976065609
 32
0.0
 13
146.92079044913899
 23
135.69921976065609
 33
0.0
  0
SOLID
  5
672FA
  8
S-OBRYS
  6
CONTINUOUS
 10
-136.25658556636
 20
136.06973144098379
 30
0.0
 11
-146.55121305505739
 21
136.06973144098379
 31
0.0
 12
-146.92079044913899
 22
135.69921976065609
 32
0.0
 13
-146.92079044913899
 23
135.69921976065609
 33
0.0
210
0.0
220
0.0
230
-1.0
  0
SOLID
  5
672FB
  8
S-OBRYS
  6
CONTINUOUS
 10
-146.77368165489949
 20
135.69921976065609
 30
0.0
 11
-148.561624258481
 21
132.3182312744525
 31
0.0
 12
-142.53653641325681
 22
132.3182312744525
 32
0.0
 13
-142.53653641325681
 23
132.3182312744525
 33
0.0
210
0.0
220
0.0
230
1.0
  0
SOLID
  5
672FC
  8
S-OBRYS
  6
CONTINUOUS
 10
146.77368165489949
 20
135.69921976065609
 30
0.0
 11
146.17862225930841
 21
135.69921976065609
 31
0.0
 12
142.53653641325681
 22
132.3182312744525
 32
0.0
 13
142.53653641325681
 23
132.3182312744525
 33
0.0
210
0.0
220
0.0
230
-1.0
  0
SOLID
  5
672FD
  8
S-OBRYS
  6
CONTINUOUS
 10
-146.1786222593083
 20
135.69921976065609
 30
0.0
 11
-142.5365364132567
 21
132.3182312744525
 31
0.0
 12
-33.552519096401468
 22
132.3182312744525
 32
0.0
 13
-33.552519096401468
 23
132.3182312744525
 33
0.0
  0
SOLID
  5
672FE
  8
S-OBRYS
  6
CONTINUOUS
 10
146.1786222593083
 20
135.69921976065609
 30
0.0
 11
27.47465079020499
 21
135.69921976065609
 31
0.0
 12
33.552519096401468
 22
132.3182312744525
 32
0.0
 13
33.552519096401468
 23
132.3182312744525
 33
0.0
210
0.0
220
0.0
230
-1.0
  0
SOLID
  5
672FF
  8
S-OBRYS
  6
CONTINUOUS
 10
136.9744997742728
 20
135.69921976065609
 30
0.0
 11
143.5256013991617
 21
132.3182312744525
 31
0.0
 12
149.81095848922959
 22
132.3182312744525
 32
0.0
 13
149.81095848922959
 23
132.3182312744525
 33
0.0
210
0.0
220
0.0
230
1.0
  0
SOLID
  5
67300
  8
S-OBRYS
  6
CONTINUOUS
 10
-136.9744997742728
 20
135.69921976065609
 30
0.0
 11
-146.92079044913899
 21
135.69921976065609
 31
0.0
 12
-149.81095848922959
 22
132.3182312744525
 32
0.0
 13
-149.81095848922959
 23
132.3182312744525
 33
0.0
210
0.0
220
0.0
230
-1.0
  0
SOLID
  5
67301
  8
S-OBRYS
  6
CONTINUOUS
 10
-148.561624258481
 20
132.3182312744525
 30
0.0
 11
-152.950032580835
 21
124.0197780797475
 31
0.0
 12
-133.5972338844588
 22
124.0197780797475
 32
0.0
 13
-133.5972338844588
 23
124.0197780797475
 33
0.0
  0
SOLID
  5
67302
  8
S-OBRYS
  6
CONTINUOUS
 10
148.561624258481
 20
132.3182312744525
 30
0.0
 11
142.53653641325681
 21
132.3182312744525
 31
0.0
 12
133.5972338844588
 22
124.0197780797475
 32
0.0
 13
133.5972338844588
 23
124.0197780797475
 33
0.0
210
0.0
220
0.0
230
-1.0
  0
SOLID
  5
67303
  8
S-OBRYS
  6
CONTINUOUS
 10
-142.5365364132567
 20
132.3182312744525
 30
0.0
 11
-133.59723388445869
 21
124.0197780797475
 31
0.0
 12
-48.470317801828479
 22
124.0197780797475
 32
0.0
 13
-48.470317801828479
 23
124.0197780797475
 33
0.0
210
0.0
220
0.0
230
1.0
  0
SOLID
  5
67304
  8
S-OBRYS
  6
CONTINUOUS
 10
142.5365364132567
 20
132.3182312744525
 30
0.0
 11
33.552519096401468
 21
132.3182312744525
 31
0.0
 12
48.470317801828479
 22
124.0197780797475
 32
0.0
 13
48.470317801828479
 23
124.0197780797475
 33
0.0
210
0.0
220
0.0
230
-1.0
  0
SOLID
  5
67305
  8
S-OBRYS
  6
CONTINUOUS
 10
-143.5256013991617
 20
132.3182312744525
 30
0.0
 11
-149.81095848922959
 21
132.3182312744525
 31
0.0
 12
-156.90471947167379
 22
124.0197780797475
 32
0.0
 13
-156.90471947167379
 23
124.0197780797475
 33
0.0
210
0.0
220
0.0
230
-1.0
  0
SOLID
  5
67306
  8
S-OBRYS
  6
CONTINUOUS
 10
-152.950032580835
 20
124.0197780797475
 30
0.0
 11
-168.60875252864801
 21
94.409234795978335
 31
0.0
 12
-101.7000118064241
 22
94.409234795978335
 32
0.0
 13
-101.7000118064241
 23
94.409234795978335
 33
0.0
  0
SOLID
  5
67307
  8
S-OBRYS
  6
CONTINUOUS
 10
152.950032580835
 20
124.0197780797475
 30
0.0
 11
133.5972338844588
 21
124.0197780797475
 31
0.0
 12
101.7000118064241
 22
94.409234795978335
 32
0.0
 13
101.7000118064241
 23
94.409234795978335
 33
0.0
210
0.0
220
0.0
230
-1.0
  0
SOLID
  5
67308
  8
S-OBRYS
  6
CONTINUOUS
 10
133.59723388445869
 20
124.0197780797475
 30
0.0
 11
48.470317801828479
 21
124.0197780797475
 31
0.0
 12
101.7000118064241
 22
94.409234795978335
 32
0.0
 13
101.7000118064241
 23
94.409234795978335
 33
0.0
210
0.0
220
0.0
230
-1.0
  0
SOLID
  5
67309
  8
S-OBRYS
  6
CONTINUOUS
 10
-168.60875252864801
 20
94.409234795978335
 30
0.0
 11
-194.97491628221741
 21
44.550981014445448
 31
0.0
 12
-124.767371782472
 22
44.550981014445448
 32
0.0
 13
-124.767371782472
 23
44.550981014445448
 33
0.0
  0
SOLID
  5
6730A
  8
S-OBRYS
  6
CONTINUOUS
 10
168.60875252864801
 20
94.409234795978335
 30
0.0
 11
101.7000118064241
 21
94.409234795978335
 31
0.0
 12
124.767371782472
 22
44.550981014445448
 32
0.0
 13
124.767371782472
 23
44.550981014445448
 33
0.0
210
0.0
220
0.0
230
-1.0
  0
SOLID
  5
6730B
  8
S-OBRYS
  6
CONTINUOUS
 10
-194.97491628221741
 20
44.550981014445448
 30
0.0
 11
-192.6482991404294
 21
-18.031057880888518
 31
0.0
 12
-153.72150293915519
 22
-18.031057880888518
 32
0.0
 13
-153.72150293915519
 23
-18.031057880888518
 33
0.0
210
0.0
220
0.0
230
1.0
  0
SOLID
  5
6730C
  8
S-OBRYS
  6
CONTINUOUS
 10
194.97491628221741
 20
44.550981014445448
 30
0.0
 11
124.767371782472
 21
44.550981014445448
 31
0.0
 12
153.72150293915519
 22
-18.031057880888518
 32
0.0
 13
153.72150293915519
 23
-18.031057880888518
 33
0.0
210
0.0
220
0.0
230
-1.0
  0
SOLID
  5
6730D
  8
S-OBRYS
  6
CONTINUOUS
 10
-192.6482991404294
 20
-18.031057880888518
 30
0.0
 11
-191.1287193450878
 21
-58.905166537866897
 31
0.0
 12
-145.58544643259989
 22
-58.905166537866897
 32
0.0
 13
-145.58544643259989
 23
-58.905166537866897
 33
0.0
210
0.0
220
0.0
230
1.0
  0
SOLID
  5
6730E
  8
S-OBRYS
  6
CONTINUOUS
 10
192.6482991404294
 20
-18.031057880888518
 30
0.0
 11
153.72150293915519
 21
-18.031057880888518
 31
0.0
 12
145.58544643259989
 22
-58.905166537866897
 32
0.0
 13
145.58544643259989
 23
-58.905166537866897
 33
0.0
210
0.0
220
0.0
230
-1.0
  0
SOLID
  5
6730F
  8
S-OBRYS
  6
CONTINUOUS
 10
-191.1287193450878
 20
-58.905166537866897
 30
0.0
 11
-140.4903667038966
 21
-139.53858617738231
 31
0.0
 12
-129.53523567425751
 22
-139.53858617738231
 32
0.0
 13
-129.53523567425751
 23
-139.53858617738231
 33
0.0
210
0.0
220
0.0
230
1.0
  0
SOLID
  5
67310
  8
S-OBRYS
  6
CONTINUOUS
 10
191.1287193450878
 20
-58.905166537866897
 30
0.0
 11
145.58544643259989
 21
-58.905166537866897
 31
0.0
 12
129.53523567425751
 22
-139.53858617738231
 32
0.0
 13
129.53523567425751
 23
-139.53858617738231
 33
0.0
210
0.0
220
0.0
230
-1.0
  0
SOLID
  5
67311
  8
S-OBRYS
  6
CONTINUOUS
 10
140.4903667038966
 20
-139.53858617738231
 30
0.0
 11
129.53523567425759
 21
-139.53858617738231
 31
0.0
 12
136.0697413134194
 22
-146.57772002727569
 32
0.0
 13
136.0697413134194
 23
-146.57772002727569
 33
0.0
210
0.0
220
0.0
230
-1.0
  0
SOLID
  5
67312
  8
S-OBRYS
  6
CONTINUOUS
 10
-129.53523567425751
 20
-139.53858617738231
 30
0.0
 11
-136.0697413134194
 21
-146.57772002727569
 31
0.0
 12
-125.2121400426451
 22
-146.57772002727569
 32
0.0
 13
-125.2121400426451
 23
-146.57772002727569
 33
0.0
210
0.0
220
0.0
230
1.0
  0
SOLID
  5
67313
  8
S-OBRYS
  6
CONTINUOUS
 10
-136.0697413134194
 20
-146.57772002727569
 30
0.0
 11
-128.64834715820271
 21
-152.9542450331025
 31
0.0
 12
-121.2959867224501
 22
-152.9542450331025
 32
0.0
 13
-121.2959867224501
 23
-152.9542450331025
 33
0.0
210
0.0
220
0.0
230
1.0
  0
SOLID
  5
67314
  8
S-OBRYS
  6
CONTINUOUS
 10
136.0697413134194
 20
-146.57772002727569
 30
0.0
 11
125.2121400426451
 21
-146.57772002727569
 31
0.0
 12
121.2959867224501
 22
-152.9542450331025
 32
0.0
 13
121.2959867224501
 23
-152.9542450331025
 33
0.0
210
0.0
220
0.0
230
-1.0
  0
SOLID
  5
67315
  8
S-OBRYS
  6
CONTINUOUS
 10
-128.64834715820271
 20
-152.9542450331025
 30
0.0
 11
-124.4155441826761
 21
-156.5911053660374
 31
0.0
 12
-118.6470868850928
 22
-156.5911053660374
 32
0.0
 13
-118.6470868850928
 23
-156.5911053660374
 33
0.0
210
0.0
220
0.0
230
1.0
  0
SOLID
  5
67316
  8
S-OBRYS
  6
CONTINUOUS
 10
128.64834715820271
 20
-152.9542450331025
 30
0.0
 11
121.2959867224501
 21
-152.9542450331025
 31
0.0
 12
118.6470868850928
 22
-156.5911053660374
 32
0.0
 13
118.6470868850928
 23
-156.5911053660374
 33
0.0
210
0.0
220
0.0
230
-1.0
  0
SOLID
  5
67317
  8
S-OBRYS
  6
CONTINUOUS
 10
124.4155441826761
 20
-156.5911053660374
 30
0.0
 11
118.6470868850928
 21
-156.5911053660374
 31
0.0
 12
112.0270211232598
 22
-165.6802578628913
 32
0.0
 13
112.0270211232598
 23
-165.6802578628913
 33
0.0
210
0.0
220
0.0
230
-1.0
  0
LINE
  5
67318
  8
S-OBRYS
  6
CONTINUOUS
 10
44.550954280146847
 20
194.9749064097808
 30
0.0
 11
-58.905193272164617
 21
191.12870947265139
 31
0.0
  0
LINE
  5
67319
  8
S-OBRYS
  6
CONTINUOUS
 10
51.824089074327802
 20
191.12870947265139
 30
0.0
 11
44.550954280146847
 21
194.9749064097808
 31
0.0
  0
LINE
  5
6731A
  8
S-OBRYS
  6
CONTINUOUS
 10
-58.90519327216461
 20
191.12870947265139
 30
0.0
 11
-117.0139769732118
 21
154.63598606144831
 31
0.0
  0
LINE
  5
6731B
  8
S-OBRYS
  6
CONTINUOUS
 10
51.824089074327802
 20
191.12870947265139
 30
0.0
 11
120.8316049958943
 21
154.63598606144831
 31
0.0
  0
LINE
  5
6731C
  8
S-OBRYS
  6
CONTINUOUS
 10
-117.0139769732118
 20
154.63598606144831
 30
0.0
 11
-129.8454407389228
 21
146.5777368891373
 31
0.0
  0
LINE
  5
6731D
  8
S-OBRYS
  6
CONTINUOUS
 10
120.8316049958943
 20
154.63598606144831
 30
0.0
 11
136.06970470668469
 21
146.5777368891373
 31
0.0
  0
LINE
  5
6731E
  8
S-OBRYS
  6
CONTINUOUS
 10
-129.8454407389228
 20
146.5777368891373
 30
0.0
 11
-141.0541275151094
 21
139.5386030392437
 31
0.0
  0
LINE
  5
6731F
  8
S-OBRYS
  6
CONTINUOUS
 10
-7.9187739383873028
 20
146.5777368891373
 30
0.0
 11
-20.572744427763961
 21
139.5386030392437
 31
0.0
  0
LINE
  5
67320
  8
S-OBRYS
  6
CONTINUOUS
 10
136.0697047066846
 20
146.5777368891373
 30
0.0
 11
129.53519906752251
 21
139.5386030392437
 31
0.0
  0
LINE
  5
67321
  8
S-OBRYS
  6
CONTINUOUS
 10
129.53519906752251
 20
139.5386030392437
 30
0.0
 11
72.201549540798865
 21
146.5777368891373
 31
0.0
  0
LINE
  5
67322
  8
S-OBRYS
  6
CONTINUOUS
 10
136.0697047066846
 20
146.5777368891373
 30
0.0
 11
129.5351990675228
 21
139.5386030392437
 31
0.0
  0
LINE
  5
67323
  8
S-OBRYS
  6
CONTINUOUS
 10
143.09108860080289
 20
139.5386030392437
 30
0.0
 11
136.0697047066846
 21
146.5777368891373
 31
0.0
  0
LINE
  5
67324
  8
S-OBRYS
  6
CONTINUOUS
 10
-141.0541275151094
 20
139.5386030392437
 30
0.0
 11
-146.577746761573
 21
136.06973144098379
 31
0.0
  0
LINE
  5
67325
  8
S-OBRYS
  6
CONTINUOUS
 10
-20.572744427763961
 20
139.5386030392437
 30
0.0
 11
-26.808596703322301
 21
136.06973144098379
 31
0.0
  0
LINE
  5
67326
  8
S-OBRYS
  6
CONTINUOUS
 10
129.53519906752311
 20
139.5386030392437
 30
0.0
 11
136.25658556636
 21
136.06973144098379
 31
0.0
  0
LINE
  5
67327
  8
S-OBRYS
  6
CONTINUOUS
 10
143.09108860080289
 20
139.5386030392437
 30
0.0
 11
146.55121305505739
 21
136.06973144098379
 31
0.0
  0
LINE
  5
67328
  8
S-OBRYS
  6
CONTINUOUS
 10
-146.577746761573
 20
136.06973144098379
 30
0.0
 11
-146.77368165489949
 21
135.69921976065609
 31
0.0
  0
LINE
  5
67329
  8
S-OBRYS
  6
CONTINUOUS
 10
-146.17862225930841
 20
135.69921976065609
 30
0.0
 11
-146.577746761573
 21
136.06973144098379
 31
0.0
  0
LINE
  5
6732A
  8
S-OBRYS
  6
CONTINUOUS
 10
-146.577746761573
 20
136.06973144098379
 30
0.0
 11
-146.1786222593083
 21
135.69921976065609
 31
0.0
  0
LINE
  5
6732B
  8
S-OBRYS
  6
CONTINUOUS
 10
-26.808596703322301
 20
136.06973144098379
 30
0.0
 11
-27.47465079020499
 21
135.69921976065609
 31
0.0
  0
LINE
  5
6732C
  8
S-OBRYS
  6
CONTINUOUS
 10
136.25658556636
 20
136.06973144098379
 30
0.0
 11
136.9744997742728
 21
135.69921976065609
 31
0.0
  0
LINE
  5
6732D
  8
S-OBRYS
  6
CONTINUOUS
 10
146.55121305505739
 20
136.06973144098379
 30
0.0
 11
146.92079044913899
 21
135.69921976065609
 31
0.0
  0
LINE
  5
6732E
  8
S-OBRYS
  6
CONTINUOUS
 10
-146.77368165489949
 20
135.69921976065609
 30
0.0
 11
-148.561624258481
 21
132.3182312744525
 31
0.0
  0
LINE
  5
6732F
  8
S-OBRYS
  6
CONTINUOUS
 10
-146.17862225930841
 20
135.69921976065609
 30
0.0
 11
-142.53653641325681
 21
132.3182312744525
 31
0.0
  0
LINE
  5
67330
  8
S-OBRYS
  6
CONTINUOUS
 10
-146.1786222593083
 20
135.69921976065609
 30
0.0
 11
-142.5365364132567
 21
132.3182312744525
 31
0.0
  0
LINE
  5
67331
  8
S-OBRYS
  6
CONTINUOUS
 10
-27.47465079020499
 20
135.69921976065609
 30
0.0
 11
-33.552519096401468
 21
132.3182312744525
 31
0.0
  0
LINE
  5
67332
  8
S-OBRYS
  6
CONTINUOUS
 10
136.9744997742728
 20
135.69921976065609
 30
0.0
 11
143.5256013991617
 21
132.3182312744525
 31
0.0
  0
LINE
  5
67333
  8
S-OBRYS
  6
CONTINUOUS
 10
146.92079044913899
 20
135.69921976065609
 30
0.0
 11
149.81095848922959
 21
132.3182312744525
 31
0.0
  0
LINE
  5
67334
  8
S-OBRYS
  6
CONTINUOUS
 10
-148.561624258481
 20
132.3182312744525
 30
0.0
 11
-152.950032580835
 21
124.0197780797475
 31
0.0
  0
LINE
  5
67335
  8
S-OBRYS
  6
CONTINUOUS
 10
-142.53653641325681
 20
132.3182312744525
 30
0.0
 11
-133.5972338844588
 21
124.0197780797475
 31
0.0
  0
LINE
  5
67336
  8
S-OBRYS
  6
CONTINUOUS
 10
-142.5365364132567
 20
132.3182312744525
 30
0.0
 11
-133.59723388445869
 21
124.0197780797475
 31
0.0
  0
LINE
  5
67337
  8
S-OBRYS
  6
CONTINUOUS
 10
-33.552519096401468
 20
132.3182312744525
 30
0.0
 11
-48.470317801828479
 21
124.0197780797475
 31
0.0
  0
LINE
  5
67338
  8
S-OBRYS
  6
CONTINUOUS
 10
149.81095848922959
 20
132.3182312744525
 30
0.0
 11
156.90471947167379
 21
124.0197780797475
 31
0.0
  0
LINE
  5
67339
  8
S-OBRYS
  6
CONTINUOUS
 10
156.90471947167379
 20
124.0197780797475
 30
0.0
 11
143.5256013991617
 21
132.3182312744525
 31
0.0
  0
LINE
  5
6733A
  8
S-OBRYS
  6
CONTINUOUS
 10
-152.950032580835
 20
124.0197780797475
 30
0.0
 11
-168.60875252864801
 21
94.409234795978335
 31
0.0
  0
LINE
  5
6733B
  8
S-OBRYS
  6
CONTINUOUS
 10
-48.470317801828479
 20
124.0197780797475
 30
0.0
 11
-101.7000118064241
 21
94.409234795978335
 31
0.0
  0
LINE
  5
6733C
  8
S-OBRYS
  6
CONTINUOUS
 10
-101.7000118064241
 20
94.409234795978335
 30
0.0
 11
-133.59723388445869
 21
124.0197780797475
 31
0.0
  0
LINE
  5
6733D
  8
S-OBRYS
  6
CONTINUOUS
 10
-168.60875252864801
 20
94.409234795978335
 30
0.0
 11
-194.97491628221741
 21
44.550981014445448
 31
0.0
  0
LINE
  5
6733E
  8
S-OBRYS
  6
CONTINUOUS
 10
-101.7000118064241
 20
94.409234795978335
 30
0.0
 11
-124.767371782472
 21
44.550981014445448
 31
0.0
  0
LINE
  5
6733F
  8
S-OBRYS
  6
CONTINUOUS
 10
-194.97491628221741
 20
44.550981014445448
 30
0.0
 11
-192.6482991404294
 21
-18.031057880888518
 31
0.0
  0
LINE
  5
67340
  8
S-OBRYS
  6
CONTINUOUS
 10
-124.767371782472
 20
44.550981014445448
 30
0.0
 11
-153.72150293915519
 21
-18.031057880888518
 31
0.0
  0
LINE
  5
67341
  8
S-OBRYS
  6
CONTINUOUS
 10
-192.6482991404294
 20
-18.031057880888518
 30
0.0
 11
-191.1287193450878
 21
-58.905166537866897
 31
0.0
  0
LINE
  5
67342
  8
S-OBRYS
  6
CONTINUOUS
 10
-153.72150293915519
 20
-18.031057880888518
 30
0.0
 11
-145.58544643259989
 21
-58.905166537866897
 31
0.0
  0
LINE
  5
67343
  8
S-OBRYS
  6
CONTINUOUS
 10
-191.1287193450878
 20
-58.905166537866897
 30
0.0
 11
-140.4903667038966
 21
-139.53858617738231
 31
0.0
  0
LINE
  5
67344
  8
S-OBRYS
  6
CONTINUOUS
 10
-145.58544643259989
 20
-58.905166537866897
 30
0.0
 11
-129.53523567425751
 21
-139.53858617738231
 31
0.0
  0
LINE
  5
67345
  8
S-OBRYS
  6
CONTINUOUS
 10
-129.53523567425759
 20
-139.53858617738231
 30
0.0
 11
-136.0697413134194
 21
-146.57772002727569
 31
0.0
  0
LINE
  5
67346
  8
S-OBRYS
  6
CONTINUOUS
 10
-125.2121400426451
 20
-146.57772002727569
 30
0.0
 11
-129.53523567425751
 21
-139.53858617738231
 31
0.0
  0
LINE
  5
67347
  8
S-OBRYS
  6
CONTINUOUS
 10
-136.0697413134194
 20
-146.57772002727569
 30
0.0
 11
-128.64834715820271
 21
-152.9542450331025
 31
0.0
  0
LINE
  5
67348
  8
S-OBRYS
  6
CONTINUOUS
 10
-125.2121400426451
 20
-146.57772002727569
 30
0.0
 11
-121.2959867224501
 21
-152.9542450331025
 31
0.0
  0
LINE
  5
67349
  8
S-OBRYS
  6
CONTINUOUS
 10
-128.64834715820271
 20
-152.9542450331025
 30
0.0
 11
-124.4155441826761
 21
-156.5911053660374
 31
0.0
  0
LINE
  5
6734A
  8
S-OBRYS
  6
CONTINUOUS
 10
-121.2959867224501
 20
-152.9542450331025
 30
0.0
 11
-118.6470868850928
 21
-156.5911053660374
 31
0.0
  0
LINE
  5
6734B
  8
S-OBRYS
  6
CONTINUOUS
 10
-118.6470868850928
 20
-156.5911053660374
 30
0.0
 11
-112.0270211232598
 21
-165.6802578628913
 31
0.0
  0
LINE
  5
6734C
  8
S-OBRYS
  6
CONTINUOUS
 10
-112.0270211232598
 20
-165.6802578628913
 30
0.0
 11
-124.4155441826761
 21
-156.5911053660374
 31
0.0
  0
ENDBLK
  5
6734E
  8
0
  0
BLOCK
  8
0
  2
*U156
 70
     1
 10
0.0
 20
0.0
 30
0.0
  3
*U156
  1

  0
TEXT
  5
67350
  8
S-OBRYS
  6
CONTINUOUS
 62
     7
 10
32733.397963925301
 20
407419.69995376479
 30
0.0
 40
75.0
  1
\U+2205216
 41
0.8
  0
ENDBLK
  5
67352
  8
0
  0
BLOCK
  8
0
  2
*U157
 70
     1
 10
0.0
 20
0.0
 30
0.0
  3
*U157
  1

  0
TEXT
  5
67354
  8
S-OBRYS
  6
CONTINUOUS
 62
     7
 10
31832.494923688591
 20
406899.59731987893
 30
0.0
 40
75.0
  1
\U+2205280
 41
0.8
  0
ENDBLK
  5
67356
  8
0
  0
BLOCK
  8
0
  2
*U158
 70
     1
 10
0.0
 20
0.0
 30
0.0
  3
*U158
  1

  0
TEXT
  5
67358
  8
S-OBRYS
  6
CONTINUOUS
 62
     7
 10
33135.249673314232
 20
406233.44269486697
 30
0.0
 40
75.0
  1
1560
 50
90.0
 41
0.8
  0
ENDBLK
  5
6735A
  8
0
  0
BLOCK
  8
0
  2
*U159
 70
     1
 10
0.0
 20
0.0
 30
0.0
  3
*U159
  1

  0
TEXT
  5
6735C
  8
S-OBRYS
  6
CONTINUOUS
 62
     7
 10
32744.655010458209
 20
407260.11609872658
 30
0.0
 40
75.0
  1
\U+2205120
 41
0.8
  0
ENDBLK
  5
6735E
  8
0
  0
BLOCK
  8
0
  2
*U160
 70
     1
 10
0.0
 20
0.0
 30
0.0
  3
*U160
  1

  0
TEXT
  5
67360
  8
S-OBRYS
  6
CONTINUOUS
 62
     7
 10
31767.142628457252
 20
406122.03882648161
 30
0.0
 40
75.0
  1
36
 41
0.8
  0
ENDBLK
  5
67362
  8
0
  0
BLOCK
  8
0
  2
*U161
 70
     1
 10
0.0
 20
0.0
 30
0.0
  3
*U161
  1

  0
TEXT
  5
67364
  8
S-OBRYS
  6
CONTINUOUS
 62
     7
 10
31760.130571004149
 20
406278.17424745631
 30
0.0
 40
75.0
  1
\U+2205320
 41
0.8
  0
ENDBLK
  5
67366
  8
0
  0
BLOCK
  8
0
  2
*U162
 70
     1
 10
0.0
 20
0.0
 30
0.0
  3
*U162
  1

  0
TEXT
  5
67368
  8
S-OBRYS
  6
CONTINUOUS
 62
     7
 10
32280.999771314389
 20
406501.01412343851
 30
0.0
 40
75.0
  1
\U+2205368
 41
0.8
  0
ENDBLK
  5
6736A
  8
0
  0
BLOCK
  8
0
  2
*U163
 70
     1
 10
0.0
 20
0.0
 30
0.0
  3
*U163
  1

  0
TEXT
  5
6736C
  8
S-OBRYS
  6
CONTINUOUS
 62
     7
 10
31820.952152266771
 20
406727.94178604562
 30
0.0
 40
75.0
  1
\U+2205192
 41
0.8
  0
ENDBLK
  5
6736E
  8
0
  0
BLOCK
  8
0
  2
*U164
 70
     1
 10
0.0
 20
0.0
 30
0.0
  3
*U164
  1

  0
TEXT
  5
67370
  8
S-OBRYS
  6
CONTINUOUS
 62
     7
 10
32887.431870167209
 20
405981.44269486697
 30
0.0
 40
75.0
  1
1056
 50
90.0
 41
0.8
  0
ENDBLK
  5
67372
  8
0
  0
BLOCK
  8
0
  2
*U165
 70
     1
 10
0.0
 20
0.0
 30
0.0
  3
*U165
  1

  0
TEXT
  5
67374
  8
S-OBRYS
  6
CONTINUOUS
 62
     7
 10
32686.285485600059
 20
405402.3341622306
 30
0.0
 40
75.0
  1
\U+2205152
 41
0.8
  0
ENDBLK
  5
67376
  8
0
  0
BLOCK
  8
0
  2
*U166
 70
     1
 10
0.0
 20
0.0
 30
0.0
  3
*U166
  1

  0
TEXT
  5
67378
  8
S-OBRYS
  6
CONTINUOUS
 62
     7
 10
32694.285485600099
 20
405220.29920371121
 30
0.0
 40
75.0
  1
\U+2205168
 41
0.8
  0
ENDBLK
  5
6737A
  8
0
  0
BLOCK
  8
0
  2
*U167
 70
     1
 10
0.0
 20
0.0
 30
0.0
  3
*U167
  1

  0
TEXT
  5
6737C
  8
S-OBRYS
  6
CONTINUOUS
 62
     7
 10
31795.70749773709
 20
405910.57344252052
 30
0.0
 40
75.0
  1
\U+2205384
 41
0.8
  0
ENDBLK
  5
6737E
  8
0
  0
BLOCK
  8
0
  2
*U168
 70
     1
 10
0.0
 20
0.0
 30
0.0
  3
*U168
  1

  0
TEXT
  5
67380
  8
S-OBRYS
  6
CONTINUOUS
 62
     7
 10
31830.346715518721
 20
407109.87421735958
 30
0.0
 40
75.0
  1
\U+2205320
 41
0.8
  0
ENDBLK
  5
67382
  8
0
  0
BLOCK
  8
0
  2
*U169
 70
     1
 10
0.0
 20
0.0
 30
0.0
  3
*U169
  1

  0
TEXT
  5
67384
  8
S-OBRYS
  6
CONTINUOUS
 62
     7
 10
31498.489763134421
 20
406682.31258395081
 30
0.0
 40
75.0
  1
600
 41
0.8
  0
ENDBLK
  5
67386
  8
0
  0
BLOCK
  8
0
  2
*U170
 70
     1
 10
0.0
 20
0.0
 30
0.0
  3
*U170
  1

  0
TEXT
  5
67388
  8
S-OBRYS
  6
CONTINUOUS
 62
     7
 10
32304.941051845319
 20
404649.65964934288
 30
0.0
 40
75.0
  1
600
 41
0.8
  0
ENDBLK
  5
6738A
  8
0
  0
BLOCK
  8
0
  2
*U171
 70
     1
 10
0.0
 20
0.0
 30
0.0
  3
*U171
  1

  0
TEXT
  5
6738C
  8
S-OBRYS
  6
CONTINUOUS
 62
     7
 10
32849.257438873727
 20
404094.60085071082
 30
0.0
 40
75.0
  1
600
 50
90.0
 41
0.8
  0
ENDBLK
  5
6738E
  8
0
  0
BLOCK
  8
0
  2
*U172
 70
     1
 10
0.0
 20
0.0
 30
0.0
  3
*U172
  1

  0
TEXT
  5
67390
  8
S-OBRYS
  6
CONTINUOUS
 62
     7
 10
31939.95496474026
 20
403783.27107619448
 30
0.0
 40
75.0
  1
\U+2205320
 50
43.768002963498724
 41
0.8
  0
ENDBLK
  5
67392
  8
0
  0
BLOCK
  8
0
  2
*U173
 70
     1
 10
0.0
 20
0.0
 30
0.0
  3
*U173
  1

  0
TEXT
  5
67394
  8
S-OBRYS
  6
CONTINUOUS
 62
     7
 10
31851.464002931742
 20
404076.8042946629
 30
0.0
 40
75.0
  1
\U+2205216
 50
13.586930508144571
 41
0.8
  0
ENDBLK
  5
67396
  8
0
  0
BLOCK
  8
0
  2
*U174
 70
     1
 10
0.0
 20
0.0
 30
0.0
  3
*U174
  1

  0
TEXT
  5
67398
  8
S-OBRYS
  6
CONTINUOUS
 62
     7
 10
31797.254960910479
 20
404413.6940432252
 30
0.0
 40
75.0
  1
\U+2205120
 50
340.94108424747219
 41
0.8
  0
ENDBLK
  5
6739A
  8
0
  0
BLOCK
  8
0
  2
*U175
 70
     1
 10
0.0
 20
0.0
 30
0.0
  3
*U175
  1

  0
TEXT
  5
6739C
  8
S-OBRYS
  6
CONTINUOUS
 62
     7
 10
38589.326039393811
 20
404649.65964934288
 30
0.0
 40
75.0
  1
600
 41
0.8
  0
ENDBLK
  5
6739E
  8
0
  0
BLOCK
  8
0
  2
*U176
 70
     1
 10
0.0
 20
0.0
 30
0.0
  3
*U176
  1

  0
TEXT
  5
673A0
  8
S-OBRYS
  6
CONTINUOUS
 62
     7
 10
39133.642426422222
 20
404094.60085071082
 30
0.0
 40
75.0
  1
600
 50
90.0
 41
0.8
  0
ENDBLK
  5
673A2
  8
0
  0
BLOCK
  8
0
  2
*U177
 70
     1
 10
0.0
 20
0.0
 30
0.0
  3
*U177
  1

  0
TEXT
  5
673A4
  8
S-OBRYS
  6
CONTINUOUS
 62
     7
 10
37782.87475068291
 20
406682.31258395081
 30
0.0
 40
75.0
  1
600
 41
0.8
  0
ENDBLK
  5
673A6
  8
0
  0
BLOCK
  8
0
  2
*U178
 70
     1
 10
0.0
 20
0.0
 30
0.0
  3
*U178
  1

  0
TEXT
  5
673A8
  8
S-OBRYS
  6
CONTINUOUS
 62
     7
 10
38224.339952288799
 20
403783.27107619442
 30
0.0
 40
75.0
  1
\U+2205320
 50
43.768002963509517
 41
0.8
  0
ENDBLK
  5
673AA
  8
0
  0
BLOCK
  8
0
  2
*U179
 70
     1
 10
0.0
 20
0.0
 30
0.0
  3
*U179
  1

  0
TEXT
  5
673AC
  8
S-OBRYS
  6
CONTINUOUS
 62
     7
 10
38135.848990480197
 20
404076.80429466272
 30
0.0
 40
75.0
  1
\U+2205216
 50
13.586930508144571
 41
0.8
  0
ENDBLK
  5
673AE
  8
0
  0
BLOCK
  8
0
  2
*U180
 70
     1
 10
0.0
 20
0.0
 30
0.0
  3
*U180
  1

  0
TEXT
  5
673B0
  8
S-OBRYS
  6
CONTINUOUS
 62
     7
 10
38081.639948459189
 20
404413.69404322573
 30
0.0
 40
75.0
  1
\U+2205120
 50
340.94108424741972
 41
0.8
  0
ENDBLK
  5
673B2
  8
0
  0
BLOCK
  8
0
  2
*U181
 70
     1
 10
0.0
 20
0.0
 30
0.0
  3
*U181
  1

  0
TEXT
  5
673B4
  8
S-OBRYS
  6
CONTINUOUS
 62
     7
 10
38565.384758862871
 20
406501.01412343851
 30
0.0
 40
75.0
  1
\U+2205368
 41
0.8
  0
ENDBLK
  5
673B6
  8
0
  0
BLOCK
  8
0
  2
*U182
 70
     1
 10
0.0
 20
0.0
 30
0.0
  3
*U182
  1

  0
TEXT
  5
673B8
  8
S-OBRYS
  6
CONTINUOUS
 62
     7
 10
38044.515558552637
 20
406278.17424745631
 30
0.0
 40
75.0
  1
\U+2205320
 41
0.8
  0
ENDBLK
  5
673BA
  8
0
  0
BLOCK
  8
0
  2
*U183
 70
     1
 10
0.0
 20
0.0
 30
0.0
  3
*U183
  1

  0
TEXT
  5
673BC
  8
S-OBRYS
  6
CONTINUOUS
 62
     7
 10
38051.527616005733
 20
406122.03882648161
 30
0.0
 40
75.0
  1
36
 41
0.8
  0
ENDBLK
  5
673BE
  8
0
  0
BLOCK
  8
0
  2
*U184
 70
     1
 10
0.0
 20
0.0
 30
0.0
  3
*U184
  1

  0
TEXT
  5
673C0
  8
S-OBRYS
  6
CONTINUOUS
 62
     7
 10
38080.092485285582
 20
405910.57344252052
 30
0.0
 40
75.0
  1
\U+2205384
 41
0.8
  0
ENDBLK
  5
673C2
  8
0
  0
BLOCK
  8
0
  2
*U185
 70
     1
 10
0.0
 20
0.0
 30
0.0
  3
*U185
  1

  0
TEXT
  5
673C4
  8
S-OBRYS
  6
CONTINUOUS
 62
     7
 10
39029.039998006687
 20
407260.11609872658
 30
0.0
 40
75.0
  1
\U+2205120
 41
0.8
  0
ENDBLK
  5
673C6
  8
0
  0
BLOCK
  8
0
  2
*U186
 70
     1
 10
0.0
 20
0.0
 30
0.0
  3
*U186
  1

  0
TEXT
  5
673C8
  8
S-OBRYS
  6
CONTINUOUS
 62
     7
 10
39017.782951473782
 20
407419.69995376479
 30
0.0
 40
75.0
  1
\U+2205216
 41
0.8
  0
ENDBLK
  5
673CA
  8
0
  0
BLOCK
  8
0
  2
*U187
 70
     1
 10
0.0
 20
0.0
 30
0.0
  3
*U187
  1

  0
TEXT
  5
673CC
  8
S-OBRYS
  6
CONTINUOUS
 62
     7
 10
39171.816857715698
 20
405981.44269486697
 30
0.0
 40
75.0
  1
1056
 50
90.0
 41
0.8
  0
ENDBLK
  5
673CE
  8
0
  0
BLOCK
  8
0
  2
*U188
 70
     1
 10
0.0
 20
0.0
 30
0.0
  3
*U188
  1

  0
TEXT
  5
673D0
  8
S-OBRYS
  6
CONTINUOUS
 62
     7
 10
39419.634660862721
 20
406233.44269486697
 30
0.0
 40
75.0
  1
1560
 50
90.0
 41
0.8
  0
ENDBLK
  5
673D2
  8
0
  0
BLOCK
  8
0
  2
*U189
 70
     1
 10
0.0
 20
0.0
 30
0.0
  3
*U189
  1

  0
TEXT
  5
673D4
  8
S-OBRYS
  6
CONTINUOUS
 62
     7
 10
38978.670473148588
 20
405220.29920371121
 30
0.0
 40
75.0
  1
\U+2205168
 41
0.8
  0
ENDBLK
  5
673D6
  8
0
  0
BLOCK
  8
0
  2
*U190
 70
     1
 10
0.0
 20
0.0
 30
0.0
  3
*U190
  1

  0
TEXT
  5
673D8
  8
S-OBRYS
  6
CONTINUOUS
 62
     7
 10
38970.670473148537
 20
405402.3341622306
 30
0.0
 40
75.0
  1
\U+2205152
 41
0.8
  0
ENDBLK
  5
673DA
  8
0
  0
BLOCK
  8
0
  2
*U191
 70
     1
 10
0.0
 20
0.0
 30
0.0
  3
*U191
  1

  0
TEXT
  5
673DC
  8
S-OBRYS
  6
CONTINUOUS
 62
     7
 10
38114.731703067198
 20
407109.87421735958
 30
0.0
 40
75.0
  1
\U+2205320
 41
0.8
  0
ENDBLK
  5
673DE
  8
0
  0
BLOCK
  8
0
  2
*U192
 70
     1
 10
0.0
 20
0.0
 30
0.0
  3
*U192
  1

  0
TEXT
  5
673E0
  8
S-OBRYS
  6
CONTINUOUS
 62
     7
 10
38116.879911237083
 20
406899.59731987893
 30
0.0
 40
75.0
  1
\U+2205280
 41
0.8
  0
ENDBLK
  5
673E2
  8
0
  0
BLOCK
  8
0
  2
*U193
 70
     1
 10
0.0
 20
0.0
 30
0.0
  3
*U193
  1

  0
TEXT
  5
673E4
  8
S-OBRYS
  6
CONTINUOUS
 62
     7
 10
38105.337139815252
 20
406727.94178604562
 30
0.0
 40
75.0
  1
\U+2205192
 41
0.8
  0
ENDBLK
  5
673E6
  8
0
  0
BLOCK
  8
0
  2
*U194
 70
     1
 10
0.0
 20
0.0
 30
0.0
  3
*U194
  1

  0
TEXT
  5
673E8
  8
OBRYS
  6
CONTINUOUS
 10
48751.038200391857
 20
408716.6014216523
 30
0.0
 40
190.0
  1
AUTOMATICKÁ DÁVKOVACÍ A 
  7
R
  0
TEXT
  5
673E9
  8
OBRYS
  6
CONTINUOUS
 10
48746.096003860068
 20
408339.39284747117
 30
0.0
 40
190.0
  1
PRŮTOKOVÁ VÁHA AVPD 14,60,120
  7
R
  0
ENDBLK
  5
673EB
  8
0
  0
BLOCK
  8
0
  2
*U195
 70
     1
 10
0.0
 20
0.0
 30
0.0
  3
*U195
  1

  0
TEXT
  5
673ED
  8
S-OBRYS
  6
CONTINUOUS
 62
     7
 10
44140.309857976659
 20
406899.59731987893
 30
0.0
 40
75.0
  1
\U+2205280
 41
0.8
  0
ENDBLK
  5
673EF
  8
0
  0
BLOCK
  8
0
  2
*U196
 70
     1
 10
0.0
 20
0.0
 30
0.0
  3
*U196
  1

  0
TEXT
  5
673F1
  8
S-OBRYS
  6
CONTINUOUS
 62
     7
 10
44067.94550529222
 20
406278.17424745631
 30
0.0
 40
75.0
  1
\U+2205320
 41
0.8
  0
ENDBLK
  5
673F3
  8
0
  0
BLOCK
  8
0
  2
*U197
 70
     1
 10
0.0
 20
0.0
 30
0.0
  3
*U197
  1

  0
TEXT
  5
673F5
  8
S-OBRYS
  6
CONTINUOUS
 62
     7
 10
44612.755986133387
 20
404649.65964934288
 30
0.0
 40
75.0
  1
600
 41
0.8
  0
ENDBLK
  5
673F7
  8
0
  0
BLOCK
  8
0
  2
*U198
 70
     1
 10
0.0
 20
0.0
 30
0.0
  3
*U198
  1

  0
TEXT
  5
673F9
  8
S-OBRYS
  6
CONTINUOUS
 62
     7
 10
45157.072373161813
 20
404094.60085071082
 30
0.0
 40
75.0
  1
600
 50
90.0
 41
0.8
  0
ENDBLK
  5
673FB
  8
0
  0
BLOCK
  8
0
  2
*U199
 70
     1
 10
0.0
 20
0.0
 30
0.0
  3
*U199
  1

  0
TEXT
  5
673FD
  8
S-OBRYS
  6
CONTINUOUS
 62
     7
 10
43806.3046974225
 20
406682.31258395081
 30
0.0
 40
75.0
  1
600
 41
0.8
  0
ENDBLK
  5
673FF
  8
0
  0
BLOCK
  8
0
  2
*U200
 70
     1
 10
0.0
 20
0.0
 30
0.0
  3
*U200
  1

  0
TEXT
  5
67401
  8
S-OBRYS
  6
CONTINUOUS
 62
     7
 10
44247.769899028339
 20
403783.27107619442
 30
0.0
 40
75.0
  1
\U+2205320
 50
43.768002963509517
 41
0.8
  0
ENDBLK
  5
67403
  8
0
  0
BLOCK
  8
0
  2
*U201
 70
     1
 10
0.0
 20
0.0
 30
0.0
  3
*U201
  1

  0
TEXT
  5
67405
  8
S-OBRYS
  6
CONTINUOUS
 62
     7
 10
44159.278937219788
 20
404076.80429466272
 30
0.0
 40
75.0
  1
\U+2205216
 50
13.586930508144571
 41
0.8
  0
ENDBLK
  5
67407
  8
0
  0
BLOCK
  8
0
  2
*U202
 70
     1
 10
0.0
 20
0.0
 30
0.0
  3
*U202
  1

  0
TEXT
  5
67409
  8
S-OBRYS
  6
CONTINUOUS
 62
     7
 10
44105.069895198802
 20
404413.69404322573
 30
0.0
 40
75.0
  1
\U+2205120
 50
340.94108424741972
 41
0.8
  0
ENDBLK
  5
6740B
  8
0
  0
BLOCK
  8
0
  2
*U203
 70
     1
 10
0.0
 20
0.0
 30
0.0
  3
*U203
  1

  0
TEXT
  5
6740D
  8
S-OBRYS
  6
CONTINUOUS
 62
     7
 10
51336.854932294758
 20
407260.11609872658
 30
0.0
 40
75.0
  1
\U+2205120
 41
0.8
  0
ENDBLK
  5
6740F
  8
0
  0
BLOCK
  8
0
  2
*U204
 70
     1
 10
0.0
 20
0.0
 30
0.0
  3
*U204
  1

  0
TEXT
  5
67411
  8
S-OBRYS
  6
CONTINUOUS
 62
     7
 10
51325.597885761861
 20
407419.69995376479
 30
0.0
 40
75.0
  1
\U+2205216
 41
0.8
  0
ENDBLK
  5
67413
  8
0
  0
BLOCK
  8
0
  2
*U205
 70
     1
 10
0.0
 20
0.0
 30
0.0
  3
*U205
  1

  0
TEXT
  5
67415
  8
S-OBRYS
  6
CONTINUOUS
 62
     7
 10
51479.631792003769
 20
405981.44269486697
 30
0.0
 40
75.0
  1
1056
 50
90.0
 41
0.8
  0
ENDBLK
  5
67417
  8
0
  0
BLOCK
  8
0
  2
*U206
 70
     1
 10
0.0
 20
0.0
 30
0.0
  3
*U206
  1

  0
TEXT
  5
67419
  8
S-OBRYS
  6
CONTINUOUS
 62
     7
 10
51727.449595150792
 20
406233.44269486697
 30
0.0
 40
75.0
  1
1560
 50
90.0
 41
0.8
  0
ENDBLK
  5
6741B
  8
0
  0
BLOCK
  8
0
  2
*U207
 70
     1
 10
0.0
 20
0.0
 30
0.0
  3
*U207
  1

  0
TEXT
  5
6741D
  8
S-OBRYS
  6
CONTINUOUS
 62
     7
 10
51286.485407436659
 20
405220.29920371121
 30
0.0
 40
75.0
  1
\U+2205168
 41
0.8
  0
ENDBLK
  5
6741F
  8
0
  0
BLOCK
  8
0
  2
*U208
 70
     1
 10
0.0
 20
0.0
 30
0.0
  3
*U208
  1

  0
TEXT
  5
67421
  8
S-OBRYS
  6
CONTINUOUS
 62
     7
 10
51278.485407436623
 20
405402.3341622306
 30
0.0
 40
75.0
  1
\U+2205152
 41
0.8
  0
ENDBLK
  5
67423
  8
0
  0
BLOCK
  8
0
  2
*U209
 70
     1
 10
0.0
 20
0.0
 30
0.0
  3
*U209
  1

  0
TEXT
  5
67425
  8
S-OBRYS
  6
CONTINUOUS
 62
     7
 10
50422.54663735527
 20
407109.87421735958
 30
0.0
 40
75.0
  1
\U+2205320
 41
0.8
  0
ENDBLK
  5
67427
  8
0
  0
BLOCK
  8
0
  2
*U210
 70
     1
 10
0.0
 20
0.0
 30
0.0
  3
*U210
  1

  0
TEXT
  5
67429
  8
S-OBRYS
  6
CONTINUOUS
 62
     7
 10
50424.694845525148
 20
406899.59731987893
 30
0.0
 40
75.0
  1
\U+2205280
 41
0.8
  0
ENDBLK
  5
6742B
  8
0
  0
BLOCK
  8
0
  2
*U211
 70
     1
 10
0.0
 20
0.0
 30
0.0
  3
*U211
  1

  0
TEXT
  5
6742D
  8
S-OBRYS
  6
CONTINUOUS
 62
     7
 10
50413.152074103331
 20
406727.94178604562
 30
0.0
 40
75.0
  1
\U+2205192
 41
0.8
  0
ENDBLK
  5
6742F
  8
0
  0
BLOCK
  8
0
  2
*U212
 70
     1
 10
0.0
 20
0.0
 30
0.0
  3
*U212
  1

  0
TEXT
  5
67431
  8
S-OBRYS
  6
CONTINUOUS
 62
     7
 10
50873.199693150942
 20
406501.01412343851
 30
0.0
 40
75.0
  1
\U+2205368
 41
0.8
  0
ENDBLK
  5
67433
  8
0
  0
BLOCK
  8
0
  2
*U213
 70
     1
 10
0.0
 20
0.0
 30
0.0
  3
*U213
  1

  0
TEXT
  5
67435
  8
S-OBRYS
  6
CONTINUOUS
 62
     7
 10
50352.330492840709
 20
406278.17424745631
 30
0.0
 40
75.0
  1
\U+2205320
 41
0.8
  0
ENDBLK
  5
67437
  8
0
  0
BLOCK
  8
0
  2
*U214
 70
     1
 10
0.0
 20
0.0
 30
0.0
  3
*U214
  1

  0
TEXT
  5
67439
  8
S-OBRYS
  6
CONTINUOUS
 62
     7
 10
50359.342550293812
 20
406122.03882648161
 30
0.0
 40
75.0
  1
36
 41
0.8
  0
ENDBLK
  5
6743B
  8
0
  0
BLOCK
  8
0
  2
*U215
 70
     1
 10
0.0
 20
0.0
 30
0.0
  3
*U215
  1

  0
TEXT
  5
6743D
  8
S-OBRYS
  6
CONTINUOUS
 62
     7
 10
50387.907419573661
 20
405910.57344252052
 30
0.0
 40
75.0
  1
\U+2205384
 41
0.8
  0
ENDBLK
  5
6743F
  8
0
  0
BLOCK
  8
0
  2
*U216
 70
     1
 10
0.0
 20
0.0
 30
0.0
  3
*U216
  1

  0
TEXT
  5
67441
  8
S-OBRYS
  6
CONTINUOUS
 62
     7
 10
50897.140973681882
 20
404649.65964934288
 30
0.0
 40
75.0
  1
600
 41
0.8
  0
ENDBLK
  5
67443
  8
0
  0
BLOCK
  8
0
  2
*U217
 70
     1
 10
0.0
 20
0.0
 30
0.0
  3
*U217
  1

  0
TEXT
  5
67445
  8
S-OBRYS
  6
CONTINUOUS
 62
     7
 10
51441.457360710301
 20
404094.60085071082
 30
0.0
 40
75.0
  1
600
 50
90.0
 41
0.8
  0
ENDBLK
  5
67447
  8
0
  0
BLOCK
  8
0
  2
*U218
 70
     1
 10
0.0
 20
0.0
 30
0.0
  3
*U218
  1

  0
TEXT
  5
67449
  8
S-OBRYS
  6
CONTINUOUS
 62
     7
 10
50090.689684970988
 20
406682.31258395081
 30
0.0
 40
75.0
  1
600
 41
0.8
  0
ENDBLK
  5
6744B
  8
0
  0
BLOCK
  8
0
  2
*U219
 70
     1
 10
0.0
 20
0.0
 30
0.0
  3
*U219
  1

  0
TEXT
  5
6744D
  8
S-OBRYS
  6
CONTINUOUS
 62
     7
 10
50532.154886576856
 20
403783.27107619459
 30
0.0
 40
75.0
  1
\U+2205320
 50
43.768002963498333
 41
0.8
  0
ENDBLK
  5
6744F
  8
0
  0
BLOCK
  8
0
  2
*U220
 70
     1
 10
0.0
 20
0.0
 30
0.0
  3
*U220
  1

  0
TEXT
  5
67451
  8
S-OBRYS
  6
CONTINUOUS
 62
     7
 10
50443.663924768298
 20
404076.80429466261
 30
0.0
 40
75.0
  1
\U+2205216
 50
13.586930508144571
 41
0.8
  0
ENDBLK
  5
67453
  8
0
  0
BLOCK
  8
0
  2
*U221
 70
     1
 10
0.0
 20
0.0
 30
0.0
  3
*U221
  1

  0
TEXT
  5
67455
  8
S-OBRYS
  6
CONTINUOUS
 62
     7
 10
50389.454882747283
 20
404413.69404322573
 30
0.0
 40
75.0
  1
\U+2205120
 50
340.94108424741728
 41
0.8
  0
ENDBLK
  5
67457
  8
0
  0
BLOCK
  8
0
  2
*U222
 70
     1
 10
0.0
 20
0.0
 30
0.0
  3
*U222
  1

  0
TEXT
  5
67459
  8
S-OBRYS
  6
CONTINUOUS
 62
     7
 10
45052.46994474627
 20
407260.11609872658
 30
0.0
 40
75.0
  1
\U+2205120
 41
0.8
  0
ENDBLK
  5
6745B
  8
0
  0
BLOCK
  8
0
  2
*U223
 70
     1
 10
0.0
 20
0.0
 30
0.0
  3
*U223
  1

  0
TEXT
  5
6745D
  8
S-OBRYS
  6
CONTINUOUS
 62
     7
 10
45041.212898213373
 20
407419.69995376479
 30
0.0
 40
75.0
  1
\U+2205216
 41
0.8
  0
ENDBLK
  5
6745F
  8
0
  0
BLOCK
  8
0
  2
*U224
 70
     1
 10
0.0
 20
0.0
 30
0.0
  3
*U224
  1

  0
TEXT
  5
67461
  8
S-OBRYS
  6
CONTINUOUS
 62
     7
 10
45195.246804455281
 20
405981.44269486697
 30
0.0
 40
75.0
  1
1056
 50
90.0
 41
0.8
  0
ENDBLK
  5
67463
  8
0
  0
BLOCK
  8
0
  2
*U225
 70
     1
 10
0.0
 20
0.0
 30
0.0
  3
*U225
  1

  0
TEXT
  5
67465
  8
S-OBRYS
  6
CONTINUOUS
 62
     7
 10
45443.064607602297
 20
406233.44269486697
 30
0.0
 40
75.0
  1
1560
 50
90.0
 41
0.8
  0
ENDBLK
  5
67467
  8
0
  0
BLOCK
  8
0
  2
*U226
 70
     1
 10
0.0
 20
0.0
 30
0.0
  3
*U226
  1

  0
TEXT
  5
67469
  8
S-OBRYS
  6
CONTINUOUS
 62
     7
 10
45002.100419888171
 20
405220.29920371121
 30
0.0
 40
75.0
  1
\U+2205168
 41
0.8
  0
ENDBLK
  5
6746B
  8
0
  0
BLOCK
  8
0
  2
*U227
 70
     1
 10
0.0
 20
0.0
 30
0.0
  3
*U227
  1

  0
TEXT
  5
6746D
  8
S-OBRYS
  6
CONTINUOUS
 62
     7
 10
44994.100419888127
 20
405402.3341622306
 30
0.0
 40
75.0
  1
\U+2205152
 41
0.8
  0
ENDBLK
  5
6746F
  8
0
  0
BLOCK
  8
0
  2
*U228
 70
     1
 10
0.0
 20
0.0
 30
0.0
  3
*U228
  1

  0
TEXT
  5
67471
  8
S-OBRYS
  6
CONTINUOUS
 62
     7
 10
44138.161649806789
 20
407109.87421735958
 30
0.0
 40
75.0
  1
\U+2205320
 41
0.8
  0
ENDBLK
  5
67473
  8
0
  0
BLOCK
  8
0
  2
*U229
 70
     1
 10
0.0
 20
0.0
 30
0.0
  3
*U229
  1

  0
TEXT
  5
67475
  8
S-OBRYS
  6
CONTINUOUS
 62
     7
 10
44104.951003453731
 20
405910.57344252052
 30
0.0
 40
75.0
  1
\U+2205380
 41
0.8
  0
ENDBLK
  5
67477
  8
0
  0
BLOCK
  8
0
  2
*U230
 70
     1
 10
0.0
 20
0.0
 30
0.0
  3
*U230
  1

  0
TEXT
  5
67479
  8
S-OBRYS
  6
CONTINUOUS
 62
     7
 10
44128.767086554843
 20
406727.94178604562
 30
0.0
 40
75.0
  1
\U+2205190
 41
0.8
  0
ENDBLK
  5
6747B
  8
0
  0
BLOCK
  8
0
  2
*U231
 70
     1
 10
0.0
 20
0.0
 30
0.0
  3
*U231
  1

  0
TEXT
  5
6747D
  8
S-OBRYS
  6
CONTINUOUS
 62
     7
 10
44074.957562745323
 20
406122.03882648161
 30
0.0
 40
75.0
  1
50
 41
0.8
  0
ENDBLK
  5
6747F
  8
0
  0
BLOCK
  8
0
  2
*U232
 70
     1
 10
0.0
 20
0.0
 30
0.0
  3
*U232
  1

  0
TEXT
  5
67481
  8
S-OBRYS
  6
CONTINUOUS
 62
     7
 10
44588.814705602461
 20
406501.01412343851
 30
0.0
 40
75.0
  1
\U+2205368
 41
0.8
  0
ENDBLK
  5
67483
  8
0
  0
BLOCK
  8
0
  2
*U233
 70
     1
 10
0.0
 20
0.0
 30
0.0
  3
*U233
  1

  0
TEXT
  5
67485
  8
S-OBRYS
  6
CONTINUOUS
 62
     7
 10
44615.957562745323
 20
406475.35018200852
 30
0.0
 40
75.0
  1
370
 41
0.8
  0
ENDBLK
  5
67487
  8
0
  0
BLOCK
  8
0
  2
*U234
 70
     1
 10
0.0
 20
0.0
 30
0.0
  3
*U234
  1

  0
TEXT
  5
67489
  8
S-OBRYS
  6
CONTINUOUS
 62
     7
 10
44152.987395511089
 20
403863.75399081962
 30
0.0
 40
75.0
  1
\U+2205380
 50
32.439679596122232
 41
0.8
  0
ENDBLK
  5
6748B
  8
0
  0
BLOCK
  8
0
  2
*U235
 70
     1
 10
0.0
 20
0.0
 30
0.0
  3
*U235
  1

  0
TEXT
  5
6748D
  8
S-OBRYS
  6
CONTINUOUS
 62
     7
 10
51535.158241498008
 20
407260.11609872658
 30
0.0
 40
75.0
  1
\U+2205120
 41
0.8
  0
ENDBLK
  5
6748F
  8
0
  0
BLOCK
  8
0
  2
*U236
 70
     1
 10
0.0
 20
0.0
 30
0.0
  3
*U236
  1

  0
TEXT
  5
67491
  8
S-OBRYS
  6
CONTINUOUS
 62
     7
 10
51523.901194965103
 20
407419.69995376479
 30
0.0
 40
75.0
  1
\U+2205216
 41
0.8
  0
ENDBLK
  5
67493
  8
0
  0
BLOCK
  8
0
  2
*U237
 70
     1
 10
0.0
 20
0.0
 30
0.0
  3
*U237
  1

  0
TEXT
  5
67495
  8
S-OBRYS
  6
CONTINUOUS
 62
     7
 10
51677.935101207018
 20
405981.44269486697
 30
0.0
 40
75.0
  1
1056
 50
90.0
 41
0.8
  0
ENDBLK
  5
67497
  8
0
  0
BLOCK
  8
0
  2
*U238
 70
     1
 10
0.0
 20
0.0
 30
0.0
  3
*U238
  1

  0
TEXT
  5
67499
  8
S-OBRYS
  6
CONTINUOUS
 62
     7
 10
51925.752904354042
 20
406233.44269486697
 30
0.0
 40
75.0
  1
1560
 50
90.0
 41
0.8
  0
ENDBLK
  5
6749B
  8
0
  0
BLOCK
  8
0
  2
*U239
 70
     1
 10
0.0
 20
0.0
 30
0.0
  3
*U239
  1

  0
TEXT
  5
6749D
  8
S-OBRYS
  6
CONTINUOUS
 62
     7
 10
51484.788716639909
 20
405220.29920371121
 30
0.0
 40
75.0
  1
\U+2205168
 41
0.8
  0
ENDBLK
  5
6749F
  8
0
  0
BLOCK
  8
0
  2
*U240
 70
     1
 10
0.0
 20
0.0
 30
0.0
  3
*U240
  1

  0
TEXT
  5
674A1
  8
S-OBRYS
  6
CONTINUOUS
 62
     7
 10
51476.788716639872
 20
405402.3341622306
 30
0.0
 40
75.0
  1
\U+2205152
 41
0.8
  0
ENDBLK
  5
674A3
  8
0
  0
BLOCK
  8
0
  2
*U241
 70
     1
 10
0.0
 20
0.0
 30
0.0
  3
*U241
  1

  0
TEXT
  5
674A5
  8
S-OBRYS
  6
CONTINUOUS
 62
     7
 10
50620.849946558526
 20
407109.87421735958
 30
0.0
 40
75.0
  1
\U+2205320
 41
0.8
  0
ENDBLK
  5
674A7
  8
0
  0
BLOCK
  8
0
  2
*U242
 70
     1
 10
0.0
 20
0.0
 30
0.0
  3
*U242
  1

  0
TEXT
  5
674A9
  8
S-OBRYS
  6
CONTINUOUS
 62
     7
 10
50622.998154728397
 20
406899.59731987893
 30
0.0
 40
75.0
  1
\U+2205280
 41
0.8
  0
ENDBLK
  5
674AB
  8
0
  0
BLOCK
  8
0
  2
*U243
 70
     1
 10
0.0
 20
0.0
 30
0.0
  3
*U243
  1

  0
TEXT
  5
674AD
  8
S-OBRYS
  6
CONTINUOUS
 62
     7
 10
50611.45538330658
 20
406727.94178604562
 30
0.0
 40
75.0
  1
\U+2205190
 41
0.8
  0
ENDBLK
  5
674AF
  8
0
  0
BLOCK
  8
0
  2
*U244
 70
     1
 10
0.0
 20
0.0
 30
0.0
  3
*U244
  1

  0
TEXT
  5
674B1
  8
S-OBRYS
  6
CONTINUOUS
 62
     7
 10
50550.633802043958
 20
406278.17424745631
 30
0.0
 40
75.0
  1
\U+2205320
 41
0.8
  0
ENDBLK
  5
674B3
  8
0
  0
BLOCK
  8
0
  2
*U245
 70
     1
 10
0.0
 20
0.0
 30
0.0
  3
*U245
  1

  0
TEXT
  5
674B5
  8
S-OBRYS
  6
CONTINUOUS
 62
     7
 10
50557.645859497061
 20
406122.03882648161
 30
0.0
 40
75.0
  1
50
 41
0.8
  0
ENDBLK
  5
674B7
  8
0
  0
BLOCK
  8
0
  2
*U246
 70
     1
 10
0.0
 20
0.0
 30
0.0
  3
*U246
  1

  0
TEXT
  5
674B9
  8
S-OBRYS
  6
CONTINUOUS
 62
     7
 10
50587.639300205468
 20
405910.57344252052
 30
0.0
 40
75.0
  1
\U+2205380
 41
0.8
  0
ENDBLK
  5
674BB
  8
0
  0
BLOCK
  8
0
  2
*U247
 70
     1
 10
0.0
 20
0.0
 30
0.0
  3
*U247
  1

  0
TEXT
  5
674BD
  8
S-OBRYS
  6
CONTINUOUS
 62
     7
 10
51095.444282885139
 20
404649.65964934288
 30
0.0
 40
75.0
  1
600
 41
0.8
  0
ENDBLK
  5
674BF
  8
0
  0
BLOCK
  8
0
  2
*U248
 70
     1
 10
0.0
 20
0.0
 30
0.0
  3
*U248
  1

  0
TEXT
  5
674C1
  8
S-OBRYS
  6
CONTINUOUS
 62
     7
 10
51639.76066991355
 20
404094.60085071082
 30
0.0
 40
75.0
  1
600
 50
90.0
 41
0.8
  0
ENDBLK
  5
674C3
  8
0
  0
BLOCK
  8
0
  2
*U249
 70
     1
 10
0.0
 20
0.0
 30
0.0
  3
*U249
  1

  0
TEXT
  5
674C5
  8
S-OBRYS
  6
CONTINUOUS
 62
     7
 10
50288.992994174238
 20
406682.31258395081
 30
0.0
 40
75.0
  1
600
 41
0.8
  0
ENDBLK
  5
674C7
  8
0
  0
BLOCK
  8
0
  2
*U250
 70
     1
 10
0.0
 20
0.0
 30
0.0
  3
*U250
  1

  0
TEXT
  5
674C9
  8
S-OBRYS
  6
CONTINUOUS
 62
     7
 10
50641.96723397154
 20
404076.80429466261
 30
0.0
 40
75.0
  1
\U+2205216
 50
13.586930508144571
 41
0.8
  0
ENDBLK
  5
674CB
  8
0
  0
BLOCK
  8
0
  2
*U251
 70
     1
 10
0.0
 20
0.0
 30
0.0
  3
*U251
  1

  0
TEXT
  5
674CD
  8
S-OBRYS
  6
CONTINUOUS
 62
     7
 10
50587.758191950677
 20
404413.69404322602
 30
0.0
 40
75.0
  1
\U+2205120
 50
340.9410842473888
 41
0.8
  0
ENDBLK
  5
674CF
  8
0
  0
BLOCK
  8
0
  2
*U252
 70
     1
 10
0.0
 20
0.0
 30
0.0
  3
*U252
  1

  0
TEXT
  5
674D1
  8
S-OBRYS
  6
CONTINUOUS
 62
     7
 10
51098.645859497061
 20
406475.35018200852
 30
0.0
 40
75.0
  1
370
 41
0.8
  0
ENDBLK
  5
674D3
  8
0
  0
BLOCK
  8
0
  2
*U253
 70
     1
 10
0.0
 20
0.0
 30
0.0
  3
*U253
  1

  0
TEXT
  5
674D5
  8
S-OBRYS
  6
CONTINUOUS
 62
     7
 10
50635.67569226287
 20
403863.7539908195
 30
0.0
 40
75.0
  1
\U+2205380
 50
32.439679596134297
 41
0.8
  0
ENDBLK
  5
674D7
  8
0
  0
ENDSEC
  0
SECTION
  2
ENTITIES
  0
TEXT
  5
2F7A5
  8
KOTY
 10
-393803.77638965531
 20
-299016.15321175661
 30
0.0
 40
150.0
  1

 41
0.7
  7
ROMANT
  0
TEXT
  5
3AD8B
  8
KOTY
 10
-14797.18019204357
 20
454294.55370899959
 30
0.0
 40
150.0
  1

 41
0.7
  7
ROMANT
  0
TEXT
  5
404AD
  8
KOTY
 10
44010.2314385153
 20
465617.23741859582
 30
0.0
 40
92.0
  1

 41
0.7
  7
CYRILLIC
  0
TEXT
  5
404B4
  8
KOTY
 10
39575.071591094718
 20
465613.29777162091
 30
0.0
 40
92.0
  1

 41
0.7
  7
CYRILLIC
  0
TEXT
  5
40B14
  8
KOTY
 10
5856.0590664841584
 20
486921.1132385282
 30
0.0
 40
150.0
  1

 41
0.7
  7
ROMANT
  0
TEXT
  5
40BFC
  8
KOTY
 10
8767.7265956277752
 20
466337.2608060218
 30
0.0
 40
150.0
  1

 41
0.7
  7
ROMANS
  0
TEXT
  5
51A7C
  8
KOTY
 10
-47677.341387967608
 20
395133.71812193602
 30
0.0
 40
150.0
  1

 41
0.7
  7
ROMANS
  0
TEXT
  5
51A94
  8
KOTY
 10
-45176.819295693742
 20
395133.7181219359
 30
0.0
 40
150.0
  1

 41
0.7
  7
ROMANS
  0
TEXT
  5
51A9B
  8
KOTY
 10
-48084.423320344351
 20
397411.27855615731
 30
0.0
 40
150.0
  1

 41
0.7
  7
ROMANT
  0
TEXT
  5
51B05
  8
RAZ
 62
     6
 10
-47365.887544580757
 20
392999.37567832542
 30
0.0
 40
193.54103193599991
  1

 41
0.8
  7
R08
  0
TEXT
  5
51B06
  8
RAZ
 62
     1
 10
-47245.037660778231
 20
393401.77274166199
 30
0.0
 40
125.41458869452801
  1

  7
ROMANS
  0
TEXT
  5
58307
  8
KOTY
 10
22966.528519463162
 20
383405.87475258159
 30
0.0
 40
150.0
  1

 41
0.7
  7
ROMANS
  0
TEXT
  5
58308
  8
KOTY
 10
22966.528519463169
 20
383855.87475258159
 30
0.0
 40
150.0
  1

 41
0.7
  7
ROMANS
  0
TEXT
  5
58315
  8
KOTY
 10
25467.050611737021
 20
383855.87475258141
 30
0.0
 40
150.0
  1

 41
0.7
  7
ROMANS
  0
TEXT
  5
58316
  8
KOTY
 10
25467.050611737021
 20
383405.87475258141
 30
0.0
 40
150.0
  1

 41
0.7
  7
ROMANS
  0
TEXT
  5
5833F
  8
KOTY
 10
22966.528519463162
 20
385205.87475258153
 30
0.0
 40
150.0
  1

 41
0.7
  7
ROMANS
  0
TEXT
  5
58340
  8
KOTY
 10
22966.528519463169
 20
385655.87475258159
 30
0.0
 40
150.0
  1

 41
0.7
  7
ROMANS
  0
TEXT
  5
58354
  8
KOTY
 10
25467.050611737021
 20
385655.87475258141
 30
0.0
 40
150.0
  1

 41
0.7
  7
ROMANS
  0
TEXT
  5
58355
  8
KOTY
 10
25467.050611737021
 20
385205.87475258141
 30
0.0
 40
150.0
  1

 41
0.7
  7
ROMANS
  0
TEXT
  5
58397
  8
KOTY
 10
25467.050611737039
 20
390605.87475258129
 30
0.0
 40
150.0
  1

 41
0.7
  7
ROMANS
  0
TEXT
  5
58398
  8
KOTY
 10
25467.050611737039
 20
391055.87475258141
 30
0.0
 40
150.0
  1

 41
0.7
  7
ROMANS
  0
TEXT
  5
583C1
  8
KOTY
 10
25467.050611737031
 20
389255.87475258141
 30
0.0
 40
150.0
  1

 41
0.7
  7
ROMANS
  0
TEXT
  5
58C84
  8
KOTY
 10
22966.52851946322
 20
387905.87475258153
 30
0.0
 40
150.0
  1

 41
0.7
  7
ROMANS
  0
INSERT
  5
66518
  8
S-OBRYS
  6
CONTINUOUS
  2
*U194
 10
0.0
 20
0.0
 30
0.0
  0
LINE
  5
6657C
  8
S-OBRYS
  6
CONTINUOUS
 10
48522.729290413241
 20
401942.64677707822
 30
0.0
 11
53772.729290413226
 21
401942.64677707822
 31
0.0
  0
LINE
  5
6657D
  8
S-OBRYS
  6
CONTINUOUS
 10
53772.729290413226
 20
401942.64677707822
 30
0.0
 11
53772.729290413226
 21
409367.64677707822
 31
0.0
  0
LINE
  5
6657E
  8
S-OBRYS
  6
CONTINUOUS
 10
53772.729290413226
 20
409367.64677707822
 30
0.0
 11
48522.729290413241
 21
409367.64677707822
 31
0.0
  0
LINE
  5
6657F
  8
S-OBRYS
  6
CONTINUOUS
 10
48522.729290413241
 20
409367.64677707822
 30
0.0
 11
48522.729290413241
 21
401942.64677707822
 31
0.0
  0
LINE
  5
66946
  8
S-OBRYS
  6
CONTINUOUS
 10
51124.360145211343
 20
407124.01412343839
 30
0.0
 11
51244.360145211343
 21
407124.01412343839
 31
0.0
  0
LINE
  5
66947
  8
S-OBRYS
  6
CONTINUOUS
 10
51244.360145211343
 20
407124.01412343839
 30
0.0
 11
51244.360145211343
 21
407044.01412343839
 31
0.0
  0
LINE
  5
66948
  8
S-OBRYS
  6
CONTINUOUS
 10
51244.360145211343
 20
407044.01412343839
 30
0.0
 11
51124.360145211343
 21
407044.01412343839
 31
0.0
  0
LINE
  5
66949
  8
S-OBRYS
  6
CONTINUOUS
 10
51124.360145211343
 20
407044.01412343839
 30
0.0
 11
51124.360145211343
 21
407124.01412343839
 31
0.0
  0
LINE
  5
6694A
  8
S-OBRYS
  6
CONTINUOUS
 10
51124.360145211343
 20
407044.01412343839
 30
0.0
 11
51024.360145211343
 21
407004.01412343839
 31
0.0
  0
LINE
  5
6694B
  8
S-OBRYS
  6
CONTINUOUS
 10
51244.360145211343
 20
407044.01412343839
 30
0.0
 11
51344.360145211343
 21
407004.01412343839
 31
0.0
  0
LINE
  5
6694C
  8
S-OBRYS
  6
CONTINUOUS
 10
51024.360145211343
 20
407004.01412343839
 30
0.0
 11
51344.360145211343
 21
407004.01412343839
 31
0.0
  0
LINE
  5
6694D
  8
S-OBRYS
  6
CONTINUOUS
 10
51344.360145211343
 20
407004.01412343839
 30
0.0
 11
51344.360145211343
 21
406900.01412343851
 31
0.0
  0
LINE
  5
6694E
  8
S-OBRYS
  6
CONTINUOUS
 10
51344.360145211343
 20
406900.01412343851
 30
0.0
 11
51024.360145211343
 21
406900.01412343851
 31
0.0
  0
LINE
  5
6694F
  8
S-OBRYS
  6
CONTINUOUS
 10
51024.360145211343
 20
406900.01412343851
 30
0.0
 11
51024.360145211343
 21
407004.01412343839
 31
0.0
  0
LINE
  5
66950
  8
S-OBRYS
  6
CONTINUOUS
 10
51324.360145211343
 20
406852.01412343839
 30
0.0
 11
51044.360145211343
 21
406852.01412343839
 31
0.0
  0
LINE
  5
66951
  8
S-OBRYS
  6
CONTINUOUS
 10
51184.360145211343
 20
406852.01412343839
 30
0.0
 11
51324.360145211343
 21
406852.01412343839
 31
0.0
  0
LINE
  5
66952
  8
S-OBRYS
  6
CONTINUOUS
 10
51184.360145211343
 20
406852.01412343839
 30
0.0
 11
51044.360145211343
 21
406852.01412343839
 31
0.0
  0
LINE
  5
66953
  8
S-OBRYS
  6
CONTINUOUS
 10
51024.360145211343
 20
406900.01412343851
 30
0.0
 11
51044.360145211343
 21
406852.01412343839
 31
0.0
  0
LINE
  5
66954
  8
S-OBRYS
  6
CONTINUOUS
 10
51324.360145211343
 20
406852.01412343839
 30
0.0
 11
51344.360145211343
 21
406900.01412343851
 31
0.0
  0
LINE
  5
66955
  8
S-OBRYS
  6
CONTINUOUS
 10
51184.360145211343
 20
406756.01412343839
 30
0.0
 11
51280.360145211343
 21
406756.01412343839
 31
0.0
  0
LINE
  5
66956
  8
S-OBRYS
  6
CONTINUOUS
 10
51184.360145211343
 20
406756.01412343839
 30
0.0
 11
51088.360145211343
 21
406756.01412343839
 31
0.0
  0
LINE
  5
66957
  8
S-OBRYS
  6
CONTINUOUS
 10
51044.360145211343
 20
406852.01412343839
 30
0.0
 11
51088.360145211343
 21
406756.01412343839
 31
0.0
  0
LINE
  5
66958
  8
S-OBRYS
  6
CONTINUOUS
 10
51280.360145211343
 20
406756.01412343839
 30
0.0
 11
51324.360145211343
 21
406852.01412343839
 31
0.0
  0
LINE
  5
66959
  8
S-OBRYS
  6
CONTINUOUS
 10
51088.360145211343
 20
406756.01412343839
 30
0.0
 11
51088.360145211343
 21
406628.01412343839
 31
0.0
  0
LINE
  5
6695A
  8
S-OBRYS
  6
CONTINUOUS
 10
51280.360145211343
 20
406756.01412343839
 30
0.0
 11
51280.360145211343
 21
406628.01412343839
 31
0.0
  0
LINE
  5
6695B
  8
S-OBRYS
  6
CONTINUOUS
 10
51184.360145211343
 20
405592.01412343839
 30
0.0
 11
51260.360145211343
 21
405592.01412343828
 31
0.0
  0
LINE
  5
6695C
  8
S-OBRYS
  6
CONTINUOUS
 10
51184.360145211343
 20
405592.01412343839
 30
0.0
 11
51108.360145211343
 21
405592.01412343828
 31
0.0
  0
LINE
  5
6695D
  8
S-OBRYS
  6
CONTINUOUS
 10
51184.360145211343
 20
405592.01412343839
 30
0.0
 11
51260.360145211343
 21
405592.01412343839
 31
0.0
  0
LINE
  5
6695E
  8
S-OBRYS
  6
CONTINUOUS
 10
51184.360145211343
 20
405592.01412343839
 30
0.0
 11
51108.360145211343
 21
405592.01412343839
 31
0.0
  0
LINE
  5
6695F
  8
S-OBRYS
  6
CONTINUOUS
 10
51108.360145211343
 20
405592.01412343839
 30
0.0
 11
51108.360145211343
 21
405640.01412343851
 31
0.0
  0
LINE
  5
66960
  8
S-OBRYS
  6
CONTINUOUS
 10
51108.360145211343
 20
405640.01412343851
 30
0.0
 11
51260.360145211329
 21
405640.01412343839
 31
0.0
  0
LINE
  5
66961
  8
S-OBRYS
  6
CONTINUOUS
 10
51260.360145211343
 20
405592.01412343839
 30
0.0
 11
51260.360145211343
 21
405640.01412343851
 31
0.0
  0
LINE
  5
66962
  8
S-OBRYS
  6
CONTINUOUS
 10
51184.360145211343
 20
405592.01412343839
 30
0.0
 11
51268.360145211343
 21
405592.01412343839
 31
0.0
  0
LINE
  5
66963
  8
S-OBRYS
  6
CONTINUOUS
 10
51268.360145211343
 20
405592.01412343839
 30
0.0
 11
51268.360145211343
 21
405584.01412343839
 31
0.0
  0
LINE
  5
66964
  8
S-OBRYS
  6
CONTINUOUS
 10
51268.360145211343
 20
405584.01412343839
 30
0.0
 11
51184.360145211343
 21
405584.01412343839
 31
0.0
  0
LINE
  5
66965
  8
S-OBRYS
  6
CONTINUOUS
 10
51184.360145211343
 20
405584.01412343839
 30
0.0
 11
51100.360145211343
 21
405584.01412343839
 31
0.0
  0
LINE
  5
66966
  8
S-OBRYS
  6
CONTINUOUS
 10
51100.360145211343
 20
405584.01412343839
 30
0.0
 11
51100.360145211343
 21
405592.01412343839
 31
0.0
  0
LINE
  5
66967
  8
S-OBRYS
  6
CONTINUOUS
 10
51100.360145211343
 20
405592.01412343839
 30
0.0
 11
51184.360145211343
 21
405592.01412343839
 31
0.0
  0
LINE
  5
66968
  8
S-OBRYS
  6
CONTINUOUS
 10
51376.360145211343
 20
405828.01412343839
 30
0.0
 11
51260.360145211343
 21
405640.01412343851
 31
0.0
  0
LINE
  5
66969
  8
S-OBRYS
  6
CONTINUOUS
 10
51184.360145211343
 20
405828.01412343839
 30
0.0
 11
50992.360145211343
 21
405828.01412343839
 31
0.0
  0
LINE
  5
6696A
  8
S-OBRYS
  6
CONTINUOUS
 10
50992.360145211343
 20
405828.01412343839
 30
0.0
 11
51108.360145211322
 21
405640.01412343839
 31
0.0
  0
LINE
  5
6696B
  8
S-OBRYS
  6
CONTINUOUS
 10
51184.360145211343
 20
405828.01412343839
 30
0.0
 11
51376.360145211343
 21
405828.01412343839
 31
0.0
  0
LINE
  5
6696C
  8
S-OBRYS
  6
CONTINUOUS
 10
51184.360145211343
 20
405972.01412343851
 30
0.0
 11
50992.360145211343
 21
405972.01412343851
 31
0.0
  0
LINE
  5
6696D
  8
S-OBRYS
  6
CONTINUOUS
 10
51184.360145211343
 20
405972.01412343851
 30
0.0
 11
51376.360145211343
 21
405972.01412343851
 31
0.0
  0
LINE
  5
6696E
  8
S-OBRYS
  6
CONTINUOUS
 10
50992.360145211343
 20
405828.01412343839
 30
0.0
 11
50992.360145211343
 21
405972.01412343839
 31
0.0
  0
LINE
  5
6696F
  8
S-OBRYS
  6
CONTINUOUS
 10
51376.360145211343
 20
405972.01412343851
 30
0.0
 11
51376.360145211343
 21
405828.01412343839
 31
0.0
  0
LINE
  5
66970
  8
S-OBRYS
  6
CONTINUOUS
 10
51376.360145211343
 20
405972.01412343851
 30
0.0
 11
51368.360145211343
 21
405972.01412343851
 31
0.0
  0
LINE
  5
66971
  8
S-OBRYS
  6
CONTINUOUS
 10
51368.360145211343
 20
405972.01412343851
 30
0.0
 11
51368.360145211343
 21
406404.01412343851
 31
0.0
  0
LINE
  5
66972
  8
S-OBRYS
  6
CONTINUOUS
 10
51368.360145211343
 20
406404.01412343851
 30
0.0
 11
51000.360145211343
 21
406404.01412343851
 31
0.0
  0
LINE
  5
66973
  8
S-OBRYS
  6
CONTINUOUS
 10
50992.360145211343
 20
405972.01412343839
 30
0.0
 11
51000.360145211343
 21
405972.01412343839
 31
0.0
  0
LINE
  5
66974
  8
S-OBRYS
  6
CONTINUOUS
 10
51000.360145211343
 20
405972.01412343839
 30
0.0
 11
51000.360145211343
 21
406404.01412343851
 31
0.0
  0
LINE
  5
66975
  8
S-OBRYS
  6
CONTINUOUS
 10
51368.360145211343
 20
406404.01412343851
 30
0.0
 11
51344.360145211343
 21
406404.01412343851
 31
0.0
  0
LINE
  5
66976
  8
S-OBRYS
  6
CONTINUOUS
 10
51344.360145211343
 20
406404.01412343851
 30
0.0
 11
51344.360145211343
 21
406476.01412343839
 31
0.0
  0
LINE
  5
66977
  8
S-OBRYS
  6
CONTINUOUS
 10
51000.360145211343
 20
406404.01412343851
 30
0.0
 11
51024.360145211343
 21
406404.01412343851
 31
0.0
  0
LINE
  5
66978
  8
S-OBRYS
  6
CONTINUOUS
 10
51024.360145211343
 20
406404.01412343851
 30
0.0
 11
51024.360145211343
 21
406476.01412343851
 31
0.0
  0
LINE
  5
66979
  8
S-OBRYS
  6
CONTINUOUS
 10
51024.360145211343
 20
406476.01412343851
 30
0.0
 11
51344.360145211343
 21
406476.01412343839
 31
0.0
  0
LINE
  5
6697A
  8
S-OBRYS
  6
CONTINUOUS
 10
51344.360145211343
 20
406476.01412343839
 30
0.0
 11
51368.360145211343
 21
406476.01412343839
 31
0.0
  0
LINE
  5
6697B
  8
S-OBRYS
  6
CONTINUOUS
 10
51369.360145211343
 20
406476.01412343839
 30
0.0
 11
51369.360145211343
 21
406628.01412343851
 31
0.0
  0
LINE
  5
6697C
  8
S-OBRYS
  6
CONTINUOUS
 10
51184.360145211343
 20
406628.01412343839
 30
0.0
 11
51368.360145211343
 21
406628.01412343839
 31
0.0
  0
LINE
  5
6697D
  8
S-OBRYS
  6
CONTINUOUS
 10
51184.360145211343
 20
406628.01412343839
 30
0.0
 11
51000.360145211343
 21
406628.01412343839
 31
0.0
  0
LINE
  5
6697E
  8
S-OBRYS
  6
CONTINUOUS
 10
51024.360145211343
 20
406476.01412343851
 30
0.0
 11
51000.360145211343
 21
406476.01412343851
 31
0.0
  0
LINE
  5
6697F
  8
S-OBRYS
  6
CONTINUOUS
 10
50999.360145211343
 20
406476.01412343851
 30
0.0
 11
50999.360145211343
 21
406628.01412343839
 31
0.0
  0
LINE
  5
66980
  8
S-OBRYS
  6
CONTINUOUS
 10
51184.360145211343
 20
407124.01412343839
 30
0.0
 11
51292.360145211343
 21
407124.01412343839
 31
0.0
  0
LINE
  5
66981
  8
S-OBRYS
  6
CONTINUOUS
 10
51292.360145211343
 20
407124.01412343839
 30
0.0
 11
51292.360145211343
 21
407132.01412343851
 31
0.0
  0
LINE
  5
66982
  8
S-OBRYS
  6
CONTINUOUS
 10
51292.360145211343
 20
407132.01412343851
 30
0.0
 11
51076.360145211343
 21
407132.01412343851
 31
0.0
  0
LINE
  5
66983
  8
S-OBRYS
  6
CONTINUOUS
 10
51076.360145211343
 20
407132.01412343851
 30
0.0
 11
51076.360145211343
 21
407124.01412343839
 31
0.0
  0
LINE
  5
66984
  8
S-OBRYS
  6
CONTINUOUS
 10
51076.360145211343
 20
407124.01412343839
 30
0.0
 11
51124.360145211343
 21
407124.01412343839
 31
0.0
  0
LINE
  5
66985
  8
S-OBRYS
  6
CONTINUOUS
 10
51268.360145211343
 20
405792.01412343851
 30
0.0
 11
51184.360145211343
 21
405792.01412343851
 31
0.0
  0
LINE
  5
66986
  8
S-OBRYS
  6
CONTINUOUS
 10
51184.360145211343
 20
405792.01412343851
 30
0.0
 11
51100.360145211343
 21
405792.01412343851
 31
0.0
  0
LINE
  5
66987
  8
S-OBRYS
  6
CONTINUOUS
 10
51184.360145211343
 20
405792.01412343851
 30
0.0
 11
51480.360145211343
 21
405792.01412343851
 31
0.0
  0
LINE
  5
66988
  8
S-OBRYS
  6
CONTINUOUS
 10
51480.360145211343
 20
405792.01412343851
 30
0.0
 11
51480.360145211343
 21
405828.01412343839
 31
0.0
  0
LINE
  5
66989
  8
S-OBRYS
  6
CONTINUOUS
 10
51480.360145211343
 20
405828.01412343839
 30
0.0
 11
51184.360145211343
 21
405828.01412343839
 31
0.0
  0
LINE
  5
6698A
  8
S-OBRYS
  6
CONTINUOUS
 10
51184.360145211343
 20
405828.01412343839
 30
0.0
 11
50888.360145211343
 21
405828.01412343839
 31
0.0
  0
LINE
  5
6698B
  8
S-OBRYS
  6
CONTINUOUS
 10
50888.360145211343
 20
405828.01412343839
 30
0.0
 11
50888.360145211343
 21
405792.01412343851
 31
0.0
  0
LINE
  5
6698C
  8
S-OBRYS
  6
CONTINUOUS
 10
50888.360145211343
 20
405792.01412343851
 30
0.0
 11
51100.360145211343
 21
405792.01412343851
 31
0.0
  0
LINE
  5
6698D
  8
S-OBRYS
  6
CONTINUOUS
 10
50888.360145211343
 20
406476.01412343851
 30
0.0
 11
50888.360145211343
 21
406628.01412343839
 31
0.0
  0
LINE
  5
6698E
  8
S-OBRYS
  6
CONTINUOUS
 10
50888.360145211343
 20
405828.01412343839
 30
0.0
 11
50888.360145211343
 21
406476.01412343851
 31
0.0
  0
LINE
  5
6698F
  8
S-OBRYS
  6
CONTINUOUS
 10
50888.360145211343
 20
406628.01412343839
 30
0.0
 11
50924.360145211343
 21
406628.01412343839
 31
0.0
  0
LINE
  5
66990
  8
S-OBRYS
  6
CONTINUOUS
 10
50938.360145211343
 20
406628.01412343839
 30
0.0
 11
50938.360145211343
 21
405580.01412343839
 31
0.0
  0
LINE
  5
66991
  8
S-OBRYS
  6
CONTINUOUS
 10
50924.360145211343
 20
405580.01412343839
 30
0.0
 11
50888.360145211343
 21
405580.01412343839
 31
0.0
  0
LINE
  5
66992
  8
S-OBRYS
  6
CONTINUOUS
 10
50888.360145211343
 20
405580.01412343839
 30
0.0
 11
50888.360145211343
 21
405792.01412343862
 31
0.0
  0
LINE
  5
66993
  8
S-OBRYS
  6
CONTINUOUS
 10
51480.360145211343
 20
405828.01412343839
 30
0.0
 11
51480.360145211343
 21
405792.01412343851
 31
0.0
  0
LINE
  5
66994
  8
S-OBRYS
  6
CONTINUOUS
 10
51480.360145211343
 20
406476.01412343851
 30
0.0
 11
51480.360145211343
 21
406628.01412343839
 31
0.0
  0
LINE
  5
66995
  8
S-OBRYS
  6
CONTINUOUS
 10
51480.360145211343
 20
405828.01412343839
 30
0.0
 11
51480.360145211343
 21
406476.01412343851
 31
0.0
  0
LINE
  5
66996
  8
S-OBRYS
  6
CONTINUOUS
 10
51480.360145211343
 20
406628.01412343839
 30
0.0
 11
51444.360145211343
 21
406628.01412343839
 31
0.0
  0
LINE
  5
66997
  8
S-OBRYS
  6
CONTINUOUS
 10
51430.360145211343
 20
406628.01412343839
 30
0.0
 11
51430.360145211343
 21
405580.01412343839
 31
0.0
  0
LINE
  5
66998
  8
S-OBRYS
  6
CONTINUOUS
 10
51444.360145211343
 20
405580.01412343839
 30
0.0
 11
51480.360145211343
 21
405580.01412343839
 31
0.0
  0
LINE
  5
66999
  8
S-OBRYS
  6
CONTINUOUS
 10
51480.360145211343
 20
405580.01412343839
 30
0.0
 11
51480.360145211343
 21
405792.01412343862
 31
0.0
  0
LINE
  5
6699A
  8
S-OBRYS
  6
CONTINUOUS
 10
50924.360145211343
 20
406628.01412343839
 30
0.0
 11
51000.360145211343
 21
406628.01412343839
 31
0.0
  0
LINE
  5
6699B
  8
S-OBRYS
  6
CONTINUOUS
 10
51368.360145211343
 20
406628.01412343839
 30
0.0
 11
51444.360145211343
 21
406628.01412343839
 31
0.0
  0
LINE
  5
6699C
  8
S-OBRYS
  6
CONTINUOUS
 10
50888.360145211343
 20
405580.01412343839
 30
0.0
 11
50848.360145211343
 21
405580.01412343839
 31
0.0
  0
LINE
  5
6699D
  8
S-OBRYS
  6
CONTINUOUS
 10
50848.360145211343
 20
405580.01412343839
 30
0.0
 11
50848.360145211343
 21
405572.01412343839
 31
0.0
  0
LINE
  5
6699E
  8
S-OBRYS
  6
CONTINUOUS
 10
50848.360145211343
 20
405572.01412343839
 30
0.0
 11
50952.360145211343
 21
405572.01412343839
 31
0.0
  0
LINE
  5
6699F
  8
S-OBRYS
  6
CONTINUOUS
 10
50952.360145211343
 20
405572.01412343839
 30
0.0
 11
50952.360145211343
 21
405580.01412343839
 31
0.0
  0
LINE
  5
669A0
  8
S-OBRYS
  6
CONTINUOUS
 10
50952.360145211343
 20
405580.01412343839
 30
0.0
 11
50924.360145211343
 21
405580.01412343839
 31
0.0
  0
LINE
  5
669A1
  8
S-OBRYS
  6
CONTINUOUS
 10
51444.360145211343
 20
405580.01412343839
 30
0.0
 11
51480.360145211343
 21
405580.01412343839
 31
0.0
  0
LINE
  5
669A2
  8
S-OBRYS
  6
CONTINUOUS
 10
51480.360145211343
 20
405580.01412343839
 30
0.0
 11
51520.360145211343
 21
405580.01412343839
 31
0.0
  0
LINE
  5
669A3
  8
S-OBRYS
  6
CONTINUOUS
 10
51520.360145211343
 20
405580.01412343839
 30
0.0
 11
51520.360145211343
 21
405572.01412343839
 31
0.0
  0
LINE
  5
669A4
  8
S-OBRYS
  6
CONTINUOUS
 10
51520.360145211343
 20
405572.01412343839
 30
0.0
 11
51416.360145211343
 21
405572.01412343839
 31
0.0
  0
LINE
  5
669A5
  8
S-OBRYS
  6
CONTINUOUS
 10
51416.360145211343
 20
405572.01412343839
 30
0.0
 11
51416.360145211343
 21
405580.01412343839
 31
0.0
  0
LINE
  5
669A6
  8
S-OBRYS
  6
CONTINUOUS
 10
51416.360145211343
 20
405580.01412343839
 30
0.0
 11
51444.360145211343
 21
405580.01412343839
 31
0.0
  0
DIMENSION
  5
669A7
  8
S-OBRYS
  6
CONTINUOUS
  2
*D128
 10
51244.360145211343
 20
407235.11609872658
 30
0.0
 11
51648.01538435516
 21
407235.11609872658
 31
0.0
 70
   128
  1
%%c120
 13
51124.360145211343
 23
407124.01412343839
 33
0.0
 14
51244.360145211343
 24
407124.01412343839
 34
0.0
1001
ACAD
1000
DSTYLE
1002
{
1070
   140
1040
1.5
1002
}
  0
DIMENSION
  5
669A8
  8
S-OBRYS
  6
CONTINUOUS
  2
*D129
 10
51292.360145211343
 20
407394.69995376491
 30
0.0
 11
51636.758337822248
 21
407394.69995376491
 31
0.0
 70
   128
  1
%%c216
 13
51076.360145211343
 23
407132.01412343851
 33
0.0
 14
51292.360145211343
 24
407132.01412343851
 34
0.0
1001
ACAD
1000
DSTYLE
1002
{
1070
   140
1040
1.5
1002
}
  0
DIMENSION
  5
669A9
  8
S-OBRYS
  6
CONTINUOUS
  2
*D130
 10
51702.935101207091
 20
405572.01412343839
 30
0.0
 11
51702.935101207033
 21
406100.01412343851
 31
0.0
 70
   128
 13
51480.360145211343
 23
406628.01412343839
 33
0.0
 14
51520.360145211343
 24
405572.01412343839
 34
0.0
 50
90.0
1001
ACAD
1000
DSTYLE
1002
{
1070
   140
1040
1.5
1002
}
  0
DIMENSION
  5
669AA
  8
S-OBRYS
  6
CONTINUOUS
  2
*D131
 10
51950.7529043541
 20
405572.01412343839
 30
0.0
 11
51888.252904354042
 21
406352.01412343839
 31
0.0
 70
     0
 13
51292.360145211343
 23
407132.01412343851
 33
0.0
 14
51520.360145211343
 24
405572.01412343839
 34
0.0
 50
90.0
1001
ACAD
1000
DSTYLE
1002
{
1070
   140
1040
1.5
1002
}
  0
LINE
  5
669AB
  8
S-OBRYS
  6
CONTINUOUS
 10
50882.587140027987
 20
403881.74370785372
 30
0.0
 11
51482.587140027987
 21
403881.74370785372
 31
0.0
  0
LINE
  5
669AC
  8
S-OBRYS
  6
CONTINUOUS
 10
51482.587140027987
 20
403881.74370785372
 30
0.0
 11
51482.587140027987
 21
404481.74370785372
 31
0.0
  0
LINE
  5
669AD
  8
S-OBRYS
  6
CONTINUOUS
 10
51482.587140027987
 20
404481.74370785372
 30
0.0
 11
50882.587140027987
 21
404481.74370785372
 31
0.0
  0
LINE
  5
669AE
  8
S-OBRYS
  6
CONTINUOUS
 10
50882.587140027987
 20
404481.74370785372
 30
0.0
 11
50882.587140027987
 21
403881.74370785372
 31
0.0
  0
DIMENSION
  5
669AF
  8
S-OBRYS
  6
CONTINUOUS
  2
*D132
 10
51268.360145211343
 20
405195.29920371121
 30
0.0
 11
51597.645859497061
 21
405257.7992037111
 31
0.0
 70
     0
  1
%%c168
 13
51100.360145211343
 23
405584.01412343839
 33
0.0
 14
51268.360145211343
 24
405584.01412343839
 34
0.0
1001
ACAD
1000
DSTYLE
1002
{
1070
   140
1040
1.5
1002
}
  0
DIMENSION
  5
669B0
  8
S-OBRYS
  6
CONTINUOUS
  2
*D133
 10
51260.3601452113
 20
405377.3341622306
 30
0.0
 11
51589.645859497017
 21
405439.8341622306
 31
0.0
 70
     0
  1
%%c152
 13
51108.360145211343
 23
405640.01412343828
 33
0.0
 14
51260.3601452113
 24
405640.01412343839
 34
0.0
1001
ACAD
1000
DSTYLE
1002
{
1070
   140
1040
1.5
1002
}
  0
DIMENSION
  5
669B1
  8
S-OBRYS
  6
CONTINUOUS
  2
*D134
 10
51024.360145211343
 20
407084.8742173597
 30
0.0
 11
50733.707089415671
 21
407084.8742173597
 31
0.0
 70
   128
  1
%%c320
 13
51344.360145211343
 23
407004.01412343839
 33
0.0
 14
51024.360145211343
 24
407004.01412343839
 34
0.0
1001
ACAD
1000
DSTYLE
1002
{
1070
   140
1040
1.5
1002
}
  0
DIMENSION
  5
669B2
  8
S-OBRYS
  6
CONTINUOUS
  2
*D135
 10
51044.360145211343
 20
406874.59731987881
 30
0.0
 11
50735.855297585542
 21
406874.59731987881
 31
0.0
 70
   128
  1
%%c280
 13
51324.360145211343
 23
406852.01412343839
 33
0.0
 14
51044.360145211343
 24
406852.01412343839
 34
0.0
1001
ACAD
1000
DSTYLE
1002
{
1070
   140
1040
1.5
1002
}
  0
DIMENSION
  5
669B3
  8
S-OBRYS
  6
CONTINUOUS
  2
*D136
 10
51088.360145211343
 20
406702.94178604562
 30
0.0
 11
50724.312526163732
 21
406702.94178604562
 31
0.0
 70
   128
  1
%%c190
 13
51280.360145211343
 23
406628.01412343839
 33
0.0
 14
51088.360145211343
 24
406628.01412343839
 34
0.0
1001
ACAD
1000
DSTYLE
1002
{
1070
   140
1040
1.5
1002
}
  0
DIMENSION
  5
669B4
  8
S-OBRYS
  6
CONTINUOUS
  2
*D137
 10
51024.360145211343
 20
406253.17424745642
 30
0.0
 11
50663.49094490111
 21
406253.17424745642
 31
0.0
 70
   128
  1
%%c320
 13
51344.360145211343
 23
406440.01412343851
 33
0.0
 14
51024.360145211343
 24
406440.01412343851
 34
0.0
1001
ACAD
1000
DSTYLE
1002
{
1070
   140
1040
1.5
1002
}
  0
DIMENSION
  5
669B5
  8
S-OBRYS
  6
CONTINUOUS
  2
*D138
 10
50888.360145211343
 20
406097.03882648161
 30
0.0
 11
50614.788716639909
 21
406097.03882648161
 31
0.0
 70
   128
 13
50938.360145211343
 23
405974.96935857279
 33
0.0
 14
50888.360145211343
 24
405974.96935857291
 34
0.0
1001
ACAD
1000
DSTYLE
1002
{
1070
   140
1040
1.5
1002
}
  0
DIMENSION
  5
669B6
  8
S-OBRYS
  6
CONTINUOUS
  2
*D139
 10
50992.360145211343
 20
405885.57344252057
 30
0.0
 11
50700.496443062621
 21
405885.57344252057
 31
0.0
 70
   128
  1
%%c380
 13
51376.360145211343
 23
405900.01412343839
 33
0.0
 14
50992.360145211343
 24
405900.01412343839
 34
0.0
1001
ACAD
1000
DSTYLE
1002
{
1070
   140
1040
1.5
1002
}
  0
LINE
  5
669B7
  8
S-OBRYS
  6
CONTINUOUS
 10
50918.587140027987
 20
403917.74370785372
 30
0.0
 11
51446.587140027987
 21
403917.74370785372
 31
0.0
  0
LINE
  5
669B8
  8
S-OBRYS
  6
CONTINUOUS
 10
51446.587140027987
 20
403917.74370785372
 30
0.0
 11
51446.587140027987
 21
404445.74370785372
 31
0.0
  0
LINE
  5
669B9
  8
S-OBRYS
  6
CONTINUOUS
 10
51446.587140027987
 20
404445.74370785372
 30
0.0
 11
50918.587140027987
 21
404445.74370785378
 31
0.0
  0
LINE
  5
669BA
  8
S-OBRYS
  6
CONTINUOUS
 10
50918.587140027987
 20
404445.74370785378
 30
0.0
 11
50918.587140027987
 21
403917.74370785372
 31
0.0
  0
CIRCLE
  5
669BB
  8
S-OBRYS
  6
CONTINUOUS
 10
51182.587140027987
 20
404181.74370785372
 30
0.0
 40
60.0
  0
CIRCLE
  5
669BC
  8
S-OBRYS
  6
CONTINUOUS
 10
51182.587140027987
 20
404181.74370785372
 30
0.0
 40
108.0
  0
DIMENSION
  5
669BD
  8
S-OBRYS
  6
CONTINUOUS
  2
*D140
 10
51482.587140027987
 20
404624.65964934271
 30
0.0
 11
51182.587140027987
 21
404687.15964934282
 31
0.0
 70
     0
 13
50882.587140027987
 23
404481.74370785372
 33
0.0
 14
51482.587140027987
 24
404481.74370785372
 34
0.0
1001
ACAD
1000
DSTYLE
1002
{
1070
   140
1040
1.5
1002
}
  0
DIMENSION
  5
669BE
  8
S-OBRYS
  6
CONTINUOUS
  2
*D141
 10
51664.760669913623
 20
404481.74370785372
 30
0.0
 11
51602.26066991355
 21
404181.74370785372
 31
0.0
 70
     0
 13
51482.587140027987
 23
403881.74370785372
 33
0.0
 14
51482.587140027987
 24
404481.74370785372
 34
0.0
 50
90.0
1001
ACAD
1000
DSTYLE
1002
{
1070
   140
1040
1.5
1002
}
  0
DIMENSION
  5
669BF
  8
S-OBRYS
  6
CONTINUOUS
  2
*D142
 10
50888.360145211351
 20
406657.31258395081
 30
0.0
 11
50376.135851317093
 21
406657.31258395081
 31
0.0
 70
   128
  1
600
 13
51483.510145211338
 23
406628.01412343839
 33
0.0
 14
50888.360145211351
 24
406628.01412343839
 34
0.0
1001
ACAD
1000
DSTYLE
1002
{
1070
   140
1040
1.5
1002
}
  0
DIMENSION
  5
669C0
  8
S-OBRYS
  6
CONTINUOUS
  2
*D143
 10
51287.564718182271
 20
404207.11511074851
 30
0.0
 11
50742.85651106399
 21
404139.76728745713
 31
0.0
 70
     3
 15
51077.60956187376
 25
404156.37230495817
 35
0.0
 40
0.0
1001
ACAD
1000
DSTYLE
1002
{
1070
   140
1040
1.5
1002
}
  0
DIMENSION
  5
669C1
  8
S-OBRYS
  6
CONTINUOUS
  2
*D144
 10
51239.298138181832
 20
404162.15129380138
 30
0.0
 11
50686.265373099122
 21
404353.21206280153
 31
0.0
 70
   131
 15
51125.876141874192
 25
404201.33612190618
 35
0.0
 40
0.0
1001
ACAD
1000
DSTYLE
1002
{
1070
   140
1040
1.5
1002
}
  0
DIMENSION
  5
669C2
  8
S-OBRYS
  6
CONTINUOUS
  2
*D145
 10
51369.360145211343
 20
406450.35018200852
 30
0.0
 11
51184.360145211343
 21
406512.85018200852
 31
0.0
 70
     0
 13
50999.360145211343
 23
406514.02621448552
 33
0.0
 14
51369.360145211343
 24
406514.02621448541
 34
0.0
1001
ACAD
1000
DSTYLE
1002
{
1070
   140
1040
1.5
1002
}
  0
CIRCLE
  5
669C3
  8
S-OBRYS
  6
CONTINUOUS
 10
51182.587140028787
 20
404181.7437078536
 30
0.0
 40
190.0
  0
DIMENSION
  5
669C4
  8
S-OBRYS
  6
CONTINUOUS
  2
*D146
 10
51342.938901967747
 20
404283.66187327611
 30
0.0
 11
50710.806800163868
 21
403955.94022254337
 31
0.0
 70
     3
 15
51022.235378089877
 25
404079.82554243109
 35
0.0
 40
0.0
1001
ACAD
1000
DSTYLE
1002
{
1070
   140
1040
1.5
1002
}
  0
VIEWPORT
  5
1FAB5
 67
     1
  8
0
  6
ČERCHOVANÁ
 10
12.669026204836801
 20
9.4585013259736659
 30
0.0
 40
41.707206501782828
 41
24.2248555085413
 68
     1
 69
     1
1001
ACAD
1000
MVIEW
1002
{
1070
    16
1010
0.0
1020
0.0
1030
0.0
1010
0.0
1020
0.0
1030
1.0
1040
0.0
1040
24.2248555085413
1040
12.669026204836801
1040
9.4585013259736659
1040
50.0
1040
0.0
1040
0.0
1070
     0
1070
   100
1070
     1
1070
     1
1070
     0
1070
     0
1070
     0
1070
     0
1040
0.0
1040
0.0
1040
0.0
1040
10.0
1040
10.0
1040
10.0
1040
10.0
1070
     0
1002
{
1002
}
1002
}
  0
VIEWPORT
  5
1FAB7
 67
     1
  8
2-VZT
  6
ČERCHOVANÁ
 10
5.24999976158142
 20
3.99999976158142
 30
0.0
 40
8.3999996185302717
 41
6.3999996185302717
 68
     2
 69
     2
1001
ACAD
1000
MVIEW
1002
{
1070
    16
1010
0.0
1020
0.0
1030
0.0
1010
0.0
1020
0.0
1030
1.0
1040
0.0
1040
517776.44812413253
1040
-335493.7046016907
1040
-205251.99203018961
1040
50.0
1040
0.0
1040
0.0
1070
     0
1070
   100
1070
     1
1070
     0
1070
     0
1070
     0
1070
     0
1070
     0
1040
0.0
1040
0.0
1040
0.0
1040
1.0
1040
1.0
1040
1.0
1040
1.0
1070
     0
1002
{
1002
}
1002
}
  0
ENDSEC
  0
EOF
