  0
SECTION
  2
HEADER
  9
$ACADVER
  1
AC1009
  9
$INSBASE
 10
0.0
 20
0.0
 30
0.0
  9
$EXTMIN
 10
-53711.034976600582
 20
370888.28785929468
 30
0.0
  9
$EXTMAX
 10
-16716.104869751551
 20
385738.28785929468
 30
0.0
  9
$LIMMIN
 10
-127022.6804658414
 20
-67144.462473645661
  9
$LIMMAX
 10
-873.19720690528334
 20
6755.1563308572058
  9
$ORTHOMODE
 70
     1
  9
$REGENMODE
 70
     1
  9
$FILLMODE
 70
     1
  9
$QTEXTMODE
 70
     0
  9
$MIRRTEXT
 70
     0
  9
$DRAGMODE
 70
     2
  9
$LTSCALE
 40
50.0
  9
$OSMODE
 70
   679
  9
$ATTMODE
 70
     1
  9
$TEXTSIZE
 40
200.0
  9
$TRACEWID
 40
10.0
  9
$TEXTSTYLE
  7
R
  9
$CLAYER
  8
S-OBRYS
  9
$CELTYPE
  6
CONTINUOUS
  9
$CECOLOR
 62
   256
  9
$DIMSCALE
 40
50.0
  9
$DIMASZ
 40
2.0
  9
$DIMEXO
 40
0.063
  9
$DIMDLI
 40
5.0
  9
$DIMRND
 40
0.0
  9
$DIMDLE
 40
0.0
  9
$DIMEXE
 40
0.2
  9
$DIMTP
 40
0.0
  9
$DIMTM
 40
0.0
  9
$DIMTXT
 40
2.5
  9
$DIMCEN
 40
2.0
  9
$DIMTSZ
 40
0.0
  9
$DIMTOL
 70
     0
  9
$DIMLIM
 70
     0
  9
$DIMTIH
 70
     0
  9
$DIMTOH
 70
     0
  9
$DIMSE1
 70
     0
  9
$DIMSE2
 70
     0
  9
$DIMTAD
 70
     1
  9
$DIMZIN
 70
    12
  9
$DIMBLK
  1

  9
$DIMASO
 70
     1
  9
$DIMSHO
 70
     0
  9
$DIMPOST
  1

  9
$DIMAPOST
  1

  9
$DIMALT
 70
     0
  9
$DIMALTD
 70
     2
  9
$DIMALTF
 40
25.399999999999999
  9
$DIMLFAC
 40
1.0
  9
$DIMTOFL
 70
     1
  9
$DIMTVP
 40
0.0
  9
$DIMTIX
 70
     0
  9
$DIMSOXD
 70
     0
  9
$DIMSAH
 70
     1
  9
$DIMBLK1
  1
OPEN
  9
$DIMBLK2
  1
OPEN
  9
$DIMSTYLE
  2
EMBABA
  9
$DIMCLRD
 70
     0
  9
$DIMCLRE
 70
     0
  9
$DIMCLRT
 70
     7
  9
$DIMTFAC
 40
1.0
  9
$DIMGAP
 40
0.5
  9
$LUNITS
 70
     2
  9
$LUPREC
 70
     0
  9
$SKETCHINC
 40
10.0
  9
$FILLETRAD
 40
400.0
  9
$AUNITS
 70
     0
  9
$AUPREC
 70
     4
  9
$MENU
  1
ACAD
  9
$ELEVATION
 40
0.0
  9
$PELEVATION
 40
0.0
  9
$THICKNESS
 40
0.0
  9
$LIMCHECK
 70
     0
  9
$BLIPMODE
 70
     0
  9
$CHAMFERA
 40
0.0
  9
$CHAMFERB
 40
0.0
  9
$SKPOLY
 70
     0
  9
$TDCREATE
 40
2450205.720229167
  9
$TDUPDATE
 40
2453524.484090521
  9
$TDINDWG
 40
42.401416458299998
  9
$TDUSRTIMER
 40
42.401416458299998
  9
$USRTIMER
 70
     1
  9
$ANGBASE
 50
0.0
  9
$ANGDIR
 70
     0
  9
$PDMODE
 70
     2
  9
$PDSIZE
 40
-5.0
  9
$PLINEWID
 40
0.0
  9
$COORDS
 70
     0
  9
$SPLFRAME
 70
     0
  9
$SPLINETYPE
 70
     6
  9
$SPLINESEGS
 70
     8
  9
$ATTDIA
 70
     0
  9
$ATTREQ
 70
     1
  9
$HANDLING
 70
     1
  9
$HANDSEED
  5
6824D
  9
$SURFTAB1
 70
    18
  9
$SURFTAB2
 70
    18
  9
$SURFTYPE
 70
     6
  9
$SURFU
 70
    18
  9
$SURFV
 70
    18
  9
$UCSNAME
  2

  9
$UCSORG
 10
0.0
 20
0.0
 30
0.0
  9
$UCSXDIR
 10
1.0
 20
0.0
 30
0.0
  9
$UCSYDIR
 10
0.0
 20
1.0
 30
0.0
  9
$PUCSNAME
  2

  9
$PUCSORG
 10
0.0
 20
0.0
 30
0.0
  9
$PUCSXDIR
 10
1.0
 20
0.0
 30
0.0
  9
$PUCSYDIR
 10
0.0
 20
1.0
 30
0.0
  9
$USERI1
 70
     0
  9
$USERI2
 70
     0
  9
$USERI3
 70
     0
  9
$USERI4
 70
     0
  9
$USERI5
 70
     0
  9
$USERR1
 40
0.0
  9
$USERR2
 40
50.0
  9
$USERR3
 40
0.0
  9
$USERR4
 40
0.0
  9
$USERR5
 40
0.0
  9
$WORLDVIEW
 70
     1
  9
$SHADEDGE
 70
     3
  9
$SHADEDIF
 70
    70
  9
$TILEMODE
 70
     1
  9
$MAXACTVP
 70
    16
  9
$PLIMCHECK
 70
     0
  9
$PEXTMIN
 10
1.049999952316284
 20
0.7999999523162842
 30
0.0
  9
$PEXTMAX
 10
9.4499995708465558
 20
7.1999995708465558
 30
0.0
  9
$PLIMMIN
 10
-0.2500002402958907
 20
-0.2499999962453767
  9
$PLIMMAX
 10
10.74999951940821
 20
8.2499997634587316
  9
$UNITMODE
 70
     0
  9
$VISRETAIN
 70
     0
  9
$PLINEGEN
 70
     0
  9
$PSLTSCALE
 70
     1
  0
ENDSEC
  0
SECTION
  2
TABLES
  0
TABLE
  2
VPORT
 70
     4
  0
VPORT
  2
*ACTIVE
 70
     0
 10
0.0
 20
0.0
 11
1.0
 21
1.0
 12
-28430.622698176681
 22
378732.85663517541
 13
0.0
 23
0.0
 14
1.0
 24
1.0
 15
1.0
 25
1.0
 16
0.0
 26
0.0
 36
1.0
 17
0.0
 27
0.0
 37
0.0
 40
62745.742165362528
 41
1.6116303219106951
 42
50.0
 43
0.0
 44
0.0
 50
0.0
 51
0.0
 71
     0
 72
   100
 73
     1
 74
     0
 75
     0
 76
     1
 77
     0
 78
     0
  0
ENDTAB
  0
TABLE
  2
LTYPE
 70
     3
  0
LTYPE
  2
CONTINUOUS
 70
     0
  3
Solid line
 72
    65
 73
     0
 40
0.0
  0
LTYPE
  2
ČERCHOVANÁ
 70
     0
  3
Čerchovaná __ . __ . __ . __ . __ . __ . __ . _
 72
    65
 73
     4
 40
1.0
 49
0.5
 49
-0.25
 49
0.0
 49
-0.25
  0
ENDTAB
  0
TABLE
  2
LAYER
 70
    12
  0
LAYER
  2
0
 70
     0
 62
     7
  6
CONTINUOUS
  0
LAYER
  2
RAZ
 70
     0
 62
     7
  6
CONTINUOUS
  0
LAYER
  2
KOTY
 70
     0
 62
     2
  6
CONTINUOUS
  0
LAYER
  2
DEFPOINTS
 70
     0
 62
     7
  6
CONTINUOUS
  0
LAYER
  2
2-VZT
 70
     0
 62
     4
  6
CONTINUOUS
  0
LAYER
  2
OBRYS
 70
     0
 62
     7
  6
CONTINUOUS
  0
LAYER
  2
S-OBRYS
 70
     0
 62
     7
  6
CONTINUOUS
  0
ENDTAB
  0
TABLE
  2
STYLE
 70
     8
  0
STYLE
  2
STANDARD
 70
     0
 40
0.0
 41
0.8
 50
0.0
 71
     0
 42
200.0
  3
ROMANS.SHX
  4

  0
STYLE
  2
R
 70
     0
 40
0.0
 41
1.0
 50
0.0
 71
     0
 42
200.0
  3
romans.shx
  4

  0
STYLE
  2
ROMANS
 70
     0
 40
0.0
 41
0.8
 50
0.0
 71
     0
 42
300.0
  3
ROMANS.shx
  4

  0
STYLE
  2
R08
 70
     0
 40
0.0
 41
0.8
 50
0.0
 71
     0
 42
800.0
  3
ROMANS.shx
  4

  0
STYLE
  2
ROMANT
 70
     0
 40
0.0
 41
0.7
 50
0.0
 71
     0
 42
3.0
  3
romant
  4

  0
STYLE
  2
CYRILLIC
 70
     0
 40
2.2999999999999989
 41
0.7
 50
0.0
 71
     0
 42
2.2999999999999989
  3
cyrillic
  4

  0
ENDTAB
  0
TABLE
  2
VIEW
 70
     0
  0
ENDTAB
  0
TABLE
  2
UCS
 70
     0
  0
ENDTAB
  0
TABLE
  2
APPID
 70
     6
  0
APPID
  2
ACAD
 70
     0
  0
APPID
  2
PHOENIX7010
 70
     0
  0
APPID
  2
CONTENTBLOCKICON
 70
     0
  0
APPID
  2
CONTENTLONGBLOCKNAME
 70
     0
  0
APPID
  2
ACAD_DSTYLE_DIMTEXT_FILL
 70
     0
  0
APPID
  2
DCO15
 70
     0
  0
ENDTAB
  0
TABLE
  2
DIMSTYLE
 70
     4
  0
DIMSTYLE
  2
STANDARD
 70
     0
  3

  4

  5

  6
OPEN
  7
OPEN
 40
1.0
 41
80.0
 42
1.0
 43
0.0
 44
1.0
 45
0.0
 46
0.8
 47
0.0
 48
0.0
140
70.0
141
-3.0
142
0.0
143
0.0394
144
1.0
145
1.0
146
0.5
147
1.0
 71
     0
 72
     0
 73
     0
 74
     0
 75
     0
 76
     0
 77
     0
 78
     8
170
     0
171
     2
172
     1
173
     1
174
     0
175
     0
176
     7
177
     7
178
     2
  0
DIMSTYLE
  2
EMBABA
 70
     0
  3

  4

  5

  6
OPEN
  7
OPEN
 40
50.0
 41
2.0
 42
0.063
 43
5.0
 44
0.2
 45
0.0
 46
0.0
 47
0.0
 48
0.0
140
2.5
141
2.0
142
0.0
143
25.399999999999999
144
1.0
145
0.0
146
1.0
147
0.5
 71
     0
 72
     0
 73
     0
 74
     0
 75
     0
 76
     0
 77
     1
 78
    12
170
     0
171
     2
172
     1
173
     1
174
     0
175
     0
176
     0
177
     0
178
     7
  0
ENDTAB
  0
ENDSEC
  0
SECTION
  2
BLOCKS
  0
BLOCK
  8
0
  2
$MODEL_SPACE
 70
     0
 10
0.0
 20
0.0
 30
0.0
  3
$MODEL_SPACE
  1

  0
ENDBLK
  5
9
  8
0
  0
BLOCK
 67
     1
  8
0
  2
$PAPER_SPACE
 70
     0
 10
0.0
 20
0.0
 30
0.0
  3
$PAPER_SPACE
  1

  0
ENDBLK
  5
E
 67
     1
  8
0
  0
BLOCK
  8
0
  2
_OPEN
 70
     0
 10
0.0
 20
0.0
 30
0.0
  3
_OPEN
  1

  0
LINE
  5
28
  8
0
  6
BYBLOCK
 62
     0
 10
-1.0
 20
0.1666666666666666
 30
0.0
 11
0.0
 21
0.0
 31
0.0
  0
LINE
  5
29
  8
0
  6
BYBLOCK
 62
     0
 10
0.0
 20
0.0
 30
0.0
 11
-1.0
 21
-0.1666666666666666
 31
0.0
  0
LINE
  5
2A
  8
0
  6
BYBLOCK
 62
     0
 10
0.0
 20
0.0
 30
0.0
 11
-1.0
 21
0.0
 31
0.0
  0
ENDBLK
  5
2C
  8
0
  0
BLOCK
  8
0
  2
*D50
 70
     1
 10
0.0
 20
0.0
 30
0.0
  3
*D50
  1

  0
LINE
  5
67708
  8
S-OBRYS
  6
CONTINUOUS
 62
     0
 10
-25344.02342992798
 20
382193.03428254923
 30
0.0
 11
-25344.02342992798
 21
381918.76059316832
 31
0.0
  0
LINE
  5
67709
  8
S-OBRYS
  6
CONTINUOUS
 62
     0
 10
-24443.57978318795
 20
382193.03428254923
 30
0.0
 11
-24443.57978318795
 21
381918.76059316832
 31
0.0
  0
LINE
  5
6770A
  8
S-OBRYS
  6
CONTINUOUS
 62
     0
 10
-25244.02342992798
 20
381928.76059316832
 30
0.0
 11
-24543.579783187961
 21
381928.76059316832
 31
0.0
  0
INSERT
  5
6770B
  8
S-OBRYS
  6
CONTINUOUS
 62
     0
  2
_OPEN
 10
-25344.02342992798
 20
381928.76059316832
 30
0.0
 41
100.0
 42
100.0
 43
100.0
 50
180.0
  0
INSERT
  5
6770C
  8
S-OBRYS
  6
CONTINUOUS
 62
     0
  2
_OPEN
 10
-24443.57978318795
 20
381928.76059316832
 30
0.0
 41
100.0
 42
100.0
 43
100.0
  0
INSERT
  5
6770D
  8
S-OBRYS
  6
CONTINUOUS
  2
*U128
 10
0.0
 20
0.0
 30
0.0
  0
POINT
  5
6770E
  8
DEFPOINTS
  6
CONTINUOUS
 62
     0
 10
-25344.02342992798
 20
382196.18428254919
 30
0.0
  0
POINT
  5
6770F
  8
DEFPOINTS
  6
CONTINUOUS
 62
     0
 10
-24443.57978318795
 20
382196.18428254919
 30
0.0
  0
POINT
  5
67710
  8
DEFPOINTS
  6
CONTINUOUS
 62
     0
 10
-24443.57978318795
 20
381928.76059316832
 30
0.0
  0
ENDBLK
  5
674FF
  8
0
  0
BLOCK
  8
0
  2
*D51
 70
     1
 10
0.0
 20
0.0
 30
0.0
  3
*D51
  1

  0
LINE
  5
67711
  8
S-OBRYS
  6
CONTINUOUS
 62
     0
 10
-24443.57978318795
 20
382176.26176964637
 30
0.0
 11
-24443.57978318795
 21
381918.76059316832
 31
0.0
  0
LINE
  5
67712
  8
S-OBRYS
  6
CONTINUOUS
 62
     0
 10
-22943.579783187961
 20
382193.03428254923
 30
0.0
 11
-22943.579783187961
 21
381918.76059316832
 31
0.0
  0
LINE
  5
67713
  8
S-OBRYS
  6
CONTINUOUS
 62
     0
 10
-24343.579783187961
 20
381928.76059316832
 30
0.0
 11
-23043.579783187961
 21
381928.76059316832
 31
0.0
  0
INSERT
  5
67714
  8
S-OBRYS
  6
CONTINUOUS
 62
     0
  2
_OPEN
 10
-24443.57978318795
 20
381928.76059316832
 30
0.0
 41
100.0
 42
100.0
 43
100.0
 50
180.0
  0
INSERT
  5
67715
  8
S-OBRYS
  6
CONTINUOUS
 62
     0
  2
_OPEN
 10
-22943.579783187961
 20
381928.76059316832
 30
0.0
 41
100.0
 42
100.0
 43
100.0
  0
INSERT
  5
67716
  8
S-OBRYS
  6
CONTINUOUS
  2
*U129
 10
0.0
 20
0.0
 30
0.0
  0
POINT
  5
67717
  8
DEFPOINTS
  6
CONTINUOUS
 62
     0
 10
-24443.57978318795
 20
382179.41176964651
 30
0.0
  0
POINT
  5
67718
  8
DEFPOINTS
  6
CONTINUOUS
 62
     0
 10
-22943.579783187961
 20
382196.18428254919
 30
0.0
  0
POINT
  5
67719
  8
DEFPOINTS
  6
CONTINUOUS
 62
     0
 10
-22943.579783187961
 20
381928.76059316832
 30
0.0
  0
ENDBLK
  5
6750B
  8
0
  0
BLOCK
  8
0
  2
*D52
 70
     1
 10
0.0
 20
0.0
 30
0.0
  3
*D52
  1

  0
LINE
  5
6771A
  8
S-OBRYS
  6
CONTINUOUS
 62
     0
 10
-22943.579783187961
 20
382128.68220932927
 30
0.0
 11
-22943.579783187961
 21
381918.76059316832
 31
0.0
  0
LINE
  5
6771B
  8
S-OBRYS
  6
CONTINUOUS
 62
     0
 10
-21273.848191224301
 20
382201.66982858739
 30
0.0
 11
-21273.848191224301
 21
381918.76059316832
 31
0.0
  0
LINE
  5
6771C
  8
S-OBRYS
  6
CONTINUOUS
 62
     0
 10
-22843.579783187961
 20
381928.76059316832
 30
0.0
 11
-21373.84819122429
 21
381928.76059316832
 31
0.0
  0
INSERT
  5
6771D
  8
S-OBRYS
  6
CONTINUOUS
 62
     0
  2
_OPEN
 10
-22943.579783187961
 20
381928.76059316832
 30
0.0
 41
100.0
 42
100.0
 43
100.0
 50
180.0
  0
INSERT
  5
6771E
  8
S-OBRYS
  6
CONTINUOUS
 62
     0
  2
_OPEN
 10
-21273.848191224301
 20
381928.76059316832
 30
0.0
 41
100.0
 42
100.0
 43
100.0
  0
INSERT
  5
6771F
  8
S-OBRYS
  6
CONTINUOUS
  2
*U130
 10
0.0
 20
0.0
 30
0.0
  0
POINT
  5
67720
  8
DEFPOINTS
  6
CONTINUOUS
 62
     0
 10
-22943.579783187961
 20
382131.83220932941
 30
0.0
  0
POINT
  5
67721
  8
DEFPOINTS
  6
CONTINUOUS
 62
     0
 10
-21273.848191224301
 20
382204.81982858753
 30
0.0
  0
POINT
  5
67722
  8
DEFPOINTS
  6
CONTINUOUS
 62
     0
 10
-21273.848191224301
 20
381928.76059316832
 30
0.0
  0
ENDBLK
  5
67517
  8
0
  0
BLOCK
  8
0
  2
*D53
 70
     1
 10
0.0
 20
0.0
 30
0.0
  3
*D53
  1

  0
LINE
  5
67723
  8
S-OBRYS
  6
CONTINUOUS
 62
     0
 10
-19665.157929198969
 20
382044.65188944648
 30
0.0
 11
-19665.157929198969
 21
381367.58227512962
 31
0.0
  0
LINE
  5
67724
  8
S-OBRYS
  6
CONTINUOUS
 62
     0
 10
-18565.15792919898
 20
382044.65188944648
 30
0.0
 11
-18565.15792919898
 21
381367.58227512962
 31
0.0
  0
LINE
  5
67725
  8
S-OBRYS
  6
CONTINUOUS
 62
     0
 10
-19565.157929198969
 20
381377.58227512962
 30
0.0
 11
-18665.15792919898
 21
381377.58227512962
 31
0.0
  0
INSERT
  5
67726
  8
S-OBRYS
  6
CONTINUOUS
 62
     0
  2
_OPEN
 10
-19665.157929198969
 20
381377.58227512962
 30
0.0
 41
100.0
 42
100.0
 43
100.0
 50
180.0
  0
INSERT
  5
67727
  8
S-OBRYS
  6
CONTINUOUS
 62
     0
  2
_OPEN
 10
-18565.15792919898
 20
381377.58227512962
 30
0.0
 41
100.0
 42
100.0
 43
100.0
  0
INSERT
  5
67728
  8
S-OBRYS
  6
CONTINUOUS
  2
*U131
 10
0.0
 20
0.0
 30
0.0
  0
POINT
  5
67729
  8
DEFPOINTS
  6
CONTINUOUS
 62
     0
 10
-19665.157929198969
 20
382047.80188944662
 30
0.0
  0
POINT
  5
6772A
  8
DEFPOINTS
  6
CONTINUOUS
 62
     0
 10
-18565.15792919898
 20
382047.80188944662
 30
0.0
  0
POINT
  5
6772B
  8
DEFPOINTS
  6
CONTINUOUS
 62
     0
 10
-18565.15792919898
 20
381377.58227512962
 30
0.0
  0
ENDBLK
  5
67523
  8
0
  0
BLOCK
  8
0
  2
*D54
 70
     1
 10
0.0
 20
0.0
 30
0.0
  3
*D54
  1

  0
LINE
  5
6772C
  8
S-OBRYS
  6
CONTINUOUS
 62
     0
 10
-18565.157929198969
 20
382201.66982858733
 30
0.0
 11
-18565.157929198969
 21
381367.58227512962
 31
0.0
  0
LINE
  5
6772D
  8
S-OBRYS
  6
CONTINUOUS
 62
     0
 10
-17965.15792919898
 20
382201.66982858733
 30
0.0
 11
-17965.15792919898
 21
381367.58227512962
 31
0.0
  0
LINE
  5
6772E
  8
S-OBRYS
  6
CONTINUOUS
 62
     0
 10
-18465.157929198969
 20
381377.58227512962
 30
0.0
 11
-18065.15792919898
 21
381377.58227512962
 31
0.0
  0
LINE
  5
6772F
  8
S-OBRYS
  6
CONTINUOUS
 62
     0
 10
-17965.15792919898
 20
381377.58227512962
 30
0.0
 11
-17148.491262532309
 21
381377.58227512962
 31
0.0
  0
INSERT
  5
67730
  8
S-OBRYS
  6
CONTINUOUS
 62
     0
  2
_OPEN
 10
-18565.157929198969
 20
381377.58227512962
 30
0.0
 41
100.0
 42
100.0
 43
100.0
 50
180.0
  0
INSERT
  5
67731
  8
S-OBRYS
  6
CONTINUOUS
 62
     0
  2
_OPEN
 10
-17965.15792919898
 20
381377.58227512962
 30
0.0
 41
100.0
 42
100.0
 43
100.0
  0
INSERT
  5
67732
  8
S-OBRYS
  6
CONTINUOUS
  2
*U132
 10
0.0
 20
0.0
 30
0.0
  0
POINT
  5
67733
  8
DEFPOINTS
  6
CONTINUOUS
 62
     0
 10
-18565.157929198969
 20
382204.81982858729
 30
0.0
  0
POINT
  5
67734
  8
DEFPOINTS
  6
CONTINUOUS
 62
     0
 10
-17965.15792919898
 20
382204.81982858729
 30
0.0
  0
POINT
  5
67735
  8
DEFPOINTS
  6
CONTINUOUS
 62
     0
 10
-17965.15792919898
 20
381377.58227512962
 30
0.0
  0
ENDBLK
  5
67530
  8
0
  0
BLOCK
  8
0
  2
*D55
 70
     1
 10
0.0
 20
0.0
 30
0.0
  3
*D55
  1

  0
LINE
  5
67736
  8
S-OBRYS
  6
CONTINUOUS
 62
     0
 10
-17962.007929198979
 20
382204.81982858729
 30
0.0
 11
-17689.880278602639
 21
382204.81982858729
 31
0.0
  0
LINE
  5
67737
  8
S-OBRYS
  6
CONTINUOUS
 62
     0
 10
-18251.115073209869
 20
382854.81982858741
 30
0.0
 11
-17689.880278602639
 21
382854.81982858741
 31
0.0
  0
LINE
  5
67738
  8
S-OBRYS
  6
CONTINUOUS
 62
     0
 10
-17699.880278602639
 20
382304.81982858729
 30
0.0
 11
-17699.880278602639
 21
382754.81982858729
 31
0.0
  0
LINE
  5
67739
  8
S-OBRYS
  6
CONTINUOUS
 62
     0
 10
-17699.880278602639
 20
382854.81982858741
 30
0.0
 11
-17699.880278602639
 21
383666.72459049209
 31
0.0
  0
INSERT
  5
6773A
  8
S-OBRYS
  6
CONTINUOUS
 62
     0
  2
_OPEN
 10
-17699.880278602639
 20
382204.81982858729
 30
0.0
 41
100.0
 42
100.0
 43
100.0
 50
270.0
  0
INSERT
  5
6773B
  8
S-OBRYS
  6
CONTINUOUS
 62
     0
  2
_OPEN
 10
-17699.880278602639
 20
382854.81982858741
 30
0.0
 41
100.0
 42
100.0
 43
100.0
 50
90.0
  0
INSERT
  5
6773C
  8
S-OBRYS
  6
CONTINUOUS
  2
*U133
 10
0.0
 20
0.0
 30
0.0
  0
POINT
  5
6773D
  8
DEFPOINTS
  6
CONTINUOUS
 62
     0
 10
-17965.15792919898
 20
382204.81982858729
 30
0.0
  0
POINT
  5
6773E
  8
DEFPOINTS
  6
CONTINUOUS
 62
     0
 10
-18254.265073209881
 20
382854.81982858741
 30
0.0
  0
POINT
  5
6773F
  8
DEFPOINTS
  6
CONTINUOUS
 62
     0
 10
-17699.880278602639
 20
382854.81982858741
 30
0.0
  0
ENDBLK
  5
6753D
  8
0
  0
BLOCK
  8
0
  2
*D56
 70
     1
 10
0.0
 20
0.0
 30
0.0
  3
*D56
  1

  0
LINE
  5
67740
  8
S-OBRYS
  6
CONTINUOUS
 62
     0
 10
-21273.848191224301
 20
382157.33243217401
 30
0.0
 11
-21273.848191224301
 21
381918.76059316832
 31
0.0
  0
LINE
  5
67741
  8
S-OBRYS
  6
CONTINUOUS
 62
     0
 10
-19665.157929198969
 20
382157.33243217401
 30
0.0
 11
-19665.157929198969
 21
381918.76059316832
 31
0.0
  0
LINE
  5
67742
  8
S-OBRYS
  6
CONTINUOUS
 62
     0
 10
-21173.84819122429
 20
381928.76059316832
 30
0.0
 11
-19765.157929198969
 21
381928.76059316832
 31
0.0
  0
INSERT
  5
67743
  8
S-OBRYS
  6
CONTINUOUS
 62
     0
  2
_OPEN
 10
-21273.848191224301
 20
381928.76059316832
 30
0.0
 41
100.0
 42
100.0
 43
100.0
 50
180.0
  0
INSERT
  5
67744
  8
S-OBRYS
  6
CONTINUOUS
 62
     0
  2
_OPEN
 10
-19665.157929198969
 20
381928.76059316832
 30
0.0
 41
100.0
 42
100.0
 43
100.0
  0
INSERT
  5
67745
  8
S-OBRYS
  6
CONTINUOUS
  2
*U134
 10
0.0
 20
0.0
 30
0.0
  0
POINT
  5
67746
  8
DEFPOINTS
  6
CONTINUOUS
 62
     0
 10
-21273.848191224301
 20
382160.48243217397
 30
0.0
  0
POINT
  5
67747
  8
DEFPOINTS
  6
CONTINUOUS
 62
     0
 10
-19665.157929198969
 20
382160.48243217397
 30
0.0
  0
POINT
  5
67748
  8
DEFPOINTS
  6
CONTINUOUS
 62
     0
 10
-19665.157929198969
 20
381928.76059316832
 30
0.0
  0
ENDBLK
  5
67549
  8
0
  0
BLOCK
  8
0
  2
*D57
 70
     1
 10
0.0
 20
0.0
 30
0.0
  3
*D57
  1

  0
LINE
  5
677B7
  8
S-OBRYS
  6
CONTINUOUS
 62
     0
 10
-24510.877105295509
 20
375243.48575338011
 30
0.0
 11
-24985.52629613454
 21
375668.15942382748
 31
0.0
  0
LINE
  5
677B8
  8
S-OBRYS
  6
CONTINUOUS
 62
     0
 10
-25297.786475782141
 20
375947.54192185949
 30
0.0
 11
-25372.311578323279
 21
376014.22032234439
 31
0.0
  0
INSERT
  5
677B9
  8
S-OBRYS
  6
CONTINUOUS
  2
*U146
 10
0.0
 20
0.0
 30
0.0
  0
LINE
  5
677BA
  8
S-OBRYS
  6
CONTINUOUS
 62
     0
 10
-25223.26137324097
 20
375880.86352137447
 30
0.0
 11
-25060.051398675711
 21
375734.83782431239
 31
0.0
  0
INSERT
  5
677BB
  8
S-OBRYS
  6
CONTINUOUS
 62
     0
  2
_OPEN
 10
-25223.26137324097
 20
375880.86352137447
 30
0.0
 41
100.0
 42
100.0
 43
100.0
 50
318.1806646413491
  0
INSERT
  5
677BC
  8
S-OBRYS
  6
CONTINUOUS
 62
     0
  2
_OPEN
 10
-25060.051398675711
 20
375734.83782431239
 30
0.0
 41
100.0
 42
100.0
 43
100.0
 50
138.1806646413491
  0
POINT
  5
677BD
  8
DEFPOINTS
  6
CONTINUOUS
 62
     0
 10
-25060.051398675711
 20
375734.83782431239
 30
0.0
  0
POINT
  5
677BE
  8
DEFPOINTS
  6
CONTINUOUS
 62
     0
 10
-25223.26137324097
 20
375880.86352137447
 30
0.0
  0
ENDBLK
  5
67554
  8
0
  0
BLOCK
  8
0
  2
*D58
 70
     1
 10
0.0
 20
0.0
 30
0.0
  3
*D58
  1

  0
LINE
  5
677BF
  8
S-OBRYS
  6
CONTINUOUS
 62
     0
 10
-20823.153080526121
 20
375677.85067284358
 30
0.0
 11
-21038.058314292561
 21
375677.85067284358
 31
0.0
  0
LINE
  5
677C0
  8
S-OBRYS
  6
CONTINUOUS
 62
     0
 10
-20823.153080526121
 20
375937.85067284352
 30
0.0
 11
-21038.058314292561
 21
375937.85067284352
 31
0.0
  0
LINE
  5
677C1
  8
S-OBRYS
  6
CONTINUOUS
 62
     0
 10
-21028.058314292561
 20
375777.85067284352
 30
0.0
 11
-21028.058314292561
 21
375837.85067284358
 31
0.0
  0
LINE
  5
677C2
  8
S-OBRYS
  6
CONTINUOUS
 62
     0
 10
-21028.058314292561
 20
375937.85067284352
 30
0.0
 11
-21028.058314292561
 21
376614.06512233271
 31
0.0
  0
INSERT
  5
677C3
  8
S-OBRYS
  6
CONTINUOUS
 62
     0
  2
_OPEN
 10
-21028.058314292561
 20
375677.85067284358
 30
0.0
 41
100.0
 42
100.0
 43
100.0
 50
270.0
  0
INSERT
  5
677C4
  8
S-OBRYS
  6
CONTINUOUS
 62
     0
  2
_OPEN
 10
-21028.058314292561
 20
375937.85067284352
 30
0.0
 41
100.0
 42
100.0
 43
100.0
 50
90.0
  0
INSERT
  5
677C5
  8
S-OBRYS
  6
CONTINUOUS
  2
*U147
 10
0.0
 20
0.0
 30
0.0
  0
POINT
  5
677C6
  8
DEFPOINTS
  6
CONTINUOUS
 62
     0
 10
-20820.003080526119
 20
375677.85067284358
 30
0.0
  0
POINT
  5
677C7
  8
DEFPOINTS
  6
CONTINUOUS
 62
     0
 10
-20820.003080526119
 20
375937.85067284352
 30
0.0
  0
POINT
  5
677C8
  8
DEFPOINTS
  6
CONTINUOUS
 62
     0
 10
-21028.058314292561
 20
375937.85067284352
 30
0.0
  0
ENDBLK
  5
67561
  8
0
  0
BLOCK
  8
0
  2
*D59
 70
     1
 10
0.0
 20
0.0
 30
0.0
  3
*D59
  1

  0
LINE
  5
677C9
  8
S-OBRYS
  6
CONTINUOUS
 62
     0
 10
-20763.709158916219
 20
375640.85067284358
 30
0.0
 11
-21323.390827127769
 21
375640.85067284358
 31
0.0
  0
LINE
  5
677CA
  8
S-OBRYS
  6
CONTINUOUS
 62
     0
 10
-20763.709158916219
 20
375974.85067284352
 30
0.0
 11
-21323.390827127769
 21
375974.85067284352
 31
0.0
  0
LINE
  5
677CB
  8
S-OBRYS
  6
CONTINUOUS
 62
     0
 10
-21313.390827127769
 20
375740.85067284352
 30
0.0
 11
-21313.390827127769
 21
375874.85067284358
 31
0.0
  0
LINE
  5
677CC
  8
S-OBRYS
  6
CONTINUOUS
 62
     0
 10
-21313.390827127769
 20
375974.85067284352
 30
0.0
 11
-21313.390827127769
 21
376509.48844936729
 31
0.0
  0
INSERT
  5
677CD
  8
S-OBRYS
  6
CONTINUOUS
 62
     0
  2
_OPEN
 10
-21313.390827127769
 20
375640.85067284358
 30
0.0
 41
100.0
 42
100.0
 43
100.0
 50
270.0
  0
INSERT
  5
677CE
  8
S-OBRYS
  6
CONTINUOUS
 62
     0
  2
_OPEN
 10
-21313.390827127769
 20
375974.85067284352
 30
0.0
 41
100.0
 42
100.0
 43
100.0
 50
90.0
  0
INSERT
  5
677CF
  8
S-OBRYS
  6
CONTINUOUS
  2
*U148
 10
0.0
 20
0.0
 30
0.0
  0
POINT
  5
677D0
  8
DEFPOINTS
  6
CONTINUOUS
 62
     0
 10
-20760.559158916221
 20
375640.85067284358
 30
0.0
  0
POINT
  5
677D1
  8
DEFPOINTS
  6
CONTINUOUS
 62
     0
 10
-20760.559158916221
 20
375974.85067284352
 30
0.0
  0
POINT
  5
677D2
  8
DEFPOINTS
  6
CONTINUOUS
 62
     0
 10
-21313.390827127769
 20
375974.85067284352
 30
0.0
  0
ENDBLK
  5
6756E
  8
0
  0
BLOCK
  8
0
  2
*D60
 70
     1
 10
0.0
 20
0.0
 30
0.0
  3
*D60
  1

  0
LINE
  5
677D3
  8
S-OBRYS
  6
CONTINUOUS
 62
     0
 10
-18060.432342144479
 20
375417.85067284352
 30
0.0
 11
-17733.826135234951
 21
375417.85067284352
 31
0.0
  0
LINE
  5
677D4
  8
S-OBRYS
  6
CONTINUOUS
 62
     0
 10
-17960.070480414011
 20
375807.85067284352
 30
0.0
 11
-17733.826135234951
 21
375807.85067284352
 31
0.0
  0
LINE
  5
677D5
  8
S-OBRYS
  6
CONTINUOUS
 62
     0
 10
-17743.826135234951
 20
375517.85067284358
 30
0.0
 11
-17743.826135234951
 21
375707.85067284358
 31
0.0
  0
INSERT
  5
677D6
  8
S-OBRYS
  6
CONTINUOUS
 62
     0
  2
_OPEN
 10
-17743.826135234951
 20
375417.85067284352
 30
0.0
 41
100.0
 42
100.0
 43
100.0
 50
270.0
  0
INSERT
  5
677D7
  8
S-OBRYS
  6
CONTINUOUS
 62
     0
  2
_OPEN
 10
-17743.826135234951
 20
375807.85067284352
 30
0.0
 41
100.0
 42
100.0
 43
100.0
 50
90.0
  0
INSERT
  5
677D8
  8
S-OBRYS
  6
CONTINUOUS
  2
*U149
 10
0.0
 20
0.0
 30
0.0
  0
POINT
  5
677D9
  8
DEFPOINTS
  6
CONTINUOUS
 62
     0
 10
-18063.58234214448
 20
375417.85067284352
 30
0.0
  0
POINT
  5
677DA
  8
DEFPOINTS
  6
CONTINUOUS
 62
     0
 10
-17963.220480414009
 20
375807.85067284352
 30
0.0
  0
POINT
  5
677DB
  8
DEFPOINTS
  6
CONTINUOUS
 62
     0
 10
-17743.826135234951
 20
375807.85067284352
 30
0.0
  0
ENDBLK
  5
6757A
  8
0
  0
BLOCK
  8
0
  2
*D61
 70
     1
 10
0.0
 20
0.0
 30
0.0
  3
*D61
  1

  0
LINE
  5
677DC
  8
S-OBRYS
  6
CONTINUOUS
 62
     0
 10
-18249.984421779442
 20
376562.85067284352
 30
0.0
 11
-17733.826135234951
 21
376562.85067284352
 31
0.0
  0
LINE
  5
677DD
  8
S-OBRYS
  6
CONTINUOUS
 62
     0
 10
-17956.92048041401
 20
375807.85067284352
 30
0.0
 11
-17733.826135234951
 21
375807.85067284352
 31
0.0
  0
LINE
  5
677DE
  8
S-OBRYS
  6
CONTINUOUS
 62
     0
 10
-17743.826135234951
 20
376462.85067284352
 30
0.0
 11
-17743.826135234951
 21
375907.85067284352
 31
0.0
  0
INSERT
  5
677DF
  8
S-OBRYS
  6
CONTINUOUS
 62
     0
  2
_OPEN
 10
-17743.826135234951
 20
376562.85067284352
 30
0.0
 41
100.0
 42
100.0
 43
100.0
 50
90.0
  0
INSERT
  5
677E0
  8
S-OBRYS
  6
CONTINUOUS
 62
     0
  2
_OPEN
 10
-17743.826135234951
 20
375807.85067284352
 30
0.0
 41
100.0
 42
100.0
 43
100.0
 50
270.0
  0
INSERT
  5
677E1
  8
S-OBRYS
  6
CONTINUOUS
  2
*U150
 10
0.0
 20
0.0
 30
0.0
  0
POINT
  5
677E2
  8
DEFPOINTS
  6
CONTINUOUS
 62
     0
 10
-18253.134421779439
 20
376562.85067284352
 30
0.0
  0
POINT
  5
677E3
  8
DEFPOINTS
  6
CONTINUOUS
 62
     0
 10
-17960.070480414011
 20
375807.85067284352
 30
0.0
  0
POINT
  5
677E4
  8
DEFPOINTS
  6
CONTINUOUS
 62
     0
 10
-17743.826135234951
 20
375807.85067284352
 30
0.0
  0
ENDBLK
  5
67586
  8
0
  0
BLOCK
  8
0
  2
*D62
 70
     1
 10
0.0
 20
0.0
 30
0.0
  3
*D62
  1

  0
LINE
  5
67749
  8
S-OBRYS
  6
CONTINUOUS
 62
     0
 10
-19224.657929198969
 20
381751.66982858733
 30
0.0
 11
-19224.657929198969
 21
381645.07347265101
 31
0.0
  0
LINE
  5
6774A
  8
S-OBRYS
  6
CONTINUOUS
 62
     0
 10
-19005.657929198969
 20
381751.66982858733
 30
0.0
 11
-19005.657929198969
 21
381645.07347265101
 31
0.0
  0
LINE
  5
6774B
  8
S-OBRYS
  6
CONTINUOUS
 62
     0
 10
-19324.657929198969
 20
381655.07347265101
 30
0.0
 11
-19424.657929198969
 21
381655.07347265101
 31
0.0
  0
LINE
  5
6774C
  8
S-OBRYS
  6
CONTINUOUS
 62
     0
 10
-18905.657929198969
 20
381655.07347265101
 30
0.0
 11
-18097.786235534179
 21
381655.07347265101
 31
0.0
  0
LINE
  5
6774D
  8
S-OBRYS
  6
CONTINUOUS
 62
     0
 10
-19224.657929198969
 20
381655.07347265101
 30
0.0
 11
-19005.657929198969
 21
381655.07347265101
 31
0.0
  0
INSERT
  5
6774E
  8
S-OBRYS
  6
CONTINUOUS
 62
     0
  2
_OPEN
 10
-19224.657929198969
 20
381655.07347265101
 30
0.0
 41
100.0
 42
100.0
 43
100.0
  0
INSERT
  5
6774F
  8
S-OBRYS
  6
CONTINUOUS
 62
     0
  2
_OPEN
 10
-19005.657929198969
 20
381655.07347265101
 30
0.0
 41
100.0
 42
100.0
 43
100.0
 50
180.0
  0
INSERT
  5
67750
  8
S-OBRYS
  6
CONTINUOUS
  2
*U135
 10
0.0
 20
0.0
 30
0.0
  0
POINT
  5
67751
  8
DEFPOINTS
  6
CONTINUOUS
 62
     0
 10
-19224.657929198969
 20
381754.81982858729
 30
0.0
  0
POINT
  5
67752
  8
DEFPOINTS
  6
CONTINUOUS
 62
     0
 10
-19005.657929198969
 20
381754.81982858729
 30
0.0
  0
POINT
  5
67753
  8
DEFPOINTS
  6
CONTINUOUS
 62
     0
 10
-19005.657929198969
 20
381655.07347265101
 30
0.0
  0
ENDBLK
  5
67594
  8
0
  0
BLOCK
  8
0
  2
*D63
 70
     1
 10
0.0
 20
0.0
 30
0.0
  3
*D63
  1

  0
LINE
  5
67754
  8
S-OBRYS
  6
CONTINUOUS
 62
     0
 10
-19277.807929198971
 20
381754.81982858729
 30
0.0
 11
-19776.903572966748
 21
381754.81982858729
 31
0.0
  0
LINE
  5
67755
  8
S-OBRYS
  6
CONTINUOUS
 62
     0
 10
-19766.903572966759
 20
382204.81982858729
 30
0.0
 11
-19776.903572966748
 21
382204.81982858729
 31
0.0
  0
LINE
  5
67756
  8
S-OBRYS
  6
CONTINUOUS
 62
     0
 10
-19766.903572966748
 20
381854.81982858729
 30
0.0
 11
-19766.903572966748
 21
382104.81982858741
 31
0.0
  0
INSERT
  5
67757
  8
S-OBRYS
  6
CONTINUOUS
 62
     0
  2
_OPEN
 10
-19766.903572966748
 20
381754.81982858729
 30
0.0
 41
100.0
 42
100.0
 43
100.0
 50
270.0
  0
INSERT
  5
67758
  8
S-OBRYS
  6
CONTINUOUS
 62
     0
  2
_OPEN
 10
-19766.903572966748
 20
382204.81982858729
 30
0.0
 41
100.0
 42
100.0
 43
100.0
 50
90.0
  0
INSERT
  5
67759
  8
S-OBRYS
  6
CONTINUOUS
  2
*U136
 10
0.0
 20
0.0
 30
0.0
  0
POINT
  5
6775A
  8
DEFPOINTS
  6
CONTINUOUS
 62
     0
 10
-19274.657929198969
 20
381754.81982858729
 30
0.0
  0
POINT
  5
6775B
  8
DEFPOINTS
  6
CONTINUOUS
 62
     0
 10
-19763.753572966751
 20
382204.81982858729
 30
0.0
  0
POINT
  5
6775C
  8
DEFPOINTS
  6
CONTINUOUS
 62
     0
 10
-19766.903572966748
 20
382204.81982858729
 30
0.0
  0
ENDBLK
  5
675A0
  8
0
  0
BLOCK
  8
0
  2
*D64
 70
     1
 10
0.0
 20
0.0
 30
0.0
  3
*D64
  1

  0
LINE
  5
6775D
  8
S-OBRYS
  6
CONTINUOUS
 62
     0
 10
-19763.753572966751
 20
382204.81982858729
 30
0.0
 11
-19754.11021116062
 21
382204.81982858729
 31
0.0
  0
LINE
  5
6775E
  8
S-OBRYS
  6
CONTINUOUS
 62
     0
 10
-19668.307929198982
 20
382719.81982858741
 30
0.0
 11
-19774.11021116062
 21
382719.81982858741
 31
0.0
  0
LINE
  5
6775F
  8
S-OBRYS
  6
CONTINUOUS
 62
     0
 10
-19764.11021116062
 20
382304.81982858729
 30
0.0
 11
-19764.11021116062
 21
382619.81982858741
 31
0.0
  0
LINE
  5
67760
  8
S-OBRYS
  6
CONTINUOUS
 62
     0
 10
-19764.11021116062
 20
382719.81982858741
 30
0.0
 11
-19764.11021116062
 21
383126.96268573019
 31
0.0
  0
INSERT
  5
67761
  8
S-OBRYS
  6
CONTINUOUS
 62
     0
  2
_OPEN
 10
-19764.11021116062
 20
382204.81982858729
 30
0.0
 41
100.0
 42
100.0
 43
100.0
 50
270.0
  0
INSERT
  5
67762
  8
S-OBRYS
  6
CONTINUOUS
 62
     0
  2
_OPEN
 10
-19764.11021116062
 20
382719.81982858741
 30
0.0
 41
100.0
 42
100.0
 43
100.0
 50
90.0
  0
INSERT
  5
67763
  8
S-OBRYS
  6
CONTINUOUS
  2
*U137
 10
0.0
 20
0.0
 30
0.0
  0
POINT
  5
67764
  8
DEFPOINTS
  6
CONTINUOUS
 62
     0
 10
-19766.903572966759
 20
382204.81982858729
 30
0.0
  0
POINT
  5
67765
  8
DEFPOINTS
  6
CONTINUOUS
 62
     0
 10
-19665.157929198969
 20
382719.81982858741
 30
0.0
  0
POINT
  5
67766
  8
DEFPOINTS
  6
CONTINUOUS
 62
     0
 10
-19764.11021116062
 20
382719.81982858741
 30
0.0
  0
ENDBLK
  5
675AD
  8
0
  0
BLOCK
  8
0
  2
*D65
 70
     1
 10
0.0
 20
0.0
 30
0.0
  3
*D65
  1

  0
LINE
  5
67767
  8
S-OBRYS
  6
CONTINUOUS
 62
     0
 10
-25344.02342992798
 20
382196.18428254919
 30
0.0
 11
-25344.02342992798
 21
382214.81982858729
 31
0.0
  0
LINE
  5
67768
  8
S-OBRYS
  6
CONTINUOUS
 62
     0
 10
-24544.02342992798
 20
382255.30537462537
 30
0.0
 11
-24544.02342992798
 21
382194.81982858729
 31
0.0
  0
LINE
  5
67769
  8
S-OBRYS
  6
CONTINUOUS
 62
     0
 10
-25244.02342992798
 20
382204.81982858729
 30
0.0
 11
-24644.02342992798
 21
382204.81982858729
 31
0.0
  0
INSERT
  5
6776A
  8
S-OBRYS
  6
CONTINUOUS
 62
     0
  2
_OPEN
 10
-25344.02342992798
 20
382204.81982858729
 30
0.0
 41
100.0
 42
100.0
 43
100.0
 50
180.0
  0
INSERT
  5
6776B
  8
S-OBRYS
  6
CONTINUOUS
 62
     0
  2
_OPEN
 10
-24544.02342992798
 20
382204.81982858729
 30
0.0
 41
100.0
 42
100.0
 43
100.0
  0
INSERT
  5
6776C
  8
S-OBRYS
  6
CONTINUOUS
  2
*U138
 10
0.0
 20
0.0
 30
0.0
  0
POINT
  5
6776D
  8
DEFPOINTS
  6
CONTINUOUS
 62
     0
 10
-25344.02342992798
 20
382193.03428254923
 30
0.0
  0
POINT
  5
6776E
  8
DEFPOINTS
  6
CONTINUOUS
 62
     0
 10
-24544.02342992798
 20
382258.4553746254
 30
0.0
  0
POINT
  5
6776F
  8
DEFPOINTS
  6
CONTINUOUS
 62
     0
 10
-24544.02342992798
 20
382204.81982858729
 30
0.0
  0
ENDBLK
  5
675B9
  8
0
  0
BLOCK
  8
0
  2
*D66
 70
     1
 10
0.0
 20
0.0
 30
0.0
  3
*D66
  1

  0
LINE
  5
67770
  8
S-OBRYS
  6
CONTINUOUS
 62
     0
 10
-25486.33988729112
 20
382654.81982858741
 30
0.0
 11
-25493.189887291119
 21
382654.81982858741
 31
0.0
  0
LINE
  5
67771
  8
S-OBRYS
  6
CONTINUOUS
 62
     0
 10
-25256.24383474336
 20
382794.81982858741
 30
0.0
 11
-25493.189887291119
 21
382794.81982858741
 31
0.0
  0
LINE
  5
67772
  8
S-OBRYS
  6
CONTINUOUS
 62
     0
 10
-25483.189887291119
 20
382554.81982858741
 30
0.0
 11
-25483.189887291119
 21
382454.81982858741
 31
0.0
  0
LINE
  5
67773
  8
S-OBRYS
  6
CONTINUOUS
 62
     0
 10
-25483.189887291119
 20
382894.81982858741
 30
0.0
 11
-25483.189887291119
 21
383287.67697144451
 31
0.0
  0
LINE
  5
67774
  8
S-OBRYS
  6
CONTINUOUS
 62
     0
 10
-25483.189887291119
 20
382654.81982858741
 30
0.0
 11
-25483.189887291119
 21
382794.81982858741
 31
0.0
  0
INSERT
  5
67775
  8
S-OBRYS
  6
CONTINUOUS
 62
     0
  2
_OPEN
 10
-25483.189887291119
 20
382654.81982858741
 30
0.0
 41
100.0
 42
100.0
 43
100.0
 50
90.0
  0
INSERT
  5
67776
  8
S-OBRYS
  6
CONTINUOUS
 62
     0
  2
_OPEN
 10
-25483.189887291119
 20
382794.81982858741
 30
0.0
 41
100.0
 42
100.0
 43
100.0
 50
270.0
  0
INSERT
  5
67777
  8
S-OBRYS
  6
CONTINUOUS
  2
*U139
 10
0.0
 20
0.0
 30
0.0
  0
POINT
  5
67778
  8
DEFPOINTS
  6
CONTINUOUS
 62
     0
 10
-25483.189887291119
 20
382654.81982858741
 30
0.0
  0
POINT
  5
67779
  8
DEFPOINTS
  6
CONTINUOUS
 62
     0
 10
-25253.093834743358
 20
382794.81982858741
 30
0.0
  0
POINT
  5
6777A
  8
DEFPOINTS
  6
CONTINUOUS
 62
     0
 10
-25483.189887291119
 20
382794.81982858741
 30
0.0
  0
ENDBLK
  5
675C7
  8
0
  0
BLOCK
  8
0
  2
*D67
 70
     1
 10
0.0
 20
0.0
 30
0.0
  3
*D67
  1

  0
LINE
  5
6777B
  8
S-OBRYS
  6
CONTINUOUS
 62
     0
 10
-25344.02342992798
 20
382666.60537462548
 30
0.0
 11
-25344.02342992798
 21
383302.67489622842
 31
0.0
  0
LINE
  5
6777C
  8
S-OBRYS
  6
CONTINUOUS
 62
     0
 10
-25143.593834743358
 20
382840.15510049352
 30
0.0
 11
-25143.593834743358
 21
383302.67489622842
 31
0.0
  0
LINE
  5
6777D
  8
S-OBRYS
  6
CONTINUOUS
 62
     0
 10
-25444.023429927969
 20
383292.67489622848
 30
0.0
 11
-25544.02342992798
 21
383292.67489622848
 31
0.0
  0
LINE
  5
6777E
  8
S-OBRYS
  6
CONTINUOUS
 62
     0
 10
-25043.593834743358
 20
383292.67489622848
 30
0.0
 11
-24322.16526331479
 21
383292.67489622848
 31
0.0
  0
LINE
  5
6777F
  8
S-OBRYS
  6
CONTINUOUS
 62
     0
 10
-25344.02342992798
 20
383292.67489622848
 30
0.0
 11
-25143.593834743358
 21
383292.67489622848
 31
0.0
  0
INSERT
  5
67780
  8
S-OBRYS
  6
CONTINUOUS
 62
     0
  2
_OPEN
 10
-25344.02342992798
 20
383292.67489622848
 30
0.0
 41
100.0
 42
100.0
 43
100.0
  0
INSERT
  5
67781
  8
S-OBRYS
  6
CONTINUOUS
 62
     0
  2
_OPEN
 10
-25143.593834743358
 20
383292.67489622848
 30
0.0
 41
100.0
 42
100.0
 43
100.0
 50
180.0
  0
INSERT
  5
67782
  8
S-OBRYS
  6
CONTINUOUS
  2
*U140
 10
0.0
 20
0.0
 30
0.0
  0
POINT
  5
67783
  8
DEFPOINTS
  6
CONTINUOUS
 62
     0
 10
-25344.02342992798
 20
382663.45537462551
 30
0.0
  0
POINT
  5
67784
  8
DEFPOINTS
  6
CONTINUOUS
 62
     0
 10
-25143.593834743358
 20
382837.00510049338
 30
0.0
  0
POINT
  5
67785
  8
DEFPOINTS
  6
CONTINUOUS
 62
     0
 10
-25143.593834743358
 20
383292.67489622848
 30
0.0
  0
ENDBLK
  5
675D5
  8
0
  0
BLOCK
  8
0
  2
*D68
 70
     1
 10
0.0
 20
0.0
 30
0.0
  3
*D68
  1

  0
LINE
  5
67786
  8
S-OBRYS
  6
CONTINUOUS
 62
     0
 10
-25030.943834743361
 20
382734.81982858741
 30
0.0
 11
-24732.789749942549
 21
382734.81982858741
 31
0.0
  0
LINE
  5
67787
  8
S-OBRYS
  6
CONTINUOUS
 62
     0
 10
-25030.943834743361
 20
382794.81982858741
 30
0.0
 11
-24732.789749942549
 21
382794.81982858741
 31
0.0
  0
LINE
  5
67788
  8
S-OBRYS
  6
CONTINUOUS
 62
     0
 10
-24742.789749942549
 20
382634.81982858741
 30
0.0
 11
-24742.789749942549
 21
382534.81982858741
 31
0.0
  0
LINE
  5
67789
  8
S-OBRYS
  6
CONTINUOUS
 62
     0
 10
-24742.789749942549
 20
382894.81982858741
 30
0.0
 11
-24742.789749942549
 21
383201.96268573019
 31
0.0
  0
LINE
  5
6778A
  8
S-OBRYS
  6
CONTINUOUS
 62
     0
 10
-24742.789749942549
 20
382734.81982858741
 30
0.0
 11
-24742.789749942549
 21
382794.81982858741
 31
0.0
  0
INSERT
  5
6778B
  8
S-OBRYS
  6
CONTINUOUS
 62
     0
  2
_OPEN
 10
-24742.789749942549
 20
382734.81982858741
 30
0.0
 41
100.0
 42
100.0
 43
100.0
 50
90.0
  0
INSERT
  5
6778C
  8
S-OBRYS
  6
CONTINUOUS
 62
     0
  2
_OPEN
 10
-24742.789749942549
 20
382794.81982858741
 30
0.0
 41
100.0
 42
100.0
 43
100.0
 50
270.0
  0
INSERT
  5
6778D
  8
S-OBRYS
  6
CONTINUOUS
  2
*U141
 10
0.0
 20
0.0
 30
0.0
  0
POINT
  5
6778E
  8
DEFPOINTS
  6
CONTINUOUS
 62
     0
 10
-25034.093834743358
 20
382734.81982858741
 30
0.0
  0
POINT
  5
6778F
  8
DEFPOINTS
  6
CONTINUOUS
 62
     0
 10
-25034.093834743358
 20
382794.81982858741
 30
0.0
  0
POINT
  5
67790
  8
DEFPOINTS
  6
CONTINUOUS
 62
     0
 10
-24742.789749942549
 20
382794.81982858741
 30
0.0
  0
ENDBLK
  5
675E3
  8
0
  0
BLOCK
  8
0
  2
*D69
 70
     1
 10
0.0
 20
0.0
 30
0.0
  3
*D69
  1

  0
LINE
  5
67791
  8
S-OBRYS
  6
CONTINUOUS
 62
     0
 10
-26482.173429927981
 20
382429.81982858741
 30
0.0
 11
-26560.327995694832
 21
382429.81982858741
 31
0.0
  0
LINE
  5
67792
  8
S-OBRYS
  6
CONTINUOUS
 62
     0
 10
-26147.173429927989
 20
382204.81982858729
 30
0.0
 11
-26560.327995694832
 21
382204.81982858729
 31
0.0
  0
LINE
  5
67793
  8
S-OBRYS
  6
CONTINUOUS
 62
     0
 10
-26550.327995694832
 20
382529.81982858741
 30
0.0
 11
-26550.327995694832
 21
382629.81982858741
 31
0.0
  0
LINE
  5
67794
  8
S-OBRYS
  6
CONTINUOUS
 62
     0
 10
-26550.327995694832
 20
382104.81982858741
 30
0.0
 11
-26550.327995694832
 21
381697.67697144451
 31
0.0
  0
LINE
  5
67795
  8
S-OBRYS
  6
CONTINUOUS
 62
     0
 10
-26550.327995694832
 20
382429.81982858741
 30
0.0
 11
-26550.327995694832
 21
382204.81982858729
 31
0.0
  0
INSERT
  5
67796
  8
S-OBRYS
  6
CONTINUOUS
 62
     0
  2
_OPEN
 10
-26550.327995694832
 20
382429.81982858741
 30
0.0
 41
100.0
 42
100.0
 43
100.0
 50
270.0
  0
INSERT
  5
67797
  8
S-OBRYS
  6
CONTINUOUS
 62
     0
  2
_OPEN
 10
-26550.327995694832
 20
382204.81982858729
 30
0.0
 41
100.0
 42
100.0
 43
100.0
 50
90.0
  0
INSERT
  5
67798
  8
S-OBRYS
  6
CONTINUOUS
  2
*U142
 10
0.0
 20
0.0
 30
0.0
  0
POINT
  5
67799
  8
DEFPOINTS
  6
CONTINUOUS
 62
     0
 10
-26479.02342992798
 20
382429.81982858741
 30
0.0
  0
POINT
  5
6779A
  8
DEFPOINTS
  6
CONTINUOUS
 62
     0
 10
-26144.02342992798
 20
382204.81982858729
 30
0.0
  0
POINT
  5
6779B
  8
DEFPOINTS
  6
CONTINUOUS
 62
     0
 10
-26550.327995694832
 20
382204.81982858729
 30
0.0
  0
ENDBLK
  5
675F1
  8
0
  0
BLOCK
  8
0
  2
*D70
 70
     1
 10
0.0
 20
0.0
 30
0.0
  3
*D70
  1

  0
LINE
  5
6779C
  8
S-OBRYS
  6
CONTINUOUS
 62
     0
 10
-25344.02342992798
 20
382161.79382969521
 30
0.0
 11
-25344.02342992798
 21
381918.76059316832
 31
0.0
  0
LINE
  5
6779D
  8
S-OBRYS
  6
CONTINUOUS
 62
     0
 10
-26147.173429927989
 20
382201.66982858739
 30
0.0
 11
-26147.173429927989
 21
381918.76059316832
 31
0.0
  0
LINE
  5
6779E
  8
S-OBRYS
  6
CONTINUOUS
 62
     0
 10
-25444.023429927969
 20
381928.76059316832
 30
0.0
 11
-26047.173429927989
 21
381928.76059316832
 31
0.0
  0
INSERT
  5
6779F
  8
S-OBRYS
  6
CONTINUOUS
 62
     0
  2
_OPEN
 10
-25344.02342992798
 20
381928.76059316832
 30
0.0
 41
100.0
 42
100.0
 43
100.0
  0
INSERT
  5
677A0
  8
S-OBRYS
  6
CONTINUOUS
 62
     0
  2
_OPEN
 10
-26147.173429927989
 20
381928.76059316832
 30
0.0
 41
100.0
 42
100.0
 43
100.0
 50
180.0
  0
INSERT
  5
677A1
  8
S-OBRYS
  6
CONTINUOUS
  2
*U143
 10
0.0
 20
0.0
 30
0.0
  0
POINT
  5
677A2
  8
DEFPOINTS
  6
CONTINUOUS
 62
     0
 10
-25344.02342992798
 20
382164.94382969523
 30
0.0
  0
POINT
  5
677A3
  8
DEFPOINTS
  6
CONTINUOUS
 62
     0
 10
-26147.173429927989
 20
382204.81982858729
 30
0.0
  0
POINT
  5
677A4
  8
DEFPOINTS
  6
CONTINUOUS
 62
     0
 10
-26147.173429927989
 20
381928.76059316832
 30
0.0
  0
ENDBLK
  5
675FD
  8
0
  0
BLOCK
  8
0
  2
*D71
 70
     1
 10
0.0
 20
0.0
 30
0.0
  3
*D71
  1

  0
LINE
  5
677A5
  8
S-OBRYS
  6
CONTINUOUS
 62
     0
 10
-26144.02342992798
 20
382274.61106611392
 30
0.0
 11
-26144.02342992798
 21
381918.76059316832
 31
0.0
  0
LINE
  5
677A6
  8
S-OBRYS
  6
CONTINUOUS
 62
     0
 10
-26479.02342992798
 20
382374.79482487793
 30
0.0
 11
-26479.02342992798
 21
381918.76059316832
 31
0.0
  0
LINE
  5
677A7
  8
S-OBRYS
  6
CONTINUOUS
 62
     0
 10
-26244.02342992798
 20
381928.76059316832
 30
0.0
 11
-26379.02342992798
 21
381928.76059316832
 31
0.0
  0
INSERT
  5
677A8
  8
S-OBRYS
  6
CONTINUOUS
 62
     0
  2
_OPEN
 10
-26144.02342992798
 20
381928.76059316832
 30
0.0
 41
100.0
 42
100.0
 43
100.0
  0
INSERT
  5
677A9
  8
S-OBRYS
  6
CONTINUOUS
 62
     0
  2
_OPEN
 10
-26479.02342992798
 20
381928.76059316832
 30
0.0
 41
100.0
 42
100.0
 43
100.0
 50
180.0
  0
INSERT
  5
677AA
  8
S-OBRYS
  6
CONTINUOUS
  2
*U144
 10
0.0
 20
0.0
 30
0.0
  0
POINT
  5
677AB
  8
DEFPOINTS
  6
CONTINUOUS
 62
     0
 10
-26144.02342992798
 20
382277.76106611401
 30
0.0
  0
POINT
  5
677AC
  8
DEFPOINTS
  6
CONTINUOUS
 62
     0
 10
-26479.02342992798
 20
382377.94482487789
 30
0.0
  0
POINT
  5
677AD
  8
DEFPOINTS
  6
CONTINUOUS
 62
     0
 10
-26479.02342992798
 20
381928.76059316832
 30
0.0
  0
ENDBLK
  5
67609
  8
0
  0
BLOCK
  8
0
  2
*D72
 70
     1
 10
0.0
 20
0.0
 30
0.0
  3
*D72
  1

  0
LINE
  5
677AE
  8
S-OBRYS
  6
CONTINUOUS
 62
     0
 10
-26147.173429927981
 20
382204.81982858729
 30
0.0
 11
-26692.36497243222
 21
382204.81982858729
 31
0.0
  0
LINE
  5
677AF
  8
S-OBRYS
  6
CONTINUOUS
 62
     0
 10
-26147.173429927981
 20
382654.81982858741
 30
0.0
 11
-26692.36497243222
 21
382654.81982858741
 31
0.0
  0
LINE
  5
677B0
  8
S-OBRYS
  6
CONTINUOUS
 62
     0
 10
-26682.36497243222
 20
382304.81982858729
 30
0.0
 11
-26682.36497243222
 21
382554.81982858741
 31
0.0
  0
INSERT
  5
677B1
  8
S-OBRYS
  6
CONTINUOUS
 62
     0
  2
_OPEN
 10
-26682.36497243222
 20
382204.81982858729
 30
0.0
 41
100.0
 42
100.0
 43
100.0
 50
270.0
  0
INSERT
  5
677B2
  8
S-OBRYS
  6
CONTINUOUS
 62
     0
  2
_OPEN
 10
-26682.36497243222
 20
382654.81982858741
 30
0.0
 41
100.0
 42
100.0
 43
100.0
 50
90.0
  0
INSERT
  5
677B3
  8
S-OBRYS
  6
CONTINUOUS
  2
*U145
 10
0.0
 20
0.0
 30
0.0
  0
POINT
  5
677B4
  8
DEFPOINTS
  6
CONTINUOUS
 62
     0
 10
-26144.02342992798
 20
382204.81982858729
 30
0.0
  0
POINT
  5
677B5
  8
DEFPOINTS
  6
CONTINUOUS
 62
     0
 10
-26144.02342992798
 20
382654.81982858741
 30
0.0
  0
POINT
  5
677B6
  8
DEFPOINTS
  6
CONTINUOUS
 62
     0
 10
-26682.36497243222
 20
382654.81982858741
 30
0.0
  0
ENDBLK
  5
67615
  8
0
  0
BLOCK
  8
0
  2
*D73
 70
     1
 10
0.0
 20
0.0
 30
0.0
  3
*D73
  1

  0
LINE
  5
677E5
  8
S-OBRYS
  6
CONTINUOUS
 62
     0
 10
-20626.326566501219
 20
373809.20604113699
 30
0.0
 11
-20626.326566501219
 21
374096.58277610288
 31
0.0
  0
LINE
  5
677E6
  8
S-OBRYS
  6
CONTINUOUS
 62
     0
 10
-20292.326566501219
 20
373809.20604113699
 30
0.0
 11
-20292.326566501219
 21
374096.58277610288
 31
0.0
  0
LINE
  5
677E7
  8
S-OBRYS
  6
CONTINUOUS
 62
     0
 10
-20526.326566501219
 20
374086.58277610288
 30
0.0
 11
-20392.326566501211
 21
374086.58277610288
 31
0.0
  0
INSERT
  5
677E8
  8
S-OBRYS
  6
CONTINUOUS
 62
     0
  2
_OPEN
 10
-20626.326566501219
 20
374086.58277610288
 30
0.0
 41
100.0
 42
100.0
 43
100.0
 50
180.0
  0
INSERT
  5
677E9
  8
S-OBRYS
  6
CONTINUOUS
 62
     0
  2
_OPEN
 10
-20292.326566501219
 20
374086.58277610288
 30
0.0
 41
100.0
 42
100.0
 43
100.0
  0
INSERT
  5
677EA
  8
S-OBRYS
  6
CONTINUOUS
  2
*U151
 10
0.0
 20
0.0
 30
0.0
  0
POINT
  5
677EB
  8
DEFPOINTS
  6
CONTINUOUS
 62
     0
 10
-20626.326566501219
 20
373806.05604113702
 30
0.0
  0
POINT
  5
677EC
  8
DEFPOINTS
  6
CONTINUOUS
 62
     0
 10
-20292.326566501219
 20
373806.05604113702
 30
0.0
  0
POINT
  5
677ED
  8
DEFPOINTS
  6
CONTINUOUS
 62
     0
 10
-20292.326566501219
 20
374086.58277610288
 30
0.0
  0
ENDBLK
  5
67621
  8
0
  0
BLOCK
  8
0
  2
*D74
 70
     1
 10
0.0
 20
0.0
 30
0.0
  3
*D74
  1

  0
LINE
  5
67961
  8
S-OBRYS
  6
CONTINUOUS
 62
     0
 10
-24471.90948115167
 20
378465.71358700399
 30
0.0
 11
-24946.558671990791
 21
378890.38725745131
 31
0.0
  0
LINE
  5
67962
  8
S-OBRYS
  6
CONTINUOUS
 62
     0
 10
-25258.81885163832
 20
379169.76975548331
 30
0.0
 11
-25333.343954179491
 21
379236.44815596822
 31
0.0
  0
INSERT
  5
67963
  8
S-OBRYS
  6
CONTINUOUS
  2
*U153
 10
0.0
 20
0.0
 30
0.0
  0
LINE
  5
67964
  8
S-OBRYS
  6
CONTINUOUS
 62
     0
 10
-25184.293749097149
 20
379103.09135499853
 30
0.0
 11
-25021.083774531959
 21
378957.06565793633
 31
0.0
  0
INSERT
  5
67965
  8
S-OBRYS
  6
CONTINUOUS
 62
     0
  2
_OPEN
 10
-25184.293749097149
 20
379103.09135499853
 30
0.0
 41
100.0
 42
100.0
 43
100.0
 50
318.18066464135541
  0
INSERT
  5
67966
  8
S-OBRYS
  6
CONTINUOUS
 62
     0
  2
_OPEN
 10
-25021.083774531959
 20
378957.06565793633
 30
0.0
 41
100.0
 42
100.0
 43
100.0
 50
138.18066464135541
  0
POINT
  5
67967
  8
DEFPOINTS
  6
CONTINUOUS
 62
     0
 10
-25021.083774531959
 20
378957.06565793633
 30
0.0
  0
POINT
  5
67968
  8
DEFPOINTS
  6
CONTINUOUS
 62
     0
 10
-25184.293749097149
 20
379103.09135499853
 30
0.0
  0
ENDBLK
  5
6792E
  8
0
  0
BLOCK
  8
0
  2
*D75
 70
     1
 10
0.0
 20
0.0
 30
0.0
  3
*D75
  1

  0
LINE
  5
67969
  8
S-OBRYS
  6
CONTINUOUS
 62
     0
 10
-20784.185456382311
 20
378900.0785064674
 30
0.0
 11
-20999.09069014874
 21
378900.0785064674
 31
0.0
  0
LINE
  5
6796A
  8
S-OBRYS
  6
CONTINUOUS
 62
     0
 10
-20784.185456382311
 20
379160.0785064674
 30
0.0
 11
-20999.09069014874
 21
379160.0785064674
 31
0.0
  0
LINE
  5
6796B
  8
S-OBRYS
  6
CONTINUOUS
 62
     0
 10
-20989.090690148751
 20
379000.07850646751
 30
0.0
 11
-20989.090690148751
 21
379060.07850646751
 31
0.0
  0
LINE
  5
6796C
  8
S-OBRYS
  6
CONTINUOUS
 62
     0
 10
-20989.090690148751
 20
379160.0785064674
 30
0.0
 11
-20989.090690148751
 21
379836.2929559566
 31
0.0
  0
INSERT
  5
6796D
  8
S-OBRYS
  6
CONTINUOUS
 62
     0
  2
_OPEN
 10
-20989.090690148751
 20
378900.0785064674
 30
0.0
 41
100.0
 42
100.0
 43
100.0
 50
270.0
  0
INSERT
  5
6796E
  8
S-OBRYS
  6
CONTINUOUS
 62
     0
  2
_OPEN
 10
-20989.090690148751
 20
379160.0785064674
 30
0.0
 41
100.0
 42
100.0
 43
100.0
 50
90.0
  0
INSERT
  5
6796F
  8
S-OBRYS
  6
CONTINUOUS
  2
*U154
 10
0.0
 20
0.0
 30
0.0
  0
POINT
  5
67970
  8
DEFPOINTS
  6
CONTINUOUS
 62
     0
 10
-20781.035456382309
 20
378900.0785064674
 30
0.0
  0
POINT
  5
67971
  8
DEFPOINTS
  6
CONTINUOUS
 62
     0
 10
-20781.035456382309
 20
379160.0785064674
 30
0.0
  0
POINT
  5
67972
  8
DEFPOINTS
  6
CONTINUOUS
 62
     0
 10
-20989.090690148751
 20
379160.0785064674
 30
0.0
  0
ENDBLK
  5
6793B
  8
0
  0
BLOCK
  8
0
  2
*D76
 70
     1
 10
0.0
 20
0.0
 30
0.0
  3
*D76
  1

  0
LINE
  5
67973
  8
S-OBRYS
  6
CONTINUOUS
 62
     0
 10
-20724.741534772409
 20
378863.0785064674
 30
0.0
 11
-21284.423202983959
 21
378863.0785064674
 31
0.0
  0
LINE
  5
67974
  8
S-OBRYS
  6
CONTINUOUS
 62
     0
 10
-20724.741534772409
 20
379197.07850646751
 30
0.0
 11
-21284.423202983959
 21
379197.07850646751
 31
0.0
  0
LINE
  5
67975
  8
S-OBRYS
  6
CONTINUOUS
 62
     0
 10
-21274.423202983959
 20
378963.0785064674
 30
0.0
 11
-21274.423202983959
 21
379097.0785064674
 31
0.0
  0
LINE
  5
67976
  8
S-OBRYS
  6
CONTINUOUS
 62
     0
 10
-21274.423202983959
 20
379197.07850646751
 30
0.0
 11
-21274.423202983959
 21
379731.71628299111
 31
0.0
  0
INSERT
  5
67977
  8
S-OBRYS
  6
CONTINUOUS
 62
     0
  2
_OPEN
 10
-21274.423202983959
 20
378863.0785064674
 30
0.0
 41
100.0
 42
100.0
 43
100.0
 50
270.0
  0
INSERT
  5
67978
  8
S-OBRYS
  6
CONTINUOUS
 62
     0
  2
_OPEN
 10
-21274.423202983959
 20
379197.07850646751
 30
0.0
 41
100.0
 42
100.0
 43
100.0
 50
90.0
  0
INSERT
  5
67979
  8
S-OBRYS
  6
CONTINUOUS
  2
*U155
 10
0.0
 20
0.0
 30
0.0
  0
POINT
  5
6797A
  8
DEFPOINTS
  6
CONTINUOUS
 62
     0
 10
-20721.591534772411
 20
378863.0785064674
 30
0.0
  0
POINT
  5
6797B
  8
DEFPOINTS
  6
CONTINUOUS
 62
     0
 10
-20721.591534772411
 20
379197.07850646751
 30
0.0
  0
POINT
  5
6797C
  8
DEFPOINTS
  6
CONTINUOUS
 62
     0
 10
-21274.423202983959
 20
379197.07850646751
 30
0.0
  0
ENDBLK
  5
67948
  8
0
  0
BLOCK
  8
0
  2
*D77
 70
     1
 10
0.0
 20
0.0
 30
0.0
  3
*D77
  1

  0
LINE
  5
6797D
  8
S-OBRYS
  6
CONTINUOUS
 62
     0
 10
-18021.464718000661
 20
378640.07850646751
 30
0.0
 11
-17694.858511091141
 21
378640.07850646751
 31
0.0
  0
LINE
  5
6797E
  8
S-OBRYS
  6
CONTINUOUS
 62
     0
 10
-17921.102856270201
 20
379030.07850646751
 30
0.0
 11
-17694.858511091141
 21
379030.07850646751
 31
0.0
  0
LINE
  5
6797F
  8
S-OBRYS
  6
CONTINUOUS
 62
     0
 10
-17704.85851109113
 20
378740.0785064674
 30
0.0
 11
-17704.85851109113
 21
378930.0785064674
 31
0.0
  0
INSERT
  5
67980
  8
S-OBRYS
  6
CONTINUOUS
 62
     0
  2
_OPEN
 10
-17704.85851109113
 20
378640.07850646751
 30
0.0
 41
100.0
 42
100.0
 43
100.0
 50
270.0
  0
INSERT
  5
67981
  8
S-OBRYS
  6
CONTINUOUS
 62
     0
  2
_OPEN
 10
-17704.85851109113
 20
379030.07850646751
 30
0.0
 41
100.0
 42
100.0
 43
100.0
 50
90.0
  0
INSERT
  5
67982
  8
S-OBRYS
  6
CONTINUOUS
  2
*U156
 10
0.0
 20
0.0
 30
0.0
  0
POINT
  5
67983
  8
DEFPOINTS
  6
CONTINUOUS
 62
     0
 10
-18024.614718000659
 20
378640.07850646751
 30
0.0
  0
POINT
  5
67984
  8
DEFPOINTS
  6
CONTINUOUS
 62
     0
 10
-17924.252856270199
 20
379030.07850646751
 30
0.0
  0
POINT
  5
67985
  8
DEFPOINTS
  6
CONTINUOUS
 62
     0
 10
-17704.85851109113
 20
379030.07850646751
 30
0.0
  0
ENDBLK
  5
67954
  8
0
  0
BLOCK
  8
0
  2
*D78
 70
     1
 10
0.0
 20
0.0
 30
0.0
  3
*D78
  1

  0
LINE
  5
67986
  8
S-OBRYS
  6
CONTINUOUS
 62
     0
 10
-18211.016797635621
 20
379785.0785064674
 30
0.0
 11
-17694.858511091141
 21
379785.0785064674
 31
0.0
  0
LINE
  5
67987
  8
S-OBRYS
  6
CONTINUOUS
 62
     0
 10
-17917.952856270189
 20
379030.07850646751
 30
0.0
 11
-17694.858511091141
 21
379030.07850646751
 31
0.0
  0
LINE
  5
67988
  8
S-OBRYS
  6
CONTINUOUS
 62
     0
 10
-17704.85851109113
 20
379685.07850646751
 30
0.0
 11
-17704.85851109113
 21
379130.0785064674
 31
0.0
  0
INSERT
  5
67989
  8
S-OBRYS
  6
CONTINUOUS
 62
     0
  2
_OPEN
 10
-17704.85851109113
 20
379785.0785064674
 30
0.0
 41
100.0
 42
100.0
 43
100.0
 50
90.0
  0
INSERT
  5
6798A
  8
S-OBRYS
  6
CONTINUOUS
 62
     0
  2
_OPEN
 10
-17704.85851109113
 20
379030.07850646751
 30
0.0
 41
100.0
 42
100.0
 43
100.0
 50
270.0
  0
INSERT
  5
6798B
  8
S-OBRYS
  6
CONTINUOUS
  2
*U157
 10
0.0
 20
0.0
 30
0.0
  0
POINT
  5
6798C
  8
DEFPOINTS
  6
CONTINUOUS
 62
     0
 10
-18214.166797635618
 20
379785.0785064674
 30
0.0
  0
POINT
  5
6798D
  8
DEFPOINTS
  6
CONTINUOUS
 62
     0
 10
-17921.102856270201
 20
379030.07850646751
 30
0.0
  0
POINT
  5
6798E
  8
DEFPOINTS
  6
CONTINUOUS
 62
     0
 10
-17704.85851109113
 20
379030.07850646751
 30
0.0
  0
ENDBLK
  5
67960
  8
0
  0
BLOCK
  8
0
  2
*U79
 70
     1
 10
0.0
 20
0.0
 30
0.0
  3
*U79
  1

  0
TEXT
  5
680BC
  8
S-OBRYS
  6
CONTINUOUS
 62
     7
 10
-38287.900773072812
 20
380436.48583468702
 30
0.0
 40
125.0
  1
3000
 41
0.8
  0
ENDBLK
  5
680BE
  8
0
  0
BLOCK
  8
0
  2
*U80
 70
     1
 10
0.0
 20
0.0
 30
0.0
  3
*U80
  1

  0
TEXT
  5
680C0
  8
S-OBRYS
  6
CONTINUOUS
 62
     7
 10
-37094.821806845663
 20
380436.48583468702
 30
0.0
 40
125.0
  1
1500
 41
0.8
  0
ENDBLK
  5
680C2
  8
0
  0
BLOCK
  8
0
  2
*U81
 70
     1
 10
0.0
 20
0.0
 30
0.0
  3
*U81
  1

  0
TEXT
  5
680C4
  8
S-OBRYS
  6
CONTINUOUS
 62
     7
 10
-35502.813153720963
 20
380436.48583468702
 30
0.0
 40
125.0
  1
3000
 41
0.8
  0
ENDBLK
  5
680C6
  8
0
  0
BLOCK
  8
0
  2
*U82
 70
     1
 10
0.0
 20
0.0
 30
0.0
  3
*U82
  1

  0
TEXT
  5
680C8
  8
S-OBRYS
  6
CONTINUOUS
 62
     7
 10
-32692.590429047152
 20
379885.30751664832
 30
0.0
 40
125.0
  1
max.1100
 41
0.8
  0
ENDBLK
  5
680CA
  8
0
  0
BLOCK
  8
0
  2
*U83
 70
     1
 10
0.0
 20
0.0
 30
0.0
  3
*U83
  1

  0
TEXT
  5
680CC
  8
S-OBRYS
  6
CONTINUOUS
 62
     7
 10
-31062.828524285251
 20
379885.30751664832
 30
0.0
 40
125.0
  1
600-734
 41
0.8
  0
ENDBLK
  5
680CE
  8
0
  0
BLOCK
  8
0
  2
*U84
 70
     1
 10
0.0
 20
0.0
 30
0.0
  3
*U84
  1

  0
TEXT
  5
680D0
  8
S-OBRYS
  6
CONTINUOUS
 62
     7
 10
-30928.503254641349
 20
381443.49745105841
 30
0.0
 40
125.0
  1
650-840
 50
90.0
 41
0.8
  0
ENDBLK
  5
680D2
  8
0
  0
BLOCK
  8
0
  2
*U85
 70
     1
 10
0.0
 20
0.0
 30
0.0
  3
*U85
  1

  0
TEXT
  5
680D4
  8
S-OBRYS
  6
CONTINUOUS
 62
     7
 10
-33660.77418779803
 20
380436.48583468702
 30
0.0
 40
125.0
  1
3000
 41
0.8
  0
ENDBLK
  5
680D6
  8
0
  0
BLOCK
  8
0
  2
*U86
 70
     1
 10
0.0
 20
0.0
 30
0.0
  3
*U86
  1

  0
TEXT
  5
680D8
  8
S-OBRYS
  6
CONTINUOUS
 62
     7
 10
-37982.622837352479
 20
376632.02930736938
 30
0.0
 40
125.0
  1
\U+2205219
 50
318.18066464133898
 41
0.8
  0
ENDBLK
  5
680DA
  8
0
  0
BLOCK
  8
0
  2
*U87
 70
     1
 10
0.0
 20
0.0
 30
0.0
  3
*U87
  1

  0
TEXT
  5
680DC
  8
S-OBRYS
  6
CONTINUOUS
 62
     7
 10
-34256.681290331268
 20
377432.74208454788
 30
0.0
 40
125.0
  1
260
 50
90.0
 41
0.8
  0
ENDBLK
  5
680DE
  8
0
  0
BLOCK
  8
0
  2
*U88
 70
     1
 10
0.0
 20
0.0
 30
0.0
  3
*U88
  1

  0
TEXT
  5
680E0
  8
S-OBRYS
  6
CONTINUOUS
 62
     7
 10
-34542.013803166483
 20
377323.40350682061
 30
0.0
 40
125.0
  1
334
 50
90.0
 41
0.8
  0
ENDBLK
  5
680E2
  8
0
  0
BLOCK
  8
0
  2
*U89
 70
     1
 10
0.0
 20
0.0
 30
0.0
  3
*U89
  1

  0
TEXT
  5
680E4
  8
S-OBRYS
  6
CONTINUOUS
 62
     7
 10
-30972.449111273661
 20
376585.09906363022
 30
0.0
 40
125.0
  1
390
 50
90.0
 41
0.8
  0
ENDBLK
  5
680E6
  8
0
  0
BLOCK
  8
0
  2
*U90
 70
     1
 10
0.0
 20
0.0
 30
0.0
  3
*U90
  1

  0
TEXT
  5
680E8
  8
S-OBRYS
  6
CONTINUOUS
 62
     7
 10
-30972.449111273661
 20
376974.2657302969
 30
0.0
 40
125.0
  1
max.755
 50
90.0
 41
0.8
  0
ENDBLK
  5
680EA
  8
0
  0
BLOCK
  8
0
  2
*U91
 70
     1
 10
0.0
 20
0.0
 30
0.0
  3
*U91
  1

  0
TEXT
  5
680EC
  8
S-OBRYS
  6
CONTINUOUS
 62
     7
 10
-31593.075878239499
 20
380162.79871416959
 30
0.0
 40
125.0
  1
219
 41
0.8
  0
ENDBLK
  5
680EE
  8
0
  0
BLOCK
  8
0
  2
*U92
 70
     1
 10
0.0
 20
0.0
 30
0.0
  3
*U92
  1

  0
TEXT
  5
680F0
  8
S-OBRYS
  6
CONTINUOUS
 62
     7
 10
-32995.526549005473
 20
380351.02748433681
 30
0.0
 40
125.0
  1
450
 50
90.0
 41
0.8
  0
ENDBLK
  5
680F2
  8
0
  0
BLOCK
  8
0
  2
*U93
 70
     1
 10
0.0
 20
0.0
 30
0.0
  3
*U93
  1

  0
TEXT
  5
680F4
  8
S-OBRYS
  6
CONTINUOUS
 62
     7
 10
-32992.73318719933
 20
381313.25935582031
 30
0.0
 40
125.0
  1
515
 50
90.0
 41
0.8
  0
ENDBLK
  5
680F6
  8
0
  0
BLOCK
  8
0
  2
*U94
 70
     1
 10
0.0
 20
0.0
 30
0.0
  3
*U94
  1

  0
TEXT
  5
680F8
  8
S-OBRYS
  6
CONTINUOUS
 62
     7
 10
-38240.281725453759
 20
380712.54507010599
 30
0.0
 40
125.0
  1
800
 41
0.8
  0
ENDBLK
  5
680FA
  8
0
  0
BLOCK
  8
0
  2
*U95
 70
     1
 10
0.0
 20
0.0
 30
0.0
  3
*U95
  1

  0
TEXT
  5
680FC
  8
S-OBRYS
  6
CONTINUOUS
 62
     7
 10
-38711.812863329833
 20
381473.97364153463
 30
0.0
 40
125.0
  1
140
 50
90.0
 41
0.8
  0
ENDBLK
  5
680FE
  8
0
  0
BLOCK
  8
0
  2
*U96
 70
     1
 10
0.0
 20
0.0
 30
0.0
  3
*U96
  1

  0
TEXT
  5
68100
  8
S-OBRYS
  6
CONTINUOUS
 62
     7
 10
-38141.264429829629
 20
381800.40013774711
 30
0.0
 40
125.0
  1
min.200
 41
0.8
  0
ENDBLK
  5
68102
  8
0
  0
BLOCK
  8
0
  2
*U97
 70
     1
 10
0.0
 20
0.0
 30
0.0
  3
*U97
  1

  0
TEXT
  5
68104
  8
S-OBRYS
  6
CONTINUOUS
 62
     7
 10
-37971.412725981267
 20
381483.49745105841
 30
0.0
 40
125.0
  1
60
 50
90.0
 41
0.8
  0
ENDBLK
  5
68106
  8
0
  0
BLOCK
  8
0
  2
*U98
 70
     1
 10
0.0
 20
0.0
 30
0.0
  3
*U98
  1

  0
TEXT
  5
68108
  8
S-OBRYS
  6
CONTINUOUS
 62
     7
 10
-39778.950971733553
 20
380191.11649867753
 30
0.0
 40
125.0
  1
225
 50
90.0
 41
0.8
  0
ENDBLK
  5
6810A
  8
0
  0
BLOCK
  8
0
  2
*U99
 70
     1
 10
0.0
 20
0.0
 30
0.0
  3
*U99
  1

  0
TEXT
  5
6810C
  8
S-OBRYS
  6
CONTINUOUS
 62
     7
 10
-39092.078548823782
 20
380436.48583468702
 30
0.0
 40
125.0
  1
800
 41
0.8
  0
ENDBLK
  5
6810E
  8
0
  0
BLOCK
  8
0
  2
*U100
 70
     1
 10
0.0
 20
0.0
 30
0.0
  3
*U100
  1

  0
TEXT
  5
68110
  8
S-OBRYS
  6
CONTINUOUS
 62
     7
 10
-39658.00354882377
 20
380436.48583468702
 30
0.0
 40
125.0
  1
335
 41
0.8
  0
ENDBLK
  5
68112
  8
0
  0
BLOCK
  8
0
  2
*U101
 70
     1
 10
0.0
 20
0.0
 30
0.0
  3
*U101
  1

  0
TEXT
  5
68114
  8
S-OBRYS
  6
CONTINUOUS
 62
     7
 10
-39910.987948470938
 20
380769.68792724889
 30
0.0
 40
125.0
  1
445
 50
90.0
 41
0.8
  0
ENDBLK
  5
68116
  8
0
  0
BLOCK
  8
0
  2
*U102
 70
     1
 10
0.0
 20
0.0
 30
0.0
  3
*U102
  1

  0
TEXT
  5
68118
  8
S-OBRYS
  6
CONTINUOUS
 62
     7
 10
-33808.187637777963
 20
375226.68830974668
 30
0.0
 40
125.0
  1
334
 41
0.8
  0
ENDBLK
  5
6811A
  8
0
  0
BLOCK
  8
0
  2
*U103
 70
     1
 10
0.0
 20
0.0
 30
0.0
  3
*U103
  1

  0
TEXT
  5
6811C
  8
S-OBRYS
  6
CONTINUOUS
 62
     7
 10
-47099.494768588353
 20
375226.68830974668
 30
0.0
 40
125.0
  1
334
 41
0.8
  0
ENDBLK
  5
6811E
  8
0
  0
BLOCK
  8
0
  2
*U104
 70
     1
 10
0.0
 20
0.0
 30
0.0
  3
*U104
  1

  0
TEXT
  5
68120
  8
S-OBRYS
  6
CONTINUOUS
 62
     7
 10
-51579.207903883187
 20
380436.48583468702
 30
0.0
 40
125.0
  1
3000
 41
0.8
  0
ENDBLK
  5
68122
  8
0
  0
BLOCK
  8
0
  2
*U105
 70
     1
 10
0.0
 20
0.0
 30
0.0
  3
*U105
  1

  0
TEXT
  5
68124
  8
S-OBRYS
  6
CONTINUOUS
 62
     7
 10
-50386.128937656038
 20
380436.48583468702
 30
0.0
 40
125.0
  1
1500
 41
0.8
  0
ENDBLK
  5
68126
  8
0
  0
BLOCK
  8
0
  2
*U106
 70
     1
 10
0.0
 20
0.0
 30
0.0
  3
*U106
  1

  0
TEXT
  5
68128
  8
S-OBRYS
  6
CONTINUOUS
 62
     7
 10
-48794.120284531338
 20
380436.48583468702
 30
0.0
 40
125.0
  1
3000
 41
0.8
  0
ENDBLK
  5
6812A
  8
0
  0
BLOCK
  8
0
  2
*U107
 70
     1
 10
0.0
 20
0.0
 30
0.0
  3
*U107
  1

  0
TEXT
  5
6812C
  8
S-OBRYS
  6
CONTINUOUS
 62
     7
 10
-45983.897559857542
 20
379885.30751664832
 30
0.0
 40
125.0
  1
max.1100
 41
0.8
  0
ENDBLK
  5
6812E
  8
0
  0
BLOCK
  8
0
  2
*U108
 70
     1
 10
0.0
 20
0.0
 30
0.0
  3
*U108
  1

  0
TEXT
  5
68130
  8
S-OBRYS
  6
CONTINUOUS
 62
     7
 10
-44354.135655095633
 20
379885.30751664832
 30
0.0
 40
125.0
  1
600-734
 41
0.8
  0
ENDBLK
  5
68132
  8
0
  0
BLOCK
  8
0
  2
*U109
 70
     1
 10
0.0
 20
0.0
 30
0.0
  3
*U109
  1

  0
TEXT
  5
68134
  8
S-OBRYS
  6
CONTINUOUS
 62
     7
 10
-44219.810385451732
 20
381443.49745105841
 30
0.0
 40
125.0
  1
650-840
 50
90.0
 41
0.8
  0
ENDBLK
  5
68136
  8
0
  0
BLOCK
  8
0
  2
*U110
 70
     1
 10
0.0
 20
0.0
 30
0.0
  3
*U110
  1

  0
TEXT
  5
68138
  8
S-OBRYS
  6
CONTINUOUS
 62
     7
 10
-46952.081318608398
 20
380436.48583468702
 30
0.0
 40
125.0
  1
3000
 41
0.8
  0
ENDBLK
  5
6813A
  8
0
  0
BLOCK
  8
0
  2
*U111
 70
     1
 10
0.0
 20
0.0
 30
0.0
  3
*U111
  1

  0
TEXT
  5
6813C
  8
S-OBRYS
  6
CONTINUOUS
 62
     7
 10
-51273.929968162767
 20
376632.02930736938
 30
0.0
 40
125.0
  1
\U+2205219
 50
318.1806646413491
 41
0.8
  0
ENDBLK
  5
6813E
  8
0
  0
BLOCK
  8
0
  2
*U112
 70
     1
 10
0.0
 20
0.0
 30
0.0
  3
*U112
  1

  0
TEXT
  5
68140
  8
S-OBRYS
  6
CONTINUOUS
 62
     7
 10
-47547.98842114165
 20
377432.74208454788
 30
0.0
 40
125.0
  1
260
 50
90.0
 41
0.8
  0
ENDBLK
  5
68142
  8
0
  0
BLOCK
  8
0
  2
*U113
 70
     1
 10
0.0
 20
0.0
 30
0.0
  3
*U113
  1

  0
TEXT
  5
68144
  8
S-OBRYS
  6
CONTINUOUS
 62
     7
 10
-47833.320933976858
 20
377323.40350682061
 30
0.0
 40
125.0
  1
334
 50
90.0
 41
0.8
  0
ENDBLK
  5
68146
  8
0
  0
BLOCK
  8
0
  2
*U114
 70
     1
 10
0.0
 20
0.0
 30
0.0
  3
*U114
  1

  0
TEXT
  5
68148
  8
S-OBRYS
  6
CONTINUOUS
 62
     7
 10
-44263.756242084048
 20
376585.09906363022
 30
0.0
 40
125.0
  1
390
 50
90.0
 41
0.8
  0
ENDBLK
  5
6814A
  8
0
  0
BLOCK
  8
0
  2
*U115
 70
     1
 10
0.0
 20
0.0
 30
0.0
  3
*U115
  1

  0
TEXT
  5
6814C
  8
S-OBRYS
  6
CONTINUOUS
 62
     7
 10
-44263.756242084048
 20
376974.2657302969
 30
0.0
 40
125.0
  1
max.755
 50
90.0
 41
0.8
  0
ENDBLK
  5
6814E
  8
0
  0
BLOCK
  8
0
  2
*U116
 70
     1
 10
0.0
 20
0.0
 30
0.0
  3
*U116
  1

  0
TEXT
  5
68150
  8
S-OBRYS
  6
CONTINUOUS
 62
     7
 10
-44884.383009049881
 20
380162.79871416959
 30
0.0
 40
125.0
  1
219
 41
0.8
  0
ENDBLK
  5
68152
  8
0
  0
BLOCK
  8
0
  2
*U117
 70
     1
 10
0.0
 20
0.0
 30
0.0
  3
*U117
  1

  0
TEXT
  5
68154
  8
S-OBRYS
  6
CONTINUOUS
 62
     7
 10
-46286.833679815849
 20
380351.02748433681
 30
0.0
 40
125.0
  1
450
 50
90.0
 41
0.8
  0
ENDBLK
  5
68156
  8
0
  0
BLOCK
  8
0
  2
*U118
 70
     1
 10
0.0
 20
0.0
 30
0.0
  3
*U118
  1

  0
TEXT
  5
68158
  8
S-OBRYS
  6
CONTINUOUS
 62
     7
 10
-46284.040318009713
 20
381313.25935582031
 30
0.0
 40
125.0
  1
515
 50
90.0
 41
0.8
  0
ENDBLK
  5
6815A
  8
0
  0
BLOCK
  8
0
  2
*U119
 70
     1
 10
0.0
 20
0.0
 30
0.0
  3
*U119
  1

  0
TEXT
  5
6815C
  8
S-OBRYS
  6
CONTINUOUS
 62
     7
 10
-51531.588856264141
 20
380712.54507010599
 30
0.0
 40
125.0
  1
800
 41
0.8
  0
ENDBLK
  5
6815E
  8
0
  0
BLOCK
  8
0
  2
*U120
 70
     1
 10
0.0
 20
0.0
 30
0.0
  3
*U120
  1

  0
TEXT
  5
68160
  8
S-OBRYS
  6
CONTINUOUS
 62
     7
 10
-52003.119994140208
 20
381473.97364153463
 30
0.0
 40
125.0
  1
140
 50
90.0
 41
0.8
  0
ENDBLK
  5
68162
  8
0
  0
BLOCK
  8
0
  2
*U121
 70
     1
 10
0.0
 20
0.0
 30
0.0
  3
*U121
  1

  0
TEXT
  5
68164
  8
S-OBRYS
  6
CONTINUOUS
 62
     7
 10
-51432.571560640012
 20
381800.40013774711
 30
0.0
 40
125.0
  1
min.200
 41
0.8
  0
ENDBLK
  5
68166
  8
0
  0
BLOCK
  8
0
  2
*U122
 70
     1
 10
0.0
 20
0.0
 30
0.0
  3
*U122
  1

  0
TEXT
  5
68168
  8
S-OBRYS
  6
CONTINUOUS
 62
     7
 10
-51262.719856791642
 20
381483.49745105841
 30
0.0
 40
125.0
  1
60
 50
90.0
 41
0.8
  0
ENDBLK
  5
6816A
  8
0
  0
BLOCK
  8
0
  2
*U123
 70
     1
 10
0.0
 20
0.0
 30
0.0
  3
*U123
  1

  0
TEXT
  5
6816C
  8
S-OBRYS
  6
CONTINUOUS
 62
     7
 10
-53070.258102543921
 20
380191.11649867753
 30
0.0
 40
125.0
  1
225
 50
90.0
 41
0.8
  0
ENDBLK
  5
6816E
  8
0
  0
BLOCK
  8
0
  2
*U124
 70
     1
 10
0.0
 20
0.0
 30
0.0
  3
*U124
  1

  0
TEXT
  5
68170
  8
S-OBRYS
  6
CONTINUOUS
 62
     7
 10
-52383.38567963415
 20
380436.48583468702
 30
0.0
 40
125.0
  1
800
 41
0.8
  0
ENDBLK
  5
68172
  8
0
  0
BLOCK
  8
0
  2
*U125
 70
     1
 10
0.0
 20
0.0
 30
0.0
  3
*U125
  1

  0
TEXT
  5
68174
  8
S-OBRYS
  6
CONTINUOUS
 62
     7
 10
-52949.310679634153
 20
380436.48583468702
 30
0.0
 40
125.0
  1
335
 41
0.8
  0
ENDBLK
  5
68176
  8
0
  0
BLOCK
  8
0
  2
*U126
 70
     1
 10
0.0
 20
0.0
 30
0.0
  3
*U126
  1

  0
TEXT
  5
68178
  8
S-OBRYS
  6
CONTINUOUS
 62
     7
 10
-53202.295079281321
 20
380769.68792724889
 30
0.0
 40
125.0
  1
445
 50
90.0
 41
0.8
  0
ENDBLK
  5
6817A
  8
0
  0
BLOCK
  8
0
  2
*U127
 70
     1
 10
0.0
 20
0.0
 30
0.0
  3
*U127
  1

  0
TEXT
  5
6817C
  8
OBRYS
  6
CONTINUOUS
 10
-25603.02637461463
 20
384080.28647276311
 30
0.0
 40
400.0
  1
Dopravník řetězový RT 260
  7
R
  0
ENDBLK
  5
6817E
  8
0
  0
BLOCK
  8
0
  2
*U128
 70
     1
 10
0.0
 20
0.0
 30
0.0
  3
*U128
  1

  0
TEXT
  5
681C7
  8
S-OBRYS
  6
CONTINUOUS
 62
     7
 10
-25084.277797034159
 20
381953.76059316838
 30
0.0
 40
125.0
  1
3000
 41
0.8
  0
ENDBLK
  5
681C9
  8
0
  0
BLOCK
  8
0
  2
*U129
 70
     1
 10
0.0
 20
0.0
 30
0.0
  3
*U129
  1

  0
TEXT
  5
681CB
  8
S-OBRYS
  6
CONTINUOUS
 62
     7
 10
-23891.19883080701
 20
381953.76059316838
 30
0.0
 40
125.0
  1
1500
 41
0.8
  0
ENDBLK
  5
681CD
  8
0
  0
BLOCK
  8
0
  2
*U130
 70
     1
 10
0.0
 20
0.0
 30
0.0
  3
*U130
  1

  0
TEXT
  5
681CF
  8
S-OBRYS
  6
CONTINUOUS
 62
     7
 10
-22299.190177682322
 20
381953.76059316838
 30
0.0
 40
125.0
  1
3000
 41
0.8
  0
ENDBLK
  5
681D1
  8
0
  0
BLOCK
  8
0
  2
*U131
 70
     1
 10
0.0
 20
0.0
 30
0.0
  3
*U131
  1

  0
TEXT
  5
681D3
  8
S-OBRYS
  6
CONTINUOUS
 62
     7
 10
-19488.967453008499
 20
381402.58227512968
 30
0.0
 40
125.0
  1
max.1100
 41
0.8
  0
ENDBLK
  5
681D5
  8
0
  0
BLOCK
  8
0
  2
*U132
 70
     1
 10
0.0
 20
0.0
 30
0.0
  3
*U132
  1

  0
TEXT
  5
681D7
  8
S-OBRYS
  6
CONTINUOUS
 62
     7
 10
-17859.205548246598
 20
381402.58227512968
 30
0.0
 40
125.0
  1
600-734
 41
0.8
  0
ENDBLK
  5
681D9
  8
0
  0
BLOCK
  8
0
  2
*U133
 70
     1
 10
0.0
 20
0.0
 30
0.0
  3
*U133
  1

  0
TEXT
  5
681DB
  8
S-OBRYS
  6
CONTINUOUS
 62
     7
 10
-17724.880278602701
 20
382960.77220953972
 30
0.0
 40
125.0
  1
650-840
 50
90.0
 41
0.8
  0
ENDBLK
  5
681DD
  8
0
  0
BLOCK
  8
0
  2
*U134
 70
     1
 10
0.0
 20
0.0
 30
0.0
  3
*U134
  1

  0
TEXT
  5
681DF
  8
S-OBRYS
  6
CONTINUOUS
 62
     7
 10
-20457.151211759381
 20
381953.76059316838
 30
0.0
 40
125.0
  1
3000
 41
0.8
  0
ENDBLK
  5
681E1
  8
0
  0
BLOCK
  8
0
  2
*U135
 70
     1
 10
0.0
 20
0.0
 30
0.0
  3
*U135
  1

  0
TEXT
  5
681E3
  8
S-OBRYS
  6
CONTINUOUS
 62
     7
 10
-18389.45290220085
 20
381680.0734726509
 30
0.0
 40
125.0
  1
219
 41
0.8
  0
ENDBLK
  5
681E5
  8
0
  0
BLOCK
  8
0
  2
*U136
 70
     1
 10
0.0
 20
0.0
 30
0.0
  3
*U136
  1

  0
TEXT
  5
681E7
  8
S-OBRYS
  6
CONTINUOUS
 62
     7
 10
-19791.903572966821
 20
381868.30224281817
 30
0.0
 40
125.0
  1
450
 50
90.0
 41
0.8
  0
ENDBLK
  5
681E9
  8
0
  0
BLOCK
  8
0
  2
*U137
 70
     1
 10
0.0
 20
0.0
 30
0.0
  3
*U137
  1

  0
TEXT
  5
681EB
  8
S-OBRYS
  6
CONTINUOUS
 62
     7
 10
-19789.110211160682
 20
382830.53411430161
 30
0.0
 40
125.0
  1
515
 50
90.0
 41
0.8
  0
ENDBLK
  5
681ED
  8
0
  0
BLOCK
  8
0
  2
*U138
 70
     1
 10
0.0
 20
0.0
 30
0.0
  3
*U138
  1

  0
TEXT
  5
681EF
  8
S-OBRYS
  6
CONTINUOUS
 62
     7
 10
-25036.65874941511
 20
382229.81982858729
 30
0.0
 40
125.0
  1
800
 41
0.8
  0
ENDBLK
  5
681F1
  8
0
  0
BLOCK
  8
0
  2
*U139
 70
     1
 10
0.0
 20
0.0
 30
0.0
  3
*U139
  1

  0
TEXT
  5
681F3
  8
S-OBRYS
  6
CONTINUOUS
 62
     7
 10
-25508.189887291181
 20
382991.24840001599
 30
0.0
 40
125.0
  1
140
 50
90.0
 41
0.8
  0
ENDBLK
  5
681F5
  8
0
  0
BLOCK
  8
0
  2
*U140
 70
     1
 10
0.0
 20
0.0
 30
0.0
  3
*U140
  1

  0
TEXT
  5
681F7
  8
S-OBRYS
  6
CONTINUOUS
 62
     7
 10
-24937.64145379098
 20
383317.67489622842
 30
0.0
 40
125.0
  1
min.200
 41
0.8
  0
ENDBLK
  5
681F9
  8
0
  0
BLOCK
  8
0
  2
*U141
 70
     1
 10
0.0
 20
0.0
 30
0.0
  3
*U141
  1

  0
TEXT
  5
681FB
  8
S-OBRYS
  6
CONTINUOUS
 62
     7
 10
-24767.789749942622
 20
383000.77220953972
 30
0.0
 40
125.0
  1
60
 50
90.0
 41
0.8
  0
ENDBLK
  5
681FD
  8
0
  0
BLOCK
  8
0
  2
*U142
 70
     1
 10
0.0
 20
0.0
 30
0.0
  3
*U142
  1

  0
TEXT
  5
681FF
  8
S-OBRYS
  6
CONTINUOUS
 62
     7
 10
-26575.32799569489
 20
381708.39125715877
 30
0.0
 40
125.0
  1
225
 50
90.0
 41
0.8
  0
ENDBLK
  5
68201
  8
0
  0
BLOCK
  8
0
  2
*U143
 70
     1
 10
0.0
 20
0.0
 30
0.0
  3
*U143
  1

  0
TEXT
  5
68203
  8
S-OBRYS
  6
CONTINUOUS
 62
     7
 10
-25888.455572785118
 20
381953.76059316838
 30
0.0
 40
125.0
  1
800
 41
0.8
  0
ENDBLK
  5
68205
  8
0
  0
BLOCK
  8
0
  2
*U144
 70
     1
 10
0.0
 20
0.0
 30
0.0
  3
*U144
  1

  0
TEXT
  5
68207
  8
S-OBRYS
  6
CONTINUOUS
 62
     7
 10
-26454.380572785121
 20
381953.76059316838
 30
0.0
 40
125.0
  1
335
 41
0.8
  0
ENDBLK
  5
68209
  8
0
  0
BLOCK
  8
0
  2
*U145
 70
     1
 10
0.0
 20
0.0
 30
0.0
  3
*U145
  1

  0
TEXT
  5
6820B
  8
S-OBRYS
  6
CONTINUOUS
 62
     7
 10
-26707.36497243229
 20
382286.96268573031
 30
0.0
 40
125.0
  1
445
 50
90.0
 41
0.8
  0
ENDBLK
  5
6820D
  8
0
  0
BLOCK
  8
0
  2
*U146
 70
     1
 10
0.0
 20
0.0
 30
0.0
  3
*U146
  1

  0
TEXT
  5
6820F
  8
S-OBRYS
  6
CONTINUOUS
 62
     7
 10
-24778.99986131371
 20
375516.92377372569
 30
0.0
 40
125.0
  1
\U+2205219
 50
318.1806646413491
 41
0.8
  0
ENDBLK
  5
68211
  8
0
  0
BLOCK
  8
0
  2
*U147
 70
     1
 10
0.0
 20
0.0
 30
0.0
  3
*U147
  1

  0
TEXT
  5
68213
  8
S-OBRYS
  6
CONTINUOUS
 62
     7
 10
-21053.058314292619
 20
376317.63655090408
 30
0.0
 40
125.0
  1
260
 50
90.0
 41
0.8
  0
ENDBLK
  5
68215
  8
0
  0
BLOCK
  8
0
  2
*U148
 70
     1
 10
0.0
 20
0.0
 30
0.0
  3
*U148
  1

  0
TEXT
  5
68217
  8
S-OBRYS
  6
CONTINUOUS
 62
     7
 10
-21338.390827127831
 20
376208.29797317681
 30
0.0
 40
125.0
  1
334
 50
90.0
 41
0.8
  0
ENDBLK
  5
68219
  8
0
  0
BLOCK
  8
0
  2
*U149
 70
     1
 10
0.0
 20
0.0
 30
0.0
  3
*U149
  1

  0
TEXT
  5
6821B
  8
S-OBRYS
  6
CONTINUOUS
 62
     7
 10
-17768.826135235009
 20
375469.99352998642
 30
0.0
 40
125.0
  1
390
 50
90.0
 41
0.8
  0
ENDBLK
  5
6821D
  8
0
  0
BLOCK
  8
0
  2
*U150
 70
     1
 10
0.0
 20
0.0
 30
0.0
  3
*U150
  1

  0
TEXT
  5
6821F
  8
S-OBRYS
  6
CONTINUOUS
 62
     7
 10
-17768.826135235009
 20
375859.1601966531
 30
0.0
 40
125.0
  1
max.755
 50
90.0
 41
0.8
  0
ENDBLK
  5
68221
  8
0
  0
BLOCK
  8
0
  2
*U151
 70
     1
 10
0.0
 20
0.0
 30
0.0
  3
*U151
  1

  0
TEXT
  5
68223
  8
S-OBRYS
  6
CONTINUOUS
 62
     7
 10
-20604.56466173931
 20
374111.58277610288
 30
0.0
 40
125.0
  1
334
 41
0.8
  0
ENDBLK
  5
68225
  8
0
  0
BLOCK
  8
0
  2
*U152
 70
     1
 10
0.0
 20
0.0
 30
0.0
  3
*U152
  1

  0
TEXT
  5
68236
  8
S-OBRYS
  6
CONTINUOUS
 62
     7
 10
-26580.753352080479
 20
379437.10542124388
 30
0.0
 40
125.0
  1
MIN.250
 41
0.8
  0
ENDBLK
  5
68238
  8
0
  0
BLOCK
  8
0
  2
*U153
 70
     1
 10
0.0
 20
0.0
 30
0.0
  3
*U153
  1

  0
TEXT
  5
6823A
  8
S-OBRYS
  6
CONTINUOUS
 62
     7
 10
-24740.032237169878
 20
378739.15160734957
 30
0.0
 40
125.0
  1
\U+2205219
 50
318.18066464135541
 41
0.8
  0
ENDBLK
  5
6823C
  8
0
  0
BLOCK
  8
0
  2
*U154
 70
     1
 10
0.0
 20
0.0
 30
0.0
  3
*U154
  1

  0
TEXT
  5
6823E
  8
S-OBRYS
  6
CONTINUOUS
 62
     7
 10
-21014.090690148809
 20
379539.86438452802
 30
0.0
 40
125.0
  1
260
 50
90.0
 41
0.8
  0
ENDBLK
  5
68240
  8
0
  0
BLOCK
  8
0
  2
*U155
 70
     1
 10
0.0
 20
0.0
 30
0.0
  3
*U155
  1

  0
TEXT
  5
68242
  8
S-OBRYS
  6
CONTINUOUS
 62
     7
 10
-21299.42320298402
 20
379430.5258068007
 30
0.0
 40
125.0
  1
334
 50
90.0
 41
0.8
  0
ENDBLK
  5
68244
  8
0
  0
BLOCK
  8
0
  2
*U156
 70
     1
 10
0.0
 20
0.0
 30
0.0
  3
*U156
  1

  0
TEXT
  5
68246
  8
S-OBRYS
  6
CONTINUOUS
 62
     7
 10
-17729.858511091199
 20
378692.2213636103
 30
0.0
 40
125.0
  1
390
 50
90.0
 41
0.8
  0
ENDBLK
  5
68248
  8
0
  0
BLOCK
  8
0
  2
*U157
 70
     1
 10
0.0
 20
0.0
 30
0.0
  3
*U157
  1

  0
TEXT
  5
6824A
  8
S-OBRYS
  6
CONTINUOUS
 62
     7
 10
-17729.858511091199
 20
379081.38803027698
 30
0.0
 40
125.0
  1
max.755
 50
90.0
 41
0.8
  0
ENDBLK
  5
6824C
  8
0
  0
ENDSEC
  0
SECTION
  2
ENTITIES
  0
TEXT
  5
2F7A5
  8
KOTY
 10
-393803.77638965531
 20
-299016.15321175661
 30
0.0
 40
150.0
  1

 41
0.7
  7
ROMANT
  0
TEXT
  5
3AD8B
  8
KOTY
 10
-14797.18019204357
 20
454294.55370899959
 30
0.0
 40
150.0
  1

 41
0.7
  7
ROMANT
  0
TEXT
  5
404AD
  8
KOTY
 10
44010.2314385153
 20
465617.23741859582
 30
0.0
 40
92.0
  1

 41
0.7
  7
CYRILLIC
  0
TEXT
  5
404B4
  8
KOTY
 10
39575.071591094718
 20
465613.29777162091
 30
0.0
 40
92.0
  1

 41
0.7
  7
CYRILLIC
  0
TEXT
  5
40B14
  8
KOTY
 10
5856.0590664841584
 20
486921.1132385282
 30
0.0
 40
150.0
  1

 41
0.7
  7
ROMANT
  0
TEXT
  5
40BFC
  8
KOTY
 10
8767.7265956277752
 20
466337.2608060218
 30
0.0
 40
150.0
  1

 41
0.7
  7
ROMANS
  0
TEXT
  5
51A7C
  8
KOTY
 10
-47677.341387967608
 20
395133.71812193602
 30
0.0
 40
150.0
  1

 41
0.7
  7
ROMANS
  0
TEXT
  5
51A94
  8
KOTY
 10
-45176.819295693742
 20
395133.7181219359
 30
0.0
 40
150.0
  1

 41
0.7
  7
ROMANS
  0
TEXT
  5
51A9B
  8
KOTY
 10
-48084.423320344351
 20
397411.27855615731
 30
0.0
 40
150.0
  1

 41
0.7
  7
ROMANT
  0
TEXT
  5
51B05
  8
RAZ
 62
     6
 10
-47365.887544580757
 20
392999.37567832542
 30
0.0
 40
193.54103193599991
  1

 41
0.8
  7
R08
  0
TEXT
  5
51B06
  8
RAZ
 62
     1
 10
-47245.037660778231
 20
393401.77274166199
 30
0.0
 40
125.41458869452801
  1

  7
ROMANS
  0
TEXT
  5
58307
  8
KOTY
 10
22966.528519463162
 20
383405.87475258159
 30
0.0
 40
150.0
  1

 41
0.7
  7
ROMANS
  0
TEXT
  5
58308
  8
KOTY
 10
22966.528519463169
 20
383855.87475258159
 30
0.0
 40
150.0
  1

 41
0.7
  7
ROMANS
  0
TEXT
  5
58315
  8
KOTY
 10
25467.050611737021
 20
383855.87475258141
 30
0.0
 40
150.0
  1

 41
0.7
  7
ROMANS
  0
TEXT
  5
58316
  8
KOTY
 10
25467.050611737021
 20
383405.87475258141
 30
0.0
 40
150.0
  1

 41
0.7
  7
ROMANS
  0
TEXT
  5
5833F
  8
KOTY
 10
22966.528519463162
 20
385205.87475258153
 30
0.0
 40
150.0
  1

 41
0.7
  7
ROMANS
  0
TEXT
  5
58340
  8
KOTY
 10
22966.528519463169
 20
385655.87475258159
 30
0.0
 40
150.0
  1

 41
0.7
  7
ROMANS
  0
TEXT
  5
58354
  8
KOTY
 10
25467.050611737021
 20
385655.87475258141
 30
0.0
 40
150.0
  1

 41
0.7
  7
ROMANS
  0
TEXT
  5
58355
  8
KOTY
 10
25467.050611737021
 20
385205.87475258141
 30
0.0
 40
150.0
  1

 41
0.7
  7
ROMANS
  0
TEXT
  5
58397
  8
KOTY
 10
25467.050611737039
 20
390605.87475258129
 30
0.0
 40
150.0
  1

 41
0.7
  7
ROMANS
  0
TEXT
  5
58398
  8
KOTY
 10
25467.050611737039
 20
391055.87475258141
 30
0.0
 40
150.0
  1

 41
0.7
  7
ROMANS
  0
TEXT
  5
583C1
  8
KOTY
 10
25467.050611737031
 20
389255.87475258141
 30
0.0
 40
150.0
  1

 41
0.7
  7
ROMANS
  0
TEXT
  5
58C84
  8
KOTY
 10
22966.52851946322
 20
387905.87475258153
 30
0.0
 40
150.0
  1

 41
0.7
  7
ROMANS
  0
LINE
  5
673AF
  8
S-OBRYS
  6
CONTINUOUS
 10
-27216.104869751551
 20
370888.28785929468
 30
0.0
 11
-16716.104869751551
 21
370888.28785929468
 31
0.0
  0
LINE
  5
673B0
  8
S-OBRYS
  6
CONTINUOUS
 10
-16716.104869751551
 20
370888.28785929468
 30
0.0
 11
-16716.104869751551
 21
385738.28785929468
 31
0.0
  0
LINE
  5
673B1
  8
S-OBRYS
  6
CONTINUOUS
 10
-16716.104869751551
 20
385738.28785929468
 30
0.0
 11
-27216.104869751551
 21
385738.28785929468
 31
0.0
  0
LINE
  5
673B2
  8
S-OBRYS
  6
CONTINUOUS
 10
-27216.104869751551
 20
385738.28785929468
 30
0.0
 11
-27216.104869751551
 21
370888.28785929468
 31
0.0
  0
INSERT
  5
673B3
  8
S-OBRYS
  6
CONTINUOUS
  2
*U127
 10
0.0
 20
0.0
 30
0.0
  0
LINE
  5
673B4
  8
S-OBRYS
  6
CONTINUOUS
 10
-22911.041731250469
 20
382204.81982858729
 30
0.0
 11
-21306.186718038141
 21
382204.81982858729
 31
0.0
  0
LINE
  5
673B5
  8
S-OBRYS
  6
CONTINUOUS
 10
-21241.11061416319
 20
382204.81982858729
 30
0.0
 11
-21009.705097914572
 21
382204.81982858753
 31
0.0
  0
LINE
  5
673B6
  8
S-OBRYS
  6
CONTINUOUS
 10
-20916.578361326479
 20
382204.81982858729
 30
0.0
 11
-19911.041731250461
 21
382204.81982858729
 31
0.0
  0
LINE
  5
673B7
  8
S-OBRYS
  6
CONTINUOUS
 10
-22911.041731250469
 20
382654.81982858741
 30
0.0
 11
-21306.186718038149
 21
382654.81982858741
 31
0.0
  0
LINE
  5
673B8
  8
S-OBRYS
  6
CONTINUOUS
 10
-21241.11061416319
 20
382654.81982858741
 30
0.0
 11
-21009.70509791467
 21
382654.81982858741
 31
0.0
  0
LINE
  5
673B9
  8
S-OBRYS
  6
CONTINUOUS
 10
-20916.578361326479
 20
382654.81982858741
 30
0.0
 11
-19911.041731250461
 21
382654.81982858741
 31
0.0
  0
LINE
  5
673BA
  8
S-OBRYS
  6
CONTINUOUS
 10
-17963.220480414009
 20
375807.85067284352
 30
0.0
 11
-24734.56982338841
 21
375807.85067284352
 31
0.0
  0
LINE
  5
673BB
  8
S-OBRYS
  6
CONTINUOUS
 10
-22739.774039089109
 20
375807.85067284352
 30
0.0
 11
-26477.085981143009
 21
375807.85067284352
 31
0.0
  0
LINE
  5
673BC
  8
S-OBRYS
  6
CONTINUOUS
 10
-25887.899579194211
 20
382429.81982858753
 30
0.0
 11
-21009.705097914619
 21
382429.81982858753
 31
0.0
  0
LINE
  5
673BD
  8
S-OBRYS
  6
CONTINUOUS
 10
-20916.578361326479
 20
382429.81982858753
 30
0.0
 11
-19340.2323592424
 21
382429.81982858753
 31
0.0
  0
LINE
  5
673BE
  8
S-OBRYS
  6
CONTINUOUS
 10
-18759.366028135712
 20
382429.81982858741
 30
0.0
 11
-19665.157929198969
 21
382429.81982858741
 31
0.0
  0
LINE
  5
673BF
  8
S-OBRYS
  6
CONTINUOUS
 10
-18563.22048041406
 20
375974.85067284352
 30
0.0
 11
-24745.406957211129
 21
375974.85067284352
 31
0.0
  0
LINE
  5
673C0
  8
S-OBRYS
  6
CONTINUOUS
 10
-22743.386618114269
 20
375974.85067284352
 30
0.0
 11
-26142.085981143009
 21
375974.85067284352
 31
0.0
  0
LINE
  5
673C1
  8
S-OBRYS
  6
CONTINUOUS
 10
-26142.085981143009
 20
375937.85067284352
 30
0.0
 11
-22743.386618114269
 21
375937.85067284352
 31
0.0
  0
LINE
  5
673C2
  8
S-OBRYS
  6
CONTINUOUS
 10
-24647.871244674479
 20
375937.85067284352
 30
0.0
 11
-18563.22048041406
 21
375937.85067284352
 31
0.0
  0
LINE
  5
673C3
  8
S-OBRYS
  6
CONTINUOUS
 10
-26142.085981143009
 20
375677.85067284358
 30
0.0
 11
-22739.774039089109
 21
375677.85067284358
 31
0.0
  0
LINE
  5
673C4
  8
S-OBRYS
  6
CONTINUOUS
 10
-24640.646388250509
 20
375677.85067284358
 30
0.0
 11
-18563.22048041406
 21
375677.85067284358
 31
0.0
  0
LINE
  5
673C5
  8
S-OBRYS
  6
CONTINUOUS
 10
-18563.22048041406
 20
375640.85067284358
 30
0.0
 11
-24741.794679812381
 21
375640.85067284358
 31
0.0
  0
LINE
  5
673C6
  8
S-OBRYS
  6
CONTINUOUS
 10
-22739.774039089109
 20
375640.85067284358
 30
0.0
 11
-26142.085981143009
 21
375640.85067284358
 31
0.0
  0
LINE
  5
673C7
  8
S-OBRYS
  6
CONTINUOUS
 10
-25823.26006868167
 20
376004.10937445093
 30
0.0
 11
-25661.440717518239
 21
376004.10937445093
 31
0.0
  0
LINE
  5
673C8
  8
S-OBRYS
  6
CONTINUOUS
 10
-25807.353874318978
 20
376031.38869417598
 30
0.0
 11
-25677.346911880941
 21
376031.38869417598
 31
0.0
  0
LINE
  5
673C9
  8
S-OBRYS
  6
CONTINUOUS
 10
-25807.353874318978
 20
375584.31265151111
 30
0.0
 11
-25677.346911880941
 21
375584.31265151111
 31
0.0
  0
LINE
  5
673CA
  8
S-OBRYS
  6
CONTINUOUS
 10
-25823.26006868167
 20
375611.59197123622
 30
0.0
 11
-25661.440717518239
 21
375611.59197123622
 31
0.0
  0
LINE
  5
673CB
  8
S-OBRYS
  6
CONTINUOUS
 10
-26182.472926226928
 20
375851.81116049137
 30
0.0
 11
-26142.085981143009
 21
375897.1372279505
 31
0.0
  0
LINE
  5
673CC
  8
S-OBRYS
  6
CONTINUOUS
 10
-26142.085981143009
 20
375974.85067284352
 30
0.0
 11
-26142.085981143009
 21
375640.85067284358
 31
0.0
  0
LINE
  5
673CD
  8
S-OBRYS
  6
CONTINUOUS
 10
-26467.085981143009
 20
375869.72567655292
 30
0.0
 11
-26477.085981143009
 21
375859.72567655297
 31
0.0
  0
LINE
  5
673CE
  8
S-OBRYS
  6
CONTINUOUS
 10
-26443.091068350041
 20
375869.72567655292
 30
0.0
 11
-26433.091068350041
 21
375859.72567655297
 31
0.0
  0
LINE
  5
673CF
  8
S-OBRYS
  6
CONTINUOUS
 10
-26182.472926226928
 20
375831.16634569631
 30
0.0
 11
-26433.091068350041
 21
375831.16634569631
 31
0.0
  0
LINE
  5
673D0
  8
S-OBRYS
  6
CONTINUOUS
 10
-26182.472926226928
 20
375784.53499999078
 30
0.0
 11
-26433.091068350041
 21
375784.53499999078
 31
0.0
  0
LINE
  5
673D1
  8
S-OBRYS
  6
CONTINUOUS
 10
-26433.091068350041
 20
375859.72567655297
 30
0.0
 11
-26433.091068350059
 21
375755.97566913418
 31
0.0
  0
LINE
  5
673D2
  8
S-OBRYS
  6
CONTINUOUS
 10
-26477.085981143009
 20
375755.97566913418
 30
0.0
 11
-26477.085981143009
 21
375859.72567655297
 31
0.0
  0
LINE
  5
673D3
  8
S-OBRYS
  6
CONTINUOUS
 10
-26467.085981143009
 20
375745.97566913412
 30
0.0
 11
-26443.091068350052
 21
375745.97566913412
 31
0.0
  0
LINE
  5
673D4
  8
S-OBRYS
  6
CONTINUOUS
 10
-26467.085981143009
 20
375745.97566913412
 30
0.0
 11
-26477.085981143009
 21
375755.97566913418
 31
0.0
  0
LINE
  5
673D5
  8
S-OBRYS
  6
CONTINUOUS
 10
-26433.091068350059
 20
375755.97566913418
 30
0.0
 11
-26443.091068350052
 21
375745.97566913412
 31
0.0
  0
LINE
  5
673D6
  8
S-OBRYS
  6
CONTINUOUS
 10
-25823.26006868167
 20
375611.59197123622
 30
0.0
 11
-25823.26006868167
 21
375640.85067284358
 31
0.0
  0
LINE
  5
673D7
  8
S-OBRYS
  6
CONTINUOUS
 10
-25823.26006868167
 20
375611.59197123622
 30
0.0
 11
-25807.353874318978
 21
375584.31265151111
 31
0.0
  0
LINE
  5
673D8
  8
S-OBRYS
  6
CONTINUOUS
 10
-26182.472926226928
 20
375851.81116049137
 30
0.0
 11
-26182.472926226939
 21
375763.89018519572
 31
0.0
  0
LINE
  5
673D9
  8
S-OBRYS
  6
CONTINUOUS
 10
-26182.472926226939
 20
375763.89018519572
 30
0.0
 11
-26142.085981143009
 21
375718.56411773647
 31
0.0
  0
CIRCLE
  5
673DA
  8
S-OBRYS
  6
CONTINUOUS
 10
-26082.87237260527
 20
375807.85067284352
 30
0.0
 40
25.566579456903131
  0
LINE
  5
673DB
  8
S-OBRYS
  6
CONTINUOUS
 10
-26467.085981143009
 20
375869.72567655292
 30
0.0
 11
-26443.091068350041
 21
375869.72567655292
 31
0.0
  0
LINE
  5
673DC
  8
S-OBRYS
  6
CONTINUOUS
 10
-25823.26006868167
 20
376004.10937445093
 30
0.0
 11
-25807.353874318978
 21
376031.38869417598
 31
0.0
  0
LINE
  5
673DD
  8
S-OBRYS
  6
CONTINUOUS
 10
-25823.26006868167
 20
376004.10937445093
 30
0.0
 11
-25823.26006868167
 21
375974.85067284352
 31
0.0
  0
LINE
  5
673DE
  8
S-OBRYS
  6
CONTINUOUS
 10
-24958.94854410761
 20
375974.85067284352
 30
0.0
 11
-24958.94854410761
 21
375640.85067284358
 31
0.0
  0
LINE
  5
673DF
  8
S-OBRYS
  6
CONTINUOUS
 10
-24908.688738837209
 20
375974.85067284352
 30
0.0
 11
-24908.688738837209
 21
375640.85067284358
 31
0.0
  0
CIRCLE
  5
673E0
  8
S-OBRYS
  6
CONTINUOUS
 10
-25141.656385958398
 20
375807.85067284352
 30
0.0
 40
109.5
  0
LINE
  5
673E1
  8
S-OBRYS
  6
CONTINUOUS
 10
-25141.656385958398
 20
375677.85067284358
 30
0.0
 11
-25141.656385958398
 21
375937.85067284352
 31
0.0
  0
LINE
  5
673E2
  8
S-OBRYS
  6
CONTINUOUS
 10
-25324.364227809168
 20
375974.85067284352
 30
0.0
 11
-25324.364227809179
 21
375640.85067284358
 31
0.0
  0
LINE
  5
673E3
  8
S-OBRYS
  6
CONTINUOUS
 10
-25374.62403307957
 20
375974.85067284352
 30
0.0
 11
-25374.62403307957
 21
375640.85067284358
 31
0.0
  0
LINE
  5
673E4
  8
S-OBRYS
  6
CONTINUOUS
 10
-25742.350393099961
 20
376089.16262097098
 30
0.0
 11
-25742.350393099961
 21
375526.538724716
 31
0.0
  0
LINE
  5
673E5
  8
S-OBRYS
  6
CONTINUOUS
 10
-25661.44071751825
 20
375611.59197123622
 30
0.0
 11
-25661.44071751825
 21
375640.85067284358
 31
0.0
  0
LINE
  5
673E6
  8
S-OBRYS
  6
CONTINUOUS
 10
-25661.440717518239
 20
375611.59197123622
 30
0.0
 11
-25677.346911880941
 21
375584.31265151111
 31
0.0
  0
LINE
  5
673E7
  8
S-OBRYS
  6
CONTINUOUS
 10
-25661.440717518239
 20
376004.10937445093
 30
0.0
 11
-25677.346911880941
 21
376031.38869417598
 31
0.0
  0
LINE
  5
673E8
  8
S-OBRYS
  6
CONTINUOUS
 10
-25661.44071751825
 20
376004.10937445093
 30
0.0
 11
-25661.44071751825
 21
375974.85067284352
 31
0.0
  0
LINE
  5
673E9
  8
S-OBRYS
  6
CONTINUOUS
 10
-24409.104282465509
 20
375640.85067284358
 30
0.0
 11
-24409.104282465501
 21
375974.85067284352
 31
0.0
  0
LINE
  5
673EA
  8
S-OBRYS
  6
CONTINUOUS
 10
-24474.18038633942
 20
375640.85067284358
 30
0.0
 11
-24474.180386339551
 21
375974.85067284352
 31
0.0
  0
LINE
  5
673EB
  8
S-OBRYS
  6
CONTINUOUS
 10
-22974.18038633942
 20
375640.85067284358
 30
0.0
 11
-22974.180386339562
 21
375974.85067284352
 31
0.0
  0
LINE
  5
673EC
  8
S-OBRYS
  6
CONTINUOUS
 10
-22909.10428246552
 20
375640.85067284358
 30
0.0
 11
-22909.10428246552
 21
375974.85067284352
 31
0.0
  0
LINE
  5
673ED
  8
S-OBRYS
  6
CONTINUOUS
 10
-25311.485377990499
 20
382204.81982858729
 30
0.0
 11
-24476.117835125431
 21
382204.81982858729
 31
0.0
  0
LINE
  5
673EE
  8
S-OBRYS
  6
CONTINUOUS
 10
-25310.196592436649
 20
382654.81982858741
 30
0.0
 11
-24476.117835125431
 21
382654.81982858741
 31
0.0
  0
LINE
  5
673EF
  8
S-OBRYS
  6
CONTINUOUS
 10
-25143.593834743358
 20
382535.49138760578
 30
0.0
 11
-25143.593834743358
 21
382837.00510049338
 31
0.0
  0
LINE
  5
673F0
  8
S-OBRYS
  6
CONTINUOUS
 10
-25034.093834743358
 20
382794.81982858741
 30
0.0
 11
-25034.093834743358
 21
382734.81982858741
 31
0.0
  0
LINE
  5
673F1
  8
S-OBRYS
  6
CONTINUOUS
 10
-25253.093834743358
 20
382794.81982858741
 30
0.0
 11
-25253.093834743358
 21
382734.81982858741
 31
0.0
  0
LINE
  5
673F2
  8
S-OBRYS
  6
CONTINUOUS
 10
-26144.02342992798
 20
382277.76106611401
 30
0.0
 11
-25351.842327369792
 21
382277.76106611401
 31
0.0
  0
CIRCLE
  5
673F3
  8
S-OBRYS
  6
CONTINUOUS
 10
-25744.287841884921
 20
382429.81982858741
 30
0.0
 40
80.909675581715405
  0
LINE
  5
673F4
  8
S-OBRYS
  6
CONTINUOUS
 10
-26144.02342992798
 20
382204.81982858729
 30
0.0
 11
-25376.561481865461
 21
382204.81982858729
 31
0.0
  0
LINE
  5
673F5
  8
S-OBRYS
  6
CONTINUOUS
 10
-26144.02342992798
 20
382654.81982858741
 30
0.0
 11
-25376.561481865461
 21
382654.81982858741
 31
0.0
  0
LINE
  5
673F6
  8
S-OBRYS
  6
CONTINUOUS
 10
-26144.02342992798
 20
382581.87859106081
 30
0.0
 11
-25351.842327369781
 21
382581.87859106081
 31
0.0
  0
LINE
  5
673F7
  8
S-OBRYS
  6
CONTINUOUS
 10
-26144.02342992798
 20
382204.81982858729
 30
0.0
 11
-26144.02342992798
 21
382654.81982858741
 31
0.0
  0
LINE
  5
673F8
  8
S-OBRYS
  6
CONTINUOUS
 10
-26184.410375011899
 20
382406.50415573461
 30
0.0
 11
-26435.028517135011
 21
382406.50415573461
 31
0.0
  0
LINE
  5
673F9
  8
S-OBRYS
  6
CONTINUOUS
 10
-26184.410375011899
 20
382453.13550144009
 30
0.0
 11
-26435.028517135011
 21
382453.13550144009
 31
0.0
  0
LINE
  5
673FA
  8
S-OBRYS
  6
CONTINUOUS
 10
-26435.028517135011
 20
382481.69483229669
 30
0.0
 11
-26435.028517135019
 21
382377.94482487789
 31
0.0
  0
LINE
  5
673FB
  8
S-OBRYS
  6
CONTINUOUS
 10
-26479.02342992798
 20
382377.94482487789
 30
0.0
 11
-26479.02342992798
 21
382481.69483229669
 31
0.0
  0
LINE
  5
673FC
  8
S-OBRYS
  6
CONTINUOUS
 10
-26469.02342992798
 20
382367.94482487789
 30
0.0
 11
-26445.028517135019
 21
382367.94482487789
 31
0.0
  0
LINE
  5
673FD
  8
S-OBRYS
  6
CONTINUOUS
 10
-26469.02342992798
 20
382367.94482487789
 30
0.0
 11
-26479.02342992798
 21
382377.94482487789
 31
0.0
  0
LINE
  5
673FE
  8
S-OBRYS
  6
CONTINUOUS
 10
-26435.028517135019
 20
382377.94482487789
 30
0.0
 11
-26445.028517135019
 21
382367.94482487789
 31
0.0
  0
LINE
  5
673FF
  8
S-OBRYS
  6
CONTINUOUS
 10
-26469.02342992798
 20
382491.69483229681
 30
0.0
 11
-26445.028517135011
 21
382491.69483229681
 31
0.0
  0
LINE
  5
67400
  8
S-OBRYS
  6
CONTINUOUS
 10
-26469.02342992798
 20
382491.69483229681
 30
0.0
 11
-26479.02342992798
 21
382481.69483229669
 31
0.0
  0
LINE
  5
67401
  8
S-OBRYS
  6
CONTINUOUS
 10
-26445.028517135011
 20
382491.69483229681
 30
0.0
 11
-26435.028517135011
 21
382481.69483229669
 31
0.0
  0
LINE
  5
67402
  8
S-OBRYS
  6
CONTINUOUS
 10
-26184.410375011899
 20
382473.78031623521
 30
0.0
 11
-26184.410375011899
 21
382385.8593409395
 31
0.0
  0
LINE
  5
67403
  8
S-OBRYS
  6
CONTINUOUS
 10
-26184.410375011899
 20
382385.8593409395
 30
0.0
 11
-26144.02342992798
 21
382340.53327348043
 31
0.0
  0
LINE
  5
67404
  8
S-OBRYS
  6
CONTINUOUS
 10
-26184.410375011899
 20
382473.78031623521
 30
0.0
 11
-26144.02342992798
 21
382519.10638369428
 31
0.0
  0
LINE
  5
67405
  8
S-OBRYS
  6
CONTINUOUS
 10
-26075.313657253519
 20
382673.70229658822
 30
0.0
 11
-26075.313657253519
 21
382654.81982858741
 31
0.0
  0
LINE
  5
67406
  8
S-OBRYS
  6
CONTINUOUS
 10
-26094.305985526949
 20
382673.70229658822
 30
0.0
 11
-26094.305985526949
 21
382654.81982858741
 31
0.0
  0
LINE
  5
67407
  8
S-OBRYS
  6
CONTINUOUS
 10
-26084.809821390241
 20
382702.98715826467
 30
0.0
 11
-26084.809821390241
 21
382648.3612950152
 31
0.0
  0
POLYLINE
  5
67408
  8
S-OBRYS
  6
CONTINUOUS
 66
     1
 10
0.0
 20
0.0
 30
0.0
 70
     1
  0
VERTEX
  5
6817F
  8
S-OBRYS
  6
CONTINUOUS
 10
-26110.376400847141
 20
382673.70229658822
 30
0.0
  0
VERTEX
  5
68180
  8
S-OBRYS
  6
CONTINUOUS
 10
-26059.243241933331
 20
382673.70229658822
 30
0.0
  0
VERTEX
  5
68181
  8
S-OBRYS
  6
CONTINUOUS
 10
-26059.243241933331
 20
382683.30087063619
 30
0.0
 42
0.4142135623730922
  0
VERTEX
  5
68182
  8
S-OBRYS
  6
CONTINUOUS
 10
-26064.243241933331
 20
382688.3008706363
 30
0.0
  0
VERTEX
  5
68183
  8
S-OBRYS
  6
CONTINUOUS
 10
-26105.376400847141
 20
382688.3008706363
 30
0.0
 42
0.4142135623730951
  0
VERTEX
  5
68184
  8
S-OBRYS
  6
CONTINUOUS
 10
-26110.376400847141
 20
382683.30087063619
 30
0.0
  0
SEQEND
  5
68185
  8
S-OBRYS
  6
CONTINUOUS
  0
LINE
  5
67409
  8
S-OBRYS
  6
CONTINUOUS
 10
-25351.842327369792
 20
382213.45537462551
 30
0.0
 11
-25351.84232736977
 21
382646.18428254919
 31
0.0
  0
LINE
  5
6740A
  8
S-OBRYS
  6
CONTINUOUS
 10
-25336.20453248619
 20
382213.45537462551
 30
0.0
 11
-25336.20453248619
 21
382646.18428254919
 31
0.0
  0
LINE
  5
6740B
  8
S-OBRYS
  6
CONTINUOUS
 10
-25744.287841884921
 20
382558.75975245761
 30
0.0
 11
-25744.287841884921
 21
382277.76106611401
 31
0.0
  0
LINE
  5
6740C
  8
S-OBRYS
  6
CONTINUOUS
 10
-25311.485377990499
 20
382213.4553746254
 30
0.0
 11
-25376.561481865461
 21
382213.4553746254
 31
0.0
  0
LINE
  5
6740D
  8
S-OBRYS
  6
CONTINUOUS
 10
-25311.485377990499
 20
382196.18428254919
 30
0.0
 11
-25376.561481865461
 21
382196.18428254919
 31
0.0
  0
LINE
  5
6740E
  8
S-OBRYS
  6
CONTINUOUS
 10
-25376.56148186545
 20
382196.18428254919
 30
0.0
 11
-25376.561481865461
 21
382213.4553746254
 31
0.0
  0
LINE
  5
6740F
  8
S-OBRYS
  6
CONTINUOUS
 10
-25311.485377990499
 20
382196.18428254919
 30
0.0
 11
-25311.485377990499
 21
382213.4553746254
 31
0.0
  0
LINE
  5
67410
  8
S-OBRYS
  6
CONTINUOUS
 10
-25310.196592436649
 20
382734.81982858741
 30
0.0
 11
-24976.991077050079
 21
382734.81982858741
 31
0.0
  0
LINE
  5
67411
  8
S-OBRYS
  6
CONTINUOUS
 10
-25311.485377990499
 20
382646.18428254919
 30
0.0
 11
-25376.561481865461
 21
382646.18428254919
 31
0.0
  0
LINE
  5
67412
  8
S-OBRYS
  6
CONTINUOUS
 10
-25311.485377990499
 20
382663.45537462551
 30
0.0
 11
-25376.561481865461
 21
382663.45537462551
 31
0.0
  0
LINE
  5
67413
  8
S-OBRYS
  6
CONTINUOUS
 10
-25376.56148186545
 20
382663.45537462551
 30
0.0
 11
-25376.561481865461
 21
382646.18428254919
 31
0.0
  0
LINE
  5
67414
  8
S-OBRYS
  6
CONTINUOUS
 10
-25311.485377990499
 20
382663.45537462551
 30
0.0
 11
-25311.485377990499
 21
382646.18428254919
 31
0.0
  0
LINE
  5
67415
  8
S-OBRYS
  6
CONTINUOUS
 10
-25310.196592436649
 20
382654.81982858741
 30
0.0
 11
-25310.196592436649
 21
382734.81982858741
 31
0.0
  0
LINE
  5
67416
  8
S-OBRYS
  6
CONTINUOUS
 10
-24926.731271779681
 20
382663.45537462551
 30
0.0
 11
-24976.991077050079
 21
382663.45537462551
 31
0.0
  0
LINE
  5
67417
  8
S-OBRYS
  6
CONTINUOUS
 10
-24976.991077050079
 20
382654.81982858741
 30
0.0
 11
-24976.991077050079
 21
382734.81982858741
 31
0.0
  0
LINE
  5
67418
  8
S-OBRYS
  6
CONTINUOUS
 10
-24926.731271779681
 20
382654.81982858741
 30
0.0
 11
-24926.731271779681
 21
382663.4553746254
 31
0.0
  0
LINE
  5
67419
  8
S-OBRYS
  6
CONTINUOUS
 10
-25253.093834743358
 20
382794.81982858741
 30
0.0
 11
-25034.093834743358
 21
382794.81982858741
 31
0.0
  0
LINE
  5
6741A
  8
S-OBRYS
  6
CONTINUOUS
 10
-25219.593834743358
 20
382794.81982858741
 30
0.0
 11
-25067.593834743358
 21
382794.81982858741
 31
0.0
  0
LINE
  5
6741B
  8
S-OBRYS
  6
CONTINUOUS
 10
-24544.02342992798
 20
382601.18428254919
 30
0.0
 11
-24544.02342992798
 21
382258.4553746254
 31
0.0
  0
POLYLINE
  5
6741C
  8
S-OBRYS
  6
CONTINUOUS
 66
     1
 10
0.0
 20
0.0
 30
0.0
 70
     1
  0
VERTEX
  5
68186
  8
S-OBRYS
  6
CONTINUOUS
 10
-24595.072264822029
 20
382339.43245705438
 30
0.0
  0
VERTEX
  5
68187
  8
S-OBRYS
  6
CONTINUOUS
 10
-24492.974595033931
 20
382339.43245705438
 30
0.0
  0
VERTEX
  5
68188
  8
S-OBRYS
  6
CONTINUOUS
 10
-24492.974595033931
 20
382520.20720012032
 30
0.0
  0
VERTEX
  5
68189
  8
S-OBRYS
  6
CONTINUOUS
 10
-24595.072264822029
 20
382520.20720012032
 30
0.0
  0
SEQEND
  5
6818A
  8
S-OBRYS
  6
CONTINUOUS
  0
POLYLINE
  5
6741D
  8
S-OBRYS
  6
CONTINUOUS
 66
     1
 10
0.0
 20
0.0
 30
0.0
 70
     1
  0
VERTEX
  5
6818B
  8
S-OBRYS
  6
CONTINUOUS
 10
-24586.56412567302
 20
382354.4970189766
 30
0.0
  0
VERTEX
  5
6818C
  8
S-OBRYS
  6
CONTINUOUS
 10
-24501.48273418294
 20
382354.4970189766
 30
0.0
  0
VERTEX
  5
6818D
  8
S-OBRYS
  6
CONTINUOUS
 10
-24501.48273418294
 20
382505.1426381981
 30
0.0
  0
VERTEX
  5
6818E
  8
S-OBRYS
  6
CONTINUOUS
 10
-24586.56412567302
 20
382505.1426381981
 30
0.0
  0
SEQEND
  5
6818F
  8
S-OBRYS
  6
CONTINUOUS
  0
LINE
  5
6741E
  8
S-OBRYS
  6
CONTINUOUS
 10
-24411.041731250469
 20
382204.81982858729
 30
0.0
 11
-22976.117835125438
 21
382204.81982858729
 31
0.0
  0
LINE
  5
6741F
  8
S-OBRYS
  6
CONTINUOUS
 10
-24411.041731250469
 20
382654.81982858741
 30
0.0
 11
-22976.117835125438
 21
382654.81982858741
 31
0.0
  0
LINE
  5
67420
  8
S-OBRYS
  6
CONTINUOUS
 10
-24435.76088574616
 20
382213.4553746254
 30
0.0
 11
-24435.760885746171
 21
382646.18428254931
 31
0.0
  0
LINE
  5
67421
  8
S-OBRYS
  6
CONTINUOUS
 10
-24451.398680629762
 20
382213.4553746254
 30
0.0
 11
-24451.398680629751
 21
382646.18428254931
 31
0.0
  0
LINE
  5
67422
  8
S-OBRYS
  6
CONTINUOUS
 10
-24476.117835125431
 20
382196.18428254919
 30
0.0
 11
-24476.117835125431
 21
382213.4553746254
 31
0.0
  0
LINE
  5
67423
  8
S-OBRYS
  6
CONTINUOUS
 10
-24411.041731250469
 20
382196.18428254919
 30
0.0
 11
-24411.041731250469
 21
382213.4553746254
 31
0.0
  0
LINE
  5
67424
  8
S-OBRYS
  6
CONTINUOUS
 10
-24411.041731250469
 20
382196.18428254919
 30
0.0
 11
-24476.117835125431
 21
382196.18428254919
 31
0.0
  0
LINE
  5
67425
  8
S-OBRYS
  6
CONTINUOUS
 10
-24411.041731250469
 20
382213.4553746254
 30
0.0
 11
-24476.117835125431
 21
382213.4553746254
 31
0.0
  0
LINE
  5
67426
  8
S-OBRYS
  6
CONTINUOUS
 10
-24411.041731250469
 20
382646.18428254919
 30
0.0
 11
-24476.117835125431
 21
382646.18428254919
 31
0.0
  0
LINE
  5
67427
  8
S-OBRYS
  6
CONTINUOUS
 10
-24411.041731250469
 20
382663.45537462551
 30
0.0
 11
-24476.117835125431
 21
382663.45537462551
 31
0.0
  0
LINE
  5
67428
  8
S-OBRYS
  6
CONTINUOUS
 10
-24476.117835125431
 20
382663.45537462551
 30
0.0
 11
-24476.117835125431
 21
382646.18428254919
 31
0.0
  0
LINE
  5
67429
  8
S-OBRYS
  6
CONTINUOUS
 10
-24411.041731250469
 20
382663.45537462551
 30
0.0
 11
-24411.041731250469
 21
382646.18428254919
 31
0.0
  0
LINE
  5
6742A
  8
S-OBRYS
  6
CONTINUOUS
 10
-22951.398680629751
 20
382213.45537462551
 30
0.0
 11
-22951.398680629751
 21
382646.18428254919
 31
0.0
  0
LINE
  5
6742B
  8
S-OBRYS
  6
CONTINUOUS
 10
-22935.760885746171
 20
382213.45537462551
 30
0.0
 11
-22935.760885746171
 21
382646.18428254919
 31
0.0
  0
LINE
  5
6742C
  8
S-OBRYS
  6
CONTINUOUS
 10
-22911.04173125048
 20
382196.18428254919
 30
0.0
 11
-22911.04173125048
 21
382213.4553746254
 31
0.0
  0
LINE
  5
6742D
  8
S-OBRYS
  6
CONTINUOUS
 10
-22976.117835125438
 20
382196.18428254919
 30
0.0
 11
-22976.117835125438
 21
382213.4553746254
 31
0.0
  0
LINE
  5
6742E
  8
S-OBRYS
  6
CONTINUOUS
 10
-22911.04173125048
 20
382213.4553746254
 30
0.0
 11
-22976.117835125438
 21
382213.4553746254
 31
0.0
  0
LINE
  5
6742F
  8
S-OBRYS
  6
CONTINUOUS
 10
-22911.04173125048
 20
382196.18428254919
 30
0.0
 11
-22976.117835125438
 21
382196.18428254919
 31
0.0
  0
LINE
  5
67430
  8
S-OBRYS
  6
CONTINUOUS
 10
-22911.04173125048
 20
382663.45537462551
 30
0.0
 11
-22911.04173125048
 21
382646.18428254919
 31
0.0
  0
LINE
  5
67431
  8
S-OBRYS
  6
CONTINUOUS
 10
-22976.117835125438
 20
382663.45537462551
 30
0.0
 11
-22976.117835125438
 21
382646.18428254919
 31
0.0
  0
LINE
  5
67432
  8
S-OBRYS
  6
CONTINUOUS
 10
-22911.04173125048
 20
382663.45537462551
 30
0.0
 11
-22976.117835125438
 21
382663.45537462551
 31
0.0
  0
LINE
  5
67433
  8
S-OBRYS
  6
CONTINUOUS
 10
-22911.04173125048
 20
382646.18428254919
 30
0.0
 11
-22976.117835125438
 21
382646.18428254919
 31
0.0
  0
LINE
  5
67434
  8
S-OBRYS
  6
CONTINUOUS
 10
-18376.711711311269
 20
376104.72897908982
 30
0.0
 11
-18376.711711311269
 21
376540.90973812068
 31
0.0
  0
LINE
  5
67435
  8
S-OBRYS
  6
CONTINUOUS
 10
-18128.563511724231
 20
376104.72897908982
 30
0.0
 11
-18128.563511724231
 21
376540.90973812068
 31
0.0
  0
LINE
  5
67436
  8
S-OBRYS
  6
CONTINUOUS
 10
-18253.134421779439
 20
375554.32263635262
 30
0.0
 11
-18253.134421779439
 21
376571.94020693871
 31
0.0
  0
LINE
  5
67437
  8
S-OBRYS
  6
CONTINUOUS
 10
-19909.104282465501
 20
375640.85067284358
 30
0.0
 11
-19909.104282465501
 21
375974.85067284352
 31
0.0
  0
LINE
  5
67438
  8
S-OBRYS
  6
CONTINUOUS
 10
-19974.180386339402
 20
375640.85067284358
 30
0.0
 11
-19974.180386339551
 21
375974.85067284352
 31
0.0
  0
LINE
  5
67439
  8
S-OBRYS
  6
CONTINUOUS
 10
-18103.250406073999
 20
376104.72897908982
 30
0.0
 11
-18403.01843748489
 21
376104.72897908982
 31
0.0
  0
LINE
  5
6743A
  8
S-OBRYS
  6
CONTINUOUS
 10
-19084.251991038269
 20
375622.54176901351
 30
0.0
 11
-18003.22048041402
 21
375622.54176901351
 31
0.0
  0
LINE
  5
6743B
  8
S-OBRYS
  6
CONTINUOUS
 10
-18063.58234214448
 20
375417.85067284352
 30
0.0
 11
-19084.251991038269
 21
375417.85067284352
 31
0.0
  0
LINE
  5
6743C
  8
S-OBRYS
  6
CONTINUOUS
 10
-19084.251991038269
 20
375622.54176901351
 30
0.0
 11
-19084.251991038269
 21
375417.85067284352
 31
0.0
  0
LINE
  5
6743D
  8
S-OBRYS
  6
CONTINUOUS
 10
-18909.491019127501
 20
375344.85067284352
 30
0.0
 11
-18909.491019127501
 21
376077.85067284352
 31
0.0
  0
LINE
  5
6743E
  8
S-OBRYS
  6
CONTINUOUS
 10
-19663.220480413998
 20
375640.85067284358
 30
0.0
 11
-19663.220480413998
 21
375974.85067284352
 31
0.0
  0
LINE
  5
6743F
  8
S-OBRYS
  6
CONTINUOUS
 10
-19604.00687187626
 20
375782.28409338661
 30
0.0
 11
-19604.00687187626
 21
375833.41725230042
 31
0.0
  0
CIRCLE
  5
67440
  8
S-OBRYS
  6
CONTINUOUS
 10
-19604.00687187626
 20
375807.85067284352
 30
0.0
 40
25.566579456903131
  0
LINE
  5
67441
  8
S-OBRYS
  6
CONTINUOUS
 10
-18563.22048041406
 20
375974.85067284352
 30
0.0
 11
-18563.22048041406
 21
375640.85067284358
 31
0.0
  0
LINE
  5
67442
  8
S-OBRYS
  6
CONTINUOUS
 10
-18403.01843748489
 20
375622.54176901351
 30
0.0
 11
-18403.01843748488
 21
376104.72897908982
 31
0.0
  0
POLYLINE
  5
67443
  8
S-OBRYS
  6
CONTINUOUS
 66
     1
 10
0.0
 20
0.0
 30
0.0
  0
VERTEX
  5
68190
  8
S-OBRYS
  6
CONTINUOUS
 10
-18403.01843748489
 20
375947.10966656852
 30
0.0
  0
VERTEX
  5
68191
  8
S-OBRYS
  6
CONTINUOUS
 10
-18456.867361941739
 20
375947.10966656852
 30
0.0
  0
VERTEX
  5
68192
  8
S-OBRYS
  6
CONTINUOUS
 10
-18456.867361941739
 20
375668.59167911857
 30
0.0
  0
VERTEX
  5
68193
  8
S-OBRYS
  6
CONTINUOUS
 10
-18403.01843748489
 20
375668.59167911857
 30
0.0
  0
SEQEND
  5
68194
  8
S-OBRYS
  6
CONTINUOUS
  0
ARC
  5
67444
  8
S-OBRYS
  6
CONTINUOUS
 10
-18523.22048041406
 20
375662.54176901351
 30
0.0
 40
40.0
 50
180.0
 51
270.0
  0
LINE
  5
67445
  8
S-OBRYS
  6
CONTINUOUS
 10
-18623.650665376452
 20
375782.28409338661
 30
0.0
 11
-18623.650665376452
 21
375833.41725230042
 31
0.0
  0
CIRCLE
  5
67446
  8
S-OBRYS
  6
CONTINUOUS
 10
-18623.650665376452
 20
375807.85067284352
 30
0.0
 40
25.566579456903131
  0
ARC
  5
67447
  8
S-OBRYS
  6
CONTINUOUS
 10
-18523.22048041406
 20
375953.15957667358
 30
0.0
 40
40.0
 50
90.0
 51
180.0
  0
LINE
  5
67448
  8
S-OBRYS
  6
CONTINUOUS
 10
-18523.22048041406
 20
375993.15957667358
 30
0.0
 11
-18403.01843748488
 21
375993.15957667358
 31
0.0
  0
LINE
  5
67449
  8
S-OBRYS
  6
CONTINUOUS
 10
-18063.58234214448
 20
375417.85067284352
 30
0.0
 11
-18063.58234214448
 21
375622.54176901351
 31
0.0
  0
LINE
  5
6744A
  8
S-OBRYS
  6
CONTINUOUS
 10
-18103.250406073999
 20
375622.54176901351
 30
0.0
 11
-18103.250406073999
 21
376104.72897908982
 31
0.0
  0
LINE
  5
6744B
  8
S-OBRYS
  6
CONTINUOUS
 10
-17963.220480413998
 20
375953.15957667358
 30
0.0
 11
-17963.22048041402
 21
375662.54176901351
 31
0.0
  0
POLYLINE
  5
6744C
  8
S-OBRYS
  6
CONTINUOUS
 66
     1
 10
0.0
 20
0.0
 30
0.0
  0
VERTEX
  5
68195
  8
S-OBRYS
  6
CONTINUOUS
 10
-18103.250406073999
 20
375668.59167911857
 30
0.0
  0
VERTEX
  5
68196
  8
S-OBRYS
  6
CONTINUOUS
 10
-18047.7878869081
 20
375668.59167911857
 30
0.0
  0
VERTEX
  5
68197
  8
S-OBRYS
  6
CONTINUOUS
 10
-18047.7878869081
 20
375947.10966656852
 30
0.0
  0
VERTEX
  5
68198
  8
S-OBRYS
  6
CONTINUOUS
 10
-18103.250406073999
 20
375947.10966656852
 30
0.0
  0
SEQEND
  5
68199
  8
S-OBRYS
  6
CONTINUOUS
  0
LINE
  5
6744D
  8
S-OBRYS
  6
CONTINUOUS
 10
-18094.9248587611
 20
375622.54176901351
 30
0.0
 11
-18144.954784421068
 21
375622.54176901351
 31
0.0
  0
ARC
  5
6744E
  8
S-OBRYS
  6
CONTINUOUS
 10
-18003.22048041402
 20
375662.54176901351
 30
0.0
 40
40.0
 50
270.0
 51
0.0
  0
ARC
  5
6744F
  8
S-OBRYS
  6
CONTINUOUS
 10
-18003.220480413998
 20
375953.15957667358
 30
0.0
 40
40.0
 50
0.0
 51
90.0
  0
LINE
  5
67450
  8
S-OBRYS
  6
CONTINUOUS
 10
-18103.250406073988
 20
375993.15957667358
 30
0.0
 11
-18003.220480413998
 21
375993.15957667358
 31
0.0
  0
LINE
  5
67451
  8
S-OBRYS
  6
CONTINUOUS
 10
-19911.041731250461
 20
382654.81982858741
 30
0.0
 11
-19665.157929198969
 21
382654.81982858741
 31
0.0
  0
LINE
  5
67452
  8
S-OBRYS
  6
CONTINUOUS
 10
-19911.041731250461
 20
382654.81982858741
 30
0.0
 11
-19665.157929198969
 21
382654.81982858741
 31
0.0
  0
LINE
  5
67453
  8
S-OBRYS
  6
CONTINUOUS
 10
-19911.041731250461
 20
382204.81982858729
 30
0.0
 11
-19340.2323592424
 21
382204.81982858729
 31
0.0
  0
LINE
  5
67454
  8
S-OBRYS
  6
CONTINUOUS
 10
-19911.041731250461
 20
382204.81982858729
 30
0.0
 11
-17965.15792919898
 21
382204.81982858729
 31
0.0
  0
LINE
  5
67455
  8
S-OBRYS
  6
CONTINUOUS
 10
-18615.157929198969
 20
382204.81982858729
 30
0.0
 11
-19005.657929198969
 21
381754.81982858729
 31
0.0
  0
LINE
  5
67456
  8
S-OBRYS
  6
CONTINUOUS
 10
-19615.157929198969
 20
382204.81982858729
 30
0.0
 11
-19224.657929198969
 21
381754.81982858729
 31
0.0
  0
LINE
  5
67457
  8
S-OBRYS
  6
CONTINUOUS
 10
-19115.15792919898
 20
381720.43747314019
 30
0.0
 11
-19115.157929198969
 21
382234.86014412157
 31
0.0
  0
LINE
  5
67458
  8
S-OBRYS
  6
CONTINUOUS
 10
-19274.657929198969
 20
381754.81982858729
 30
0.0
 11
-18955.657929198969
 21
381754.81982858729
 31
0.0
  0
LINE
  5
67459
  8
S-OBRYS
  6
CONTINUOUS
 10
-18128.563511724231
 20
376540.90973812068
 30
0.0
 11
-18376.711711311262
 21
376540.90973812068
 31
0.0
  0
ARC
  5
6745A
  8
S-OBRYS
  6
CONTINUOUS
 10
-18254.265073209881
 20
382685.90465800167
 30
0.0
 40
168.91517058563471
 50
0.0
 51
180.0
  0
CIRCLE
  5
6745B
  8
S-OBRYS
  6
CONTINUOUS
 10
-18254.265073209881
 20
382573.87462037668
 30
0.0
 40
168.91517058563471
  0
LINE
  5
6745C
  8
S-OBRYS
  6
CONTINUOUS
 10
-18411.108885317641
 20
382358.84594272327
 30
0.0
 11
-18338.91102269393
 21
382427.6987055004
 31
0.0
  0
LINE
  5
6745D
  8
S-OBRYS
  6
CONTINUOUS
 10
-18244.125769496881
 20
382526.74946123798
 30
0.0
 11
-18890.022436294661
 21
382351.10397463309
 31
0.0
  0
LINE
  5
6745E
  8
S-OBRYS
  6
CONTINUOUS
 10
-18924.426163668038
 20
382510.35220566893
 30
0.0
 11
-18261.180832786518
 21
382621.6752391776
 31
0.0
  0
LINE
  5
6745F
  8
S-OBRYS
  6
CONTINUOUS
 10
-18565.15792919898
 20
382262.64914073312
 30
0.0
 11
-17965.15792919898
 21
382262.64914073312
 31
0.0
  0
LINE
  5
67460
  8
S-OBRYS
  6
CONTINUOUS
 10
-18565.15792919898
 20
382332.73833489348
 30
0.0
 11
-17965.157929198969
 21
382332.73833489348
 31
0.0
  0
LINE
  5
67461
  8
S-OBRYS
  6
CONTINUOUS
 10
-18480.468354559009
 20
382358.84594272327
 30
0.0
 11
-17965.15792919898
 21
382358.84594272327
 31
0.0
  0
LINE
  5
67462
  8
S-OBRYS
  6
CONTINUOUS
 10
-18624.371537736719
 20
382767.98715826467
 30
0.0
 11
-18624.371537736719
 21
382719.81982858741
 31
0.0
  0
POLYLINE
  5
67463
  8
S-OBRYS
  6
CONTINUOUS
 66
     1
 10
0.0
 20
0.0
 30
0.0
 70
     1
  0
VERTEX
  5
6819A
  8
S-OBRYS
  6
CONTINUOUS
 10
-18598.804958279819
 20
382738.70229658822
 30
0.0
  0
VERTEX
  5
6819B
  8
S-OBRYS
  6
CONTINUOUS
 10
-18649.938117193618
 20
382738.70229658822
 30
0.0
  0
VERTEX
  5
6819C
  8
S-OBRYS
  6
CONTINUOUS
 10
-18649.938117193618
 20
382748.3008706363
 30
0.0
 42
-0.4142135623730922
  0
VERTEX
  5
6819D
  8
S-OBRYS
  6
CONTINUOUS
 10
-18644.938117193618
 20
382753.3008706363
 30
0.0
  0
VERTEX
  5
6819E
  8
S-OBRYS
  6
CONTINUOUS
 10
-18603.804958279819
 20
382753.3008706363
 30
0.0
 42
-0.4142135623730951
  0
VERTEX
  5
6819F
  8
S-OBRYS
  6
CONTINUOUS
 10
-18598.804958279819
 20
382748.3008706363
 30
0.0
  0
SEQEND
  5
681A0
  8
S-OBRYS
  6
CONTINUOUS
  0
LINE
  5
67464
  8
S-OBRYS
  6
CONTINUOUS
 10
-20459.326566501219
 20
373854.2233708144
 30
0.0
 11
-20459.326566501219
 21
373806.05604113702
 31
0.0
  0
POLYLINE
  5
67465
  8
S-OBRYS
  6
CONTINUOUS
 66
     1
 10
0.0
 20
0.0
 30
0.0
 70
     1
  0
VERTEX
  5
681A1
  8
S-OBRYS
  6
CONTINUOUS
 10
-20484.893145958122
 20
373824.93850913778
 30
0.0
  0
VERTEX
  5
681A2
  8
S-OBRYS
  6
CONTINUOUS
 10
-20433.759987044319
 20
373824.93850913778
 30
0.0
  0
VERTEX
  5
681A3
  8
S-OBRYS
  6
CONTINUOUS
 10
-20433.759987044319
 20
373834.53708318592
 30
0.0
 42
0.4142135623730922
  0
VERTEX
  5
681A4
  8
S-OBRYS
  6
CONTINUOUS
 10
-20438.759987044308
 20
373839.53708318598
 30
0.0
  0
VERTEX
  5
681A5
  8
S-OBRYS
  6
CONTINUOUS
 10
-20479.893145958122
 20
373839.53708318598
 30
0.0
 42
0.4142135623730951
  0
VERTEX
  5
681A6
  8
S-OBRYS
  6
CONTINUOUS
 10
-20484.893145958122
 20
373834.53708318592
 30
0.0
  0
SEQEND
  5
681A7
  8
S-OBRYS
  6
CONTINUOUS
  0
LINE
  5
67466
  8
S-OBRYS
  6
CONTINUOUS
 10
-19665.157929198969
 20
382719.81982858741
 30
0.0
 11
-18565.157929198969
 21
382719.81982858741
 31
0.0
  0
LINE
  5
67467
  8
S-OBRYS
  6
CONTINUOUS
 10
-19665.157929198969
 20
382701.47368161811
 30
0.0
 11
-18565.157929198969
 21
382701.47368161811
 31
0.0
  0
LINE
  5
67468
  8
S-OBRYS
  6
CONTINUOUS
 10
-19665.157929198969
 20
382204.81982858729
 30
0.0
 11
-19665.157929198969
 21
382719.81982858741
 31
0.0
  0
LINE
  5
67469
  8
S-OBRYS
  6
CONTINUOUS
 10
-19665.15792919898
 20
382654.81982858741
 30
0.0
 11
-19697.695981136461
 21
382654.81982858741
 31
0.0
  0
LINE
  5
6746A
  8
S-OBRYS
  6
CONTINUOUS
 10
-19665.15792919898
 20
382672.09092066361
 30
0.0
 11
-19697.695981136461
 21
382672.09092066361
 31
0.0
  0
LINE
  5
6746B
  8
S-OBRYS
  6
CONTINUOUS
 10
-20468.82273063793
 20
373824.93850913778
 30
0.0
 11
-20468.82273063793
 21
373806.05604113702
 31
0.0
  0
LINE
  5
6746C
  8
S-OBRYS
  6
CONTINUOUS
 10
-20449.8304023645
 20
373824.93850913778
 30
0.0
 11
-20449.8304023645
 21
373806.05604113702
 31
0.0
  0
LINE
  5
6746D
  8
S-OBRYS
  6
CONTINUOUS
 10
-18565.157929198969
 20
382719.81982858741
 30
0.0
 11
-18500.0495827046
 21
382332.73833489348
 31
0.0
  0
LINE
  5
6746E
  8
S-OBRYS
  6
CONTINUOUS
 10
-18500.0495827046
 20
382332.73833489348
 30
0.0
 11
-18500.0495827046
 21
382386.79814013769
 31
0.0
  0
LINE
  5
6746F
  8
S-OBRYS
  6
CONTINUOUS
 10
-18565.15792919898
 20
382204.81982858729
 30
0.0
 11
-18565.15792919898
 21
382719.81982858741
 31
0.0
  0
LINE
  5
67470
  8
S-OBRYS
  6
CONTINUOUS
 10
-18911.428467912468
 20
382596.10409281938
 30
0.0
 11
-18911.428467912468
 21
382249.81982858741
 31
0.0
  0
CIRCLE
  5
67471
  8
S-OBRYS
  6
CONTINUOUS
 10
-18911.428467912468
 20
382429.81982858741
 30
0.0
 40
81.574529440054889
  0
LINE
  5
67472
  8
S-OBRYS
  6
CONTINUOUS
 10
-18405.158631213351
 20
382497.95710588217
 30
0.0
 11
-18480.468354559009
 21
382358.84594272327
 31
0.0
  0
LINE
  5
67473
  8
S-OBRYS
  6
CONTINUOUS
 10
-18500.0495827046
 20
382386.79814013769
 30
0.0
 11
-18480.468354559009
 21
382386.79814013769
 31
0.0
  0
LINE
  5
67474
  8
S-OBRYS
  6
CONTINUOUS
 10
-18480.468354559009
 20
382386.79814013769
 30
0.0
 11
-18480.468354559009
 21
382358.84594272327
 31
0.0
  0
LINE
  5
67475
  8
S-OBRYS
  6
CONTINUOUS
 10
-18423.180243795508
 20
382685.90465800167
 30
0.0
 11
-18423.180243795508
 21
382573.87462037668
 31
0.0
  0
LINE
  5
67476
  8
S-OBRYS
  6
CONTINUOUS
 10
-18633.867701873442
 20
382738.70229658822
 30
0.0
 11
-18633.867701873442
 21
382719.81982858741
 31
0.0
  0
LINE
  5
67477
  8
S-OBRYS
  6
CONTINUOUS
 10
-18614.8753736
 20
382738.70229658822
 30
0.0
 11
-18614.8753736
 21
382719.81982858741
 31
0.0
  0
LINE
  5
67478
  8
S-OBRYS
  6
CONTINUOUS
 10
-18254.265073209881
 20
382870.58290092403
 30
0.0
 11
-18254.265073209881
 21
382379.65132302733
 31
0.0
  0
CIRCLE
  5
67479
  8
S-OBRYS
  6
CONTINUOUS
 10
-18254.265073209881
 20
382573.87462037668
 30
0.0
 40
48.525687627923617
  0
LINE
  5
6747A
  8
S-OBRYS
  6
CONTINUOUS
 10
-18097.421261102128
 20
382358.84594272327
 30
0.0
 11
-18169.619123725839
 21
382427.6987055004
 31
0.0
  0
LINE
  5
6747B
  8
S-OBRYS
  6
CONTINUOUS
 10
-18103.371515206421
 20
382497.95710588217
 30
0.0
 11
-18028.06179186075
 21
382358.84594272327
 31
0.0
  0
LINE
  5
6747C
  8
S-OBRYS
  6
CONTINUOUS
 10
-18385.79663318671
 20
382573.87462037668
 30
0.0
 11
-18122.733513233041
 21
382573.87462037668
 31
0.0
  0
LINE
  5
6747D
  8
S-OBRYS
  6
CONTINUOUS
 10
-18085.349902624239
 20
382685.90465800167
 30
0.0
 11
-18085.349902624239
 21
382573.87462037668
 31
0.0
  0
POLYLINE
  5
6747E
  8
S-OBRYS
  6
CONTINUOUS
 66
     1
 10
0.0
 20
0.0
 30
0.0
 70
     1
  0
VERTEX
  5
681A8
  8
S-OBRYS
  6
CONTINUOUS
 10
-20626.326566501219
 20
373291.05604113702
 30
0.0
  0
VERTEX
  5
681A9
  8
S-OBRYS
  6
CONTINUOUS
 10
-20292.326566501219
 20
373291.05604113702
 30
0.0
  0
VERTEX
  5
681AA
  8
S-OBRYS
  6
CONTINUOUS
 10
-20292.326566501219
 20
373741.05604113702
 30
0.0
  0
VERTEX
  5
681AB
  8
S-OBRYS
  6
CONTINUOUS
 10
-20626.326566501219
 20
373741.05604113702
 30
0.0
  0
SEQEND
  5
681AC
  8
S-OBRYS
  6
CONTINUOUS
  0
LINE
  5
6747F
  8
S-OBRYS
  6
CONTINUOUS
 10
-20618.826566501219
 20
372841.05604113702
 30
0.0
 11
-20299.826566501219
 21
372841.05604113702
 31
0.0
  0
LINE
  5
67480
  8
S-OBRYS
  6
CONTINUOUS
 10
-20459.326566501219
 20
373821.48562066932
 30
0.0
 11
-20459.326566501219
 21
372818.08151372668
 31
0.0
  0
LINE
  5
67481
  8
S-OBRYS
  6
CONTINUOUS
 10
-20292.326566501219
 20
373291.05604113702
 30
0.0
 11
-20349.826566501219
 21
372841.05604113702
 31
0.0
  0
LINE
  5
67482
  8
S-OBRYS
  6
CONTINUOUS
 10
-20626.326566501219
 20
373291.05604113702
 30
0.0
 11
-20568.826566501219
 21
372841.05604113702
 31
0.0
  0
CIRCLE
  5
67483
  8
S-OBRYS
  6
CONTINUOUS
 10
-20459.326566501219
 20
373516.05604113708
 30
0.0
 40
61.875003709408702
  0
CIRCLE
  5
67484
  8
S-OBRYS
  6
CONTINUOUS
 10
-20459.326566501219
 20
373516.0560411372
 30
0.0
 40
89.28655510683393
  0
LINE
  5
67485
  8
S-OBRYS
  6
CONTINUOUS
 10
-20602.044393573451
 20
373516.0560411372
 30
0.0
 11
-20316.60873942899
 21
373516.0560411372
 31
0.0
  0
LINE
  5
67486
  8
S-OBRYS
  6
CONTINUOUS
 10
-20626.326566501219
 20
373806.05604113702
 30
0.0
 11
-20292.326566501219
 21
373806.05604113702
 31
0.0
  0
LINE
  5
67487
  8
S-OBRYS
  6
CONTINUOUS
 10
-20626.326566501219
 20
373741.05604113702
 30
0.0
 11
-20626.326566501219
 21
373806.05604113702
 31
0.0
  0
LINE
  5
67488
  8
S-OBRYS
  6
CONTINUOUS
 10
-20292.326566501219
 20
373741.05604113702
 30
0.0
 11
-20292.326566501219
 21
373806.05604113702
 31
0.0
  0
LINE
  5
67489
  8
S-OBRYS
  6
CONTINUOUS
 10
-20626.326566501219
 20
373787.70989416772
 30
0.0
 11
-20292.326566501219
 21
373787.70989416772
 31
0.0
  0
LINE
  5
6748A
  8
S-OBRYS
  6
CONTINUOUS
 10
-23155.555892742741
 20
373821.48562066932
 30
0.0
 11
-23155.555892742741
 21
372818.08151372668
 31
0.0
  0
LINE
  5
6748B
  8
S-OBRYS
  6
CONTINUOUS
 10
-22988.55589274273
 20
373291.05604113702
 30
0.0
 11
-23046.05589274273
 21
372841.05604113702
 31
0.0
  0
LINE
  5
6748C
  8
S-OBRYS
  6
CONTINUOUS
 10
-23322.55589274273
 20
373291.05604113702
 30
0.0
 11
-23265.055892742719
 21
372841.05604113702
 31
0.0
  0
LINE
  5
6748D
  8
S-OBRYS
  6
CONTINUOUS
 10
-23315.05589274273
 20
372841.05604113702
 30
0.0
 11
-22996.05589274273
 21
372841.05604113702
 31
0.0
  0
LINE
  5
6748E
  8
S-OBRYS
  6
CONTINUOUS
 10
-23322.55589274273
 20
373787.70989416772
 30
0.0
 11
-22988.55589274273
 21
373787.70989416772
 31
0.0
  0
LINE
  5
6748F
  8
S-OBRYS
  6
CONTINUOUS
 10
-23322.55589274273
 20
373806.05604113702
 30
0.0
 11
-22988.55589274273
 21
373806.05604113702
 31
0.0
  0
LINE
  5
67490
  8
S-OBRYS
  6
CONTINUOUS
 10
-23155.555892742741
 20
373854.2233708144
 30
0.0
 11
-23155.555892742741
 21
373806.05604113702
 31
0.0
  0
LINE
  5
67491
  8
S-OBRYS
  6
CONTINUOUS
 10
-23165.05205687946
 20
373824.93850913778
 30
0.0
 11
-23165.05205687946
 21
373806.05604113702
 31
0.0
  0
LINE
  5
67492
  8
S-OBRYS
  6
CONTINUOUS
 10
-23146.059728606018
 20
373824.93850913778
 30
0.0
 11
-23146.059728606018
 21
373806.05604113702
 31
0.0
  0
LINE
  5
67493
  8
S-OBRYS
  6
CONTINUOUS
 10
-23322.55589274273
 20
373741.05604113702
 30
0.0
 11
-23322.55589274273
 21
373806.05604113702
 31
0.0
  0
POLYLINE
  5
67494
  8
S-OBRYS
  6
CONTINUOUS
 66
     1
 10
0.0
 20
0.0
 30
0.0
 70
     1
  0
VERTEX
  5
681AD
  8
S-OBRYS
  6
CONTINUOUS
 10
-23181.12247219964
 20
373824.93850913778
 30
0.0
  0
VERTEX
  5
681AE
  8
S-OBRYS
  6
CONTINUOUS
 10
-23129.989313285831
 20
373824.93850913778
 30
0.0
  0
VERTEX
  5
681AF
  8
S-OBRYS
  6
CONTINUOUS
 10
-23129.989313285831
 20
373834.53708318592
 30
0.0
 42
0.4142135623730922
  0
VERTEX
  5
681B0
  8
S-OBRYS
  6
CONTINUOUS
 10
-23134.989313285841
 20
373839.53708318598
 30
0.0
  0
VERTEX
  5
681B1
  8
S-OBRYS
  6
CONTINUOUS
 10
-23176.12247219964
 20
373839.53708318598
 30
0.0
 42
0.4142135623730951
  0
VERTEX
  5
681B2
  8
S-OBRYS
  6
CONTINUOUS
 10
-23181.12247219964
 20
373834.53708318592
 30
0.0
  0
SEQEND
  5
681B3
  8
S-OBRYS
  6
CONTINUOUS
  0
LINE
  5
67495
  8
S-OBRYS
  6
CONTINUOUS
 10
-22988.55589274273
 20
373744.85018668382
 30
0.0
 11
-22988.55589274273
 21
373806.05604113702
 31
0.0
  0
LINE
  5
67496
  8
S-OBRYS
  6
CONTINUOUS
 10
-23340.555892742741
 20
373291.05604113702
 30
0.0
 11
-22970.555892742741
 21
373291.05604113702
 31
0.0
  0
LINE
  5
67497
  8
S-OBRYS
  6
CONTINUOUS
 10
-23322.55589274273
 20
373741.05604113702
 30
0.0
 11
-23322.55589274273
 21
373445.082155273
 31
0.0
  0
LINE
  5
67498
  8
S-OBRYS
  6
CONTINUOUS
 10
-23487.765596794001
 20
373594.4693607167
 30
0.0
 11
-22427.34703349994
 21
373594.4693607167
 31
0.0
  0
LINE
  5
67499
  8
S-OBRYS
  6
CONTINUOUS
 10
-23322.55589274273
 20
373445.082155273
 30
0.0
 11
-22848.45225633966
 21
373445.082155273
 31
0.0
  0
LINE
  5
6749A
  8
S-OBRYS
  6
CONTINUOUS
 10
-22848.45225633966
 20
373445.082155273
 30
0.0
 11
-22848.45225633966
 21
373941.05604113702
 31
0.0
  0
LINE
  5
6749B
  8
S-OBRYS
  6
CONTINUOUS
 10
-22505.46598427045
 20
373718.54346051021
 30
0.0
 11
-22505.46598427045
 21
373470.39526092319
 31
0.0
  0
LINE
  5
6749C
  8
S-OBRYS
  6
CONTINUOUS
 10
-22800.923809023629
 20
373718.54346051021
 30
0.0
 11
-22800.923809023629
 21
373470.39526092319
 31
0.0
  0
LINE
  5
6749D
  8
S-OBRYS
  6
CONTINUOUS
 10
-22440.33056258591
 20
373483.16806964308
 30
0.0
 11
-22440.33056258591
 21
373705.77065179031
 31
0.0
  0
LINE
  5
6749E
  8
S-OBRYS
  6
CONTINUOUS
 10
-22462.2714973088
 20
373470.39526092319
 30
0.0
 11
-22462.2714973088
 21
373718.54346051021
 31
0.0
  0
LINE
  5
6749F
  8
S-OBRYS
  6
CONTINUOUS
 10
-22800.923809023629
 20
373555.3959272076
 30
0.0
 11
-22505.46598427045
 21
373555.3959272076
 31
0.0
  0
LINE
  5
674A0
  8
S-OBRYS
  6
CONTINUOUS
 10
-22800.923809023629
 20
373485.5710250914
 30
0.0
 11
-22505.465984270439
 21
373485.5710250914
 31
0.0
  0
LINE
  5
674A1
  8
S-OBRYS
  6
CONTINUOUS
 10
-22800.923809023629
 20
373512.85891311459
 30
0.0
 11
-22505.465984270439
 21
373512.85891311459
 31
0.0
  0
LINE
  5
674A2
  8
S-OBRYS
  6
CONTINUOUS
 10
-22848.45225633966
 20
373470.39526092319
 30
0.0
 11
-22462.2714973088
 21
373470.39526092319
 31
0.0
  0
LINE
  5
674A3
  8
S-OBRYS
  6
CONTINUOUS
 10
-22462.2714973088
 20
373470.39526092319
 30
0.0
 11
-22440.33056258591
 21
373483.16806964308
 31
0.0
  0
LINE
  5
674A4
  8
S-OBRYS
  6
CONTINUOUS
 10
-22800.923809023629
 20
373633.5427942258
 30
0.0
 11
-22505.46598427045
 21
373633.5427942258
 31
0.0
  0
POLYLINE
  5
674A5
  8
S-OBRYS
  6
CONTINUOUS
 66
     1
 10
0.0
 20
0.0
 30
0.0
 70
     1
  0
VERTEX
  5
681B4
  8
S-OBRYS
  6
CONTINUOUS
 10
-22725.923809023629
 20
373688.78922238678
 30
0.0
  0
VERTEX
  5
681B5
  8
S-OBRYS
  6
CONTINUOUS
 10
-22625.923809023629
 20
373688.78922238678
 30
0.0
  0
VERTEX
  5
681B6
  8
S-OBRYS
  6
CONTINUOUS
 10
-22625.923809023629
 20
373749.22908509307
 30
0.0
  0
VERTEX
  5
681B7
  8
S-OBRYS
  6
CONTINUOUS
 10
-22725.923809023629
 20
373749.22908509307
 30
0.0
  0
SEQEND
  5
681B8
  8
S-OBRYS
  6
CONTINUOUS
  0
LINE
  5
674A6
  8
S-OBRYS
  6
CONTINUOUS
 10
-22800.923809023629
 20
373676.07980831881
 30
0.0
 11
-22505.46598427045
 21
373676.07980831881
 31
0.0
  0
LINE
  5
674A7
  8
S-OBRYS
  6
CONTINUOUS
 10
-22848.45225633966
 20
373718.54346051021
 30
0.0
 11
-22725.923809023629
 21
373718.54346051021
 31
0.0
  0
LINE
  5
674A8
  8
S-OBRYS
  6
CONTINUOUS
 10
-22800.923809023629
 20
373703.36769634212
 30
0.0
 11
-22725.923809023629
 21
373703.36769634212
 31
0.0
  0
LINE
  5
674A9
  8
S-OBRYS
  6
CONTINUOUS
 10
-22625.923809023629
 20
373703.36769634212
 30
0.0
 11
-22505.46598427045
 21
373703.36769634212
 31
0.0
  0
LINE
  5
674AA
  8
S-OBRYS
  6
CONTINUOUS
 10
-22625.923809023629
 20
373718.54346051021
 30
0.0
 11
-22462.2714973088
 21
373718.54346051021
 31
0.0
  0
LINE
  5
674AB
  8
S-OBRYS
  6
CONTINUOUS
 10
-22462.2714973088
 20
373718.54346051021
 30
0.0
 11
-22440.33056258591
 21
373705.77065179031
 31
0.0
  0
LINE
  5
674AC
  8
S-OBRYS
  6
CONTINUOUS
 10
-22923.45225633966
 20
373445.082155273
 30
0.0
 11
-22923.45225633966
 21
373941.05604113702
 31
0.0
  0
LINE
  5
674AD
  8
S-OBRYS
  6
CONTINUOUS
 10
-22923.45225633966
 20
373941.05604113702
 30
0.0
 11
-22848.45225633966
 21
373941.05604113702
 31
0.0
  0
LINE
  5
674AE
  8
S-OBRYS
  6
CONTINUOUS
 10
-23359.636217469561
 20
373445.082155273
 30
0.0
 11
-23359.636217469561
 21
373746.52684122312
 31
0.0
  0
LINE
  5
674AF
  8
S-OBRYS
  6
CONTINUOUS
 10
-23463.639466415971
 20
373445.082155273
 30
0.0
 11
-23463.639466415971
 21
373746.52684122312
 31
0.0
  0
LINE
  5
674B0
  8
S-OBRYS
  6
CONTINUOUS
 10
-23463.639466415971
 20
373445.082155273
 30
0.0
 11
-23359.636217469561
 21
373445.082155273
 31
0.0
  0
LINE
  5
674B1
  8
S-OBRYS
  6
CONTINUOUS
 10
-23463.639466415971
 20
373746.52684122312
 30
0.0
 11
-23359.636217469561
 21
373746.52684122312
 31
0.0
  0
LINE
  5
674B2
  8
S-OBRYS
  6
CONTINUOUS
 10
-23322.55589274273
 20
373744.85018668382
 30
0.0
 11
-22923.45225633966
 21
373744.85018668382
 31
0.0
  0
LINE
  5
674B3
  8
S-OBRYS
  6
CONTINUOUS
 10
-23322.55589274273
 20
373744.85018668382
 30
0.0
 11
-23322.55589274273
 21
373445.082155273
 31
0.0
  0
POLYLINE
  5
674B4
  8
S-OBRYS
  6
CONTINUOUS
 66
     1
 10
0.0
 20
0.0
 30
0.0
  0
VERTEX
  5
681B9
  8
S-OBRYS
  6
CONTINUOUS
 10
-23322.55589274273
 20
373744.85018668382
 30
0.0
  0
VERTEX
  5
681BA
  8
S-OBRYS
  6
CONTINUOUS
 10
-23322.55589274273
 20
373445.082155273
 30
0.0
  0
SEQEND
  5
681BB
  8
S-OBRYS
  6
CONTINUOUS
  0
LINE
  5
674B5
  8
S-OBRYS
  6
CONTINUOUS
 10
-23340.555892742741
 20
373445.082155273
 30
0.0
 11
-22970.555892742741
 21
373445.082155273
 31
0.0
  0
LINE
  5
674B6
  8
S-OBRYS
  6
CONTINUOUS
 10
-23340.555892742741
 20
373339.06942795462
 30
0.0
 11
-22970.555892742741
 21
373339.06942795462
 31
0.0
  0
LINE
  5
674B7
  8
S-OBRYS
  6
CONTINUOUS
 10
-18361.5359471431
 20
376180.3164916829
 30
0.0
 11
-18361.5359471431
 21
376475.77431643609
 31
0.0
  0
LINE
  5
674B8
  8
S-OBRYS
  6
CONTINUOUS
 10
-18291.711045026841
 20
376180.3164916829
 30
0.0
 11
-18291.711045026841
 21
376277.48771148128
 31
0.0
  0
LINE
  5
674B9
  8
S-OBRYS
  6
CONTINUOUS
 10
-18334.2480591198
 20
376180.3164916829
 30
0.0
 11
-18334.2480591198
 21
376475.77431643609
 31
0.0
  0
LINE
  5
674BA
  8
S-OBRYS
  6
CONTINUOUS
 10
-18213.564178008641
 20
376180.3164916829
 30
0.0
 11
-18213.564178008641
 21
376277.48771148128
 31
0.0
  0
LINE
  5
674BB
  8
S-OBRYS
  6
CONTINUOUS
 10
-18143.739275892389
 20
376180.3164916829
 30
0.0
 11
-18143.7392758924
 21
376475.77431643609
 31
0.0
  0
LINE
  5
674BC
  8
S-OBRYS
  6
CONTINUOUS
 10
-18171.027163915682
 20
376180.3164916829
 30
0.0
 11
-18171.0271639157
 21
376475.77431643609
 31
0.0
  0
LINE
  5
674BD
  8
S-OBRYS
  6
CONTINUOUS
 10
-18376.711711311269
 20
376475.77431643609
 30
0.0
 11
-18128.563511724231
 21
376475.77431643609
 31
0.0
  0
LINE
  5
674BE
  8
S-OBRYS
  6
CONTINUOUS
 10
-18376.711711311251
 20
376180.3164916829
 30
0.0
 11
-18128.563511724209
 21
376180.3164916829
 31
0.0
  0
POLYLINE
  5
674BF
  8
S-OBRYS
  6
CONTINUOUS
 66
     1
 10
0.0
 20
0.0
 30
0.0
 70
     1
  0
VERTEX
  5
681BC
  8
S-OBRYS
  6
CONTINUOUS
 10
-18206.92046836493
 20
376277.48771148128
 30
0.0
  0
VERTEX
  5
681BD
  8
S-OBRYS
  6
CONTINUOUS
 10
-18206.92046836493
 20
376377.48771148128
 30
0.0
  0
VERTEX
  5
681BE
  8
S-OBRYS
  6
CONTINUOUS
 10
-18299.348375193949
 20
376377.48771148128
 30
0.0
  0
VERTEX
  5
681BF
  8
S-OBRYS
  6
CONTINUOUS
 10
-18299.348375193949
 20
376277.48771148128
 30
0.0
  0
SEQEND
  5
681C0
  8
S-OBRYS
  6
CONTINUOUS
  0
LINE
  5
674C0
  8
S-OBRYS
  6
CONTINUOUS
 10
-18291.711045026848
 20
376377.48771148128
 30
0.0
 11
-18291.711045026848
 21
376475.77431643609
 31
0.0
  0
LINE
  5
674C1
  8
S-OBRYS
  6
CONTINUOUS
 10
-18213.564178008652
 20
376377.48771148128
 30
0.0
 11
-18213.564178008659
 21
376475.77431643609
 31
0.0
  0
LINE
  5
674C2
  8
S-OBRYS
  6
CONTINUOUS
 10
-18141.33632044417
 20
376562.85067284352
 30
0.0
 11
-18363.93890259133
 21
376562.85067284352
 31
0.0
  0
LINE
  5
674C3
  8
S-OBRYS
  6
CONTINUOUS
 10
-18376.711711311262
 20
376540.90973812068
 30
0.0
 11
-18363.93890259133
 21
376562.85067284352
 31
0.0
  0
LINE
  5
674C4
  8
S-OBRYS
  6
CONTINUOUS
 10
-18128.563511724231
 20
376540.90973812068
 30
0.0
 11
-18141.33632044417
 21
376562.85067284352
 31
0.0
  0
LINE
  5
674C5
  8
S-OBRYS
  6
CONTINUOUS
 10
-18963.101784786912
 20
375622.54176901351
 30
0.0
 11
-18963.101784786912
 21
375640.85067284358
 31
0.0
  0
LINE
  5
674C6
  8
S-OBRYS
  6
CONTINUOUS
 10
-18855.880253468102
 20
375622.54176901351
 30
0.0
 11
-18855.880253468102
 21
375640.85067284358
 31
0.0
  0
LINE
  5
674C7
  8
S-OBRYS
  6
CONTINUOUS
 10
-23359.636217469561
 20
373540.85859505727
 30
0.0
 11
-23322.55589274273
 21
373540.85859505727
 31
0.0
  0
LINE
  5
674C8
  8
S-OBRYS
  6
CONTINUOUS
 10
-23359.636217469561
 20
373648.08012637618
 30
0.0
 11
-23322.55589274273
 21
373648.08012637618
 31
0.0
  0
LINE
  5
674C9
  8
S-OBRYS
  6
CONTINUOUS
 10
-23340.555892742741
 20
373406.79427573812
 30
0.0
 11
-22970.555892742741
 21
373406.79427573812
 31
0.0
  0
LINE
  5
674CA
  8
S-OBRYS
  6
CONTINUOUS
 10
-23340.555892742741
 20
373291.05604113702
 30
0.0
 11
-23340.555892742741
 21
373445.082155273
 31
0.0
  0
LINE
  5
674CB
  8
S-OBRYS
  6
CONTINUOUS
 10
-22970.555892742741
 20
373291.05604113702
 30
0.0
 11
-22970.555892742741
 21
373445.082155273
 31
0.0
  0
LINE
  5
674CC
  8
S-OBRYS
  6
CONTINUOUS
 10
-18103.250406073999
 20
376029.72897908982
 30
0.0
 11
-18403.01843748489
 21
376029.72897908982
 31
0.0
  0
DIMENSION
  5
674CD
  8
S-OBRYS
  6
CONTINUOUS
  2
*D50
 10
-24443.57978318795
 20
381928.76059316832
 30
0.0
 11
-24893.801606557969
 21
382016.26059316838
 31
0.0
 70
     0
  1
3000
 13
-25344.02342992798
 23
382196.18428254919
 33
0.0
 14
-24443.57978318795
 24
382196.18428254919
 34
0.0
1001
ACAD
1000
DSTYLE
1002
{
1070
   288
1070
     1
1002
}
  0
DIMENSION
  5
674CE
  8
S-OBRYS
  6
CONTINUOUS
  2
*D51
 10
-22943.579783187961
 20
381928.76059316832
 30
0.0
 11
-23693.579783187961
 21
382016.26059316838
 31
0.0
 70
     0
 13
-24443.57978318795
 23
382179.41176964651
 33
0.0
 14
-22943.579783187961
 24
382196.18428254919
 34
0.0
1001
ACAD
1000
DSTYLE
1002
{
1070
   288
1070
     1
1002
}
  0
DIMENSION
  5
674CF
  8
S-OBRYS
  6
CONTINUOUS
  2
*D52
 10
-21273.848191224301
 20
381928.76059316832
 30
0.0
 11
-22108.713987206131
 21
382016.26059316838
 31
0.0
 70
     0
  1
3000
 13
-22943.579783187961
 23
382131.83220932941
 33
0.0
 14
-21273.848191224301
 24
382204.81982858753
 34
0.0
1001
ACAD
1000
DSTYLE
1002
{
1070
   288
1070
     1
1002
}
  0
DIMENSION
  5
674D0
  8
S-OBRYS
  6
CONTINUOUS
  2
*D53
 10
-18565.15792919898
 20
381377.58227512962
 30
0.0
 11
-19115.15792919898
 21
381465.08227512968
 31
0.0
 70
     0
  1
max.1100
 13
-19665.157929198969
 23
382047.80188944662
 33
0.0
 14
-18565.15792919898
 24
382047.80188944662
 34
0.0
1001
ACAD
1000
DSTYLE
1002
{
1070
   288
1070
     1
1002
}
  0
DIMENSION
  5
674D1
  8
S-OBRYS
  6
CONTINUOUS
  2
*D54
 10
-17965.15792919898
 20
381377.58227512962
 30
0.0
 11
-17506.824595865652
 21
381465.08227512968
 31
0.0
 70
     0
  1
600-734
 13
-18565.157929198969
 23
382204.81982858729
 33
0.0
 14
-17965.15792919898
 24
382204.81982858729
 34
0.0
1001
ACAD
1000
DSTYLE
1002
{
1070
   288
1070
     1
1002
}
  0
DIMENSION
  5
674D2
  8
S-OBRYS
  6
CONTINUOUS
  2
*D55
 10
-17699.880278602639
 20
382854.81982858741
 30
0.0
 11
-17787.380278602701
 21
383310.77220953972
 31
0.0
 70
     0
  1
650-840
 13
-17965.15792919898
 23
382204.81982858729
 33
0.0
 14
-18254.265073209881
 24
382854.81982858741
 34
0.0
 50
90.0
1001
ACAD
1000
DSTYLE
1002
{
1070
   288
1070
     1
1002
}
  0
LINE
  5
674D3
  8
S-OBRYS
  6
CONTINUOUS
 10
-19697.695981136461
 20
382672.09092066361
 30
0.0
 11
-19697.695981136461
 21
382654.81982858741
 31
0.0
  0
DIMENSION
  5
674D4
  8
S-OBRYS
  6
CONTINUOUS
  2
*D56
 10
-19665.157929198969
 20
381928.76059316832
 30
0.0
 11
-20266.675021283179
 21
381928.76059316832
 31
0.0
 70
   128
  1
3000
 13
-21273.848191224301
 23
382160.48243217397
 33
0.0
 14
-19665.157929198969
 24
382160.48243217397
 34
0.0
1001
ACAD
1000
DSTYLE
1002
{
1070
   288
1070
     1
1002
}
  0
DIMENSION
  5
674D5
  8
S-OBRYS
  6
CONTINUOUS
  2
*D57
 10
-25223.26137324097
 20
375880.86352137447
 30
0.0
 11
-24657.26569957277
 21
375374.46118290408
 31
0.0
 70
   131
 15
-25060.051398675711
 25
375734.83782431239
 35
0.0
 40
0.0
1001
ACAD
1000
DSTYLE
1002
{
1070
   288
1070
     1
1002
}
  0
DIMENSION
  5
674D6
  8
S-OBRYS
  6
CONTINUOUS
  2
*D58
 10
-21028.058314292561
 20
375937.85067284352
 30
0.0
 11
-21028.058314292619
 21
376460.49369376118
 31
0.0
 70
   128
 13
-20820.003080526119
 23
375677.85067284358
 33
0.0
 14
-20820.003080526119
 24
375937.85067284352
 34
0.0
 50
90.0
  0
DIMENSION
  5
674D7
  8
S-OBRYS
  6
CONTINUOUS
  2
*D59
 10
-21313.390827127769
 20
375974.85067284352
 30
0.0
 11
-21313.390827127831
 21
376353.53606841492
 31
0.0
 70
   128
 13
-20760.559158916221
 23
375640.85067284358
 33
0.0
 14
-20760.559158916221
 24
375974.85067284352
 34
0.0
 50
90.0
1001
ACAD
1000
DSTYLE
1002
{
1070
   288
1070
     1
1002
}
  0
DIMENSION
  5
674D8
  8
S-OBRYS
  6
CONTINUOUS
  2
*D60
 10
-17743.826135234951
 20
375807.85067284352
 30
0.0
 11
-17831.326135235009
 21
375612.85067284358
 31
0.0
 70
     0
 13
-18063.58234214448
 23
375417.85067284352
 33
0.0
 14
-17963.220480414009
 24
375807.85067284352
 34
0.0
 50
90.0
1001
ACAD
1000
DSTYLE
1002
{
1070
   288
1070
     1
1002
}
  0
DIMENSION
  5
674D9
  8
S-OBRYS
  6
CONTINUOUS
  2
*D61
 10
-17743.826135234951
 20
375807.85067284352
 30
0.0
 11
-17831.326135235009
 21
376185.35067284352
 31
0.0
 70
     0
  1
max.755
 13
-18253.134421779439
 23
376562.85067284352
 33
0.0
 14
-17960.070480414011
 24
375807.85067284352
 34
0.0
 50
90.0
1001
ACAD
1000
DSTYLE
1002
{
1070
   288
1070
     1
1002
}
  0
POLYLINE
  5
674DA
  8
S-OBRYS
  6
CONTINUOUS
 66
     1
 10
0.0
 20
0.0
 30
0.0
 70
     1
  0
VERTEX
  5
681C1
  8
S-OBRYS
  6
CONTINUOUS
 10
-18485.44981993689
 20
381687.02432222263
 30
0.0
  0
VERTEX
  5
681C2
  8
S-OBRYS
  6
CONTINUOUS
 10
-18406.362145194438
 20
381687.02432222263
 30
0.0
  0
VERTEX
  5
681C3
  8
S-OBRYS
  6
CONTINUOUS
 10
-18406.362145194438
 20
381766.05296673451
 30
0.0
  0
VERTEX
  5
681C4
  8
S-OBRYS
  6
CONTINUOUS
 10
-18485.44981993689
 20
381766.05296673451
 30
0.0
  0
SEQEND
  5
681C5
  8
S-OBRYS
  6
CONTINUOUS
  0
LINE
  5
674DB
  8
S-OBRYS
  6
CONTINUOUS
 10
-17965.15792919898
 20
382358.84594272327
 30
0.0
 11
-17965.15792919898
 21
382204.81982858729
 31
0.0
  0
DIMENSION
  5
674DC
  8
S-OBRYS
  6
CONTINUOUS
  2
*D62
 10
-19005.657929198969
 20
381655.07347265101
 30
0.0
 11
-18248.976711724659
 21
381655.07347265101
 31
0.0
 70
   128
 13
-19224.657929198969
 23
381754.81982858729
 33
0.0
 14
-19005.657929198969
 24
381754.81982858729
 34
0.0
  0
DIMENSION
  5
674DD
  8
S-OBRYS
  6
CONTINUOUS
  2
*D63
 10
-19766.903572966748
 20
382204.81982858729
 30
0.0
 11
-19766.903572966821
 21
382011.15938567527
 31
0.0
 70
   128
 13
-19274.657929198969
 23
381754.81982858729
 33
0.0
 14
-19763.753572966751
 24
382204.81982858729
 34
0.0
 50
90.0
  0
DIMENSION
  5
674DE
  8
S-OBRYS
  6
CONTINUOUS
  2
*D64
 10
-19764.11021116062
 20
382719.81982858741
 30
0.0
 11
-19764.110211160682
 21
382973.39125715877
 31
0.0
 70
   128
 13
-19766.903572966759
 23
382204.81982858729
 33
0.0
 14
-19665.157929198969
 24
382719.81982858741
 34
0.0
 50
90.0
  0
DIMENSION
  5
674DF
  8
S-OBRYS
  6
CONTINUOUS
  2
*D65
 10
-24544.02342992798
 20
382204.81982858729
 30
0.0
 11
-24893.801606557969
 21
382204.81982858729
 31
0.0
 70
   128
 13
-25344.02342992798
 23
382193.03428254923
 33
0.0
 14
-24544.02342992798
 24
382258.4553746254
 34
0.0
  0
DIMENSION
  5
674E0
  8
S-OBRYS
  6
CONTINUOUS
  2
*D66
 10
-25483.189887291119
 20
382794.81982858741
 30
0.0
 11
-25570.689887291181
 21
383141.24840001599
 31
0.0
 70
     0
 13
-25483.189887291119
 23
382654.81982858741
 33
0.0
 14
-25253.093834743358
 24
382794.81982858741
 34
0.0
 50
90.0
  0
DIMENSION
  5
674E1
  8
S-OBRYS
  6
CONTINUOUS
  2
*D67
 10
-25143.593834743358
 20
383292.67489622848
 30
0.0
 11
-24632.879549029079
 21
383380.17489622842
 31
0.0
 70
     0
  1
min.200
 13
-25344.02342992798
 23
382663.45537462551
 33
0.0
 14
-25143.593834743358
 24
382837.00510049338
 34
0.0
  0
DIMENSION
  5
674E2
  8
S-OBRYS
  6
CONTINUOUS
  2
*D68
 10
-24742.789749942549
 20
382794.81982858741
 30
0.0
 11
-24830.289749942622
 21
383098.39125715877
 31
0.0
 70
     0
 13
-25034.093834743358
 23
382734.81982858741
 33
0.0
 14
-25034.093834743358
 24
382794.81982858741
 34
0.0
 50
90.0
  0
DIMENSION
  5
674E3
  8
S-OBRYS
  6
CONTINUOUS
  2
*D69
 10
-26550.327995694832
 20
382204.81982858729
 30
0.0
 11
-26637.827995694901
 21
381851.24840001587
 31
0.0
 70
     0
 13
-26479.02342992798
 23
382429.81982858741
 33
0.0
 14
-26144.02342992798
 24
382204.81982858729
 34
0.0
 50
90.0
  0
DIMENSION
  5
674E4
  8
S-OBRYS
  6
CONTINUOUS
  2
*D70
 10
-26147.173429927989
 20
381928.76059316832
 30
0.0
 11
-25745.598429927981
 21
382016.26059316838
 31
0.0
 70
     0
  1
800
 13
-25344.02342992798
 23
382164.94382969523
 33
0.0
 14
-26147.173429927989
 24
382204.81982858729
 34
0.0
  0
DIMENSION
  5
674E5
  8
S-OBRYS
  6
CONTINUOUS
  2
*D71
 10
-26479.02342992798
 20
381928.76059316832
 30
0.0
 11
-26311.52342992798
 21
382016.26059316838
 31
0.0
 70
     0
 13
-26144.02342992798
 23
382277.76106611401
 33
0.0
 14
-26479.02342992798
 24
382377.94482487789
 34
0.0
  0
DIMENSION
  5
674E6
  8
S-OBRYS
  6
CONTINUOUS
  2
*D72
 10
-26682.36497243222
 20
382654.81982858741
 30
0.0
 11
-26769.86497243229
 21
382429.81982858741
 31
0.0
 70
     0
  1
445
 13
-26144.02342992798
 23
382204.81982858729
 33
0.0
 14
-26144.02342992798
 24
382654.81982858741
 34
0.0
 50
90.0
  0
LINE
  5
674E7
  8
S-OBRYS
  6
CONTINUOUS
 10
-21265.829768658881
 20
382213.4553746254
 30
0.0
 11
-21265.829768658881
 21
382646.18428254931
 31
0.0
  0
LINE
  5
674E8
  8
S-OBRYS
  6
CONTINUOUS
 10
-21281.467563542479
 20
382213.4553746254
 30
0.0
 11
-21281.467563542461
 21
382646.18428254919
 31
0.0
  0
LINE
  5
674E9
  8
S-OBRYS
  6
CONTINUOUS
 10
-21241.11061416319
 20
382196.18428254919
 30
0.0
 11
-21306.186718038149
 21
382196.18428254919
 31
0.0
  0
LINE
  5
674EA
  8
S-OBRYS
  6
CONTINUOUS
 10
-21241.11061416319
 20
382213.4553746254
 30
0.0
 11
-21306.186718038149
 21
382213.4553746254
 31
0.0
  0
LINE
  5
674EB
  8
S-OBRYS
  6
CONTINUOUS
 10
-21306.186718038141
 20
382196.18428254919
 30
0.0
 11
-21306.186718038149
 21
382213.4553746254
 31
0.0
  0
LINE
  5
674EC
  8
S-OBRYS
  6
CONTINUOUS
 10
-21241.11061416319
 20
382196.18428254919
 30
0.0
 11
-21241.11061416319
 21
382213.4553746254
 31
0.0
  0
LINE
  5
674ED
  8
S-OBRYS
  6
CONTINUOUS
 10
-21241.11061416319
 20
382646.18428254919
 30
0.0
 11
-21306.186718038149
 21
382646.18428254919
 31
0.0
  0
LINE
  5
674EE
  8
S-OBRYS
  6
CONTINUOUS
 10
-21241.11061416319
 20
382663.45537462551
 30
0.0
 11
-21306.186718038149
 21
382663.45537462551
 31
0.0
  0
LINE
  5
674EF
  8
S-OBRYS
  6
CONTINUOUS
 10
-21306.186718038141
 20
382663.45537462551
 30
0.0
 11
-21306.186718038149
 21
382646.18428254919
 31
0.0
  0
LINE
  5
674F0
  8
S-OBRYS
  6
CONTINUOUS
 10
-21241.11061416319
 20
382663.45537462551
 30
0.0
 11
-21241.11061416319
 21
382646.18428254919
 31
0.0
  0
LINE
  5
674F1
  8
S-OBRYS
  6
CONTINUOUS
 10
-20916.578361326479
 20
382204.81982858729
 30
0.0
 11
-20916.578361326479
 21
382654.81982858741
 31
0.0
  0
LINE
  5
674F2
  8
S-OBRYS
  6
CONTINUOUS
 10
-21009.70509791467
 20
382654.81982858741
 30
0.0
 11
-21009.705097914572
 21
382204.81982858729
 31
0.0
  0
DIMENSION
  5
674F3
  8
S-OBRYS
  6
CONTINUOUS
  2
*D73
 10
-20292.326566501219
 20
374086.58277610288
 30
0.0
 11
-20459.326566501219
 21
374174.08277610299
 31
0.0
 70
     0
 13
-20626.326566501219
 23
373806.05604113702
 33
0.0
 14
-20292.326566501219
 24
373806.05604113702
 34
0.0
  0
LINE
  5
678AB
  8
S-OBRYS
  6
CONTINUOUS
 10
-17924.252856270199
 20
379030.07850646751
 30
0.0
 11
-24695.602199244589
 21
379030.07850646751
 31
0.0
  0
LINE
  5
678AC
  8
S-OBRYS
  6
CONTINUOUS
 10
-22700.806414945298
 20
379030.07850646751
 30
0.0
 11
-26438.118356999199
 21
379030.07850646751
 31
0.0
  0
LINE
  5
678AD
  8
S-OBRYS
  6
CONTINUOUS
 10
-18524.25285627025
 20
379197.07850646751
 30
0.0
 11
-24706.439333067319
 21
379197.07850646751
 31
0.0
  0
LINE
  5
678AE
  8
S-OBRYS
  6
CONTINUOUS
 10
-22704.418993970448
 20
379197.07850646751
 30
0.0
 11
-26103.118356999199
 21
379197.07850646751
 31
0.0
  0
LINE
  5
678AF
  8
S-OBRYS
  6
CONTINUOUS
 10
-26103.118356999199
 20
379160.0785064674
 30
0.0
 11
-22704.418993970448
 21
379160.0785064674
 31
0.0
  0
LINE
  5
678B0
  8
S-OBRYS
  6
CONTINUOUS
 10
-24608.903620530658
 20
379160.0785064674
 30
0.0
 11
-18524.25285627025
 21
379160.0785064674
 31
0.0
  0
LINE
  5
678B1
  8
S-OBRYS
  6
CONTINUOUS
 10
-26103.118356999199
 20
378900.0785064674
 30
0.0
 11
-22700.806414945298
 21
378900.0785064674
 31
0.0
  0
LINE
  5
678B2
  8
S-OBRYS
  6
CONTINUOUS
 10
-24601.678764106691
 20
378900.0785064674
 30
0.0
 11
-18524.25285627025
 21
378900.0785064674
 31
0.0
  0
LINE
  5
678B3
  8
S-OBRYS
  6
CONTINUOUS
 10
-18524.25285627025
 20
378863.0785064674
 30
0.0
 11
-24702.82705566856
 21
378863.0785064674
 31
0.0
  0
LINE
  5
678B4
  8
S-OBRYS
  6
CONTINUOUS
 10
-22700.806414945298
 20
378863.0785064674
 30
0.0
 11
-26103.118356999199
 21
378863.0785064674
 31
0.0
  0
LINE
  5
678B5
  8
S-OBRYS
  6
CONTINUOUS
 10
-25784.292444537859
 20
379226.33720807481
 30
0.0
 11
-25622.473093374429
 21
379226.33720807481
 31
0.0
  0
LINE
  5
678B6
  8
S-OBRYS
  6
CONTINUOUS
 10
-25768.386250175161
 20
379253.61652779992
 30
0.0
 11
-25638.37928773712
 21
379253.61652779992
 31
0.0
  0
LINE
  5
678B7
  8
S-OBRYS
  6
CONTINUOUS
 10
-25768.386250175161
 20
378806.54048513487
 30
0.0
 11
-25638.37928773712
 21
378806.54048513487
 31
0.0
  0
LINE
  5
678B8
  8
S-OBRYS
  6
CONTINUOUS
 10
-25784.292444537859
 20
378833.8198048601
 30
0.0
 11
-25622.473093374429
 21
378833.8198048601
 31
0.0
  0
LINE
  5
678B9
  8
S-OBRYS
  6
CONTINUOUS
 10
-26143.505302083118
 20
379074.03899411543
 30
0.0
 11
-26103.118356999199
 21
379119.36506157432
 31
0.0
  0
LINE
  5
678BA
  8
S-OBRYS
  6
CONTINUOUS
 10
-26103.118356999199
 20
379197.07850646751
 30
0.0
 11
-26103.118356999199
 21
378863.0785064674
 31
0.0
  0
LINE
  5
678BB
  8
S-OBRYS
  6
CONTINUOUS
 10
-26428.118356999199
 20
379091.9535101768
 30
0.0
 11
-26438.118356999199
 21
379081.9535101768
 31
0.0
  0
LINE
  5
678BC
  8
S-OBRYS
  6
CONTINUOUS
 10
-26404.12344420623
 20
379091.9535101768
 30
0.0
 11
-26394.12344420623
 21
379081.9535101768
 31
0.0
  0
LINE
  5
678BD
  8
S-OBRYS
  6
CONTINUOUS
 10
-26143.505302083118
 20
379053.3941793202
 30
0.0
 11
-26394.12344420623
 21
379053.3941793202
 31
0.0
  0
LINE
  5
678BE
  8
S-OBRYS
  6
CONTINUOUS
 10
-26143.505302083118
 20
379006.76283361472
 30
0.0
 11
-26394.12344420623
 21
379006.76283361472
 31
0.0
  0
LINE
  5
678BF
  8
S-OBRYS
  6
CONTINUOUS
 10
-26394.12344420623
 20
379081.9535101768
 30
0.0
 11
-26394.123444206241
 21
378978.203502758
 31
0.0
  0
LINE
  5
678C0
  8
S-OBRYS
  6
CONTINUOUS
 10
-26438.118356999199
 20
378978.203502758
 30
0.0
 11
-26438.118356999199
 21
379081.9535101768
 31
0.0
  0
LINE
  5
678C1
  8
S-OBRYS
  6
CONTINUOUS
 10
-26428.118356999199
 20
378968.203502758
 30
0.0
 11
-26404.123444206241
 21
378968.203502758
 31
0.0
  0
LINE
  5
678C2
  8
S-OBRYS
  6
CONTINUOUS
 10
-26428.118356999199
 20
378968.203502758
 30
0.0
 11
-26438.118356999199
 21
378978.203502758
 31
0.0
  0
LINE
  5
678C3
  8
S-OBRYS
  6
CONTINUOUS
 10
-26394.123444206241
 20
378978.203502758
 30
0.0
 11
-26404.123444206241
 21
378968.203502758
 31
0.0
  0
LINE
  5
678C4
  8
S-OBRYS
  6
CONTINUOUS
 10
-25784.292444537859
 20
378833.8198048601
 30
0.0
 11
-25784.292444537859
 21
378863.0785064674
 31
0.0
  0
LINE
  5
678C5
  8
S-OBRYS
  6
CONTINUOUS
 10
-25784.292444537859
 20
378833.8198048601
 30
0.0
 11
-25768.386250175161
 21
378806.54048513487
 31
0.0
  0
LINE
  5
678C6
  8
S-OBRYS
  6
CONTINUOUS
 10
-26143.505302083118
 20
379074.03899411543
 30
0.0
 11
-26143.505302083129
 21
378986.11801881948
 31
0.0
  0
LINE
  5
678C7
  8
S-OBRYS
  6
CONTINUOUS
 10
-26143.505302083129
 20
378986.11801881948
 30
0.0
 11
-26103.118356999199
 21
378940.79195136047
 31
0.0
  0
CIRCLE
  5
678C8
  8
S-OBRYS
  6
CONTINUOUS
 10
-26043.90474846146
 20
379030.07850646751
 30
0.0
 40
25.566579456903131
  0
LINE
  5
678C9
  8
S-OBRYS
  6
CONTINUOUS
 10
-26428.118356999199
 20
379091.9535101768
 30
0.0
 11
-26404.12344420623
 21
379091.9535101768
 31
0.0
  0
LINE
  5
678CA
  8
S-OBRYS
  6
CONTINUOUS
 10
-25784.292444537859
 20
379226.33720807481
 30
0.0
 11
-25768.386250175161
 21
379253.61652779992
 31
0.0
  0
LINE
  5
678CB
  8
S-OBRYS
  6
CONTINUOUS
 10
-25784.292444537859
 20
379226.33720807481
 30
0.0
 11
-25784.292444537859
 21
379197.07850646751
 31
0.0
  0
LINE
  5
678CC
  8
S-OBRYS
  6
CONTINUOUS
 10
-24919.9809199638
 20
379197.07850646751
 30
0.0
 11
-24919.9809199638
 21
378863.0785064674
 31
0.0
  0
LINE
  5
678CD
  8
S-OBRYS
  6
CONTINUOUS
 10
-24869.721114693399
 20
379197.07850646751
 30
0.0
 11
-24869.721114693399
 21
378863.0785064674
 31
0.0
  0
CIRCLE
  5
678CE
  8
S-OBRYS
  6
CONTINUOUS
 10
-25102.688761814581
 20
379030.0785064674
 30
0.0
 40
109.5
  0
LINE
  5
678CF
  8
S-OBRYS
  6
CONTINUOUS
 10
-25102.688761814581
 20
378900.0785064674
 30
0.0
 11
-25102.688761814581
 21
379160.0785064674
 31
0.0
  0
LINE
  5
678D0
  8
S-OBRYS
  6
CONTINUOUS
 10
-25285.396603665358
 20
379197.07850646751
 30
0.0
 11
-25285.396603665369
 21
378863.0785064674
 31
0.0
  0
LINE
  5
678D1
  8
S-OBRYS
  6
CONTINUOUS
 10
-25335.65640893576
 20
379197.07850646751
 30
0.0
 11
-25335.65640893576
 21
378863.0785064674
 31
0.0
  0
LINE
  5
678D2
  8
S-OBRYS
  6
CONTINUOUS
 10
-25703.38276895614
 20
379311.39045459492
 30
0.0
 11
-25703.38276895614
 21
378748.76655833988
 31
0.0
  0
LINE
  5
678D3
  8
S-OBRYS
  6
CONTINUOUS
 10
-25622.473093374439
 20
378833.8198048601
 30
0.0
 11
-25622.473093374439
 21
378863.0785064674
 31
0.0
  0
LINE
  5
678D4
  8
S-OBRYS
  6
CONTINUOUS
 10
-25622.473093374429
 20
378833.8198048601
 30
0.0
 11
-25638.37928773712
 21
378806.54048513487
 31
0.0
  0
LINE
  5
678D5
  8
S-OBRYS
  6
CONTINUOUS
 10
-25622.473093374429
 20
379226.33720807481
 30
0.0
 11
-25638.37928773712
 21
379253.61652779992
 31
0.0
  0
LINE
  5
678D6
  8
S-OBRYS
  6
CONTINUOUS
 10
-25622.473093374439
 20
379226.33720807481
 30
0.0
 11
-25622.473093374439
 21
379197.07850646751
 31
0.0
  0
LINE
  5
678D7
  8
S-OBRYS
  6
CONTINUOUS
 10
-24370.136658321699
 20
378863.0785064674
 30
0.0
 11
-24370.136658321691
 21
379197.07850646751
 31
0.0
  0
LINE
  5
678D8
  8
S-OBRYS
  6
CONTINUOUS
 10
-24435.212762195599
 20
378863.0785064674
 30
0.0
 11
-24435.21276219573
 21
379197.07850646751
 31
0.0
  0
LINE
  5
678D9
  8
S-OBRYS
  6
CONTINUOUS
 10
-22935.212762195599
 20
378863.0785064674
 30
0.0
 11
-22935.212762195752
 21
379197.07850646751
 31
0.0
  0
LINE
  5
678DA
  8
S-OBRYS
  6
CONTINUOUS
 10
-22870.136658321699
 20
378863.0785064674
 30
0.0
 11
-22870.136658321699
 21
379197.07850646751
 31
0.0
  0
LINE
  5
678DB
  8
S-OBRYS
  6
CONTINUOUS
 10
-18337.744087167452
 20
379326.9568127137
 30
0.0
 11
-18337.744087167452
 21
379763.13757174462
 31
0.0
  0
LINE
  5
678DC
  8
S-OBRYS
  6
CONTINUOUS
 10
-18089.595887580421
 20
379326.9568127137
 30
0.0
 11
-18089.595887580421
 21
379763.13757174462
 31
0.0
  0
LINE
  5
678DD
  8
S-OBRYS
  6
CONTINUOUS
 10
-18214.166797635618
 20
378776.5504699765
 30
0.0
 11
-18214.166797635618
 21
379794.16804056271
 31
0.0
  0
LINE
  5
678DE
  8
S-OBRYS
  6
CONTINUOUS
 10
-19870.136658321691
 20
378863.0785064674
 30
0.0
 11
-19870.136658321691
 21
379197.07850646751
 31
0.0
  0
LINE
  5
678DF
  8
S-OBRYS
  6
CONTINUOUS
 10
-19935.212762195591
 20
378863.0785064674
 30
0.0
 11
-19935.21276219573
 21
379197.07850646751
 31
0.0
  0
LINE
  5
678E0
  8
S-OBRYS
  6
CONTINUOUS
 10
-18064.282781930189
 20
379326.9568127137
 30
0.0
 11
-18364.05081334108
 21
379326.9568127137
 31
0.0
  0
LINE
  5
678E1
  8
S-OBRYS
  6
CONTINUOUS
 10
-19045.284366894459
 20
378844.76960263727
 30
0.0
 11
-17964.252856270199
 21
378844.76960263727
 31
0.0
  0
LINE
  5
678E2
  8
S-OBRYS
  6
CONTINUOUS
 10
-18024.614718000659
 20
378640.07850646751
 30
0.0
 11
-19045.284366894459
 21
378640.07850646751
 31
0.0
  0
LINE
  5
678E3
  8
S-OBRYS
  6
CONTINUOUS
 10
-19045.284366894459
 20
378844.76960263727
 30
0.0
 11
-19045.284366894459
 21
378640.07850646751
 31
0.0
  0
LINE
  5
678E4
  8
S-OBRYS
  6
CONTINUOUS
 10
-18870.523394983691
 20
378567.0785064674
 30
0.0
 11
-18870.523394983691
 21
379300.0785064674
 31
0.0
  0
LINE
  5
678E5
  8
S-OBRYS
  6
CONTINUOUS
 10
-19624.252856270188
 20
378863.0785064674
 30
0.0
 11
-19624.252856270188
 21
379197.07850646751
 31
0.0
  0
LINE
  5
678E6
  8
S-OBRYS
  6
CONTINUOUS
 10
-19565.039247732449
 20
379004.51192701049
 30
0.0
 11
-19565.039247732449
 21
379055.64508592442
 31
0.0
  0
CIRCLE
  5
678E7
  8
S-OBRYS
  6
CONTINUOUS
 10
-19565.039247732449
 20
379030.07850646751
 30
0.0
 40
25.566579456903131
  0
LINE
  5
678E8
  8
S-OBRYS
  6
CONTINUOUS
 10
-18524.25285627025
 20
379197.07850646751
 30
0.0
 11
-18524.25285627025
 21
378863.0785064674
 31
0.0
  0
LINE
  5
678E9
  8
S-OBRYS
  6
CONTINUOUS
 10
-18364.05081334108
 20
378844.76960263727
 30
0.0
 11
-18364.050813341069
 21
379326.9568127137
 31
0.0
  0
POLYLINE
  5
678EA
  8
S-OBRYS
  6
CONTINUOUS
 66
     1
 10
0.0
 20
0.0
 30
0.0
  0
VERTEX
  5
68226
  8
S-OBRYS
  6
CONTINUOUS
 10
-18364.05081334108
 20
379169.33750019228
 30
0.0
  0
VERTEX
  5
68227
  8
S-OBRYS
  6
CONTINUOUS
 10
-18417.899737797921
 20
379169.33750019228
 30
0.0
  0
VERTEX
  5
68228
  8
S-OBRYS
  6
CONTINUOUS
 10
-18417.899737797921
 20
378890.81951274251
 30
0.0
  0
VERTEX
  5
68229
  8
S-OBRYS
  6
CONTINUOUS
 10
-18364.05081334108
 20
378890.81951274251
 30
0.0
  0
SEQEND
  5
6822A
  8
S-OBRYS
  6
CONTINUOUS
  0
ARC
  5
678EB
  8
S-OBRYS
  6
CONTINUOUS
 10
-18484.25285627025
 20
378884.76960263739
 30
0.0
 40
40.0
 50
180.0
 51
270.0
  0
LINE
  5
678EC
  8
S-OBRYS
  6
CONTINUOUS
 10
-18584.683041232642
 20
379004.51192701049
 30
0.0
 11
-18584.683041232642
 21
379055.64508592442
 31
0.0
  0
CIRCLE
  5
678ED
  8
S-OBRYS
  6
CONTINUOUS
 10
-18584.683041232642
 20
379030.07850646751
 30
0.0
 40
25.566579456903131
  0
ARC
  5
678EE
  8
S-OBRYS
  6
CONTINUOUS
 10
-18484.25285627025
 20
379175.38741029752
 30
0.0
 40
40.0
 50
90.0
 51
180.0
  0
LINE
  5
678EF
  8
S-OBRYS
  6
CONTINUOUS
 10
-18484.25285627025
 20
379215.38741029752
 30
0.0
 11
-18364.050813341069
 21
379215.38741029752
 31
0.0
  0
LINE
  5
678F0
  8
S-OBRYS
  6
CONTINUOUS
 10
-18024.614718000659
 20
378640.07850646751
 30
0.0
 11
-18024.614718000659
 21
378844.76960263727
 31
0.0
  0
LINE
  5
678F1
  8
S-OBRYS
  6
CONTINUOUS
 10
-18064.282781930189
 20
378844.76960263727
 30
0.0
 11
-18064.282781930189
 21
379326.9568127137
 31
0.0
  0
LINE
  5
678F2
  8
S-OBRYS
  6
CONTINUOUS
 10
-17924.252856270188
 20
379175.38741029752
 30
0.0
 11
-17924.252856270199
 21
378884.76960263739
 31
0.0
  0
POLYLINE
  5
678F3
  8
S-OBRYS
  6
CONTINUOUS
 66
     1
 10
0.0
 20
0.0
 30
0.0
  0
VERTEX
  5
6822B
  8
S-OBRYS
  6
CONTINUOUS
 10
-18064.282781930189
 20
378890.81951274251
 30
0.0
  0
VERTEX
  5
6822C
  8
S-OBRYS
  6
CONTINUOUS
 10
-18008.82026276429
 20
378890.81951274251
 30
0.0
  0
VERTEX
  5
6822D
  8
S-OBRYS
  6
CONTINUOUS
 10
-18008.82026276429
 20
379169.33750019228
 30
0.0
  0
VERTEX
  5
6822E
  8
S-OBRYS
  6
CONTINUOUS
 10
-18064.282781930189
 20
379169.33750019228
 30
0.0
  0
SEQEND
  5
6822F
  8
S-OBRYS
  6
CONTINUOUS
  0
LINE
  5
678F4
  8
S-OBRYS
  6
CONTINUOUS
 10
-18055.95723461729
 20
378844.76960263727
 30
0.0
 11
-18105.987160277258
 21
378844.76960263727
 31
0.0
  0
ARC
  5
678F5
  8
S-OBRYS
  6
CONTINUOUS
 10
-17964.252856270199
 20
378884.76960263739
 30
0.0
 40
40.0
 50
270.0
 51
0.0
  0
ARC
  5
678F6
  8
S-OBRYS
  6
CONTINUOUS
 10
-17964.252856270188
 20
379175.38741029752
 30
0.0
 40
40.0
 50
0.0
 51
90.0
  0
LINE
  5
678F7
  8
S-OBRYS
  6
CONTINUOUS
 10
-18064.282781930178
 20
379215.38741029752
 30
0.0
 11
-17964.252856270188
 21
379215.38741029752
 31
0.0
  0
LINE
  5
678F8
  8
S-OBRYS
  6
CONTINUOUS
 10
-18089.595887580421
 20
379763.13757174462
 30
0.0
 11
-18337.744087167452
 21
379763.13757174462
 31
0.0
  0
LINE
  5
678F9
  8
S-OBRYS
  6
CONTINUOUS
 10
-18322.568322999279
 20
379402.54432530678
 30
0.0
 11
-18322.568322999279
 21
379698.00215006003
 31
0.0
  0
LINE
  5
678FA
  8
S-OBRYS
  6
CONTINUOUS
 10
-18252.743420883031
 20
379402.54432530678
 30
0.0
 11
-18252.743420883031
 21
379499.71554510522
 31
0.0
  0
LINE
  5
678FB
  8
S-OBRYS
  6
CONTINUOUS
 10
-18295.28043497599
 20
379402.54432530678
 30
0.0
 11
-18295.28043497599
 21
379698.00215006003
 31
0.0
  0
LINE
  5
678FC
  8
S-OBRYS
  6
CONTINUOUS
 10
-18174.59655386482
 20
379402.54432530678
 30
0.0
 11
-18174.596553864831
 21
379499.71554510522
 31
0.0
  0
LINE
  5
678FD
  8
S-OBRYS
  6
CONTINUOUS
 10
-18104.771651748571
 20
379402.54432530678
 30
0.0
 11
-18104.77165174859
 21
379698.00215006003
 31
0.0
  0
LINE
  5
678FE
  8
S-OBRYS
  6
CONTINUOUS
 10
-18132.059539771872
 20
379402.54432530678
 30
0.0
 11
-18132.059539771879
 21
379698.00215006003
 31
0.0
  0
LINE
  5
678FF
  8
S-OBRYS
  6
CONTINUOUS
 10
-18337.744087167452
 20
379698.00215006003
 30
0.0
 11
-18089.595887580421
 21
379698.00215006003
 31
0.0
  0
LINE
  5
67900
  8
S-OBRYS
  6
CONTINUOUS
 10
-18337.744087167441
 20
379402.54432530678
 30
0.0
 11
-18089.595887580399
 21
379402.54432530678
 31
0.0
  0
POLYLINE
  5
67901
  8
S-OBRYS
  6
CONTINUOUS
 66
     1
 10
0.0
 20
0.0
 30
0.0
 70
     1
  0
VERTEX
  5
68230
  8
S-OBRYS
  6
CONTINUOUS
 10
-18167.952844221119
 20
379499.71554510522
 30
0.0
  0
VERTEX
  5
68231
  8
S-OBRYS
  6
CONTINUOUS
 10
-18167.952844221119
 20
379599.71554510522
 30
0.0
  0
VERTEX
  5
68232
  8
S-OBRYS
  6
CONTINUOUS
 10
-18260.380751050128
 20
379599.71554510522
 30
0.0
  0
VERTEX
  5
68233
  8
S-OBRYS
  6
CONTINUOUS
 10
-18260.380751050128
 20
379499.71554510522
 30
0.0
  0
SEQEND
  5
68234
  8
S-OBRYS
  6
CONTINUOUS
  0
LINE
  5
67902
  8
S-OBRYS
  6
CONTINUOUS
 10
-18252.743420883038
 20
379599.71554510522
 30
0.0
 11
-18252.743420883038
 21
379698.00215006003
 31
0.0
  0
LINE
  5
67903
  8
S-OBRYS
  6
CONTINUOUS
 10
-18174.596553864842
 20
379599.71554510522
 30
0.0
 11
-18174.596553864842
 21
379698.00215006003
 31
0.0
  0
LINE
  5
67904
  8
S-OBRYS
  6
CONTINUOUS
 10
-18102.368696300349
 20
379785.0785064674
 30
0.0
 11
-18324.971278447509
 21
379785.0785064674
 31
0.0
  0
LINE
  5
67905
  8
S-OBRYS
  6
CONTINUOUS
 10
-18337.744087167452
 20
379763.13757174462
 30
0.0
 11
-18324.971278447509
 21
379785.0785064674
 31
0.0
  0
LINE
  5
67906
  8
S-OBRYS
  6
CONTINUOUS
 10
-18089.595887580421
 20
379763.13757174462
 30
0.0
 11
-18102.368696300349
 21
379785.0785064674
 31
0.0
  0
LINE
  5
67907
  8
S-OBRYS
  6
CONTINUOUS
 10
-18924.134160643091
 20
378844.76960263727
 30
0.0
 11
-18924.134160643091
 21
378863.0785064674
 31
0.0
  0
LINE
  5
67908
  8
S-OBRYS
  6
CONTINUOUS
 10
-18816.912629324292
 20
378844.76960263727
 30
0.0
 11
-18816.912629324292
 21
378863.0785064674
 31
0.0
  0
LINE
  5
67909
  8
S-OBRYS
  6
CONTINUOUS
 10
-18064.282781930189
 20
379251.9568127137
 30
0.0
 11
-18364.05081334108
 21
379251.9568127137
 31
0.0
  0
DIMENSION
  5
6790A
  8
S-OBRYS
  6
CONTINUOUS
  2
*D74
 10
-25184.293749097149
 20
379103.09135499853
 30
0.0
 11
-24618.298075428931
 21
378596.68901652802
 31
0.0
 70
   131
 15
-25021.083774531959
 25
378957.06565793633
 35
0.0
 40
0.0
1001
ACAD
1000
DSTYLE
1002
{
1070
   288
1070
     1
1002
}
  0
DIMENSION
  5
6790B
  8
S-OBRYS
  6
CONTINUOUS
  2
*D75
 10
-20989.090690148751
 20
379160.0785064674
 30
0.0
 11
-20989.090690148809
 21
379682.72152738518
 31
0.0
 70
   128
 13
-20781.035456382309
 23
378900.0785064674
 33
0.0
 14
-20781.035456382309
 24
379160.0785064674
 34
0.0
 50
90.0
  0
DIMENSION
  5
6790C
  8
S-OBRYS
  6
CONTINUOUS
  2
*D76
 10
-21274.423202983959
 20
379197.07850646751
 30
0.0
 11
-21274.42320298402
 21
379575.7639020388
 31
0.0
 70
   128
 13
-20721.591534772411
 23
378863.0785064674
 33
0.0
 14
-20721.591534772411
 24
379197.07850646751
 34
0.0
 50
90.0
1001
ACAD
1000
DSTYLE
1002
{
1070
   288
1070
     1
1002
}
  0
DIMENSION
  5
6790D
  8
S-OBRYS
  6
CONTINUOUS
  2
*D77
 10
-17704.85851109113
 20
379030.07850646751
 30
0.0
 11
-17792.358511091199
 21
378835.0785064674
 31
0.0
 70
     0
 13
-18024.614718000659
 23
378640.07850646751
 33
0.0
 14
-17924.252856270199
 24
379030.07850646751
 34
0.0
 50
90.0
1001
ACAD
1000
DSTYLE
1002
{
1070
   288
1070
     1
1002
}
  0
DIMENSION
  5
6790E
  8
S-OBRYS
  6
CONTINUOUS
  2
*D78
 10
-17704.85851109113
 20
379030.07850646751
 30
0.0
 11
-17792.358511091199
 21
379407.5785064674
 31
0.0
 70
     0
  1
max.755
 13
-18214.166797635618
 23
379785.0785064674
 33
0.0
 14
-17921.102856270201
 24
379030.07850646751
 34
0.0
 50
90.0
1001
ACAD
1000
DSTYLE
1002
{
1070
   288
1070
     1
1002
}
  0
LINE
  5
6790F
  8
S-OBRYS
  6
CONTINUOUS
 10
-26688.118356999199
 20
379030.07850646751
 30
0.0
 11
-26688.118356999199
 21
379038.11090543302
 31
0.0
  0
LINE
  5
67910
  8
S-OBRYS
  6
CONTINUOUS
 10
-26538.118356999199
 20
379028.1109054329
 30
0.0
 11
-26588.118356999199
 21
379028.1109054329
 31
0.0
  0
LINE
  5
67911
  8
S-OBRYS
  6
CONTINUOUS
 10
-26688.118356999199
 20
379028.1109054329
 30
0.0
 11
-26688.118356999199
 21
379028.1109054329
 31
0.0
  0
INSERT
  5
67912
  8
S-OBRYS
  6
CONTINUOUS
  2
_OPEN
 10
-26438.118356999199
 20
379028.1109054329
 30
0.0
 41
100.0
 42
100.0
 43
100.0
  0
INSERT
  5
67913
  8
S-OBRYS
  6
CONTINUOUS
  2
_OPEN
 10
-26688.118356999199
 20
379028.1109054329
 30
0.0
 41
100.0
 42
100.0
 43
100.0
 50
180.0
  0
INSERT
  5
67914
  8
S-OBRYS
  6
CONTINUOUS
  2
*U152
 10
0.0
 20
0.0
 30
0.0
  0
LINE
  5
67915
  8
S-OBRYS
  6
CONTINUOUS
 10
-26688.118356999199
 20
378636.08035092108
 30
0.0
 11
-26688.118356999199
 21
379636.97928051278
 31
0.0
  0
LINE
  5
67916
  8
S-OBRYS
  6
CONTINUOUS
 10
-26563.118356999199
 20
379028.1109054329
 30
0.0
 11
-26563.118356999199
 21
379415.84798875352
 31
0.0
  0
LINE
  5
67917
  8
S-OBRYS
  6
CONTINUOUS
 10
-26563.118356999199
 20
379415.84798875352
 30
0.0
 11
-26117.529282968131
 21
379415.84798875352
 31
0.0
  0
LINE
  5
67918
  8
S-OBRYS
  6
CONTINUOUS
 10
-26688.118356999199
 20
379636.97928051278
 30
0.0
 11
-26814.48727496888
 21
379536.97231393401
 31
0.0
  0
LINE
  5
67919
  8
S-OBRYS
  6
CONTINUOUS
 10
-26688.118356999199
 20
379562.2454951324
 30
0.0
 11
-26814.48727496888
 21
379462.23852855357
 31
0.0
  0
LINE
  5
6791A
  8
S-OBRYS
  6
CONTINUOUS
 10
-26688.118356999199
 20
379479.5045367094
 30
0.0
 11
-26814.48727496888
 21
379379.49757013062
 31
0.0
  0
LINE
  5
6791B
  8
S-OBRYS
  6
CONTINUOUS
 10
-26688.118356999199
 20
379388.7563541492
 30
0.0
 11
-26814.48727496888
 21
379288.74938757042
 31
0.0
  0
LINE
  5
6791C
  8
S-OBRYS
  6
CONTINUOUS
 10
-26688.118356999199
 20
379300.67724630138
 30
0.0
 11
-26814.48727496888
 21
379200.6702797226
 31
0.0
  0
LINE
  5
6791D
  8
S-OBRYS
  6
CONTINUOUS
 10
-26688.118356999199
 20
379207.26004012319
 30
0.0
 11
-26814.48727496888
 21
379107.25307354442
 31
0.0
  0
LINE
  5
6791E
  8
S-OBRYS
  6
CONTINUOUS
 10
-26688.118356999199
 20
379116.51185756299
 30
0.0
 11
-26814.48727496888
 21
379016.5048909841
 31
0.0
  0
LINE
  5
6791F
  8
S-OBRYS
  6
CONTINUOUS
 10
-26688.118356999199
 20
379023.09460029018
 30
0.0
 11
-26814.48727496888
 21
378923.08763371152
 31
0.0
  0
LINE
  5
67920
  8
S-OBRYS
  6
CONTINUOUS
 10
-26688.118356999199
 20
378927.00831939979
 30
0.0
 11
-26814.48727496888
 21
378827.00135282101
 31
0.0
  0
LINE
  5
67921
  8
S-OBRYS
  6
CONTINUOUS
 10
-26688.118356999199
 20
378828.25296379678
 30
0.0
 11
-26814.48727496888
 21
378728.24599721812
 31
0.0
  0
LINE
  5
67922
  8
S-OBRYS
  6
CONTINUOUS
 10
-26688.118356999199
 20
378734.8357065242
 30
0.0
 11
-26814.48727496888
 21
378634.82873994543
 31
0.0
  0
LINE
  5
67923
  8
S-OBRYS
  6
CONTINUOUS
 10
-26688.118356999199
 20
378636.08035092108
 30
0.0
 11
-26814.48727496888
 21
378536.07338434242
 31
0.0
  0
VIEWPORT
  5
1FAB5
 67
     1
  8
0
  6
ČERCHOVANÁ
 10
12.669026204836801
 20
9.4585013259736659
 30
0.0
 40
41.707206501782828
 41
24.2248555085413
 68
     1
 69
     1
1001
ACAD
1000
MVIEW
1002
{
1070
    16
1010
0.0
1020
0.0
1030
0.0
1010
0.0
1020
0.0
1030
1.0
1040
0.0
1040
24.2248555085413
1040
12.669026204836801
1040
9.4585013259736659
1040
50.0
1040
0.0
1040
0.0
1070
     0
1070
   100
1070
     1
1070
     1
1070
     0
1070
     0
1070
     0
1070
     0
1040
0.0
1040
0.0
1040
0.0
1040
10.0
1040
10.0
1040
10.0
1040
10.0
1070
     0
1002
{
1002
}
1002
}
  0
VIEWPORT
  5
1FAB7
 67
     1
  8
2-VZT
  6
ČERCHOVANÁ
 10
5.24999976158142
 20
3.99999976158142
 30
0.0
 40
8.3999996185302717
 41
6.3999996185302717
 68
     2
 69
     2
1001
ACAD
1000
MVIEW
1002
{
1070
    16
1010
0.0
1020
0.0
1030
0.0
1010
0.0
1020
0.0
1030
1.0
1040
0.0
1040
517776.44812413253
1040
-335493.7046016907
1040
-205251.99203018961
1040
50.0
1040
0.0
1040
0.0
1070
     0
1070
   100
1070
     1
1070
     0
1070
     0
1070
     0
1070
     0
1070
     0
1040
0.0
1040
0.0
1040
0.0
1040
1.0
1040
1.0
1040
1.0
1040
1.0
1070
     0
1002
{
1002
}
1002
}
  0
ENDSEC
  0
EOF
