  0
SECTION
  2
HEADER
  9
$ACADVER
  1
AC1009
  9
$INSBASE
 10
0.0
 20
0.0
 30
0.0
  9
$EXTMIN
 10
19772.31659976003
 20
421492.62784302112
 30
0.0
  9
$EXTMAX
 10
61709.199854447746
 20
799643.3234279257
 30
0.0
  9
$LIMMIN
 10
-127022.6804658414
 20
-67144.462473645661
  9
$LIMMAX
 10
-873.19720690528334
 20
6755.1563308572058
  9
$ORTHOMODE
 70
     1
  9
$REGENMODE
 70
     1
  9
$FILLMODE
 70
     1
  9
$QTEXTMODE
 70
     0
  9
$MIRRTEXT
 70
     0
  9
$DRAGMODE
 70
     2
  9
$LTSCALE
 40
50.0
  9
$OSMODE
 70
   679
  9
$ATTMODE
 70
     1
  9
$TEXTSIZE
 40
200.0
  9
$TRACEWID
 40
10.0
  9
$TEXTSTYLE
  7
R
  9
$CLAYER
  8
S-OBRYS
  9
$CELTYPE
  6
CONTINUOUS
  9
$CECOLOR
 62
   256
  9
$DIMSCALE
 40
50.0
  9
$DIMASZ
 40
2.0
  9
$DIMEXO
 40
0.063
  9
$DIMDLI
 40
5.0
  9
$DIMRND
 40
0.0
  9
$DIMDLE
 40
0.0
  9
$DIMEXE
 40
0.2
  9
$DIMTP
 40
0.0
  9
$DIMTM
 40
0.0
  9
$DIMTXT
 40
2.5
  9
$DIMCEN
 40
0.2
  9
$DIMTSZ
 40
0.0
  9
$DIMTOL
 70
     0
  9
$DIMLIM
 70
     0
  9
$DIMTIH
 70
     0
  9
$DIMTOH
 70
     0
  9
$DIMSE1
 70
     0
  9
$DIMSE2
 70
     0
  9
$DIMTAD
 70
     1
  9
$DIMZIN
 70
    12
  9
$DIMBLK
  1

  9
$DIMASO
 70
     1
  9
$DIMSHO
 70
     0
  9
$DIMPOST
  1

  9
$DIMAPOST
  1

  9
$DIMALT
 70
     0
  9
$DIMALTD
 70
     2
  9
$DIMALTF
 40
25.399999999999999
  9
$DIMLFAC
 40
1.0
  9
$DIMTOFL
 70
     1
  9
$DIMTVP
 40
0.0
  9
$DIMTIX
 70
     0
  9
$DIMSOXD
 70
     0
  9
$DIMSAH
 70
     1
  9
$DIMBLK1
  1
OPEN
  9
$DIMBLK2
  1
OPEN
  9
$DIMSTYLE
  2
EMBABA
  9
$DIMCLRD
 70
     0
  9
$DIMCLRE
 70
     0
  9
$DIMCLRT
 70
     7
  9
$DIMTFAC
 40
1.0
  9
$DIMGAP
 40
0.5
  9
$LUNITS
 70
     2
  9
$LUPREC
 70
     0
  9
$SKETCHINC
 40
10.0
  9
$FILLETRAD
 40
400.0
  9
$AUNITS
 70
     0
  9
$AUPREC
 70
     4
  9
$MENU
  1
ACAD
  9
$ELEVATION
 40
0.0
  9
$PELEVATION
 40
0.0
  9
$THICKNESS
 40
0.0
  9
$LIMCHECK
 70
     0
  9
$BLIPMODE
 70
     0
  9
$CHAMFERA
 40
0.0
  9
$CHAMFERB
 40
0.0
  9
$SKPOLY
 70
     0
  9
$TDCREATE
 40
2450205.720229167
  9
$TDUPDATE
 40
2453529.3821372222
  9
$TDINDWG
 40
42.518779895800002
  9
$TDUSRTIMER
 40
42.518779895800002
  9
$USRTIMER
 70
     1
  9
$ANGBASE
 50
0.0
  9
$ANGDIR
 70
     0
  9
$PDMODE
 70
     2
  9
$PDSIZE
 40
-5.0
  9
$PLINEWID
 40
0.0
  9
$COORDS
 70
     0
  9
$SPLFRAME
 70
     0
  9
$SPLINETYPE
 70
     6
  9
$SPLINESEGS
 70
     8
  9
$ATTDIA
 70
     0
  9
$ATTREQ
 70
     1
  9
$HANDLING
 70
     1
  9
$HANDSEED
  5
668E8
  9
$SURFTAB1
 70
    18
  9
$SURFTAB2
 70
    18
  9
$SURFTYPE
 70
     6
  9
$SURFU
 70
    18
  9
$SURFV
 70
    18
  9
$UCSNAME
  2

  9
$UCSORG
 10
0.0
 20
0.0
 30
0.0
  9
$UCSXDIR
 10
1.0
 20
0.0
 30
0.0
  9
$UCSYDIR
 10
0.0
 20
1.0
 30
0.0
  9
$PUCSNAME
  2

  9
$PUCSORG
 10
0.0
 20
0.0
 30
0.0
  9
$PUCSXDIR
 10
1.0
 20
0.0
 30
0.0
  9
$PUCSYDIR
 10
0.0
 20
1.0
 30
0.0
  9
$USERI1
 70
     0
  9
$USERI2
 70
     0
  9
$USERI3
 70
     0
  9
$USERI4
 70
     0
  9
$USERI5
 70
     0
  9
$USERR1
 40
0.0
  9
$USERR2
 40
50.0
  9
$USERR3
 40
0.0
  9
$USERR4
 40
0.0
  9
$USERR5
 40
0.0
  9
$WORLDVIEW
 70
     1
  9
$SHADEDGE
 70
     3
  9
$SHADEDIF
 70
    70
  9
$TILEMODE
 70
     1
  9
$MAXACTVP
 70
    16
  9
$PLIMCHECK
 70
     0
  9
$PEXTMIN
 10
1.049999952316284
 20
0.7999999523162842
 30
0.0
  9
$PEXTMAX
 10
9.4499995708465558
 20
7.1999995708465558
 30
0.0
  9
$PLIMMIN
 10
-0.2500002402958907
 20
-0.2499999962453767
  9
$PLIMMAX
 10
10.74999951940821
 20
8.2499997634587316
  9
$UNITMODE
 70
     0
  9
$VISRETAIN
 70
     0
  9
$PLINEGEN
 70
     0
  9
$PSLTSCALE
 70
     1
  0
ENDSEC
  0
SECTION
  2
TABLES
  0
TABLE
  2
VPORT
 70
     4
  0
VPORT
  2
*ACTIVE
 70
     0
 10
0.0
 20
0.0
 11
1.0
 21
1.0
 12
54291.171897563261
 22
425013.0134319865
 13
0.0
 23
0.0
 14
1.0
 24
1.0
 15
1.0
 25
1.0
 16
0.0
 26
0.0
 36
1.0
 17
0.0
 27
0.0
 37
0.0
 40
11687.134910935551
 41
1.6116303219106951
 42
50.0
 43
0.0
 44
0.0
 50
0.0
 51
0.0
 71
     0
 72
   100
 73
     1
 74
     0
 75
     0
 76
     1
 77
     0
 78
     0
  0
ENDTAB
  0
TABLE
  2
LTYPE
 70
     3
  0
LTYPE
  2
CONTINUOUS
 70
     0
  3
Solid line
 72
    65
 73
     0
 40
0.0
  0
LTYPE
  2
ČERCHOVANÁ
 70
     0
  3
Čerchovaná __ . __ . __ . __ . __ . __ . __ . _
 72
    65
 73
     4
 40
1.0
 49
0.5
 49
-0.25
 49
0.0
 49
-0.25
  0
ENDTAB
  0
TABLE
  2
LAYER
 70
    12
  0
LAYER
  2
0
 70
     0
 62
     7
  6
CONTINUOUS
  0
LAYER
  2
RAZ
 70
     0
 62
     7
  6
CONTINUOUS
  0
LAYER
  2
KOTY
 70
     0
 62
     2
  6
CONTINUOUS
  0
LAYER
  2
DEFPOINTS
 70
     0
 62
     7
  6
CONTINUOUS
  0
LAYER
  2
2-VZT
 70
     0
 62
     4
  6
CONTINUOUS
  0
LAYER
  2
SILNA
 70
     0
 62
     7
  6
CONTINUOUS
  0
LAYER
  2
OBRYS
 70
     0
 62
     7
  6
CONTINUOUS
  0
LAYER
  2
S-OBRYS
 70
     0
 62
     7
  6
CONTINUOUS
  0
ENDTAB
  0
TABLE
  2
STYLE
 70
     7
  0
STYLE
  2
STANDARD
 70
     0
 40
0.0
 41
0.8
 50
0.0
 71
     0
 42
200.0
  3
ROMANS.SHX
  4

  0
STYLE
  2
R
 70
     0
 40
0.0
 41
1.0
 50
0.0
 71
     0
 42
200.0
  3
romans.shx
  4

  0
STYLE
  2
ROMANS
 70
     0
 40
0.0
 41
0.8
 50
0.0
 71
     0
 42
300.0
  3
ROMANS.shx
  4

  0
STYLE
  2
R08
 70
     0
 40
0.0
 41
0.8
 50
0.0
 71
     0
 42
800.0
  3
ROMANS.shx
  4

  0
STYLE
  2
ROMANT
 70
     0
 40
0.0
 41
0.7
 50
0.0
 71
     0
 42
3.0
  3
romant
  4

  0
STYLE
  2
CYRILLIC
 70
     0
 40
2.2999999999999989
 41
0.7
 50
0.0
 71
     0
 42
2.2999999999999989
  3
cyrillic
  4

  0
ENDTAB
  0
TABLE
  2
VIEW
 70
     0
  0
ENDTAB
  0
TABLE
  2
UCS
 70
     0
  0
ENDTAB
  0
TABLE
  2
APPID
 70
     6
  0
APPID
  2
ACAD
 70
     0
  0
APPID
  2
PHOENIX7010
 70
     0
  0
APPID
  2
CONTENTBLOCKICON
 70
     0
  0
APPID
  2
CONTENTLONGBLOCKNAME
 70
     0
  0
APPID
  2
ACAD_DSTYLE_DIMTEXT_FILL
 70
     0
  0
APPID
  2
DCO15
 70
     0
  0
ENDTAB
  0
TABLE
  2
DIMSTYLE
 70
     4
  0
DIMSTYLE
  2
STANDARD
 70
     0
  3

  4

  5

  6
OPEN
  7
OPEN
 40
1.0
 41
80.0
 42
1.0
 43
0.0
 44
1.0
 45
0.0
 46
0.8
 47
0.0
 48
0.0
140
70.0
141
-3.0
142
0.0
143
0.0394
144
1.0
145
1.0
146
0.5
147
1.0
 71
     0
 72
     0
 73
     0
 74
     0
 75
     0
 76
     0
 77
     0
 78
     8
170
     0
171
     2
172
     1
173
     1
174
     0
175
     0
176
     7
177
     7
178
     2
  0
DIMSTYLE
  2
EMBABA
 70
     0
  3

  4

  5

  6
OPEN
  7
OPEN
 40
50.0
 41
2.0
 42
0.063
 43
5.0
 44
0.2
 45
0.0
 46
0.0
 47
0.0
 48
0.0
140
2.5
141
0.2
142
0.0
143
25.399999999999999
144
1.0
145
0.0
146
1.0
147
0.5
 71
     0
 72
     0
 73
     0
 74
     0
 75
     0
 76
     0
 77
     1
 78
    12
170
     0
171
     2
172
     1
173
     1
174
     0
175
     0
176
     0
177
     0
178
     7
  0
ENDTAB
  0
ENDSEC
  0
SECTION
  2
BLOCKS
  0
BLOCK
  8
0
  2
$MODEL_SPACE
 70
     0
 10
0.0
 20
0.0
 30
0.0
  3
$MODEL_SPACE
  1

  0
ENDBLK
  5
9
  8
0
  0
BLOCK
 67
     1
  8
0
  2
$PAPER_SPACE
 70
     0
 10
0.0
 20
0.0
 30
0.0
  3
$PAPER_SPACE
  1

  0
ENDBLK
  5
E
 67
     1
  8
0
  0
BLOCK
  8
0
  2
_OPEN
 70
     0
 10
0.0
 20
0.0
 30
0.0
  3
_OPEN
  1

  0
LINE
  5
28
  8
0
  6
BYBLOCK
 62
     0
 10
-1.0
 20
0.1666666666666666
 30
0.0
 11
0.0
 21
0.0
 31
0.0
  0
LINE
  5
29
  8
0
  6
BYBLOCK
 62
     0
 10
0.0
 20
0.0
 30
0.0
 11
-1.0
 21
-0.1666666666666666
 31
0.0
  0
LINE
  5
2A
  8
0
  6
BYBLOCK
 62
     0
 10
0.0
 20
0.0
 30
0.0
 11
-1.0
 21
0.0
 31
0.0
  0
ENDBLK
  5
2C
  8
0
  0
BLOCK
  8
0
  2
A$C5B1234F8
 70
     0
 10
0.0
 20
0.0
 30
0.0
  3
A$C5B1234F8
  1

  0
POLYLINE
  5
5A113
  8
SILNA
  6
CONTINUOUS
 66
     1
 10
0.0
 20
0.0
 30
0.0
  0
VERTEX
  5
65E0B
  8
SILNA
  6
CONTINUOUS
 10
899.99999542257865
 20
900.0
 30
0.0
  0
VERTEX
  5
65E0C
  8
SILNA
  6
CONTINUOUS
 10
527.20778928679283
 20
900.0
 30
0.0
  0
VERTEX
  5
65E0D
  8
SILNA
  6
CONTINUOUS
 10
-0.0000045774213504
 20
372.79220613581128
 30
0.0
  0
VERTEX
  5
65E0E
  8
SILNA
  6
CONTINUOUS
 10
-0.0000045774213504
 20
0.0
 30
0.0
  0
SEQEND
  5
65E0F
  8
SILNA
  6
CONTINUOUS
  0
LINE
  5
5A114
  8
SILNA
  6
CONTINUOUS
 10
-0.0000045774213504
 20
0.0
 30
0.0
 11
159.99999542257859
 21
0.0
 31
0.0
  0
ARC
  5
5A115
  8
SILNA
  6
CONTINUOUS
 10
899.99999542257865
 20
0.0
 30
0.0
 40
740.0
 50
90.0
 51
180.0
  0
LINE
  5
5A116
  8
SILNA
  6
CONTINUOUS
 10
899.99999542257865
 20
900.0
 30
0.0
 11
899.99999542257865
 21
740.0
 31
0.0
  0
ENDBLK
  5
5A11A
  8
0
  0
BLOCK
  8
0
  2
*D14
 70
     1
 10
0.0
 20
0.0
 30
0.0
  3
*D14
  1

  0
LINE
  5
65A32
  8
S-OBRYS
  6
CONTINUOUS
 62
     0
 10
50543.491689922957
 20
426871.73436578113
 30
0.0
 11
50198.949561278328
 21
426871.73436578113
 31
0.0
  0
LINE
  5
65A33
  8
S-OBRYS
  6
CONTINUOUS
 62
     0
 10
50576.4621383915
 20
426001.10119791632
 30
0.0
 11
50198.949561278328
 21
426001.10119791632
 31
0.0
  0
LINE
  5
65A34
  8
S-OBRYS
  6
CONTINUOUS
 62
     0
 10
50208.949561278328
 20
426821.73436578113
 30
0.0
 11
50208.949561278328
 21
426051.10119791632
 31
0.0
  0
INSERT
  5
65A35
  8
S-OBRYS
  6
CONTINUOUS
 62
     0
  2
_OPEN
 10
50208.949561278328
 20
426871.73436578113
 30
0.0
 41
50.0
 42
50.0
 43
50.0
 50
90.0
  0
INSERT
  5
65A36
  8
S-OBRYS
  6
CONTINUOUS
 62
     0
  2
_OPEN
 10
50208.949561278328
 20
426001.10119791632
 30
0.0
 41
50.0
 42
50.0
 43
50.0
 50
270.0
  0
INSERT
  5
65A37
  8
S-OBRYS
  6
CONTINUOUS
  2
*U53
 10
0.0
 20
0.0
 30
0.0
  0
POINT
  5
65A38
  8
DEFPOINTS
  6
CONTINUOUS
 62
     0
 10
50546.641689922959
 20
426871.73436578113
 30
0.0
  0
POINT
  5
65A39
  8
DEFPOINTS
  6
CONTINUOUS
 62
     0
 10
50579.612138391502
 20
426001.10119791632
 30
0.0
  0
POINT
  5
65A3A
  8
DEFPOINTS
  6
CONTINUOUS
 62
     0
 10
50208.949561278328
 20
426001.10119791632
 30
0.0
  0
ENDBLK
  5
6583A
  8
0
  0
BLOCK
  8
0
  2
*D15
 70
     1
 10
0.0
 20
0.0
 30
0.0
  3
*D15
  1

  0
LINE
  5
65A28
  8
S-OBRYS
  6
CONTINUOUS
 62
     0
 10
50581.67344080803
 20
426460.34753941651
 30
0.0
 11
50274.089897394711
 21
426460.34753941651
 31
0.0
  0
LINE
  5
65A29
  8
S-OBRYS
  6
CONTINUOUS
 62
     0
 10
50579.612138391502
 20
426001.10119791632
 30
0.0
 11
50274.089897394711
 21
426001.10119791632
 31
0.0
  0
LINE
  5
65A2A
  8
S-OBRYS
  6
CONTINUOUS
 62
     0
 10
50284.089897394711
 20
426410.34753941651
 30
0.0
 11
50284.089897394711
 21
426051.10119791632
 31
0.0
  0
LINE
  5
65A2B
  8
S-OBRYS
  6
CONTINUOUS
 62
     0
 10
50284.089897394711
 20
426001.10119791632
 30
0.0
 11
50284.089897394711
 21
425671.10119791632
 31
0.0
  0
INSERT
  5
65A2C
  8
S-OBRYS
  6
CONTINUOUS
 62
     0
  2
_OPEN
 10
50284.089897394711
 20
426460.34753941651
 30
0.0
 41
50.0
 42
50.0
 43
50.0
 50
90.0
  0
INSERT
  5
65A2D
  8
S-OBRYS
  6
CONTINUOUS
 62
     0
  2
_OPEN
 10
50284.089897394711
 20
426001.10119791632
 30
0.0
 41
50.0
 42
50.0
 43
50.0
 50
270.0
  0
INSERT
  5
65A2E
  8
S-OBRYS
  6
CONTINUOUS
  2
*U52
 10
0.0
 20
0.0
 30
0.0
  0
POINT
  5
65A2F
  8
DEFPOINTS
  6
CONTINUOUS
 62
     0
 10
50584.823440808039
 20
426460.34753941651
 30
0.0
  0
POINT
  5
65A30
  8
DEFPOINTS
  6
CONTINUOUS
 62
     0
 10
50582.762138391503
 20
426001.10119791632
 30
0.0
  0
POINT
  5
65A31
  8
DEFPOINTS
  6
CONTINUOUS
 62
     0
 10
50284.089897394711
 20
426001.10119791632
 30
0.0
  0
ENDBLK
  5
65847
  8
0
  0
BLOCK
  8
0
  2
*D16
 70
     1
 10
0.0
 20
0.0
 30
0.0
  3
*D16
  1

  0
LINE
  5
65A1F
  8
S-OBRYS
  6
CONTINUOUS
 62
     0
 10
50819.767898012658
 20
426681.29622529593
 30
0.0
 11
51588.699835650848
 21
426681.29622529593
 31
0.0
  0
LINE
  5
65A20
  8
S-OBRYS
  6
CONTINUOUS
 62
     0
 10
51195.912138391497
 20
426001.10119791632
 30
0.0
 11
51588.699835650848
 21
426001.10119791632
 31
0.0
  0
LINE
  5
65A21
  8
S-OBRYS
  6
CONTINUOUS
 62
     0
 10
51578.699835650863
 20
426631.29622529598
 30
0.0
 11
51578.699835650863
 21
426051.10119791632
 31
0.0
  0
INSERT
  5
65A22
  8
S-OBRYS
  6
CONTINUOUS
 62
     0
  2
_OPEN
 10
51578.699835650863
 20
426681.29622529593
 30
0.0
 41
50.0
 42
50.0
 43
50.0
 50
90.0
  0
INSERT
  5
65A23
  8
S-OBRYS
  6
CONTINUOUS
 62
     0
  2
_OPEN
 10
51578.699835650863
 20
426001.10119791632
 30
0.0
 41
50.0
 42
50.0
 43
50.0
 50
270.0
  0
INSERT
  5
65A24
  8
S-OBRYS
  6
CONTINUOUS
  2
*U51
 10
0.0
 20
0.0
 30
0.0
  0
POINT
  5
65A25
  8
DEFPOINTS
  6
CONTINUOUS
 62
     0
 10
50816.61789801265
 20
426681.29622529593
 30
0.0
  0
POINT
  5
65A26
  8
DEFPOINTS
  6
CONTINUOUS
 62
     0
 10
51192.762138391503
 20
426001.10119791632
 30
0.0
  0
POINT
  5
65A27
  8
DEFPOINTS
  6
CONTINUOUS
 62
     0
 10
51578.699835650863
 20
426001.10119791632
 30
0.0
  0
ENDBLK
  5
65853
  8
0
  0
BLOCK
  8
0
  2
*D17
 70
     1
 10
0.0
 20
0.0
 30
0.0
  3
*D17
  1

  0
LINE
  5
65A16
  8
S-OBRYS
  6
CONTINUOUS
 62
     0
 10
50712.785754831799
 20
426271.1011979162
 30
0.0
 11
51384.526985490927
 21
426271.1011979162
 31
0.0
  0
LINE
  5
65A17
  8
S-OBRYS
  6
CONTINUOUS
 62
     0
 10
51195.912138391497
 20
426001.10119791632
 30
0.0
 11
51384.526985490927
 21
426001.10119791632
 31
0.0
  0
LINE
  5
65A18
  8
S-OBRYS
  6
CONTINUOUS
 62
     0
 10
51374.52698549092
 20
426221.10119791637
 30
0.0
 11
51374.52698549092
 21
426051.10119791632
 31
0.0
  0
INSERT
  5
65A19
  8
S-OBRYS
  6
CONTINUOUS
 62
     0
  2
_OPEN
 10
51374.52698549092
 20
426271.1011979162
 30
0.0
 41
50.0
 42
50.0
 43
50.0
 50
90.0
  0
INSERT
  5
65A1A
  8
S-OBRYS
  6
CONTINUOUS
 62
     0
  2
_OPEN
 10
51374.52698549092
 20
426001.10119791632
 30
0.0
 41
50.0
 42
50.0
 43
50.0
 50
270.0
  0
INSERT
  5
65A1B
  8
S-OBRYS
  6
CONTINUOUS
  2
*U50
 10
0.0
 20
0.0
 30
0.0
  0
POINT
  5
65A1C
  8
DEFPOINTS
  6
CONTINUOUS
 62
     0
 10
50709.635754831797
 20
426271.1011979162
 30
0.0
  0
POINT
  5
65A1D
  8
DEFPOINTS
  6
CONTINUOUS
 62
     0
 10
51192.762138391503
 20
426001.10119791632
 30
0.0
  0
POINT
  5
65A1E
  8
DEFPOINTS
  6
CONTINUOUS
 62
     0
 10
51374.52698549092
 20
426001.10119791632
 30
0.0
  0
ENDBLK
  5
65860
  8
0
  0
BLOCK
  8
0
  2
*D18
 70
     1
 10
0.0
 20
0.0
 30
0.0
  3
*D18
  1

  0
LINE
  5
65A0D
  8
S-OBRYS
  6
CONTINUOUS
 62
     0
 10
53168.785832107307
 20
426093.60490488377
 30
0.0
 11
53168.785832107307
 21
425772.85752554738
 31
0.0
  0
LINE
  5
65A0E
  8
S-OBRYS
  6
CONTINUOUS
 62
     0
 10
52456.52926897697
 20
426082.39109075058
 30
0.0
 11
52456.52926897697
 21
425772.85752554738
 31
0.0
  0
LINE
  5
65A0F
  8
S-OBRYS
  6
CONTINUOUS
 62
     0
 10
53118.785832107307
 20
425782.85752554738
 30
0.0
 11
52506.52926897697
 21
425782.85752554738
 31
0.0
  0
INSERT
  5
65A10
  8
S-OBRYS
  6
CONTINUOUS
 62
     0
  2
_OPEN
 10
53168.785832107307
 20
425782.85752554738
 30
0.0
 41
50.0
 42
50.0
 43
50.0
  0
INSERT
  5
65A11
  8
S-OBRYS
  6
CONTINUOUS
 62
     0
  2
_OPEN
 10
52456.52926897697
 20
425782.85752554738
 30
0.0
 41
50.0
 42
50.0
 43
50.0
 50
180.0
  0
INSERT
  5
65A12
  8
S-OBRYS
  6
CONTINUOUS
  2
*U49
 10
0.0
 20
0.0
 30
0.0
  0
POINT
  5
65A13
  8
DEFPOINTS
  6
CONTINUOUS
 62
     0
 10
53168.785832107307
 20
426096.7549048838
 30
0.0
  0
POINT
  5
65A14
  8
DEFPOINTS
  6
CONTINUOUS
 62
     0
 10
52456.52926897697
 20
426085.5410907506
 30
0.0
  0
POINT
  5
65A15
  8
DEFPOINTS
  6
CONTINUOUS
 62
     0
 10
52456.52926897697
 20
425782.85752554738
 30
0.0
  0
ENDBLK
  5
6586C
  8
0
  0
BLOCK
  8
0
  2
*D19
 70
     1
 10
0.0
 20
0.0
 30
0.0
  3
*D19
  1

  0
LINE
  5
65A02
  8
S-OBRYS
  6
CONTINUOUS
 62
     0
 10
53014.346863938466
 20
426001.10119791632
 30
0.0
 11
53530.801383235957
 21
426001.10119791632
 31
0.0
  0
LINE
  5
65A03
  8
S-OBRYS
  6
CONTINUOUS
 62
     0
 10
53171.935832107301
 20
426109.7621975356
 30
0.0
 11
53530.801383235957
 21
426109.7621975356
 31
0.0
  0
LINE
  5
65A04
  8
S-OBRYS
  6
CONTINUOUS
 62
     0
 10
53520.801383235957
 20
425951.10119791632
 30
0.0
 11
53520.801383235957
 21
425901.10119791632
 31
0.0
  0
LINE
  5
65A05
  8
S-OBRYS
  6
CONTINUOUS
 62
     0
 10
53520.801383235957
 20
426159.76219753572
 30
0.0
 11
53520.801383235957
 21
426356.90505467838
 31
0.0
  0
LINE
  5
65A06
  8
S-OBRYS
  6
CONTINUOUS
 62
     0
 10
53520.801383235957
 20
426001.10119791632
 30
0.0
 11
53520.801383235957
 21
426109.7621975356
 31
0.0
  0
INSERT
  5
65A07
  8
S-OBRYS
  6
CONTINUOUS
 62
     0
  2
_OPEN
 10
53520.801383235957
 20
426001.10119791632
 30
0.0
 41
50.0
 42
50.0
 43
50.0
 50
90.0
  0
INSERT
  5
65A08
  8
S-OBRYS
  6
CONTINUOUS
 62
     0
  2
_OPEN
 10
53520.801383235957
 20
426109.7621975356
 30
0.0
 41
50.0
 42
50.0
 43
50.0
 50
270.0
  0
INSERT
  5
65A09
  8
S-OBRYS
  6
CONTINUOUS
  2
*U48
 10
0.0
 20
0.0
 30
0.0
  0
POINT
  5
65A0A
  8
DEFPOINTS
  6
CONTINUOUS
 62
     0
 10
53011.196863938458
 20
426001.10119791632
 30
0.0
  0
POINT
  5
65A0B
  8
DEFPOINTS
  6
CONTINUOUS
 62
     0
 10
53168.785832107307
 20
426109.7621975356
 30
0.0
  0
POINT
  5
65A0C
  8
DEFPOINTS
  6
CONTINUOUS
 62
     0
 10
53520.801383235957
 20
426109.7621975356
 30
0.0
  0
ENDBLK
  5
6587A
  8
0
  0
BLOCK
  8
0
  2
*D20
 70
     1
 10
0.0
 20
0.0
 30
0.0
  3
*D20
  1

  0
LINE
  5
659F7
  8
S-OBRYS
  6
CONTINUOUS
 62
     0
 10
53171.935832107301
 20
426096.7549048838
 30
0.0
 11
53321.758593001403
 21
426096.7549048838
 31
0.0
  0
LINE
  5
659F8
  8
S-OBRYS
  6
CONTINUOUS
 62
     0
 10
53171.935832107301
 20
426122.76949018741
 30
0.0
 11
53321.758593001403
 21
426122.76949018741
 31
0.0
  0
LINE
  5
659F9
  8
S-OBRYS
  6
CONTINUOUS
 62
     0
 10
53311.758593001403
 20
426046.75490488391
 30
0.0
 11
53311.758593001403
 21
425996.7549048838
 31
0.0
  0
LINE
  5
659FA
  8
S-OBRYS
  6
CONTINUOUS
 62
     0
 10
53311.758593001403
 20
426172.76949018741
 30
0.0
 11
53311.758593001403
 21
426337.5313949493
 31
0.0
  0
LINE
  5
659FB
  8
S-OBRYS
  6
CONTINUOUS
 62
     0
 10
53311.758593001403
 20
426096.7549048838
 30
0.0
 11
53311.758593001403
 21
426122.76949018741
 31
0.0
  0
INSERT
  5
659FC
  8
S-OBRYS
  6
CONTINUOUS
 62
     0
  2
_OPEN
 10
53311.758593001403
 20
426096.7549048838
 30
0.0
 41
50.0
 42
50.0
 43
50.0
 50
90.0
  0
INSERT
  5
659FD
  8
S-OBRYS
  6
CONTINUOUS
 62
     0
  2
_OPEN
 10
53311.758593001403
 20
426122.76949018741
 30
0.0
 41
50.0
 42
50.0
 43
50.0
 50
270.0
  0
INSERT
  5
659FE
  8
S-OBRYS
  6
CONTINUOUS
  2
*U47
 10
0.0
 20
0.0
 30
0.0
  0
POINT
  5
659FF
  8
DEFPOINTS
  6
CONTINUOUS
 62
     0
 10
53168.785832107307
 20
426096.7549048838
 30
0.0
  0
POINT
  5
65A00
  8
DEFPOINTS
  6
CONTINUOUS
 62
     0
 10
53168.785832107307
 20
426122.76949018741
 30
0.0
  0
POINT
  5
65A01
  8
DEFPOINTS
  6
CONTINUOUS
 62
     0
 10
53311.758593001403
 20
426122.76949018741
 30
0.0
  0
ENDBLK
  5
65888
  8
0
  0
BLOCK
  8
0
  2
*D21
 70
     1
 10
0.0
 20
0.0
 30
0.0
  3
*D21
  1

  0
LINE
  5
65A44
  8
S-OBRYS
  6
CONTINUOUS
 62
     0
 10
50579.612138391502
 20
426001.10119791632
 30
0.0
 11
50496.505926443562
 21
426001.10119791632
 31
0.0
  0
LINE
  5
65A45
  8
S-OBRYS
  6
CONTINUOUS
 62
     0
 10
50579.612138391502
 20
426051.10119791632
 30
0.0
 11
50496.505926443562
 21
426051.10119791632
 31
0.0
  0
LINE
  5
65A46
  8
S-OBRYS
  6
CONTINUOUS
 62
     0
 10
50506.505926443562
 20
426101.10119791632
 30
0.0
 11
50506.505926443562
 21
426151.10119791632
 31
0.0
  0
LINE
  5
65A47
  8
S-OBRYS
  6
CONTINUOUS
 62
     0
 10
50506.505926443562
 20
425951.10119791632
 30
0.0
 11
50506.505926443562
 21
425621.57738839253
 31
0.0
  0
LINE
  5
65A48
  8
S-OBRYS
  6
CONTINUOUS
 62
     0
 10
50506.505926443562
 20
426051.10119791632
 30
0.0
 11
50506.505926443562
 21
426001.10119791632
 31
0.0
  0
INSERT
  5
65A49
  8
S-OBRYS
  6
CONTINUOUS
 62
     0
  2
_OPEN
 10
50506.505926443562
 20
426051.10119791632
 30
0.0
 41
50.0
 42
50.0
 43
50.0
 50
270.0
  0
INSERT
  5
65A4A
  8
S-OBRYS
  6
CONTINUOUS
 62
     0
  2
_OPEN
 10
50506.505926443562
 20
426001.10119791632
 30
0.0
 41
50.0
 42
50.0
 43
50.0
 50
90.0
  0
INSERT
  5
65A4B
  8
S-OBRYS
  6
CONTINUOUS
  2
*U55
 10
0.0
 20
0.0
 30
0.0
  0
POINT
  5
65A4C
  8
DEFPOINTS
  6
CONTINUOUS
 62
     0
 10
50582.762138391503
 20
426001.10119791632
 30
0.0
  0
POINT
  5
65A4D
  8
DEFPOINTS
  6
CONTINUOUS
 62
     0
 10
50582.762138391503
 20
426051.10119791632
 30
0.0
  0
POINT
  5
65A4E
  8
DEFPOINTS
  6
CONTINUOUS
 62
     0
 10
50506.505926443562
 20
426051.10119791632
 30
0.0
  0
ENDBLK
  5
658BC
  8
0
  0
BLOCK
  8
0
  2
*D22
 70
     1
 10
0.0
 20
0.0
 30
0.0
  3
*D22
  1

  0
LINE
  5
65A3B
  8
S-OBRYS
  6
CONTINUOUS
 62
     0
 10
50582.762138391503
 20
425997.95119791629
 30
0.0
 11
50582.762138391503
 21
425755.14645380049
 31
0.0
  0
LINE
  5
65A3C
  8
S-OBRYS
  6
CONTINUOUS
 62
     0
 10
51192.762138391503
 20
425997.95119791629
 30
0.0
 11
51192.762138391503
 21
425755.14645380049
 31
0.0
  0
LINE
  5
65A3D
  8
S-OBRYS
  6
CONTINUOUS
 62
     0
 10
50632.762138391503
 20
425765.14645380049
 30
0.0
 11
51142.762138391503
 21
425765.14645380049
 31
0.0
  0
INSERT
  5
65A3E
  8
S-OBRYS
  6
CONTINUOUS
 62
     0
  2
_OPEN
 10
50582.762138391503
 20
425765.14645380049
 30
0.0
 41
50.0
 42
50.0
 43
50.0
 50
180.0
  0
INSERT
  5
65A3F
  8
S-OBRYS
  6
CONTINUOUS
 62
     0
  2
_OPEN
 10
51192.762138391503
 20
425765.14645380049
 30
0.0
 41
50.0
 42
50.0
 43
50.0
  0
INSERT
  5
65A40
  8
S-OBRYS
  6
CONTINUOUS
  2
*U54
 10
0.0
 20
0.0
 30
0.0
  0
POINT
  5
65A41
  8
DEFPOINTS
  6
CONTINUOUS
 62
     0
 10
50582.762138391503
 20
426001.10119791632
 30
0.0
  0
POINT
  5
65A42
  8
DEFPOINTS
  6
CONTINUOUS
 62
     0
 10
51192.762138391503
 20
426001.10119791632
 30
0.0
  0
POINT
  5
65A43
  8
DEFPOINTS
  6
CONTINUOUS
 62
     0
 10
51192.762138391503
 20
425765.14645380049
 30
0.0
  0
ENDBLK
  5
658C8
  8
0
  0
BLOCK
  8
0
  2
*D27
 70
     1
 10
0.0
 20
0.0
 30
0.0
  3
*D27
  1

  0
LINE
  5
65C64
  8
S-OBRYS
  6
CONTINUOUS
 62
     0
 10
52699.773294864543
 20
424420.76497895789
 30
0.0
 11
53440.385664583009
 21
424420.76497895789
 31
0.0
  0
LINE
  5
65C65
  8
S-OBRYS
  6
CONTINUOUS
 62
     0
 10
52699.773294864543
 20
423774.63859539828
 30
0.0
 11
53440.385664583009
 21
423774.63859539828
 31
0.0
  0
LINE
  5
65C66
  8
S-OBRYS
  6
CONTINUOUS
 62
     0
 10
53430.385664583009
 20
424370.764978958
 30
0.0
 11
53430.385664583009
 21
423824.63859539828
 31
0.0
  0
INSERT
  5
65C67
  8
S-OBRYS
  6
CONTINUOUS
 62
     0
  2
_OPEN
 10
53430.385664583009
 20
424420.76497895789
 30
0.0
 41
50.0
 42
50.0
 43
50.0
 50
90.0
  0
INSERT
  5
65C68
  8
S-OBRYS
  6
CONTINUOUS
 62
     0
  2
_OPEN
 10
53430.385664583009
 20
423774.63859539828
 30
0.0
 41
50.0
 42
50.0
 43
50.0
 50
270.0
  0
INSERT
  5
65C69
  8
S-OBRYS
  6
CONTINUOUS
  2
*U62
 10
0.0
 20
0.0
 30
0.0
  0
POINT
  5
65C6A
  8
DEFPOINTS
  6
CONTINUOUS
 62
     0
 10
52696.623294864548
 20
424420.76497895789
 30
0.0
  0
POINT
  5
65C6B
  8
DEFPOINTS
  6
CONTINUOUS
 62
     0
 10
52696.623294864548
 20
423774.63859539828
 30
0.0
  0
POINT
  5
65C6C
  8
DEFPOINTS
  6
CONTINUOUS
 62
     0
 10
53430.385664583009
 20
423774.63859539828
 30
0.0
  0
ENDBLK
  5
65C1B
  8
0
  0
BLOCK
  8
0
  2
*D28
 70
     1
 10
0.0
 20
0.0
 30
0.0
  3
*D28
  1

  0
LINE
  5
65C6D
  8
S-OBRYS
  6
CONTINUOUS
 62
     0
 10
52535.637715325131
 20
424257.764978958
 30
0.0
 11
52394.962310108363
 21
424257.764978958
 31
0.0
  0
LINE
  5
65C6E
  8
S-OBRYS
  6
CONTINUOUS
 62
     0
 10
52693.47329486454
 20
424420.76497895789
 30
0.0
 11
52394.962310108363
 21
424420.76497895789
 31
0.0
  0
LINE
  5
65C6F
  8
S-OBRYS
  6
CONTINUOUS
 62
     0
 10
52404.962310108349
 20
424307.76497895789
 30
0.0
 11
52404.962310108349
 21
424370.764978958
 31
0.0
  0
INSERT
  5
65C70
  8
S-OBRYS
  6
CONTINUOUS
 62
     0
  2
_OPEN
 10
52404.962310108349
 20
424257.764978958
 30
0.0
 41
50.0
 42
50.0
 43
50.0
 50
270.0
  0
INSERT
  5
65C71
  8
S-OBRYS
  6
CONTINUOUS
 62
     0
  2
_OPEN
 10
52404.962310108349
 20
424420.76497895789
 30
0.0
 41
50.0
 42
50.0
 43
50.0
 50
90.0
  0
INSERT
  5
65C72
  8
S-OBRYS
  6
CONTINUOUS
  2
*U63
 10
0.0
 20
0.0
 30
0.0
  0
POINT
  5
65C73
  8
DEFPOINTS
  6
CONTINUOUS
 62
     0
 10
52538.787715325132
 20
424257.764978958
 30
0.0
  0
POINT
  5
65C74
  8
DEFPOINTS
  6
CONTINUOUS
 62
     0
 10
52696.623294864548
 20
424420.76497895789
 30
0.0
  0
POINT
  5
65C75
  8
DEFPOINTS
  6
CONTINUOUS
 62
     0
 10
52404.962310108349
 20
424420.76497895789
 30
0.0
  0
ENDBLK
  5
65C27
  8
0
  0
BLOCK
  8
0
  2
*D29
 70
     1
 10
0.0
 20
0.0
 30
0.0
  3
*D29
  1

  0
LINE
  5
65C76
  8
S-OBRYS
  6
CONTINUOUS
 62
     0
 10
53235.669033213802
 20
424260.91497895791
 30
0.0
 11
53235.669033213802
 21
424640.11223270389
 31
0.0
  0
LINE
  5
65C77
  8
S-OBRYS
  6
CONTINUOUS
 62
     0
 10
52849.623294864548
 20
424423.91497895803
 30
0.0
 11
52849.623294864548
 21
424640.11223270389
 31
0.0
  0
LINE
  5
65C78
  8
S-OBRYS
  6
CONTINUOUS
 62
     0
 10
53185.669033213802
 20
424630.11223270389
 30
0.0
 11
52899.623294864548
 21
424630.11223270389
 31
0.0
  0
INSERT
  5
65C79
  8
S-OBRYS
  6
CONTINUOUS
 62
     0
  2
_OPEN
 10
53235.669033213802
 20
424630.11223270389
 30
0.0
 41
50.0
 42
50.0
 43
50.0
  0
INSERT
  5
65C7A
  8
S-OBRYS
  6
CONTINUOUS
 62
     0
  2
_OPEN
 10
52849.623294864548
 20
424630.11223270389
 30
0.0
 41
50.0
 42
50.0
 43
50.0
 50
180.0
  0
INSERT
  5
65C7B
  8
S-OBRYS
  6
CONTINUOUS
  2
*U64
 10
0.0
 20
0.0
 30
0.0
  0
POINT
  5
65C7C
  8
DEFPOINTS
  6
CONTINUOUS
 62
     0
 10
53235.669033213802
 20
424257.764978958
 30
0.0
  0
POINT
  5
65C7D
  8
DEFPOINTS
  6
CONTINUOUS
 62
     0
 10
52849.623294864548
 20
424420.76497895789
 30
0.0
  0
POINT
  5
65C7E
  8
DEFPOINTS
  6
CONTINUOUS
 62
     0
 10
52849.623294864548
 20
424630.11223270389
 30
0.0
  0
ENDBLK
  5
65C33
  8
0
  0
BLOCK
  8
0
  2
*D30
 70
     1
 10
0.0
 20
0.0
 30
0.0
  3
*D30
  1

  0
LINE
  5
65C7F
  8
S-OBRYS
  6
CONTINUOUS
 62
     0
 10
52553.493508041727
 20
424064.41524074791
 30
0.0
 11
52553.493508041727
 21
423971.3409642647
 31
0.0
  0
LINE
  5
65C80
  8
S-OBRYS
  6
CONTINUOUS
 62
     0
 10
51875.275207158178
 20
424064.41524074791
 30
0.0
 11
51875.275207158178
 21
423971.3409642647
 31
0.0
  0
LINE
  5
65C81
  8
S-OBRYS
  6
CONTINUOUS
 62
     0
 10
52503.493508041727
 20
423981.3409642647
 30
0.0
 11
51925.275207158178
 21
423981.3409642647
 31
0.0
  0
INSERT
  5
65C82
  8
S-OBRYS
  6
CONTINUOUS
 62
     0
  2
_OPEN
 10
52553.493508041727
 20
423981.3409642647
 30
0.0
 41
50.0
 42
50.0
 43
50.0
  0
INSERT
  5
65C83
  8
S-OBRYS
  6
CONTINUOUS
 62
     0
  2
_OPEN
 10
51875.275207158178
 20
423981.3409642647
 30
0.0
 41
50.0
 42
50.0
 43
50.0
 50
180.0
  0
INSERT
  5
65C84
  8
S-OBRYS
  6
CONTINUOUS
  2
*U65
 10
0.0
 20
0.0
 30
0.0
  0
POINT
  5
65C85
  8
DEFPOINTS
  6
CONTINUOUS
 62
     0
 10
52553.493508041727
 20
424067.56524074782
 30
0.0
  0
POINT
  5
65C86
  8
DEFPOINTS
  6
CONTINUOUS
 62
     0
 10
51875.275207158178
 20
424067.56524074782
 30
0.0
  0
POINT
  5
65C87
  8
DEFPOINTS
  6
CONTINUOUS
 62
     0
 10
51875.275207158178
 20
423981.3409642647
 30
0.0
  0
ENDBLK
  5
65C3F
  8
0
  0
BLOCK
  8
0
  2
*D31
 70
     1
 10
0.0
 20
0.0
 30
0.0
  3
*D31
  1

  0
LINE
  5
65C88
  8
S-OBRYS
  6
CONTINUOUS
 62
     0
 10
50684.11511307452
 20
424420.76497895789
 30
0.0
 11
51424.72748279298
 21
424420.76497895789
 31
0.0
  0
LINE
  5
65C89
  8
S-OBRYS
  6
CONTINUOUS
 62
     0
 10
50684.11511307452
 20
423774.63859539828
 30
0.0
 11
51424.72748279298
 21
423774.63859539828
 31
0.0
  0
LINE
  5
65C8A
  8
S-OBRYS
  6
CONTINUOUS
 62
     0
 10
51414.727482792987
 20
424370.764978958
 30
0.0
 11
51414.727482792987
 21
423824.63859539828
 31
0.0
  0
INSERT
  5
65C8B
  8
S-OBRYS
  6
CONTINUOUS
 62
     0
  2
_OPEN
 10
51414.727482792987
 20
424420.76497895789
 30
0.0
 41
50.0
 42
50.0
 43
50.0
 50
90.0
  0
INSERT
  5
65C8C
  8
S-OBRYS
  6
CONTINUOUS
 62
     0
  2
_OPEN
 10
51414.727482792987
 20
423774.63859539828
 30
0.0
 41
50.0
 42
50.0
 43
50.0
 50
270.0
  0
INSERT
  5
65C8D
  8
S-OBRYS
  6
CONTINUOUS
  2
*U66
 10
0.0
 20
0.0
 30
0.0
  0
POINT
  5
65C8E
  8
DEFPOINTS
  6
CONTINUOUS
 62
     0
 10
50680.965113074519
 20
424420.76497895789
 30
0.0
  0
POINT
  5
65C8F
  8
DEFPOINTS
  6
CONTINUOUS
 62
     0
 10
50680.965113074519
 20
423774.63859539828
 30
0.0
  0
POINT
  5
65C90
  8
DEFPOINTS
  6
CONTINUOUS
 62
     0
 10
51414.727482792987
 20
423774.63859539828
 30
0.0
  0
ENDBLK
  5
65C4B
  8
0
  0
BLOCK
  8
0
  2
*D32
 70
     1
 10
0.0
 20
0.0
 30
0.0
  3
*D32
  1

  0
LINE
  5
65CC0
  8
S-OBRYS
  6
CONTINUOUS
 62
     0
 10
50519.979533535086
 20
424257.764978958
 30
0.0
 11
50379.304128318319
 21
424257.764978958
 31
0.0
  0
LINE
  5
65CC1
  8
S-OBRYS
  6
CONTINUOUS
 62
     0
 10
50677.81511307451
 20
424420.76497895789
 30
0.0
 11
50379.304128318319
 21
424420.76497895789
 31
0.0
  0
LINE
  5
65CC2
  8
S-OBRYS
  6
CONTINUOUS
 62
     0
 10
50389.304128318327
 20
424307.76497895789
 30
0.0
 11
50389.304128318327
 21
424370.764978958
 31
0.0
  0
INSERT
  5
65CC3
  8
S-OBRYS
  6
CONTINUOUS
 62
     0
  2
_OPEN
 10
50389.304128318327
 20
424257.764978958
 30
0.0
 41
50.0
 42
50.0
 43
50.0
 50
270.0
  0
INSERT
  5
65CC4
  8
S-OBRYS
  6
CONTINUOUS
 62
     0
  2
_OPEN
 10
50389.304128318327
 20
424420.76497895789
 30
0.0
 41
50.0
 42
50.0
 43
50.0
 50
90.0
  0
INSERT
  5
65CC5
  8
S-OBRYS
  6
CONTINUOUS
  2
*U69
 10
0.0
 20
0.0
 30
0.0
  0
POINT
  5
65CC6
  8
DEFPOINTS
  6
CONTINUOUS
 62
     0
 10
50523.129533535102
 20
424257.764978958
 30
0.0
  0
POINT
  5
65CC7
  8
DEFPOINTS
  6
CONTINUOUS
 62
     0
 10
50680.965113074519
 20
424420.76497895789
 30
0.0
  0
POINT
  5
65CC8
  8
DEFPOINTS
  6
CONTINUOUS
 62
     0
 10
50389.304128318327
 20
424420.76497895789
 30
0.0
  0
ENDBLK
  5
65C57
  8
0
  0
BLOCK
  8
0
  2
*D33
 70
     1
 10
0.0
 20
0.0
 30
0.0
  3
*D33
  1

  0
LINE
  5
65C9A
  8
S-OBRYS
  6
CONTINUOUS
 62
     0
 10
51220.01085142378
 20
424260.91497895791
 30
0.0
 11
51220.01085142378
 21
424640.11223270389
 31
0.0
  0
LINE
  5
65C9B
  8
S-OBRYS
  6
CONTINUOUS
 62
     0
 10
50833.965113074511
 20
424423.91497895803
 30
0.0
 11
50833.965113074511
 21
424640.11223270389
 31
0.0
  0
LINE
  5
65C9C
  8
S-OBRYS
  6
CONTINUOUS
 62
     0
 10
51170.01085142378
 20
424630.11223270389
 30
0.0
 11
50883.965113074511
 21
424630.11223270389
 31
0.0
  0
INSERT
  5
65C9D
  8
S-OBRYS
  6
CONTINUOUS
 62
     0
  2
_OPEN
 10
51220.01085142378
 20
424630.11223270389
 30
0.0
 41
50.0
 42
50.0
 43
50.0
  0
INSERT
  5
65C9E
  8
S-OBRYS
  6
CONTINUOUS
 62
     0
  2
_OPEN
 10
50833.965113074511
 20
424630.11223270389
 30
0.0
 41
50.0
 42
50.0
 43
50.0
 50
180.0
  0
INSERT
  5
65C9F
  8
S-OBRYS
  6
CONTINUOUS
  2
*U67
 10
0.0
 20
0.0
 30
0.0
  0
POINT
  5
65CA0
  8
DEFPOINTS
  6
CONTINUOUS
 62
     0
 10
51220.01085142378
 20
424257.764978958
 30
0.0
  0
POINT
  5
65CA1
  8
DEFPOINTS
  6
CONTINUOUS
 62
     0
 10
50833.965113074511
 20
424420.76497895789
 30
0.0
  0
POINT
  5
65CA2
  8
DEFPOINTS
  6
CONTINUOUS
 62
     0
 10
50833.965113074511
 20
424630.11223270389
 30
0.0
  0
ENDBLK
  5
65C63
  8
0
  0
BLOCK
  8
0
  2
*U34
 70
     1
 10
0.0
 20
0.0
 30
0.0
  3
*U34
  1

  0
TEXT
  5
65E11
  8
OBRYS
  6
CONTINUOUS
 10
49616.175742493899
 20
428132.43581454293
 30
0.0
 40
200.0
  1
Rotační směšovací podavač RSP 250
  7
R
  0
ENDBLK
  5
65E13
  8
0
  0
BLOCK
  8
0
  2
*U35
 70
     1
 10
0.0
 20
0.0
 30
0.0
  3
*U35
  1

  0
TEXT
  5
65E3D
  8
S-OBRYS
  6
CONTINUOUS
 62
     7
 10
58658.218903702618
 20
426283.10347351083
 30
0.0
 40
50.0
  1
680
 50
90.0
 41
0.8
  0
ENDBLK
  5
65E3F
  8
0
  0
BLOCK
  8
0
  2
*U36
 70
     1
 10
0.0
 20
0.0
 30
0.0
  3
*U36
  1

  0
TEXT
  5
65E41
  8
S-OBRYS
  6
CONTINUOUS
 62
     7
 10
58454.04605354269
 20
426078.95834077342
 30
0.0
 40
50.0
  1
270
 50
90.0
 41
0.8
  0
ENDBLK
  5
65E43
  8
0
  0
BLOCK
  8
0
  2
*U37
 70
     1
 10
0.0
 20
0.0
 30
0.0
  3
*U37
  1

  0
TEXT
  5
65E45
  8
S-OBRYS
  6
CONTINUOUS
 62
     7
 10
57363.608965446467
 20
425690.386912202
 30
0.0
 40
50.0
  1
460
 50
90.0
 41
0.8
  0
ENDBLK
  5
65E47
  8
0
  0
BLOCK
  8
0
  2
*U38
 70
     1
 10
0.0
 20
0.0
 30
0.0
  3
*U38
  1

  0
TEXT
  5
65E49
  8
S-OBRYS
  6
CONTINUOUS
 62
     7
 10
57288.468629330098
 20
426379.27492470579
 30
0.0
 40
50.0
  1
870
 50
90.0
 41
0.8
  0
ENDBLK
  5
65E4B
  8
0
  0
BLOCK
  8
0
  2
*U39
 70
     1
 10
0.0
 20
0.0
 30
0.0
  3
*U39
  1

  0
TEXT
  5
65E4D
  8
S-OBRYS
  6
CONTINUOUS
 62
     7
 10
57928.129886480187
 20
425790.14645380038
 30
0.0
 40
50.0
  1
610
 41
0.8
  0
ENDBLK
  5
65E4F
  8
0
  0
BLOCK
  8
0
  2
*U40
 70
     1
 10
0.0
 20
0.0
 30
0.0
  3
*U40
  1

  0
TEXT
  5
65E51
  8
S-OBRYS
  6
CONTINUOUS
 62
     7
 10
57586.024994495332
 20
425640.86310267821
 30
0.0
 40
50.0
  1
50
 50
90.0
 41
0.8
  0
ENDBLK
  5
65E53
  8
0
  0
BLOCK
  8
0
  2
*U41
 70
     1
 10
0.0
 20
0.0
 30
0.0
  3
*U41
  1

  0
TEXT
  5
65E55
  8
S-OBRYS
  6
CONTINUOUS
 62
     7
 10
60391.277661053158
 20
426242.0552044732
 30
0.0
 40
50.0
  1
26
 50
90.0
 41
0.8
  0
ENDBLK
  5
65E57
  8
0
  0
BLOCK
  8
0
  2
*U42
 70
     1
 10
0.0
 20
0.0
 30
0.0
  3
*U42
  1

  0
TEXT
  5
65E59
  8
S-OBRYS
  6
CONTINUOUS
 62
     7
 10
60600.32045128772
 20
426223.33362610708
 30
0.0
 40
50.0
  1
108
 50
90.0
 41
0.8
  0
ENDBLK
  5
65E5B
  8
0
  0
BLOCK
  8
0
  2
*U43
 70
     1
 10
0.0
 20
0.0
 30
0.0
  3
*U43
  1

  0
TEXT
  5
65E5D
  8
S-OBRYS
  6
CONTINUOUS
 62
     7
 10
59860.033761451108
 20
425807.85752554733
 30
0.0
 40
50.0
  1
712
 41
0.8
  0
ENDBLK
  5
65E5F
  8
0
  0
BLOCK
  8
0
  2
*U44
 70
     1
 10
0.0
 20
0.0
 30
0.0
  3
*U44
  1

  0
TEXT
  5
65E61
  8
S-OBRYS
  6
CONTINUOUS
 62
     7
 10
52331.890945304782
 20
424655.11223270401
 30
0.0
 40
50.0
  1
386
 41
0.8
  0
ENDBLK
  5
65E63
  8
0
  0
BLOCK
  8
0
  2
*U45
 70
     1
 10
0.0
 20
0.0
 30
0.0
  3
*U45
  1

  0
TEXT
  5
65E65
  8
S-OBRYS
  6
CONTINUOUS
 62
     7
 10
51726.349948516749
 20
424279.264978958
 30
0.0
 40
50.0
  1
163
 50
90.0
 41
0.8
  0
ENDBLK
  5
65E67
  8
0
  0
BLOCK
  8
0
  2
*U46
 70
     1
 10
0.0
 20
0.0
 30
0.0
  3
*U46
  1

  0
TEXT
  5
65E69
  8
S-OBRYS
  6
CONTINUOUS
 62
     7
 10
51509.360177053313
 20
424039.60654908291
 30
0.0
 40
50.0
  1
646
 50
90.0
 41
0.8
  0
ENDBLK
  5
65E6B
  8
0
  0
BLOCK
  8
0
  2
*U47
 70
     1
 10
0.0
 20
0.0
 30
0.0
  3
*U47
  1

  0
TEXT
  5
65E6D
  8
S-OBRYS
  6
CONTINUOUS
 62
     7
 10
53286.75859300133
 20
426242.0552044732
 30
0.0
 40
50.0
  1
26
 50
90.0
 41
0.8
  0
ENDBLK
  5
65E6F
  8
0
  0
BLOCK
  8
0
  2
*U48
 70
     1
 10
0.0
 20
0.0
 30
0.0
  3
*U48
  1

  0
TEXT
  5
65E71
  8
S-OBRYS
  6
CONTINUOUS
 62
     7
 10
53495.801383235892
 20
426223.33362610708
 30
0.0
 40
50.0
  1
108
 50
90.0
 41
0.8
  0
ENDBLK
  5
65E73
  8
0
  0
BLOCK
  8
0
  2
*U49
 70
     1
 10
0.0
 20
0.0
 30
0.0
  3
*U49
  1

  0
TEXT
  5
65E75
  8
S-OBRYS
  6
CONTINUOUS
 62
     7
 10
52755.51469339928
 20
425807.85752554733
 30
0.0
 40
50.0
  1
712
 41
0.8
  0
ENDBLK
  5
65E77
  8
0
  0
BLOCK
  8
0
  2
*U50
 70
     1
 10
0.0
 20
0.0
 30
0.0
  3
*U50
  1

  0
TEXT
  5
65E79
  8
S-OBRYS
  6
CONTINUOUS
 62
     7
 10
51349.526985490862
 20
426078.95834077342
 30
0.0
 40
50.0
  1
270
 50
90.0
 41
0.8
  0
ENDBLK
  5
65E7B
  8
0
  0
BLOCK
  8
0
  2
*U51
 70
     1
 10
0.0
 20
0.0
 30
0.0
  3
*U51
  1

  0
TEXT
  5
65E7D
  8
S-OBRYS
  6
CONTINUOUS
 62
     7
 10
51553.69983565079
 20
426283.10347351083
 30
0.0
 40
50.0
  1
680
 50
90.0
 41
0.8
  0
ENDBLK
  5
65E7F
  8
0
  0
BLOCK
  8
0
  2
*U52
 70
     1
 10
0.0
 20
0.0
 30
0.0
  3
*U52
  1

  0
TEXT
  5
65E81
  8
S-OBRYS
  6
CONTINUOUS
 62
     7
 10
50259.089897394639
 20
425690.386912202
 30
0.0
 40
50.0
  1
460
 50
90.0
 41
0.8
  0
ENDBLK
  5
65E83
  8
0
  0
BLOCK
  8
0
  2
*U53
 70
     1
 10
0.0
 20
0.0
 30
0.0
  3
*U53
  1

  0
TEXT
  5
65E85
  8
S-OBRYS
  6
CONTINUOUS
 62
     7
 10
50183.94956127827
 20
426379.27492470579
 30
0.0
 40
50.0
  1
870
 50
90.0
 41
0.8
  0
ENDBLK
  5
65E87
  8
0
  0
BLOCK
  8
0
  2
*U54
 70
     1
 10
0.0
 20
0.0
 30
0.0
  3
*U54
  1

  0
TEXT
  5
65E89
  8
S-OBRYS
  6
CONTINUOUS
 62
     7
 10
50823.610818428373
 20
425790.14645380038
 30
0.0
 40
50.0
  1
610
 41
0.8
  0
ENDBLK
  5
65E8B
  8
0
  0
BLOCK
  8
0
  2
*U55
 70
     1
 10
0.0
 20
0.0
 30
0.0
  3
*U55
  1

  0
TEXT
  5
65E8D
  8
S-OBRYS
  6
CONTINUOUS
 62
     7
 10
50481.505926443497
 20
425640.86310267821
 30
0.0
 40
50.0
  1
50
 50
90.0
 41
0.8
  0
ENDBLK
  5
65E8F
  8
0
  0
BLOCK
  8
0
  2
*U56
 70
     1
 10
0.0
 20
0.0
 30
0.0
  3
*U56
  1

  0
TEXT
  5
65E91
  8
S-OBRYS
  6
CONTINUOUS
 62
     7
 10
58639.946267823689
 20
424039.60654908291
 30
0.0
 40
50.0
  1
646
 50
90.0
 41
0.8
  0
ENDBLK
  5
65E93
  8
0
  0
BLOCK
  8
0
  2
*U57
 70
     1
 10
0.0
 20
0.0
 30
0.0
  3
*U57
  1

  0
TEXT
  5
65E95
  8
S-OBRYS
  6
CONTINUOUS
 62
     7
 10
58220.063910137062
 20
424655.11223270401
 30
0.0
 40
50.0
  1
386
 41
0.8
  0
ENDBLK
  5
65E97
  8
0
  0
BLOCK
  8
0
  2
*U58
 70
     1
 10
0.0
 20
0.0
 30
0.0
  3
*U58
  1

  0
TEXT
  5
65E99
  8
S-OBRYS
  6
CONTINUOUS
 62
     7
 10
60655.604449613718
 20
424039.60654908291
 30
0.0
 40
50.0
  1
646
 50
90.0
 41
0.8
  0
ENDBLK
  5
65E9B
  8
0
  0
BLOCK
  8
0
  2
*U59
 70
     1
 10
0.0
 20
0.0
 30
0.0
  3
*U59
  1

  0
TEXT
  5
65E9D
  8
S-OBRYS
  6
CONTINUOUS
 62
     7
 10
60235.722091927091
 20
424655.11223270401
 30
0.0
 40
50.0
  1
386
 41
0.8
  0
ENDBLK
  5
65E9F
  8
0
  0
BLOCK
  8
0
  2
*U60
 70
     1
 10
0.0
 20
0.0
 30
0.0
  3
*U60
  1

  0
TEXT
  5
65EA1
  8
S-OBRYS
  6
CONTINUOUS
 62
     7
 10
59630.181095139058
 20
424279.264978958
 30
0.0
 40
50.0
  1
163
 50
90.0
 41
0.8
  0
ENDBLK
  5
65EA3
  8
0
  0
BLOCK
  8
0
  2
*U61
 70
     1
 10
0.0
 20
0.0
 30
0.0
  3
*U61
  1

  0
TEXT
  5
65EA5
  8
S-OBRYS
  6
CONTINUOUS
 62
     7
 10
59345.555523583091
 20
424006.3409642647
 30
0.0
 40
50.0
  1
MIN.200
 41
0.8
  0
ENDBLK
  5
65EA7
  8
0
  0
BLOCK
  8
0
  2
*U62
 70
     1
 10
0.0
 20
0.0
 30
0.0
  3
*U62
  1

  0
TEXT
  5
65EFD
  8
S-OBRYS
  6
CONTINUOUS
 62
     7
 10
53405.385664582936
 20
424039.60654908291
 30
0.0
 40
50.0
  1
646
 50
90.0
 41
0.8
  0
ENDBLK
  5
65EFF
  8
0
  0
BLOCK
  8
0
  2
*U63
 70
     1
 10
0.0
 20
0.0
 30
0.0
  3
*U63
  1

  0
TEXT
  5
65F01
  8
S-OBRYS
  6
CONTINUOUS
 62
     7
 10
52379.962310108291
 20
424279.264978958
 30
0.0
 40
50.0
  1
163
 50
90.0
 41
0.8
  0
ENDBLK
  5
65F03
  8
0
  0
BLOCK
  8
0
  2
*U64
 70
     1
 10
0.0
 20
0.0
 30
0.0
  3
*U64
  1

  0
TEXT
  5
65F05
  8
S-OBRYS
  6
CONTINUOUS
 62
     7
 10
52985.503306896317
 20
424655.11223270401
 30
0.0
 40
50.0
  1
386
 41
0.8
  0
ENDBLK
  5
65F07
  8
0
  0
BLOCK
  8
0
  2
*U65
 70
     1
 10
0.0
 20
0.0
 30
0.0
  3
*U65
  1

  0
TEXT
  5
65F09
  8
S-OBRYS
  6
CONTINUOUS
 62
     7
 10
52095.336738552331
 20
424006.3409642647
 30
0.0
 40
50.0
  1
MIN.200
 41
0.8
  0
ENDBLK
  5
65F0B
  8
0
  0
BLOCK
  8
0
  2
*U66
 70
     1
 10
0.0
 20
0.0
 30
0.0
  3
*U66
  1

  0
TEXT
  5
65F0D
  8
S-OBRYS
  6
CONTINUOUS
 62
     7
 10
51389.727482792921
 20
424039.60654908291
 30
0.0
 40
50.0
  1
646
 50
90.0
 41
0.8
  0
ENDBLK
  5
65F0F
  8
0
  0
BLOCK
  8
0
  2
*U67
 70
     1
 10
0.0
 20
0.0
 30
0.0
  3
*U67
  1

  0
TEXT
  5
65F11
  8
S-OBRYS
  6
CONTINUOUS
 62
     7
 10
50969.845125106287
 20
424655.11223270401
 30
0.0
 40
50.0
  1
386
 41
0.8
  0
ENDBLK
  5
65F13
  8
0
  0
BLOCK
  8
0
  2
*U68
 70
     1
 10
0.0
 20
0.0
 30
0.0
  3
*U68
  1

  0
TEXT
  5
65F15
  8
S-OBRYS
  6
CONTINUOUS
 62
     7
 10
57614.522913349028
 20
424279.264978958
 30
0.0
 40
50.0
  1
163
 50
90.0
 41
0.8
  0
ENDBLK
  5
65F17
  8
0
  0
BLOCK
  8
0
  2
*U69
 70
     1
 10
0.0
 20
0.0
 30
0.0
  3
*U69
  1

  0
TEXT
  5
65F19
  8
S-OBRYS
  6
CONTINUOUS
 62
     7
 10
50364.304128318261
 20
424279.264978958
 30
0.0
 40
50.0
  1
163
 50
90.0
 41
0.8
  0
ENDBLK
  5
65F1B
  8
0
  0
ENDSEC
  0
SECTION
  2
ENTITIES
  0
TEXT
  5
2F7A5
  8
KOTY
 10
-393803.77638965531
 20
-299016.15321175661
 30
0.0
 40
150.0
  1

 41
0.7
  7
ROMANT
  0
TEXT
  5
3AD8B
  8
KOTY
 10
-14797.18019204357
 20
454294.55370899959
 30
0.0
 40
150.0
  1

 41
0.7
  7
ROMANT
  0
TEXT
  5
404AD
  8
KOTY
 10
44010.2314385153
 20
465617.23741859582
 30
0.0
 40
92.0
  1

 41
0.7
  7
CYRILLIC
  0
TEXT
  5
404B4
  8
KOTY
 10
39575.071591094718
 20
465613.29777162091
 30
0.0
 40
92.0
  1

 41
0.7
  7
CYRILLIC
  0
TEXT
  5
40B14
  8
KOTY
 10
5856.0590664841584
 20
486921.1132385282
 30
0.0
 40
150.0
  1

 41
0.7
  7
ROMANT
  0
TEXT
  5
40BFC
  8
KOTY
 10
8767.7265956277752
 20
466337.2608060218
 30
0.0
 40
150.0
  1

 41
0.7
  7
ROMANS
  0
TEXT
  5
51A7C
  8
KOTY
 10
-47677.341387967608
 20
395133.71812193602
 30
0.0
 40
150.0
  1

 41
0.7
  7
ROMANS
  0
TEXT
  5
51A94
  8
KOTY
 10
-45176.819295693742
 20
395133.7181219359
 30
0.0
 40
150.0
  1

 41
0.7
  7
ROMANS
  0
TEXT
  5
51A9B
  8
KOTY
 10
-48084.423320344351
 20
397411.27855615731
 30
0.0
 40
150.0
  1

 41
0.7
  7
ROMANT
  0
TEXT
  5
51B05
  8
RAZ
 62
     6
 10
-47365.887544580757
 20
392999.37567832542
 30
0.0
 40
193.54103193599991
  1

 41
0.8
  7
R08
  0
TEXT
  5
51B06
  8
RAZ
 62
     1
 10
-47245.037660778231
 20
393401.77274166199
 30
0.0
 40
125.41458869452801
  1

  7
ROMANS
  0
TEXT
  5
58307
  8
KOTY
 10
22966.528519463162
 20
383405.87475258159
 30
0.0
 40
150.0
  1

 41
0.7
  7
ROMANS
  0
TEXT
  5
58308
  8
KOTY
 10
22966.528519463169
 20
383855.87475258159
 30
0.0
 40
150.0
  1

 41
0.7
  7
ROMANS
  0
TEXT
  5
58315
  8
KOTY
 10
25467.050611737021
 20
383855.87475258141
 30
0.0
 40
150.0
  1

 41
0.7
  7
ROMANS
  0
TEXT
  5
58316
  8
KOTY
 10
25467.050611737021
 20
383405.87475258141
 30
0.0
 40
150.0
  1

 41
0.7
  7
ROMANS
  0
TEXT
  5
5833F
  8
KOTY
 10
22966.528519463162
 20
385205.87475258153
 30
0.0
 40
150.0
  1

 41
0.7
  7
ROMANS
  0
TEXT
  5
58340
  8
KOTY
 10
22966.528519463169
 20
385655.87475258159
 30
0.0
 40
150.0
  1

 41
0.7
  7
ROMANS
  0
TEXT
  5
58354
  8
KOTY
 10
25467.050611737021
 20
385655.87475258141
 30
0.0
 40
150.0
  1

 41
0.7
  7
ROMANS
  0
TEXT
  5
58355
  8
KOTY
 10
25467.050611737021
 20
385205.87475258141
 30
0.0
 40
150.0
  1

 41
0.7
  7
ROMANS
  0
TEXT
  5
58397
  8
KOTY
 10
25467.050611737039
 20
390605.87475258129
 30
0.0
 40
150.0
  1

 41
0.7
  7
ROMANS
  0
TEXT
  5
58398
  8
KOTY
 10
25467.050611737039
 20
391055.87475258141
 30
0.0
 40
150.0
  1

 41
0.7
  7
ROMANS
  0
TEXT
  5
583C1
  8
KOTY
 10
25467.050611737031
 20
389255.87475258141
 30
0.0
 40
150.0
  1

 41
0.7
  7
ROMANS
  0
TEXT
  5
58C84
  8
KOTY
 10
22966.52851946322
 20
387905.87475258153
 30
0.0
 40
150.0
  1

 41
0.7
  7
ROMANS
  0
INSERT
  5
5A11D
  8
SILNA
  6
CONTINUOUS
  2
A$C5B1234F8
 10
21045.108802659091
 20
799530.18634617259
 30
0.0
 50
134.99999999999989
  0
INSERT
  5
653FC
  8
S-OBRYS
  6
CONTINUOUS
  2
*U34
 10
0.0
 20
0.0
 30
0.0
  0
LINE
  5
654BB
  8
S-OBRYS
  6
CONTINUOUS
 10
49282.925916167442
 20
421492.62784302112
 30
0.0
 11
54532.925916167442
 21
421492.62784302112
 31
0.0
  0
LINE
  5
654BC
  8
S-OBRYS
  6
CONTINUOUS
 10
49282.925916167442
 20
421492.62784302112
 30
0.0
 11
49282.925916167442
 21
428917.62784302101
 31
0.0
  0
LINE
  5
654BD
  8
S-OBRYS
  6
CONTINUOUS
 10
49282.925916167442
 20
428917.62784302101
 30
0.0
 11
54532.925916167449
 21
428917.62784302112
 31
0.0
  0
LINE
  5
654BE
  8
S-OBRYS
  6
CONTINUOUS
 10
54532.925916167442
 20
421492.62784302112
 30
0.0
 11
54532.925916167449
 21
428917.62784302112
 31
0.0
  0
LINE
  5
65770
  8
S-OBRYS
  6
CONTINUOUS
 10
50709.635754831797
 20
426039.62591688079
 30
0.0
 11
50709.635754831797
 21
426702.89586380188
 31
0.0
  0
CIRCLE
  5
65771
  8
S-OBRYS
  6
CONTINUOUS
 10
50709.635754831797
 20
426109.7621975356
 30
0.0
 40
21.0
  0
LINE
  5
65772
  8
S-OBRYS
  6
CONTINUOUS
 10
51156.321314627552
 20
426171.45395299193
 30
0.0
 11
51156.321314627552
 21
426051.10119791632
 31
0.0
  0
LINE
  5
65773
  8
S-OBRYS
  6
CONTINUOUS
 10
50887.762138391503
 20
426051.10119791632
 30
0.0
 11
50887.762138391503
 21
426171.45395299193
 31
0.0
  0
LINE
  5
65774
  8
S-OBRYS
  6
CONTINUOUS
 10
50861.108823854047
 20
426191.23751900881
 30
0.0
 11
50836.509371272099
 21
426051.10119791632
 31
0.0
  0
LINE
  5
65775
  8
S-OBRYS
  6
CONTINUOUS
 10
51077.127581391862
 20
426191.10119791632
 30
0.0
 11
51077.127581391862
 21
426051.10119791632
 31
0.0
  0
LINE
  5
65776
  8
S-OBRYS
  6
CONTINUOUS
 10
51097.127581391862
 20
426191.10119791632
 30
0.0
 11
51097.127581391862
 21
426051.10119791632
 31
0.0
  0
LINE
  5
65777
  8
S-OBRYS
  6
CONTINUOUS
 10
50667.127581391862
 20
426191.10119791632
 30
0.0
 11
50667.127581391862
 21
426051.10119791632
 31
0.0
  0
LINE
  5
65778
  8
S-OBRYS
  6
CONTINUOUS
 10
50647.127581391862
 20
426191.10119791632
 30
0.0
 11
50647.127581391862
 21
426051.10119791632
 31
0.0
  0
LINE
  5
65779
  8
S-OBRYS
  6
CONTINUOUS
 10
50549.09051635697
 20
426242.91917522351
 30
0.0
 11
50582.762138391503
 21
426051.10119791632
 31
0.0
  0
ARC
  5
6577A
  8
S-OBRYS
  6
CONTINUOUS
 10
50709.635754831797
 20
426271.1011979162
 30
0.0
 40
163.0
 50
254.8832741088795
 51
330.6557402694487
  0
POLYLINE
  5
65781
  8
S-OBRYS
  6
CONTINUOUS
 66
     1
 10
0.0
 20
0.0
 30
0.0
 70
     1
  0
VERTEX
  5
65E14
  8
S-OBRYS
  6
CONTINUOUS
 10
50582.762138391503
 20
426001.10119791632
 30
0.0
  0
VERTEX
  5
65E15
  8
S-OBRYS
  6
CONTINUOUS
 10
51192.762138391503
 20
426001.10119791632
 30
0.0
  0
VERTEX
  5
65E16
  8
S-OBRYS
  6
CONTINUOUS
 10
51192.762138391503
 20
426051.10119791632
 30
0.0
  0
VERTEX
  5
65E17
  8
S-OBRYS
  6
CONTINUOUS
 10
50582.762138391503
 20
426051.10119791632
 30
0.0
  0
SEQEND
  5
65E18
  8
S-OBRYS
  6
CONTINUOUS
  0
LINE
  5
657A8
  8
S-OBRYS
  6
CONTINUOUS
 10
51119.440515671449
 20
426271.1011979162
 30
0.0
 11
50525.40487352162
 21
426271.1011979162
 31
0.0
  0
LINE
  5
657A9
  8
S-OBRYS
  6
CONTINUOUS
 10
50658.419668776063
 20
426681.29622529593
 30
0.0
 11
50816.61789801265
 21
426681.29622529593
 31
0.0
  0
LINE
  5
657AA
  8
S-OBRYS
  6
CONTINUOUS
 10
50546.635754831797
 20
426678.10119791632
 30
0.0
 11
50818.419668776063
 21
426678.10119791632
 31
0.0
  0
LINE
  5
657AB
  8
S-OBRYS
  6
CONTINUOUS
 10
50580.887211933477
 20
426442.69087918801
 30
0.0
 11
50838.384297730117
 21
426442.69087918801
 31
0.0
  0
LINE
  5
657AC
  8
S-OBRYS
  6
CONTINUOUS
 10
50584.823440808039
 20
426460.34753941651
 30
0.0
 11
50834.448068855563
 21
426460.34753941651
 31
0.0
  0
ARC
  5
657AD
  8
S-OBRYS
  6
CONTINUOUS
 10
50709.635754831797
 20
426271.1011979162
 30
0.0
 40
163.0
 50
29.357794754023931
 51
247.45023555578189
  0
ARC
  5
657AE
  8
S-OBRYS
  6
CONTINUOUS
 10
50709.635754831797
 20
426271.1011979162
 30
0.0
 40
103.2669389838192
 50
50.734585695472482
 51
232.74908263500191
  0
ARC
  5
657AF
  8
S-OBRYS
  6
CONTINUOUS
 10
50709.635754831797
 20
426271.1011979162
 30
0.0
 40
103.2669389838192
 50
245.69248438479201
 51
309.27175976809372
  0
LINE
  5
657B0
  8
S-OBRYS
  6
CONTINUOUS
 10
50582.762138391503
 20
426451.10119791632
 30
0.0
 11
50836.509371272099
 21
426451.10119791632
 31
0.0
  0
POLYLINE
  5
657B1
  8
S-OBRYS
  6
CONTINUOUS
 66
     1
 10
0.0
 20
0.0
 30
0.0
 70
     1
  0
VERTEX
  5
65E19
  8
S-OBRYS
  6
CONTINUOUS
 10
50647.127581391862
 20
426191.10119791632
 30
0.0
  0
VERTEX
  5
65E1A
  8
S-OBRYS
  6
CONTINUOUS
 10
51097.127581391862
 20
426191.10119791632
 30
0.0
  0
VERTEX
  5
65E1B
  8
S-OBRYS
  6
CONTINUOUS
 10
51097.127581391862
 20
426351.10119791632
 30
0.0
  0
VERTEX
  5
65E1C
  8
S-OBRYS
  6
CONTINUOUS
 10
50647.127581391862
 20
426351.10119791632
 30
0.0
  0
SEQEND
  5
65E1D
  8
S-OBRYS
  6
CONTINUOUS
  0
LINE
  5
657B2
  8
S-OBRYS
  6
CONTINUOUS
 10
50546.635754831797
 20
426678.10119791632
 30
0.0
 11
50601.593420709862
 21
426460.34753941651
 31
0.0
  0
LINE
  5
657B3
  8
S-OBRYS
  6
CONTINUOUS
 10
50550.541202339169
 20
426306.56841330131
 30
0.0
 11
50584.823440808039
 21
426460.34753941651
 31
0.0
  0
LINE
  5
657B4
  8
S-OBRYS
  6
CONTINUOUS
 10
50749.932537603709
 20
426109.7621975356
 30
0.0
 11
50671.128659041438
 21
426109.7621975356
 31
0.0
  0
ARC
  5
657B5
  8
S-OBRYS
  6
CONTINUOUS
 10
50722.735671640097
 20
426309.50888616388
 30
0.0
 40
203.51192871469991
 50
248.1908103964322
 51
254.14269926812619
  0
ARC
  5
657B6
  8
S-OBRYS
  6
CONTINUOUS
 10
50726.823039681003
 20
426299.95692981413
 30
0.0
 40
136.69188957420999
 50
234.33606714837501
 51
244.10549987274391
  0
CIRCLE
  5
657B7
  8
S-OBRYS
  6
CONTINUOUS
 10
50709.635754831797
 20
426109.7621975356
 30
0.0
 40
13.0
  0
POLYLINE
  8
S-OBRYS
  5
65F1C
  66
     1
 10
0.000000
 20
0.000000
 30
0.000000
  70
     8
  0
VERTEX
  8
S-OBRYS
  5
65F1D
 10
50546.6
 20
426784.
 30
0.000000
  70
    32
  0
VERTEX
  8
S-OBRYS
  5
65F1E
 10
50546.7
 20
426784.
 30
0.000000
  70
    32
  0
VERTEX
  8
S-OBRYS
  5
65F1F
 10
50546.9
 20
426784.
 30
0.000000
  70
    32
  0
VERTEX
  8
S-OBRYS
  5
65F20
 10
50547.0
 20
426784.
 30
0.000000
  70
    32
  0
VERTEX
  8
S-OBRYS
  5
65F21
 10
50547.1
 20
426784.
 30
0.000000
  70
    32
  0
VERTEX
  8
S-OBRYS
  5
65F22
 10
50547.2
 20
426784.
 30
0.000000
  70
    32
  0
VERTEX
  8
S-OBRYS
  5
65F23
 10
50547.3
 20
426784.
 30
0.000000
  70
    32
  0
VERTEX
  8
S-OBRYS
  5
65F24
 10
50547.4
 20
426784.
 30
0.000000
  70
    32
  0
VERTEX
  8
S-OBRYS
  5
65F25
 10
50547.5
 20
426784.
 30
0.000000
  70
    32
  0
VERTEX
  8
S-OBRYS
  5
65F26
 10
50547.6
 20
426783.
 30
0.000000
  70
    32
  0
VERTEX
  8
S-OBRYS
  5
65F27
 10
50547.8
 20
426783.
 30
0.000000
  70
    32
  0
VERTEX
  8
S-OBRYS
  5
65F28
 10
50547.9
 20
426783.
 30
0.000000
  70
    32
  0
VERTEX
  8
S-OBRYS
  5
65F29
 10
50548.0
 20
426783.
 30
0.000000
  70
    32
  0
VERTEX
  8
S-OBRYS
  5
65F2A
 10
50548.1
 20
426783.
 30
0.000000
  70
    32
  0
VERTEX
  8
S-OBRYS
  5
65F2B
 10
50548.2
 20
426783.
 30
0.000000
  70
    32
  0
VERTEX
  8
S-OBRYS
  5
65F2C
 10
50548.3
 20
426783.
 30
0.000000
  70
    32
  0
VERTEX
  8
S-OBRYS
  5
65F2D
 10
50548.4
 20
426783.
 30
0.000000
  70
    32
  0
VERTEX
  8
S-OBRYS
  5
65F2E
 10
50548.6
 20
426783.
 30
0.000000
  70
    32
  0
VERTEX
  8
S-OBRYS
  5
65F2F
 10
50548.7
 20
426783.
 30
0.000000
  70
    32
  0
VERTEX
  8
S-OBRYS
  5
65F30
 10
50548.8
 20
426783.
 30
0.000000
  70
    32
  0
VERTEX
  8
S-OBRYS
  5
65F31
 10
50548.9
 20
426783.
 30
0.000000
  70
    32
  0
VERTEX
  8
S-OBRYS
  5
65F32
 10
50549.0
 20
426782.
 30
0.000000
  70
    32
  0
VERTEX
  8
S-OBRYS
  5
65F33
 10
50549.1
 20
426782.
 30
0.000000
  70
    32
  0
VERTEX
  8
S-OBRYS
  5
65F34
 10
50549.2
 20
426782.
 30
0.000000
  70
    32
  0
VERTEX
  8
S-OBRYS
  5
65F35
 10
50549.4
 20
426782.
 30
0.000000
  70
    32
  0
VERTEX
  8
S-OBRYS
  5
65F36
 10
50549.5
 20
426782.
 30
0.000000
  70
    32
  0
VERTEX
  8
S-OBRYS
  5
65F37
 10
50549.6
 20
426782.
 30
0.000000
  70
    32
  0
VERTEX
  8
S-OBRYS
  5
65F38
 10
50549.7
 20
426782.
 30
0.000000
  70
    32
  0
VERTEX
  8
S-OBRYS
  5
65F39
 10
50549.8
 20
426782.
 30
0.000000
  70
    32
  0
VERTEX
  8
S-OBRYS
  5
65F3A
 10
50550.0
 20
426782.
 30
0.000000
  70
    32
  0
VERTEX
  8
S-OBRYS
  5
65F3B
 10
50550.1
 20
426782.
 30
0.000000
  70
    32
  0
VERTEX
  8
S-OBRYS
  5
65F3C
 10
50550.2
 20
426782.
 30
0.000000
  70
    32
  0
VERTEX
  8
S-OBRYS
  5
65F3D
 10
50550.3
 20
426782.
 30
0.000000
  70
    32
  0
VERTEX
  8
S-OBRYS
  5
65F3E
 10
50550.4
 20
426782.
 30
0.000000
  70
    32
  0
VERTEX
  8
S-OBRYS
  5
65F3F
 10
50550.5
 20
426782.
 30
0.000000
  70
    32
  0
VERTEX
  8
S-OBRYS
  5
65F40
 10
50550.7
 20
426782.
 30
0.000000
  70
    32
  0
VERTEX
  8
S-OBRYS
  5
65F41
 10
50550.8
 20
426782.
 30
0.000000
  70
    32
  0
VERTEX
  8
S-OBRYS
  5
65F42
 10
50550.9
 20
426782.
 30
0.000000
  70
    32
  0
VERTEX
  8
S-OBRYS
  5
65F43
 10
50551.0
 20
426782.
 30
0.000000
  70
    32
  0
VERTEX
  8
S-OBRYS
  5
65F44
 10
50551.2
 20
426782.
 30
0.000000
  70
    32
  0
VERTEX
  8
S-OBRYS
  5
65F45
 10
50551.3
 20
426782.
 30
0.000000
  70
    32
  0
VERTEX
  8
S-OBRYS
  5
65F46
 10
50551.4
 20
426782.
 30
0.000000
  70
    32
  0
VERTEX
  8
S-OBRYS
  5
65F47
 10
50551.5
 20
426782.
 30
0.000000
  70
    32
  0
VERTEX
  8
S-OBRYS
  5
65F48
 10
50551.7
 20
426782.
 30
0.000000
  70
    32
  0
VERTEX
  8
S-OBRYS
  5
65F49
 10
50551.8
 20
426782.
 30
0.000000
  70
    32
  0
VERTEX
  8
S-OBRYS
  5
65F4A
 10
50551.9
 20
426782.
 30
0.000000
  70
    32
  0
VERTEX
  8
S-OBRYS
  5
65F4B
 10
50552.0
 20
426782.
 30
0.000000
  70
    32
  0
VERTEX
  8
S-OBRYS
  5
65F4C
 10
50552.2
 20
426782.
 30
0.000000
  70
    32
  0
VERTEX
  8
S-OBRYS
  5
65F4D
 10
50552.3
 20
426782.
 30
0.000000
  70
    32
  0
VERTEX
  8
S-OBRYS
  5
65F4E
 10
50552.4
 20
426782.
 30
0.000000
  70
    32
  0
VERTEX
  8
S-OBRYS
  5
65F4F
 10
50552.6
 20
426782.
 30
0.000000
  70
    32
  0
VERTEX
  8
S-OBRYS
  5
65F50
 10
50552.7
 20
426782.
 30
0.000000
  70
    32
  0
VERTEX
  8
S-OBRYS
  5
65F51
 10
50552.8
 20
426782.
 30
0.000000
  70
    32
  0
VERTEX
  8
S-OBRYS
  5
65F52
 10
50552.9
 20
426782.
 30
0.000000
  70
    32
  0
VERTEX
  8
S-OBRYS
  5
65F53
 10
50553.1
 20
426782.
 30
0.000000
  70
    32
  0
VERTEX
  8
S-OBRYS
  5
65F54
 10
50553.2
 20
426782.
 30
0.000000
  70
    32
  0
VERTEX
  8
S-OBRYS
  5
65F55
 10
50553.3
 20
426782.
 30
0.000000
  70
    32
  0
VERTEX
  8
S-OBRYS
  5
65F56
 10
50553.5
 20
426782.
 30
0.000000
  70
    32
  0
VERTEX
  8
S-OBRYS
  5
65F57
 10
50553.6
 20
426782.
 30
0.000000
  70
    32
  0
VERTEX
  8
S-OBRYS
  5
65F58
 10
50553.7
 20
426783.
 30
0.000000
  70
    32
  0
VERTEX
  8
S-OBRYS
  5
65F59
 10
50553.8
 20
426783.
 30
0.000000
  70
    32
  0
VERTEX
  8
S-OBRYS
  5
65F5A
 10
50554.0
 20
426783.
 30
0.000000
  70
    32
  0
VERTEX
  8
S-OBRYS
  5
65F5B
 10
50554.1
 20
426783.
 30
0.000000
  70
    32
  0
VERTEX
  8
S-OBRYS
  5
65F5C
 10
50554.2
 20
426783.
 30
0.000000
  70
    32
  0
VERTEX
  8
S-OBRYS
  5
65F5D
 10
50554.3
 20
426783.
 30
0.000000
  70
    32
  0
VERTEX
  8
S-OBRYS
  5
65F5E
 10
50554.5
 20
426783.
 30
0.000000
  70
    32
  0
VERTEX
  8
S-OBRYS
  5
65F5F
 10
50554.6
 20
426783.
 30
0.000000
  70
    32
  0
VERTEX
  8
S-OBRYS
  5
65F60
 10
50554.7
 20
426783.
 30
0.000000
  70
    32
  0
VERTEX
  8
S-OBRYS
  5
65F61
 10
50554.8
 20
426783.
 30
0.000000
  70
    32
  0
VERTEX
  8
S-OBRYS
  5
65F62
 10
50554.9
 20
426783.
 30
0.000000
  70
    32
  0
VERTEX
  8
S-OBRYS
  5
65F63
 10
50555.0
 20
426783.
 30
0.000000
  70
    32
  0
VERTEX
  8
S-OBRYS
  5
65F64
 10
50555.2
 20
426783.
 30
0.000000
  70
    32
  0
VERTEX
  8
S-OBRYS
  5
65F65
 10
50555.3
 20
426783.
 30
0.000000
  70
    32
  0
VERTEX
  8
S-OBRYS
  5
65F66
 10
50555.4
 20
426783.
 30
0.000000
  70
    32
  0
VERTEX
  8
S-OBRYS
  5
65F67
 10
50555.5
 20
426783.
 30
0.000000
  70
    32
  0
VERTEX
  8
S-OBRYS
  5
65F68
 10
50555.6
 20
426783.
 30
0.000000
  70
    32
  0
VERTEX
  8
S-OBRYS
  5
65F69
 10
50555.7
 20
426783.
 30
0.000000
  70
    32
  0
VERTEX
  8
S-OBRYS
  5
65F6A
 10
50555.8
 20
426783.
 30
0.000000
  70
    32
  0
VERTEX
  8
S-OBRYS
  5
65F6B
 10
50555.9
 20
426783.
 30
0.000000
  70
    32
  0
VERTEX
  8
S-OBRYS
  5
65F6C
 10
50556.0
 20
426782.
 30
0.000000
  70
    32
  0
VERTEX
  8
S-OBRYS
  5
65F6D
 10
50556.1
 20
426782.
 30
0.000000
  70
    32
  0
VERTEX
  8
S-OBRYS
  5
65F6E
 10
50556.2
 20
426782.
 30
0.000000
  70
    32
  0
VERTEX
  8
S-OBRYS
  5
65F6F
 10
50556.3
 20
426782.
 30
0.000000
  70
    32
  0
VERTEX
  8
S-OBRYS
  5
65F70
 10
50556.4
 20
426782.
 30
0.000000
  70
    32
  0
VERTEX
  8
S-OBRYS
  5
65F71
 10
50556.4
 20
426782.
 30
0.000000
  70
    32
  0
VERTEX
  8
S-OBRYS
  5
65F72
 10
50556.5
 20
426782.
 30
0.000000
  70
    32
  0
VERTEX
  8
S-OBRYS
  5
65F73
 10
50556.6
 20
426782.
 30
0.000000
  70
    32
  0
VERTEX
  8
S-OBRYS
  5
65F74
 10
50556.7
 20
426782.
 30
0.000000
  70
    32
  0
VERTEX
  8
S-OBRYS
  5
65F75
 10
50556.8
 20
426782.
 30
0.000000
  70
    32
  0
VERTEX
  8
S-OBRYS
  5
65F76
 10
50556.9
 20
426781.
 30
0.000000
  70
    32
  0
VERTEX
  8
S-OBRYS
  5
65F77
 10
50557.0
 20
426781.
 30
0.000000
  70
    32
  0
VERTEX
  8
S-OBRYS
  5
65F78
 10
50557.1
 20
426781.
 30
0.000000
  70
    32
  0
VERTEX
  8
S-OBRYS
  5
65F79
 10
50557.2
 20
426781.
 30
0.000000
  70
    32
  0
VERTEX
  8
S-OBRYS
  5
65F7A
 10
50557.3
 20
426781.
 30
0.000000
  70
    32
  0
VERTEX
  8
S-OBRYS
  5
65F7B
 10
50557.4
 20
426781.
 30
0.000000
  70
    32
  0
VERTEX
  8
S-OBRYS
  5
65F7C
 10
50557.4
 20
426781.
 30
0.000000
  70
    32
  0
VERTEX
  8
S-OBRYS
  5
65F7D
 10
50557.5
 20
426781.
 30
0.000000
  70
    32
  0
VERTEX
  8
S-OBRYS
  5
65F7E
 10
50557.6
 20
426780.
 30
0.000000
  70
    32
  0
VERTEX
  8
S-OBRYS
  5
65F7F
 10
50557.7
 20
426780.
 30
0.000000
  70
    32
  0
VERTEX
  8
S-OBRYS
  5
65F80
 10
50557.8
 20
426780.
 30
0.000000
  70
    32
  0
VERTEX
  8
S-OBRYS
  5
65F81
 10
50557.9
 20
426780.
 30
0.000000
  70
    32
  0
VERTEX
  8
S-OBRYS
  5
65F82
 10
50558.0
 20
426780.
 30
0.000000
  70
    32
  0
VERTEX
  8
S-OBRYS
  5
65F83
 10
50558.1
 20
426780.
 30
0.000000
  70
    32
  0
VERTEX
  8
S-OBRYS
  5
65F84
 10
50558.2
 20
426780.
 30
0.000000
  70
    32
  0
VERTEX
  8
S-OBRYS
  5
65F85
 10
50558.3
 20
426780.
 30
0.000000
  70
    32
  0
VERTEX
  8
S-OBRYS
  5
65F86
 10
50558.4
 20
426780.
 30
0.000000
  70
    32
  0
VERTEX
  8
S-OBRYS
  5
65F87
 10
50558.5
 20
426780.
 30
0.000000
  70
    32
  0
VERTEX
  8
S-OBRYS
  5
65F88
 10
50558.6
 20
426780.
 30
0.000000
  70
    32
  0
VERTEX
  8
S-OBRYS
  5
65F89
 10
50558.7
 20
426780.
 30
0.000000
  70
    32
  0
VERTEX
  8
S-OBRYS
  5
65F8A
 10
50558.9
 20
426780.
 30
0.000000
  70
    32
  0
VERTEX
  8
S-OBRYS
  5
65F8B
 10
50559.0
 20
426780.
 30
0.000000
  70
    32
  0
VERTEX
  8
S-OBRYS
  5
65F8C
 10
50559.1
 20
426780.
 30
0.000000
  70
    32
  0
VERTEX
  8
S-OBRYS
  5
65F8D
 10
50559.2
 20
426780.
 30
0.000000
  70
    32
  0
VERTEX
  8
S-OBRYS
  5
65F8E
 10
50559.3
 20
426780.
 30
0.000000
  70
    32
  0
VERTEX
  8
S-OBRYS
  5
65F8F
 10
50559.5
 20
426780.
 30
0.000000
  70
    32
  0
VERTEX
  8
S-OBRYS
  5
65F90
 10
50559.6
 20
426780.
 30
0.000000
  70
    32
  0
VERTEX
  8
S-OBRYS
  5
65F91
 10
50559.7
 20
426780.
 30
0.000000
  70
    32
  0
VERTEX
  8
S-OBRYS
  5
65F92
 10
50559.8
 20
426780.
 30
0.000000
  70
    32
  0
VERTEX
  8
S-OBRYS
  5
65F93
 10
50560.0
 20
426780.
 30
0.000000
  70
    32
  0
VERTEX
  8
S-OBRYS
  5
65F94
 10
50560.1
 20
426780.
 30
0.000000
  70
    32
  0
VERTEX
  8
S-OBRYS
  5
65F95
 10
50560.2
 20
426780.
 30
0.000000
  70
    32
  0
VERTEX
  8
S-OBRYS
  5
65F96
 10
50560.4
 20
426780.
 30
0.000000
  70
    32
  0
VERTEX
  8
S-OBRYS
  5
65F97
 10
50560.5
 20
426780.
 30
0.000000
  70
    32
  0
VERTEX
  8
S-OBRYS
  5
65F98
 10
50560.6
 20
426780.
 30
0.000000
  70
    32
  0
VERTEX
  8
S-OBRYS
  5
65F99
 10
50560.8
 20
426780.
 30
0.000000
  70
    32
  0
VERTEX
  8
S-OBRYS
  5
65F9A
 10
50560.9
 20
426780.
 30
0.000000
  70
    32
  0
VERTEX
  8
S-OBRYS
  5
65F9B
 10
50561.0
 20
426780.
 30
0.000000
  70
    32
  0
VERTEX
  8
S-OBRYS
  5
65F9C
 10
50561.2
 20
426780.
 30
0.000000
  70
    32
  0
VERTEX
  8
S-OBRYS
  5
65F9D
 10
50561.3
 20
426780.
 30
0.000000
  70
    32
  0
VERTEX
  8
S-OBRYS
  5
65F9E
 10
50561.4
 20
426780.
 30
0.000000
  70
    32
  0
VERTEX
  8
S-OBRYS
  5
65F9F
 10
50561.6
 20
426780.
 30
0.000000
  70
    32
  0
VERTEX
  8
S-OBRYS
  5
65FA0
 10
50561.7
 20
426780.
 30
0.000000
  70
    32
  0
VERTEX
  8
S-OBRYS
  5
65FA1
 10
50561.8
 20
426780.
 30
0.000000
  70
    32
  0
VERTEX
  8
S-OBRYS
  5
65FA2
 10
50562.0
 20
426781.
 30
0.000000
  70
    32
  0
VERTEX
  8
S-OBRYS
  5
65FA3
 10
50562.1
 20
426781.
 30
0.000000
  70
    32
  0
VERTEX
  8
S-OBRYS
  5
65FA4
 10
50562.2
 20
426781.
 30
0.000000
  70
    32
  0
VERTEX
  8
S-OBRYS
  5
65FA5
 10
50562.3
 20
426781.
 30
0.000000
  70
    32
  0
VERTEX
  8
S-OBRYS
  5
65FA6
 10
50562.5
 20
426781.
 30
0.000000
  70
    32
  0
VERTEX
  8
S-OBRYS
  5
65FA7
 10
50562.6
 20
426781.
 30
0.000000
  70
    32
  0
VERTEX
  8
S-OBRYS
  5
65FA8
 10
50562.7
 20
426781.
 30
0.000000
  70
    32
  0
VERTEX
  8
S-OBRYS
  5
65FA9
 10
50562.9
 20
426781.
 30
0.000000
  70
    32
  0
VERTEX
  8
S-OBRYS
  5
65FAA
 10
50563.0
 20
426781.
 30
0.000000
  70
    32
  0
VERTEX
  8
S-OBRYS
  5
65FAB
 10
50563.1
 20
426781.
 30
0.000000
  70
    32
  0
VERTEX
  8
S-OBRYS
  5
65FAC
 10
50563.2
 20
426781.
 30
0.000000
  70
    32
  0
VERTEX
  8
S-OBRYS
  5
65FAD
 10
50563.3
 20
426781.
 30
0.000000
  70
    32
  0
VERTEX
  8
S-OBRYS
  5
65FAE
 10
50563.5
 20
426781.
 30
0.000000
  70
    32
  0
VERTEX
  8
S-OBRYS
  5
65FAF
 10
50563.6
 20
426781.
 30
0.000000
  70
    32
  0
VERTEX
  8
S-OBRYS
  5
65FB0
 10
50563.7
 20
426781.
 30
0.000000
  70
    32
  0
VERTEX
  8
S-OBRYS
  5
65FB1
 10
50563.8
 20
426781.
 30
0.000000
  70
    32
  0
VERTEX
  8
S-OBRYS
  5
65FB2
 10
50563.9
 20
426781.
 30
0.000000
  70
    32
  0
VERTEX
  8
S-OBRYS
  5
65FB3
 10
50564.0
 20
426781.
 30
0.000000
  70
    32
  0
VERTEX
  8
S-OBRYS
  5
65FB4
 10
50564.1
 20
426781.
 30
0.000000
  70
    32
  0
VERTEX
  8
S-OBRYS
  5
65FB5
 10
50564.2
 20
426781.
 30
0.000000
  70
    32
  0
VERTEX
  8
S-OBRYS
  5
65FB6
 10
50564.3
 20
426781.
 30
0.000000
  70
    32
  0
VERTEX
  8
S-OBRYS
  5
65FB7
 10
50564.4
 20
426781.
 30
0.000000
  70
    32
  0
VERTEX
  8
S-OBRYS
  5
65FB8
 10
50564.5
 20
426781.
 30
0.000000
  70
    32
  0
VERTEX
  8
S-OBRYS
  5
65FB9
 10
50564.6
 20
426781.
 30
0.000000
  70
    32
  0
VERTEX
  8
S-OBRYS
  5
65FBA
 10
50564.7
 20
426781.
 30
0.000000
  70
    32
  0
VERTEX
  8
S-OBRYS
  5
65FBB
 10
50564.8
 20
426781.
 30
0.000000
  70
    32
  0
VERTEX
  8
S-OBRYS
  5
65FBC
 10
50564.9
 20
426780.
 30
0.000000
  70
    32
  0
VERTEX
  8
S-OBRYS
  5
65FBD
 10
50564.9
 20
426780.
 30
0.000000
  70
    32
  0
VERTEX
  8
S-OBRYS
  5
65FBE
 10
50565.0
 20
426780.
 30
0.000000
  70
    32
  0
VERTEX
  8
S-OBRYS
  5
65FBF
 10
50565.1
 20
426780.
 30
0.000000
  70
    32
  0
VERTEX
  8
S-OBRYS
  5
65FC0
 10
50565.2
 20
426780.
 30
0.000000
  70
    32
  0
VERTEX
  8
S-OBRYS
  5
65FC1
 10
50565.3
 20
426780.
 30
0.000000
  70
    32
  0
VERTEX
  8
S-OBRYS
  5
65FC2
 10
50565.4
 20
426780.
 30
0.000000
  70
    32
  0
VERTEX
  8
S-OBRYS
  5
65FC3
 10
50565.4
 20
426780.
 30
0.000000
  70
    32
  0
VERTEX
  8
S-OBRYS
  5
65FC4
 10
50565.5
 20
426780.
 30
0.000000
  70
    32
  0
VERTEX
  8
S-OBRYS
  5
65FC5
 10
50565.6
 20
426779.
 30
0.000000
  70
    32
  0
VERTEX
  8
S-OBRYS
  5
65FC6
 10
50565.7
 20
426779.
 30
0.000000
  70
    32
  0
VERTEX
  8
S-OBRYS
  5
65FC7
 10
50565.8
 20
426779.
 30
0.000000
  70
    32
  0
VERTEX
  8
S-OBRYS
  5
65FC8
 10
50565.8
 20
426779.
 30
0.000000
  70
    32
  0
VERTEX
  8
S-OBRYS
  5
65FC9
 10
50565.9
 20
426779.
 30
0.000000
  70
    32
  0
VERTEX
  8
S-OBRYS
  5
65FCA
 10
50566.0
 20
426779.
 30
0.000000
  70
    32
  0
VERTEX
  8
S-OBRYS
  5
65FCB
 10
50566.1
 20
426779.
 30
0.000000
  70
    32
  0
VERTEX
  8
S-OBRYS
  5
65FCC
 10
50566.2
 20
426779.
 30
0.000000
  70
    32
  0
VERTEX
  8
S-OBRYS
  5
65FCD
 10
50566.2
 20
426778.
 30
0.000000
  70
    32
  0
VERTEX
  8
S-OBRYS
  5
65FCE
 10
50566.3
 20
426778.
 30
0.000000
  70
    32
  0
VERTEX
  8
S-OBRYS
  5
65FCF
 10
50566.4
 20
426778.
 30
0.000000
  70
    32
  0
VERTEX
  8
S-OBRYS
  5
65FD0
 10
50566.5
 20
426778.
 30
0.000000
  70
    32
  0
VERTEX
  8
S-OBRYS
  5
65FD1
 10
50566.6
 20
426778.
 30
0.000000
  70
    32
  0
VERTEX
  8
S-OBRYS
  5
65FD2
 10
50566.7
 20
426778.
 30
0.000000
  70
    32
  0
VERTEX
  8
S-OBRYS
  5
65FD3
 10
50566.8
 20
426778.
 30
0.000000
  70
    32
  0
VERTEX
  8
S-OBRYS
  5
65FD4
 10
50566.9
 20
426778.
 30
0.000000
  70
    32
  0
VERTEX
  8
S-OBRYS
  5
65FD5
 10
50567.0
 20
426778.
 30
0.000000
  70
    32
  0
VERTEX
  8
S-OBRYS
  5
65FD6
 10
50567.0
 20
426778.
 30
0.000000
  70
    32
  0
VERTEX
  8
S-OBRYS
  5
65FD7
 10
50567.1
 20
426777.
 30
0.000000
  70
    32
  0
VERTEX
  8
S-OBRYS
  5
65FD8
 10
50567.2
 20
426777.
 30
0.000000
  70
    32
  0
VERTEX
  8
S-OBRYS
  5
65FD9
 10
50567.3
 20
426777.
 30
0.000000
  70
    32
  0
VERTEX
  8
S-OBRYS
  5
65FDA
 10
50567.5
 20
426777.
 30
0.000000
  70
    32
  0
VERTEX
  8
S-OBRYS
  5
65FDB
 10
50567.6
 20
426777.
 30
0.000000
  70
    32
  0
VERTEX
  8
S-OBRYS
  5
65FDC
 10
50567.7
 20
426777.
 30
0.000000
  70
    32
  0
VERTEX
  8
S-OBRYS
  5
65FDD
 10
50567.8
 20
426777.
 30
0.000000
  70
    32
  0
VERTEX
  8
S-OBRYS
  5
65FDE
 10
50567.9
 20
426777.
 30
0.000000
  70
    32
  0
VERTEX
  8
S-OBRYS
  5
65FDF
 10
50568.0
 20
426777.
 30
0.000000
  70
    32
  0
VERTEX
  8
S-OBRYS
  5
65FE0
 10
50568.1
 20
426777.
 30
0.000000
  70
    32
  0
VERTEX
  8
S-OBRYS
  5
65FE1
 10
50568.2
 20
426777.
 30
0.000000
  70
    32
  0
VERTEX
  8
S-OBRYS
  5
65FE2
 10
50568.4
 20
426777.
 30
0.000000
  70
    32
  0
VERTEX
  8
S-OBRYS
  5
65FE3
 10
50568.5
 20
426777.
 30
0.000000
  70
    32
  0
VERTEX
  8
S-OBRYS
  5
65FE4
 10
50568.6
 20
426777.
 30
0.000000
  70
    32
  0
VERTEX
  8
S-OBRYS
  5
65FE5
 10
50568.7
 20
426777.
 30
0.000000
  70
    32
  0
VERTEX
  8
S-OBRYS
  5
65FE6
 10
50568.9
 20
426777.
 30
0.000000
  70
    32
  0
VERTEX
  8
S-OBRYS
  5
65FE7
 10
50569.0
 20
426777.
 30
0.000000
  70
    32
  0
VERTEX
  8
S-OBRYS
  5
65FE8
 10
50569.1
 20
426777.
 30
0.000000
  70
    32
  0
VERTEX
  8
S-OBRYS
  5
65FE9
 10
50569.2
 20
426777.
 30
0.000000
  70
    32
  0
VERTEX
  8
S-OBRYS
  5
65FEA
 10
50569.4
 20
426777.
 30
0.000000
  70
    32
  0
VERTEX
  8
S-OBRYS
  5
65FEB
 10
50569.5
 20
426777.
 30
0.000000
  70
    32
  0
VERTEX
  8
S-OBRYS
  5
65FEC
 10
50569.6
 20
426777.
 30
0.000000
  70
    32
  0
VERTEX
  8
S-OBRYS
  5
65FED
 10
50569.8
 20
426777.
 30
0.000000
  70
    32
  0
VERTEX
  8
S-OBRYS
  5
65FEE
 10
50569.9
 20
426777.
 30
0.000000
  70
    32
  0
VERTEX
  8
S-OBRYS
  5
65FEF
 10
50570.0
 20
426777.
 30
0.000000
  70
    32
  0
VERTEX
  8
S-OBRYS
  5
65FF0
 10
50570.2
 20
426777.
 30
0.000000
  70
    32
  0
VERTEX
  8
S-OBRYS
  5
65FF1
 10
50570.3
 20
426777.
 30
0.000000
  70
    32
  0
VERTEX
  8
S-OBRYS
  5
65FF2
 10
50570.5
 20
426777.
 30
0.000000
  70
    32
  0
VERTEX
  8
S-OBRYS
  5
65FF3
 10
50570.6
 20
426777.
 30
0.000000
  70
    32
  0
VERTEX
  8
S-OBRYS
  5
65FF4
 10
50570.7
 20
426777.
 30
0.000000
  70
    32
  0
VERTEX
  8
S-OBRYS
  5
65FF5
 10
50570.9
 20
426777.
 30
0.000000
  70
    32
  0
VERTEX
  8
S-OBRYS
  5
65FF6
 10
50571.0
 20
426777.
 30
0.000000
  70
    32
  0
VERTEX
  8
S-OBRYS
  5
65FF7
 10
50571.2
 20
426777.
 30
0.000000
  70
    32
  0
VERTEX
  8
S-OBRYS
  5
65FF8
 10
50571.3
 20
426777.
 30
0.000000
  70
    32
  0
VERTEX
  8
S-OBRYS
  5
65FF9
 10
50571.4
 20
426777.
 30
0.000000
  70
    32
  0
VERTEX
  8
S-OBRYS
  5
65FFA
 10
50571.6
 20
426777.
 30
0.000000
  70
    32
  0
VERTEX
  8
S-OBRYS
  5
65FFB
 10
50571.7
 20
426777.
 30
0.000000
  70
    32
  0
VERTEX
  8
S-OBRYS
  5
65FFC
 10
50571.9
 20
426777.
 30
0.000000
  70
    32
  0
VERTEX
  8
S-OBRYS
  5
65FFD
 10
50572.0
 20
426778.
 30
0.000000
  70
    32
  0
VERTEX
  8
S-OBRYS
  5
65FFE
 10
50572.1
 20
426778.
 30
0.000000
  70
    32
  0
VERTEX
  8
S-OBRYS
  5
65FFF
 10
50572.3
 20
426778.
 30
0.000000
  70
    32
  0
VERTEX
  8
S-OBRYS
  5
66000
 10
50572.4
 20
426778.
 30
0.000000
  70
    32
  0
VERTEX
  8
S-OBRYS
  5
66001
 10
50572.6
 20
426778.
 30
0.000000
  70
    32
  0
VERTEX
  8
S-OBRYS
  5
66002
 10
50572.7
 20
426778.
 30
0.000000
  70
    32
  0
VERTEX
  8
S-OBRYS
  5
66003
 10
50572.8
 20
426778.
 30
0.000000
  70
    32
  0
VERTEX
  8
S-OBRYS
  5
66004
 10
50573.0
 20
426778.
 30
0.000000
  70
    32
  0
VERTEX
  8
S-OBRYS
  5
66005
 10
50573.1
 20
426778.
 30
0.000000
  70
    32
  0
VERTEX
  8
S-OBRYS
  5
66006
 10
50573.3
 20
426778.
 30
0.000000
  70
    32
  0
VERTEX
  8
S-OBRYS
  5
66007
 10
50573.4
 20
426778.
 30
0.000000
  70
    32
  0
VERTEX
  8
S-OBRYS
  5
66008
 10
50573.5
 20
426778.
 30
0.000000
  70
    32
  0
VERTEX
  8
S-OBRYS
  5
66009
 10
50573.7
 20
426778.
 30
0.000000
  70
    32
  0
VERTEX
  8
S-OBRYS
  5
6600A
 10
50573.8
 20
426778.
 30
0.000000
  70
    32
  0
VERTEX
  8
S-OBRYS
  5
6600B
 10
50574.0
 20
426778.
 30
0.000000
  70
    32
  0
VERTEX
  8
S-OBRYS
  5
6600C
 10
50574.1
 20
426778.
 30
0.000000
  70
    32
  0
VERTEX
  8
S-OBRYS
  5
6600D
 10
50574.2
 20
426778.
 30
0.000000
  70
    32
  0
VERTEX
  8
S-OBRYS
  5
6600E
 10
50574.4
 20
426778.
 30
0.000000
  70
    32
  0
VERTEX
  8
S-OBRYS
  5
6600F
 10
50574.5
 20
426778.
 30
0.000000
  70
    32
  0
VERTEX
  8
S-OBRYS
  5
66010
 10
50574.6
 20
426778.
 30
0.000000
  70
    32
  0
VERTEX
  8
S-OBRYS
  5
66011
 10
50574.7
 20
426778.
 30
0.000000
  70
    32
  0
VERTEX
  8
S-OBRYS
  5
66012
 10
50574.9
 20
426778.
 30
0.000000
  70
    32
  0
VERTEX
  8
S-OBRYS
  5
66013
 10
50575.0
 20
426778.
 30
0.000000
  70
    32
  0
VERTEX
  8
S-OBRYS
  5
66014
 10
50575.1
 20
426778.
 30
0.000000
  70
    32
  0
VERTEX
  8
S-OBRYS
  5
66015
 10
50575.2
 20
426778.
 30
0.000000
  70
    32
  0
VERTEX
  8
S-OBRYS
  5
66016
 10
50575.4
 20
426778.
 30
0.000000
  70
    32
  0
VERTEX
  8
S-OBRYS
  5
66017
 10
50575.5
 20
426778.
 30
0.000000
  70
    32
  0
VERTEX
  8
S-OBRYS
  5
66018
 10
50575.6
 20
426778.
 30
0.000000
  70
    32
  0
VERTEX
  8
S-OBRYS
  5
66019
 10
50575.7
 20
426778.
 30
0.000000
  70
    32
  0
VERTEX
  8
S-OBRYS
  5
6601A
 10
50575.8
 20
426778.
 30
0.000000
  70
    32
  0
VERTEX
  8
S-OBRYS
  5
6601B
 10
50576.0
 20
426777.
 30
0.000000
  70
    32
  0
VERTEX
  8
S-OBRYS
  5
6601C
 10
50576.1
 20
426777.
 30
0.000000
  70
    32
  0
VERTEX
  8
S-OBRYS
  5
6601D
 10
50576.2
 20
426777.
 30
0.000000
  70
    32
  0
VERTEX
  8
S-OBRYS
  5
6601E
 10
50576.3
 20
426777.
 30
0.000000
  70
    32
  0
VERTEX
  8
S-OBRYS
  5
6601F
 10
50576.4
 20
426777.
 30
0.000000
  70
    32
  0
VERTEX
  8
S-OBRYS
  5
66020
 10
50576.5
 20
426777.
 30
0.000000
  70
    32
  0
VERTEX
  8
S-OBRYS
  5
66021
 10
50576.6
 20
426777.
 30
0.000000
  70
    32
  0
VERTEX
  8
S-OBRYS
  5
66022
 10
50576.8
 20
426777.
 30
0.000000
  70
    32
  0
VERTEX
  8
S-OBRYS
  5
66023
 10
50576.9
 20
426777.
 30
0.000000
  70
    32
  0
VERTEX
  8
S-OBRYS
  5
66024
 10
50577.0
 20
426777.
 30
0.000000
  70
    32
  0
VERTEX
  8
S-OBRYS
  5
66025
 10
50577.1
 20
426777.
 30
0.000000
  70
    32
  0
VERTEX
  8
S-OBRYS
  5
66026
 10
50577.2
 20
426777.
 30
0.000000
  70
    32
  0
VERTEX
  8
S-OBRYS
  5
66027
 10
50577.3
 20
426777.
 30
0.000000
  70
    32
  0
VERTEX
  8
S-OBRYS
  5
66028
 10
50577.4
 20
426777.
 30
0.000000
  70
    32
  0
VERTEX
  8
S-OBRYS
  5
66029
 10
50577.5
 20
426777.
 30
0.000000
  70
    32
  0
VERTEX
  8
S-OBRYS
  5
6602A
 10
50577.6
 20
426776.
 30
0.000000
  70
    32
  0
VERTEX
  8
S-OBRYS
  5
6602B
 10
50577.8
 20
426776.
 30
0.000000
  70
    32
  0
VERTEX
  8
S-OBRYS
  5
6602C
 10
50577.9
 20
426776.
 30
0.000000
  70
    32
  0
VERTEX
  8
S-OBRYS
  5
6602D
 10
50578.0
 20
426776.
 30
0.000000
  70
    32
  0
VERTEX
  8
S-OBRYS
  5
6602E
 10
50578.1
 20
426776.
 30
0.000000
  70
    32
  0
VERTEX
  8
S-OBRYS
  5
6602F
 10
50578.2
 20
426776.
 30
0.000000
  70
    32
  0
VERTEX
  8
S-OBRYS
  5
66030
 10
50578.3
 20
426776.
 30
0.000000
  70
    32
  0
VERTEX
  8
S-OBRYS
  5
66031
 10
50578.4
 20
426776.
 30
0.000000
  70
    32
  0
VERTEX
  8
S-OBRYS
  5
66032
 10
50578.6
 20
426776.
 30
0.000000
  70
    32
  0
VERTEX
  8
S-OBRYS
  5
66033
 10
50578.7
 20
426776.
 30
0.000000
  70
    32
  0
VERTEX
  8
S-OBRYS
  5
66034
 10
50578.8
 20
426776.
 30
0.000000
  70
    32
  0
VERTEX
  8
S-OBRYS
  5
66035
 10
50578.9
 20
426776.
 30
0.000000
  70
    32
  0
VERTEX
  8
S-OBRYS
  5
66036
 10
50579.0
 20
426776.
 30
0.000000
  70
    32
  0
VERTEX
  8
S-OBRYS
  5
66037
 10
50579.2
 20
426776.
 30
0.000000
  70
    32
  0
VERTEX
  8
S-OBRYS
  5
66038
 10
50579.3
 20
426776.
 30
0.000000
  70
    32
  0
VERTEX
  8
S-OBRYS
  5
66039
 10
50579.4
 20
426776.
 30
0.000000
  70
    32
  0
VERTEX
  8
S-OBRYS
  5
6603A
 10
50579.5
 20
426775.
 30
0.000000
  70
    32
  0
VERTEX
  8
S-OBRYS
  5
6603B
 10
50579.6
 20
426775.
 30
0.000000
  70
    32
  0
VERTEX
  8
S-OBRYS
  5
6603C
 10
50579.8
 20
426775.
 30
0.000000
  70
    32
  0
VERTEX
  8
S-OBRYS
  5
6603D
 10
50579.9
 20
426775.
 30
0.000000
  70
    32
  0
VERTEX
  8
S-OBRYS
  5
6603E
 10
50580.0
 20
426775.
 30
0.000000
  70
    32
  0
VERTEX
  8
S-OBRYS
  5
6603F
 10
50580.2
 20
426775.
 30
0.000000
  70
    32
  0
VERTEX
  8
S-OBRYS
  5
66040
 10
50580.3
 20
426775.
 30
0.000000
  70
    32
  0
VERTEX
  8
S-OBRYS
  5
66041
 10
50580.4
 20
426775.
 30
0.000000
  70
    32
  0
VERTEX
  8
S-OBRYS
  5
66042
 10
50580.6
 20
426775.
 30
0.000000
  70
    32
  0
VERTEX
  8
S-OBRYS
  5
66043
 10
50580.7
 20
426775.
 30
0.000000
  70
    32
  0
VERTEX
  8
S-OBRYS
  5
66044
 10
50580.8
 20
426775.
 30
0.000000
  70
    32
  0
VERTEX
  8
S-OBRYS
  5
66045
 10
50581.0
 20
426775.
 30
0.000000
  70
    32
  0
VERTEX
  8
S-OBRYS
  5
66046
 10
50581.1
 20
426775.
 30
0.000000
  70
    32
  0
VERTEX
  8
S-OBRYS
  5
66047
 10
50581.2
 20
426775.
 30
0.000000
  70
    32
  0
VERTEX
  8
S-OBRYS
  5
66048
 10
50581.4
 20
426775.
 30
0.000000
  70
    32
  0
VERTEX
  8
S-OBRYS
  5
66049
 10
50581.5
 20
426775.
 30
0.000000
  70
    32
  0
VERTEX
  8
S-OBRYS
  5
6604A
 10
50581.6
 20
426775.
 30
0.000000
  70
    32
  0
VERTEX
  8
S-OBRYS
  5
6604B
 10
50581.8
 20
426775.
 30
0.000000
  70
    32
  0
VERTEX
  8
S-OBRYS
  5
6604C
 10
50581.9
 20
426775.
 30
0.000000
  70
    32
  0
VERTEX
  8
S-OBRYS
  5
6604D
 10
50582.0
 20
426775.
 30
0.000000
  70
    32
  0
VERTEX
  8
S-OBRYS
  5
6604E
 10
50582.2
 20
426775.
 30
0.000000
  70
    32
  0
VERTEX
  8
S-OBRYS
  5
6604F
 10
50582.3
 20
426775.
 30
0.000000
  70
    32
  0
VERTEX
  8
S-OBRYS
  5
66050
 10
50582.5
 20
426775.
 30
0.000000
  70
    32
  0
VERTEX
  8
S-OBRYS
  5
66051
 10
50582.6
 20
426775.
 30
0.000000
  70
    32
  0
VERTEX
  8
S-OBRYS
  5
66052
 10
50582.7
 20
426775.
 30
0.000000
  70
    32
  0
VERTEX
  8
S-OBRYS
  5
66053
 10
50582.9
 20
426775.
 30
0.000000
  70
    32
  0
VERTEX
  8
S-OBRYS
  5
66054
 10
50583.0
 20
426775.
 30
0.000000
  70
    32
  0
VERTEX
  8
S-OBRYS
  5
66055
 10
50583.1
 20
426775.
 30
0.000000
  70
    32
  0
VERTEX
  8
S-OBRYS
  5
66056
 10
50583.3
 20
426775.
 30
0.000000
  70
    32
  0
VERTEX
  8
S-OBRYS
  5
66057
 10
50583.4
 20
426775.
 30
0.000000
  70
    32
  0
VERTEX
  8
S-OBRYS
  5
66058
 10
50583.5
 20
426775.
 30
0.000000
  70
    32
  0
VERTEX
  8
S-OBRYS
  5
66059
 10
50583.7
 20
426775.
 30
0.000000
  70
    32
  0
VERTEX
  8
S-OBRYS
  5
6605A
 10
50583.8
 20
426775.
 30
0.000000
  70
    32
  0
VERTEX
  8
S-OBRYS
  5
6605B
 10
50583.9
 20
426775.
 30
0.000000
  70
    32
  0
VERTEX
  8
S-OBRYS
  5
6605C
 10
50584.1
 20
426775.
 30
0.000000
  70
    32
  0
VERTEX
  8
S-OBRYS
  5
6605D
 10
50584.2
 20
426775.
 30
0.000000
  70
    32
  0
VERTEX
  8
S-OBRYS
  5
6605E
 10
50584.3
 20
426775.
 30
0.000000
  70
    32
  0
VERTEX
  8
S-OBRYS
  5
6605F
 10
50584.5
 20
426775.
 30
0.000000
  70
    32
  0
VERTEX
  8
S-OBRYS
  5
66060
 10
50584.6
 20
426775.
 30
0.000000
  70
    32
  0
VERTEX
  8
S-OBRYS
  5
66061
 10
50584.7
 20
426775.
 30
0.000000
  70
    32
  0
VERTEX
  8
S-OBRYS
  5
66062
 10
50584.9
 20
426775.
 30
0.000000
  70
    32
  0
VERTEX
  8
S-OBRYS
  5
66063
 10
50585.0
 20
426775.
 30
0.000000
  70
    32
  0
VERTEX
  8
S-OBRYS
  5
66064
 10
50585.1
 20
426775.
 30
0.000000
  70
    32
  0
VERTEX
  8
S-OBRYS
  5
66065
 10
50585.2
 20
426775.
 30
0.000000
  70
    32
  0
VERTEX
  8
S-OBRYS
  5
66066
 10
50585.4
 20
426775.
 30
0.000000
  70
    32
  0
VERTEX
  8
S-OBRYS
  5
66067
 10
50585.5
 20
426775.
 30
0.000000
  70
    32
  0
VERTEX
  8
S-OBRYS
  5
66068
 10
50585.6
 20
426775.
 30
0.000000
  70
    32
  0
VERTEX
  8
S-OBRYS
  5
66069
 10
50585.7
 20
426775.
 30
0.000000
  70
    32
  0
VERTEX
  8
S-OBRYS
  5
6606A
 10
50585.8
 20
426775.
 30
0.000000
  70
    32
  0
VERTEX
  8
S-OBRYS
  5
6606B
 10
50585.9
 20
426775.
 30
0.000000
  70
    32
  0
VERTEX
  8
S-OBRYS
  5
6606C
 10
50586.1
 20
426775.
 30
0.000000
  70
    32
  0
VERTEX
  8
S-OBRYS
  5
6606D
 10
50586.2
 20
426775.
 30
0.000000
  70
    32
  0
VERTEX
  8
S-OBRYS
  5
6606E
 10
50586.3
 20
426775.
 30
0.000000
  70
    32
  0
VERTEX
  8
S-OBRYS
  5
6606F
 10
50586.4
 20
426775.
 30
0.000000
  70
    32
  0
VERTEX
  8
S-OBRYS
  5
66070
 10
50586.5
 20
426775.
 30
0.000000
  70
    32
  0
VERTEX
  8
S-OBRYS
  5
66071
 10
50586.6
 20
426775.
 30
0.000000
  70
    32
  0
VERTEX
  8
S-OBRYS
  5
66072
 10
50586.7
 20
426774.
 30
0.000000
  70
    32
  0
VERTEX
  8
S-OBRYS
  5
66073
 10
50586.8
 20
426774.
 30
0.000000
  70
    32
  0
VERTEX
  8
S-OBRYS
  5
66074
 10
50586.9
 20
426774.
 30
0.000000
  70
    32
  0
VERTEX
  8
S-OBRYS
  5
66075
 10
50587.0
 20
426774.
 30
0.000000
  70
    32
  0
VERTEX
  8
S-OBRYS
  5
66076
 10
50587.1
 20
426774.
 30
0.000000
  70
    32
  0
VERTEX
  8
S-OBRYS
  5
66077
 10
50587.2
 20
426774.
 30
0.000000
  70
    32
  0
VERTEX
  8
S-OBRYS
  5
66078
 10
50587.3
 20
426774.
 30
0.000000
  70
    32
  0
VERTEX
  8
S-OBRYS
  5
66079
 10
50587.4
 20
426774.
 30
0.000000
  70
    32
  0
VERTEX
  8
S-OBRYS
  5
6607A
 10
50587.5
 20
426774.
 30
0.000000
  70
    32
  0
VERTEX
  8
S-OBRYS
  5
6607B
 10
50587.6
 20
426774.
 30
0.000000
  70
    32
  0
VERTEX
  8
S-OBRYS
  5
6607C
 10
50587.7
 20
426774.
 30
0.000000
  70
    32
  0
VERTEX
  8
S-OBRYS
  5
6607D
 10
50587.8
 20
426774.
 30
0.000000
  70
    32
  0
VERTEX
  8
S-OBRYS
  5
6607E
 10
50587.9
 20
426773.
 30
0.000000
  70
    32
  0
VERTEX
  8
S-OBRYS
  5
6607F
 10
50588.0
 20
426773.
 30
0.000000
  70
    32
  0
VERTEX
  8
S-OBRYS
  5
66080
 10
50588.1
 20
426773.
 30
0.000000
  70
    32
  0
VERTEX
  8
S-OBRYS
  5
66081
 10
50588.2
 20
426773.
 30
0.000000
  70
    32
  0
VERTEX
  8
S-OBRYS
  5
66082
 10
50588.3
 20
426773.
 30
0.000000
  70
    32
  0
VERTEX
  8
S-OBRYS
  5
66083
 10
50588.4
 20
426773.
 30
0.000000
  70
    32
  0
VERTEX
  8
S-OBRYS
  5
66084
 10
50588.5
 20
426773.
 30
0.000000
  70
    32
  0
VERTEX
  8
S-OBRYS
  5
66085
 10
50588.6
 20
426773.
 30
0.000000
  70
    32
  0
VERTEX
  8
S-OBRYS
  5
66086
 10
50588.7
 20
426773.
 30
0.000000
  70
    32
  0
VERTEX
  8
S-OBRYS
  5
66087
 10
50588.7
 20
426773.
 30
0.000000
  70
    32
  0
VERTEX
  8
S-OBRYS
  5
66088
 10
50588.8
 20
426772.
 30
0.000000
  70
    32
  0
VERTEX
  8
S-OBRYS
  5
66089
 10
50588.9
 20
426772.
 30
0.000000
  70
    32
  0
VERTEX
  8
S-OBRYS
  5
6608A
 10
50589.0
 20
426772.
 30
0.000000
  70
    32
  0
VERTEX
  8
S-OBRYS
  5
6608B
 10
50589.1
 20
426772.
 30
0.000000
  70
    32
  0
VERTEX
  8
S-OBRYS
  5
6608C
 10
50589.2
 20
426772.
 30
0.000000
  70
    32
  0
VERTEX
  8
S-OBRYS
  5
6608D
 10
50589.3
 20
426772.
 30
0.000000
  70
    32
  0
VERTEX
  8
S-OBRYS
  5
6608E
 10
50589.4
 20
426772.
 30
0.000000
  70
    32
  0
VERTEX
  8
S-OBRYS
  5
6608F
 10
50589.5
 20
426772.
 30
0.000000
  70
    32
  0
VERTEX
  8
S-OBRYS
  5
66090
 10
50589.6
 20
426772.
 30
0.000000
  70
    32
  0
VERTEX
  8
S-OBRYS
  5
66091
 10
50589.7
 20
426772.
 30
0.000000
  70
    32
  0
VERTEX
  8
S-OBRYS
  5
66092
 10
50589.8
 20
426772.
 30
0.000000
  70
    32
  0
VERTEX
  8
S-OBRYS
  5
66093
 10
50589.9
 20
426772.
 30
0.000000
  70
    32
  0
VERTEX
  8
S-OBRYS
  5
66094
 10
50590.1
 20
426771.
 30
0.000000
  70
    32
  0
VERTEX
  8
S-OBRYS
  5
66095
 10
50590.2
 20
426771.
 30
0.000000
  70
    32
  0
VERTEX
  8
S-OBRYS
  5
66096
 10
50590.3
 20
426771.
 30
0.000000
  70
    32
  0
VERTEX
  8
S-OBRYS
  5
66097
 10
50590.4
 20
426771.
 30
0.000000
  70
    32
  0
VERTEX
  8
S-OBRYS
  5
66098
 10
50590.5
 20
426771.
 30
0.000000
  70
    32
  0
VERTEX
  8
S-OBRYS
  5
66099
 10
50590.6
 20
426771.
 30
0.000000
  70
    32
  0
VERTEX
  8
S-OBRYS
  5
6609A
 10
50590.7
 20
426771.
 30
0.000000
  70
    32
  0
VERTEX
  8
S-OBRYS
  5
6609B
 10
50590.8
 20
426771.
 30
0.000000
  70
    32
  0
VERTEX
  8
S-OBRYS
  5
6609C
 10
50591.0
 20
426771.
 30
0.000000
  70
    32
  0
VERTEX
  8
S-OBRYS
  5
6609D
 10
50591.1
 20
426771.
 30
0.000000
  70
    32
  0
VERTEX
  8
S-OBRYS
  5
6609E
 10
50591.2
 20
426771.
 30
0.000000
  70
    32
  0
VERTEX
  8
S-OBRYS
  5
6609F
 10
50591.3
 20
426771.
 30
0.000000
  70
    32
  0
VERTEX
  8
S-OBRYS
  5
660A0
 10
50591.4
 20
426771.
 30
0.000000
  70
    32
  0
VERTEX
  8
S-OBRYS
  5
660A1
 10
50591.6
 20
426771.
 30
0.000000
  70
    32
  0
VERTEX
  8
S-OBRYS
  5
660A2
 10
50591.7
 20
426771.
 30
0.000000
  70
    32
  0
VERTEX
  8
S-OBRYS
  5
660A3
 10
50591.8
 20
426771.
 30
0.000000
  70
    32
  0
VERTEX
  8
S-OBRYS
  5
660A4
 10
50591.9
 20
426771.
 30
0.000000
  70
    32
  0
VERTEX
  8
S-OBRYS
  5
660A5
 10
50592.1
 20
426771.
 30
0.000000
  70
    32
  0
VERTEX
  8
S-OBRYS
  5
660A6
 10
50592.2
 20
426771.
 30
0.000000
  70
    32
  0
VERTEX
  8
S-OBRYS
  5
660A7
 10
50592.3
 20
426771.
 30
0.000000
  70
    32
  0
VERTEX
  8
S-OBRYS
  5
660A8
 10
50592.5
 20
426771.
 30
0.000000
  70
    32
  0
VERTEX
  8
S-OBRYS
  5
660A9
 10
50592.6
 20
426771.
 30
0.000000
  70
    32
  0
VERTEX
  8
S-OBRYS
  5
660AA
 10
50592.7
 20
426771.
 30
0.000000
  70
    32
  0
VERTEX
  8
S-OBRYS
  5
660AB
 10
50592.9
 20
426771.
 30
0.000000
  70
    32
  0
VERTEX
  8
S-OBRYS
  5
660AC
 10
50593.0
 20
426771.
 30
0.000000
  70
    32
  0
VERTEX
  8
S-OBRYS
  5
660AD
 10
50593.1
 20
426771.
 30
0.000000
  70
    32
  0
VERTEX
  8
S-OBRYS
  5
660AE
 10
50593.3
 20
426771.
 30
0.000000
  70
    32
  0
VERTEX
  8
S-OBRYS
  5
660AF
 10
50593.4
 20
426771.
 30
0.000000
  70
    32
  0
VERTEX
  8
S-OBRYS
  5
660B0
 10
50593.6
 20
426771.
 30
0.000000
  70
    32
  0
VERTEX
  8
S-OBRYS
  5
660B1
 10
50593.7
 20
426771.
 30
0.000000
  70
    32
  0
VERTEX
  8
S-OBRYS
  5
660B2
 10
50593.8
 20
426771.
 30
0.000000
  70
    32
  0
VERTEX
  8
S-OBRYS
  5
660B3
 10
50594.0
 20
426771.
 30
0.000000
  70
    32
  0
VERTEX
  8
S-OBRYS
  5
660B4
 10
50594.1
 20
426771.
 30
0.000000
  70
    32
  0
VERTEX
  8
S-OBRYS
  5
660B5
 10
50594.2
 20
426771.
 30
0.000000
  70
    32
  0
VERTEX
  8
S-OBRYS
  5
660B6
 10
50594.4
 20
426771.
 30
0.000000
  70
    32
  0
VERTEX
  8
S-OBRYS
  5
660B7
 10
50594.5
 20
426771.
 30
0.000000
  70
    32
  0
VERTEX
  8
S-OBRYS
  5
660B8
 10
50594.7
 20
426771.
 30
0.000000
  70
    32
  0
VERTEX
  8
S-OBRYS
  5
660B9
 10
50594.8
 20
426771.
 30
0.000000
  70
    32
  0
VERTEX
  8
S-OBRYS
  5
660BA
 10
50594.9
 20
426771.
 30
0.000000
  70
    32
  0
VERTEX
  8
S-OBRYS
  5
660BB
 10
50595.1
 20
426771.
 30
0.000000
  70
    32
  0
VERTEX
  8
S-OBRYS
  5
660BC
 10
50595.2
 20
426771.
 30
0.000000
  70
    32
  0
SEQEND
  8
S-OBRYS
  5
660BD
  0
LINE
  5
657B9
  8
S-OBRYS
  6
CONTINUOUS
 10
50570.931124891998
 20
426664.05022322322
 30
0.0
 11
50570.854881719839
 21
426907.91109065182
 31
0.0
  0
LINE
  5
657BA
  8
S-OBRYS
  6
CONTINUOUS
 10
50546.635754831797
 20
426678.10119791632
 30
0.0
 11
50546.635754831797
 21
426784.40936278692
 31
0.0
  0
LINE
  5
657BB
  8
S-OBRYS
  6
CONTINUOUS
 10
50595.2264949522
 20
426678.10119791632
 30
0.0
 11
50595.2264949522
 21
426771.26353454881
 31
0.0
  0
LINE
  5
657BC
  8
S-OBRYS
  6
CONTINUOUS
 10
50546.641689922959
 20
426871.73436578113
 30
0.0
 11
50595.232430043361
 21
426871.73436578113
 31
0.0
  0
POLYLINE
  8
S-OBRYS
  5
660BE
  66
     1
 10
0.000000
 20
0.000000
 30
0.000000
  70
     8
  0
VERTEX
  8
S-OBRYS
  5
660BF
 10
50546.6
 20
426792.
 30
0.000000
  70
    32
  0
VERTEX
  8
S-OBRYS
  5
660C0
 10
50546.8
 20
426792.
 30
0.000000
  70
    32
  0
VERTEX
  8
S-OBRYS
  5
660C1
 10
50546.9
 20
426792.
 30
0.000000
  70
    32
  0
VERTEX
  8
S-OBRYS
  5
660C2
 10
50547.1
 20
426792.
 30
0.000000
  70
    32
  0
VERTEX
  8
S-OBRYS
  5
660C3
 10
50547.2
 20
426792.
 30
0.000000
  70
    32
  0
VERTEX
  8
S-OBRYS
  5
660C4
 10
50547.4
 20
426792.
 30
0.000000
  70
    32
  0
VERTEX
  8
S-OBRYS
  5
660C5
 10
50547.5
 20
426792.
 30
0.000000
  70
    32
  0
VERTEX
  8
S-OBRYS
  5
660C6
 10
50547.7
 20
426792.
 30
0.000000
  70
    32
  0
VERTEX
  8
S-OBRYS
  5
660C7
 10
50547.8
 20
426792.
 30
0.000000
  70
    32
  0
VERTEX
  8
S-OBRYS
  5
660C8
 10
50548.0
 20
426792.
 30
0.000000
  70
    32
  0
VERTEX
  8
S-OBRYS
  5
660C9
 10
50548.1
 20
426792.
 30
0.000000
  70
    32
  0
VERTEX
  8
S-OBRYS
  5
660CA
 10
50548.3
 20
426792.
 30
0.000000
  70
    32
  0
VERTEX
  8
S-OBRYS
  5
660CB
 10
50548.4
 20
426792.
 30
0.000000
  70
    32
  0
VERTEX
  8
S-OBRYS
  5
660CC
 10
50548.6
 20
426792.
 30
0.000000
  70
    32
  0
VERTEX
  8
S-OBRYS
  5
660CD
 10
50548.7
 20
426792.
 30
0.000000
  70
    32
  0
VERTEX
  8
S-OBRYS
  5
660CE
 10
50548.9
 20
426792.
 30
0.000000
  70
    32
  0
VERTEX
  8
S-OBRYS
  5
660CF
 10
50549.0
 20
426792.
 30
0.000000
  70
    32
  0
VERTEX
  8
S-OBRYS
  5
660D0
 10
50549.1
 20
426792.
 30
0.000000
  70
    32
  0
VERTEX
  8
S-OBRYS
  5
660D1
 10
50549.3
 20
426792.
 30
0.000000
  70
    32
  0
VERTEX
  8
S-OBRYS
  5
660D2
 10
50549.4
 20
426792.
 30
0.000000
  70
    32
  0
VERTEX
  8
S-OBRYS
  5
660D3
 10
50549.6
 20
426792.
 30
0.000000
  70
    32
  0
VERTEX
  8
S-OBRYS
  5
660D4
 10
50549.7
 20
426792.
 30
0.000000
  70
    32
  0
VERTEX
  8
S-OBRYS
  5
660D5
 10
50549.8
 20
426792.
 30
0.000000
  70
    32
  0
VERTEX
  8
S-OBRYS
  5
660D6
 10
50550.0
 20
426792.
 30
0.000000
  70
    32
  0
VERTEX
  8
S-OBRYS
  5
660D7
 10
50550.1
 20
426792.
 30
0.000000
  70
    32
  0
VERTEX
  8
S-OBRYS
  5
660D8
 10
50550.2
 20
426792.
 30
0.000000
  70
    32
  0
VERTEX
  8
S-OBRYS
  5
660D9
 10
50550.4
 20
426792.
 30
0.000000
  70
    32
  0
VERTEX
  8
S-OBRYS
  5
660DA
 10
50550.5
 20
426792.
 30
0.000000
  70
    32
  0
VERTEX
  8
S-OBRYS
  5
660DB
 10
50550.6
 20
426792.
 30
0.000000
  70
    32
  0
VERTEX
  8
S-OBRYS
  5
660DC
 10
50550.7
 20
426792.
 30
0.000000
  70
    32
  0
VERTEX
  8
S-OBRYS
  5
660DD
 10
50550.9
 20
426792.
 30
0.000000
  70
    32
  0
VERTEX
  8
S-OBRYS
  5
660DE
 10
50551.0
 20
426792.
 30
0.000000
  70
    32
  0
VERTEX
  8
S-OBRYS
  5
660DF
 10
50551.1
 20
426792.
 30
0.000000
  70
    32
  0
VERTEX
  8
S-OBRYS
  5
660E0
 10
50551.2
 20
426792.
 30
0.000000
  70
    32
  0
VERTEX
  8
S-OBRYS
  5
660E1
 10
50551.4
 20
426792.
 30
0.000000
  70
    32
  0
VERTEX
  8
S-OBRYS
  5
660E2
 10
50551.5
 20
426792.
 30
0.000000
  70
    32
  0
VERTEX
  8
S-OBRYS
  5
660E3
 10
50551.6
 20
426792.
 30
0.000000
  70
    32
  0
VERTEX
  8
S-OBRYS
  5
660E4
 10
50551.7
 20
426792.
 30
0.000000
  70
    32
  0
VERTEX
  8
S-OBRYS
  5
660E5
 10
50551.8
 20
426792.
 30
0.000000
  70
    32
  0
VERTEX
  8
S-OBRYS
  5
660E6
 10
50551.9
 20
426792.
 30
0.000000
  70
    32
  0
VERTEX
  8
S-OBRYS
  5
660E7
 10
50552.0
 20
426792.
 30
0.000000
  70
    32
  0
VERTEX
  8
S-OBRYS
  5
660E8
 10
50552.1
 20
426792.
 30
0.000000
  70
    32
  0
VERTEX
  8
S-OBRYS
  5
660E9
 10
50552.2
 20
426792.
 30
0.000000
  70
    32
  0
VERTEX
  8
S-OBRYS
  5
660EA
 10
50552.3
 20
426792.
 30
0.000000
  70
    32
  0
VERTEX
  8
S-OBRYS
  5
660EB
 10
50552.4
 20
426791.
 30
0.000000
  70
    32
  0
VERTEX
  8
S-OBRYS
  5
660EC
 10
50552.5
 20
426791.
 30
0.000000
  70
    32
  0
VERTEX
  8
S-OBRYS
  5
660ED
 10
50552.6
 20
426791.
 30
0.000000
  70
    32
  0
VERTEX
  8
S-OBRYS
  5
660EE
 10
50552.7
 20
426791.
 30
0.000000
  70
    32
  0
VERTEX
  8
S-OBRYS
  5
660EF
 10
50552.8
 20
426791.
 30
0.000000
  70
    32
  0
VERTEX
  8
S-OBRYS
  5
660F0
 10
50552.9
 20
426791.
 30
0.000000
  70
    32
  0
VERTEX
  8
S-OBRYS
  5
660F1
 10
50553.0
 20
426791.
 30
0.000000
  70
    32
  0
VERTEX
  8
S-OBRYS
  5
660F2
 10
50553.1
 20
426791.
 30
0.000000
  70
    32
  0
VERTEX
  8
S-OBRYS
  5
660F3
 10
50553.1
 20
426791.
 30
0.000000
  70
    32
  0
VERTEX
  8
S-OBRYS
  5
660F4
 10
50553.2
 20
426790.
 30
0.000000
  70
    32
  0
VERTEX
  8
S-OBRYS
  5
660F5
 10
50553.3
 20
426790.
 30
0.000000
  70
    32
  0
VERTEX
  8
S-OBRYS
  5
660F6
 10
50553.4
 20
426790.
 30
0.000000
  70
    32
  0
VERTEX
  8
S-OBRYS
  5
660F7
 10
50553.5
 20
426790.
 30
0.000000
  70
    32
  0
VERTEX
  8
S-OBRYS
  5
660F8
 10
50553.5
 20
426790.
 30
0.000000
  70
    32
  0
VERTEX
  8
S-OBRYS
  5
660F9
 10
50553.6
 20
426790.
 30
0.000000
  70
    32
  0
VERTEX
  8
S-OBRYS
  5
660FA
 10
50553.7
 20
426790.
 30
0.000000
  70
    32
  0
VERTEX
  8
S-OBRYS
  5
660FB
 10
50553.8
 20
426790.
 30
0.000000
  70
    32
  0
VERTEX
  8
S-OBRYS
  5
660FC
 10
50553.9
 20
426790.
 30
0.000000
  70
    32
  0
VERTEX
  8
S-OBRYS
  5
660FD
 10
50553.9
 20
426789.
 30
0.000000
  70
    32
  0
VERTEX
  8
S-OBRYS
  5
660FE
 10
50554.0
 20
426789.
 30
0.000000
  70
    32
  0
VERTEX
  8
S-OBRYS
  5
660FF
 10
50554.1
 20
426789.
 30
0.000000
  70
    32
  0
VERTEX
  8
S-OBRYS
  5
66100
 10
50554.2
 20
426789.
 30
0.000000
  70
    32
  0
VERTEX
  8
S-OBRYS
  5
66101
 10
50554.3
 20
426789.
 30
0.000000
  70
    32
  0
VERTEX
  8
S-OBRYS
  5
66102
 10
50554.4
 20
426789.
 30
0.000000
  70
    32
  0
VERTEX
  8
S-OBRYS
  5
66103
 10
50554.5
 20
426789.
 30
0.000000
  70
    32
  0
VERTEX
  8
S-OBRYS
  5
66104
 10
50554.6
 20
426789.
 30
0.000000
  70
    32
  0
VERTEX
  8
S-OBRYS
  5
66105
 10
50554.7
 20
426789.
 30
0.000000
  70
    32
  0
VERTEX
  8
S-OBRYS
  5
66106
 10
50554.8
 20
426789.
 30
0.000000
  70
    32
  0
VERTEX
  8
S-OBRYS
  5
66107
 10
50554.9
 20
426789.
 30
0.000000
  70
    32
  0
VERTEX
  8
S-OBRYS
  5
66108
 10
50555.0
 20
426789.
 30
0.000000
  70
    32
  0
VERTEX
  8
S-OBRYS
  5
66109
 10
50555.1
 20
426789.
 30
0.000000
  70
    32
  0
VERTEX
  8
S-OBRYS
  5
6610A
 10
50555.2
 20
426789.
 30
0.000000
  70
    32
  0
VERTEX
  8
S-OBRYS
  5
6610B
 10
50555.3
 20
426789.
 30
0.000000
  70
    32
  0
VERTEX
  8
S-OBRYS
  5
6610C
 10
50555.4
 20
426789.
 30
0.000000
  70
    32
  0
VERTEX
  8
S-OBRYS
  5
6610D
 10
50555.6
 20
426789.
 30
0.000000
  70
    32
  0
VERTEX
  8
S-OBRYS
  5
6610E
 10
50555.7
 20
426789.
 30
0.000000
  70
    32
  0
VERTEX
  8
S-OBRYS
  5
6610F
 10
50555.8
 20
426789.
 30
0.000000
  70
    32
  0
VERTEX
  8
S-OBRYS
  5
66110
 10
50555.9
 20
426789.
 30
0.000000
  70
    32
  0
VERTEX
  8
S-OBRYS
  5
66111
 10
50556.1
 20
426789.
 30
0.000000
  70
    32
  0
VERTEX
  8
S-OBRYS
  5
66112
 10
50556.2
 20
426789.
 30
0.000000
  70
    32
  0
VERTEX
  8
S-OBRYS
  5
66113
 10
50556.3
 20
426789.
 30
0.000000
  70
    32
  0
VERTEX
  8
S-OBRYS
  5
66114
 10
50556.5
 20
426789.
 30
0.000000
  70
    32
  0
VERTEX
  8
S-OBRYS
  5
66115
 10
50556.6
 20
426789.
 30
0.000000
  70
    32
  0
VERTEX
  8
S-OBRYS
  5
66116
 10
50556.7
 20
426789.
 30
0.000000
  70
    32
  0
VERTEX
  8
S-OBRYS
  5
66117
 10
50556.9
 20
426789.
 30
0.000000
  70
    32
  0
VERTEX
  8
S-OBRYS
  5
66118
 10
50557.0
 20
426789.
 30
0.000000
  70
    32
  0
VERTEX
  8
S-OBRYS
  5
66119
 10
50557.2
 20
426789.
 30
0.000000
  70
    32
  0
VERTEX
  8
S-OBRYS
  5
6611A
 10
50557.3
 20
426789.
 30
0.000000
  70
    32
  0
VERTEX
  8
S-OBRYS
  5
6611B
 10
50557.4
 20
426789.
 30
0.000000
  70
    32
  0
VERTEX
  8
S-OBRYS
  5
6611C
 10
50557.6
 20
426789.
 30
0.000000
  70
    32
  0
VERTEX
  8
S-OBRYS
  5
6611D
 10
50557.7
 20
426789.
 30
0.000000
  70
    32
  0
VERTEX
  8
S-OBRYS
  5
6611E
 10
50557.8
 20
426789.
 30
0.000000
  70
    32
  0
VERTEX
  8
S-OBRYS
  5
6611F
 10
50558.0
 20
426790.
 30
0.000000
  70
    32
  0
VERTEX
  8
S-OBRYS
  5
66120
 10
50558.1
 20
426790.
 30
0.000000
  70
    32
  0
VERTEX
  8
S-OBRYS
  5
66121
 10
50558.3
 20
426790.
 30
0.000000
  70
    32
  0
VERTEX
  8
S-OBRYS
  5
66122
 10
50558.4
 20
426790.
 30
0.000000
  70
    32
  0
VERTEX
  8
S-OBRYS
  5
66123
 10
50558.5
 20
426790.
 30
0.000000
  70
    32
  0
VERTEX
  8
S-OBRYS
  5
66124
 10
50558.7
 20
426790.
 30
0.000000
  70
    32
  0
VERTEX
  8
S-OBRYS
  5
66125
 10
50558.8
 20
426790.
 30
0.000000
  70
    32
  0
VERTEX
  8
S-OBRYS
  5
66126
 10
50558.9
 20
426790.
 30
0.000000
  70
    32
  0
VERTEX
  8
S-OBRYS
  5
66127
 10
50559.0
 20
426790.
 30
0.000000
  70
    32
  0
VERTEX
  8
S-OBRYS
  5
66128
 10
50559.2
 20
426790.
 30
0.000000
  70
    32
  0
VERTEX
  8
S-OBRYS
  5
66129
 10
50559.3
 20
426790.
 30
0.000000
  70
    32
  0
VERTEX
  8
S-OBRYS
  5
6612A
 10
50559.4
 20
426790.
 30
0.000000
  70
    32
  0
VERTEX
  8
S-OBRYS
  5
6612B
 10
50559.5
 20
426790.
 30
0.000000
  70
    32
  0
VERTEX
  8
S-OBRYS
  5
6612C
 10
50559.6
 20
426790.
 30
0.000000
  70
    32
  0
VERTEX
  8
S-OBRYS
  5
6612D
 10
50559.7
 20
426790.
 30
0.000000
  70
    32
  0
VERTEX
  8
S-OBRYS
  5
6612E
 10
50559.8
 20
426790.
 30
0.000000
  70
    32
  0
VERTEX
  8
S-OBRYS
  5
6612F
 10
50560.0
 20
426790.
 30
0.000000
  70
    32
  0
VERTEX
  8
S-OBRYS
  5
66130
 10
50560.1
 20
426790.
 30
0.000000
  70
    32
  0
VERTEX
  8
S-OBRYS
  5
66131
 10
50560.2
 20
426789.
 30
0.000000
  70
    32
  0
VERTEX
  8
S-OBRYS
  5
66132
 10
50560.3
 20
426789.
 30
0.000000
  70
    32
  0
VERTEX
  8
S-OBRYS
  5
66133
 10
50560.4
 20
426789.
 30
0.000000
  70
    32
  0
VERTEX
  8
S-OBRYS
  5
66134
 10
50560.5
 20
426789.
 30
0.000000
  70
    32
  0
VERTEX
  8
S-OBRYS
  5
66135
 10
50560.5
 20
426789.
 30
0.000000
  70
    32
  0
VERTEX
  8
S-OBRYS
  5
66136
 10
50560.6
 20
426789.
 30
0.000000
  70
    32
  0
VERTEX
  8
S-OBRYS
  5
66137
 10
50560.7
 20
426789.
 30
0.000000
  70
    32
  0
VERTEX
  8
S-OBRYS
  5
66138
 10
50560.8
 20
426789.
 30
0.000000
  70
    32
  0
VERTEX
  8
S-OBRYS
  5
66139
 10
50560.9
 20
426789.
 30
0.000000
  70
    32
  0
VERTEX
  8
S-OBRYS
  5
6613A
 10
50561.0
 20
426789.
 30
0.000000
  70
    32
  0
VERTEX
  8
S-OBRYS
  5
6613B
 10
50561.1
 20
426788.
 30
0.000000
  70
    32
  0
VERTEX
  8
S-OBRYS
  5
6613C
 10
50561.2
 20
426788.
 30
0.000000
  70
    32
  0
VERTEX
  8
S-OBRYS
  5
6613D
 10
50561.2
 20
426788.
 30
0.000000
  70
    32
  0
VERTEX
  8
S-OBRYS
  5
6613E
 10
50561.3
 20
426788.
 30
0.000000
  70
    32
  0
VERTEX
  8
S-OBRYS
  5
6613F
 10
50561.4
 20
426788.
 30
0.000000
  70
    32
  0
VERTEX
  8
S-OBRYS
  5
66140
 10
50561.5
 20
426788.
 30
0.000000
  70
    32
  0
VERTEX
  8
S-OBRYS
  5
66141
 10
50561.6
 20
426788.
 30
0.000000
  70
    32
  0
VERTEX
  8
S-OBRYS
  5
66142
 10
50561.6
 20
426788.
 30
0.000000
  70
    32
  0
VERTEX
  8
S-OBRYS
  5
66143
 10
50561.7
 20
426787.
 30
0.000000
  70
    32
  0
VERTEX
  8
S-OBRYS
  5
66144
 10
50561.8
 20
426787.
 30
0.000000
  70
    32
  0
VERTEX
  8
S-OBRYS
  5
66145
 10
50561.9
 20
426787.
 30
0.000000
  70
    32
  0
VERTEX
  8
S-OBRYS
  5
66146
 10
50562.0
 20
426787.
 30
0.000000
  70
    32
  0
VERTEX
  8
S-OBRYS
  5
66147
 10
50562.1
 20
426787.
 30
0.000000
  70
    32
  0
VERTEX
  8
S-OBRYS
  5
66148
 10
50562.1
 20
426787.
 30
0.000000
  70
    32
  0
VERTEX
  8
S-OBRYS
  5
66149
 10
50562.2
 20
426787.
 30
0.000000
  70
    32
  0
VERTEX
  8
S-OBRYS
  5
6614A
 10
50562.3
 20
426787.
 30
0.000000
  70
    32
  0
VERTEX
  8
S-OBRYS
  5
6614B
 10
50562.4
 20
426787.
 30
0.000000
  70
    32
  0
VERTEX
  8
S-OBRYS
  5
6614C
 10
50562.5
 20
426786.
 30
0.000000
  70
    32
  0
VERTEX
  8
S-OBRYS
  5
6614D
 10
50562.6
 20
426786.
 30
0.000000
  70
    32
  0
VERTEX
  8
S-OBRYS
  5
6614E
 10
50562.7
 20
426786.
 30
0.000000
  70
    32
  0
VERTEX
  8
S-OBRYS
  5
6614F
 10
50562.8
 20
426786.
 30
0.000000
  70
    32
  0
VERTEX
  8
S-OBRYS
  5
66150
 10
50562.9
 20
426786.
 30
0.000000
  70
    32
  0
VERTEX
  8
S-OBRYS
  5
66151
 10
50563.0
 20
426786.
 30
0.000000
  70
    32
  0
VERTEX
  8
S-OBRYS
  5
66152
 10
50563.0
 20
426786.
 30
0.000000
  70
    32
  0
VERTEX
  8
S-OBRYS
  5
66153
 10
50563.1
 20
426786.
 30
0.000000
  70
    32
  0
VERTEX
  8
S-OBRYS
  5
66154
 10
50563.2
 20
426786.
 30
0.000000
  70
    32
  0
VERTEX
  8
S-OBRYS
  5
66155
 10
50563.4
 20
426786.
 30
0.000000
  70
    32
  0
VERTEX
  8
S-OBRYS
  5
66156
 10
50563.5
 20
426786.
 30
0.000000
  70
    32
  0
VERTEX
  8
S-OBRYS
  5
66157
 10
50563.6
 20
426786.
 30
0.000000
  70
    32
  0
VERTEX
  8
S-OBRYS
  5
66158
 10
50563.7
 20
426786.
 30
0.000000
  70
    32
  0
VERTEX
  8
S-OBRYS
  5
66159
 10
50563.8
 20
426786.
 30
0.000000
  70
    32
  0
VERTEX
  8
S-OBRYS
  5
6615A
 10
50563.9
 20
426786.
 30
0.000000
  70
    32
  0
VERTEX
  8
S-OBRYS
  5
6615B
 10
50564.0
 20
426786.
 30
0.000000
  70
    32
  0
VERTEX
  8
S-OBRYS
  5
6615C
 10
50564.1
 20
426786.
 30
0.000000
  70
    32
  0
VERTEX
  8
S-OBRYS
  5
6615D
 10
50564.3
 20
426786.
 30
0.000000
  70
    32
  0
VERTEX
  8
S-OBRYS
  5
6615E
 10
50564.4
 20
426786.
 30
0.000000
  70
    32
  0
VERTEX
  8
S-OBRYS
  5
6615F
 10
50564.5
 20
426786.
 30
0.000000
  70
    32
  0
VERTEX
  8
S-OBRYS
  5
66160
 10
50564.6
 20
426786.
 30
0.000000
  70
    32
  0
VERTEX
  8
S-OBRYS
  5
66161
 10
50564.8
 20
426786.
 30
0.000000
  70
    32
  0
VERTEX
  8
S-OBRYS
  5
66162
 10
50564.9
 20
426786.
 30
0.000000
  70
    32
  0
VERTEX
  8
S-OBRYS
  5
66163
 10
50565.0
 20
426786.
 30
0.000000
  70
    32
  0
VERTEX
  8
S-OBRYS
  5
66164
 10
50565.1
 20
426786.
 30
0.000000
  70
    32
  0
VERTEX
  8
S-OBRYS
  5
66165
 10
50565.3
 20
426786.
 30
0.000000
  70
    32
  0
VERTEX
  8
S-OBRYS
  5
66166
 10
50565.4
 20
426786.
 30
0.000000
  70
    32
  0
VERTEX
  8
S-OBRYS
  5
66167
 10
50565.5
 20
426786.
 30
0.000000
  70
    32
  0
VERTEX
  8
S-OBRYS
  5
66168
 10
50565.7
 20
426787.
 30
0.000000
  70
    32
  0
VERTEX
  8
S-OBRYS
  5
66169
 10
50565.8
 20
426787.
 30
0.000000
  70
    32
  0
VERTEX
  8
S-OBRYS
  5
6616A
 10
50565.9
 20
426787.
 30
0.000000
  70
    32
  0
VERTEX
  8
S-OBRYS
  5
6616B
 10
50566.1
 20
426787.
 30
0.000000
  70
    32
  0
VERTEX
  8
S-OBRYS
  5
6616C
 10
50566.2
 20
426787.
 30
0.000000
  70
    32
  0
VERTEX
  8
S-OBRYS
  5
6616D
 10
50566.3
 20
426787.
 30
0.000000
  70
    32
  0
VERTEX
  8
S-OBRYS
  5
6616E
 10
50566.5
 20
426787.
 30
0.000000
  70
    32
  0
VERTEX
  8
S-OBRYS
  5
6616F
 10
50566.6
 20
426787.
 30
0.000000
  70
    32
  0
VERTEX
  8
S-OBRYS
  5
66170
 10
50566.7
 20
426787.
 30
0.000000
  70
    32
  0
VERTEX
  8
S-OBRYS
  5
66171
 10
50566.8
 20
426787.
 30
0.000000
  70
    32
  0
VERTEX
  8
S-OBRYS
  5
66172
 10
50567.0
 20
426787.
 30
0.000000
  70
    32
  0
VERTEX
  8
S-OBRYS
  5
66173
 10
50567.1
 20
426787.
 30
0.000000
  70
    32
  0
VERTEX
  8
S-OBRYS
  5
66174
 10
50567.2
 20
426787.
 30
0.000000
  70
    32
  0
VERTEX
  8
S-OBRYS
  5
66175
 10
50567.4
 20
426787.
 30
0.000000
  70
    32
  0
VERTEX
  8
S-OBRYS
  5
66176
 10
50567.5
 20
426787.
 30
0.000000
  70
    32
  0
VERTEX
  8
S-OBRYS
  5
66177
 10
50567.6
 20
426787.
 30
0.000000
  70
    32
  0
VERTEX
  8
S-OBRYS
  5
66178
 10
50567.7
 20
426787.
 30
0.000000
  70
    32
  0
VERTEX
  8
S-OBRYS
  5
66179
 10
50567.9
 20
426787.
 30
0.000000
  70
    32
  0
VERTEX
  8
S-OBRYS
  5
6617A
 10
50568.0
 20
426787.
 30
0.000000
  70
    32
  0
VERTEX
  8
S-OBRYS
  5
6617B
 10
50568.1
 20
426787.
 30
0.000000
  70
    32
  0
VERTEX
  8
S-OBRYS
  5
6617C
 10
50568.2
 20
426787.
 30
0.000000
  70
    32
  0
VERTEX
  8
S-OBRYS
  5
6617D
 10
50568.4
 20
426787.
 30
0.000000
  70
    32
  0
VERTEX
  8
S-OBRYS
  5
6617E
 10
50568.5
 20
426787.
 30
0.000000
  70
    32
  0
VERTEX
  8
S-OBRYS
  5
6617F
 10
50568.6
 20
426787.
 30
0.000000
  70
    32
  0
VERTEX
  8
S-OBRYS
  5
66180
 10
50568.7
 20
426787.
 30
0.000000
  70
    32
  0
VERTEX
  8
S-OBRYS
  5
66181
 10
50568.8
 20
426787.
 30
0.000000
  70
    32
  0
VERTEX
  8
S-OBRYS
  5
66182
 10
50568.9
 20
426787.
 30
0.000000
  70
    32
  0
VERTEX
  8
S-OBRYS
  5
66183
 10
50569.0
 20
426787.
 30
0.000000
  70
    32
  0
VERTEX
  8
S-OBRYS
  5
66184
 10
50569.2
 20
426787.
 30
0.000000
  70
    32
  0
VERTEX
  8
S-OBRYS
  5
66185
 10
50569.3
 20
426787.
 30
0.000000
  70
    32
  0
VERTEX
  8
S-OBRYS
  5
66186
 10
50569.4
 20
426787.
 30
0.000000
  70
    32
  0
VERTEX
  8
S-OBRYS
  5
66187
 10
50569.5
 20
426787.
 30
0.000000
  70
    32
  0
VERTEX
  8
S-OBRYS
  5
66188
 10
50569.6
 20
426787.
 30
0.000000
  70
    32
  0
VERTEX
  8
S-OBRYS
  5
66189
 10
50569.7
 20
426787.
 30
0.000000
  70
    32
  0
VERTEX
  8
S-OBRYS
  5
6618A
 10
50569.8
 20
426787.
 30
0.000000
  70
    32
  0
VERTEX
  8
S-OBRYS
  5
6618B
 10
50569.9
 20
426787.
 30
0.000000
  70
    32
  0
VERTEX
  8
S-OBRYS
  5
6618C
 10
50570.0
 20
426787.
 30
0.000000
  70
    32
  0
VERTEX
  8
S-OBRYS
  5
6618D
 10
50570.1
 20
426787.
 30
0.000000
  70
    32
  0
VERTEX
  8
S-OBRYS
  5
6618E
 10
50570.2
 20
426787.
 30
0.000000
  70
    32
  0
VERTEX
  8
S-OBRYS
  5
6618F
 10
50570.4
 20
426786.
 30
0.000000
  70
    32
  0
VERTEX
  8
S-OBRYS
  5
66190
 10
50570.5
 20
426786.
 30
0.000000
  70
    32
  0
VERTEX
  8
S-OBRYS
  5
66191
 10
50570.6
 20
426786.
 30
0.000000
  70
    32
  0
VERTEX
  8
S-OBRYS
  5
66192
 10
50570.7
 20
426786.
 30
0.000000
  70
    32
  0
VERTEX
  8
S-OBRYS
  5
66193
 10
50570.8
 20
426786.
 30
0.000000
  70
    32
  0
VERTEX
  8
S-OBRYS
  5
66194
 10
50570.9
 20
426786.
 30
0.000000
  70
    32
  0
VERTEX
  8
S-OBRYS
  5
66195
 10
50571.0
 20
426786.
 30
0.000000
  70
    32
  0
VERTEX
  8
S-OBRYS
  5
66196
 10
50571.1
 20
426786.
 30
0.000000
  70
    32
  0
VERTEX
  8
S-OBRYS
  5
66197
 10
50571.2
 20
426786.
 30
0.000000
  70
    32
  0
VERTEX
  8
S-OBRYS
  5
66198
 10
50571.3
 20
426786.
 30
0.000000
  70
    32
  0
VERTEX
  8
S-OBRYS
  5
66199
 10
50571.4
 20
426785.
 30
0.000000
  70
    32
  0
VERTEX
  8
S-OBRYS
  5
6619A
 10
50571.5
 20
426785.
 30
0.000000
  70
    32
  0
VERTEX
  8
S-OBRYS
  5
6619B
 10
50571.6
 20
426785.
 30
0.000000
  70
    32
  0
VERTEX
  8
S-OBRYS
  5
6619C
 10
50571.7
 20
426785.
 30
0.000000
  70
    32
  0
VERTEX
  8
S-OBRYS
  5
6619D
 10
50571.8
 20
426785.
 30
0.000000
  70
    32
  0
VERTEX
  8
S-OBRYS
  5
6619E
 10
50571.9
 20
426785.
 30
0.000000
  70
    32
  0
VERTEX
  8
S-OBRYS
  5
6619F
 10
50572.0
 20
426785.
 30
0.000000
  70
    32
  0
VERTEX
  8
S-OBRYS
  5
661A0
 10
50572.1
 20
426785.
 30
0.000000
  70
    32
  0
VERTEX
  8
S-OBRYS
  5
661A1
 10
50572.2
 20
426785.
 30
0.000000
  70
    32
  0
VERTEX
  8
S-OBRYS
  5
661A2
 10
50572.3
 20
426785.
 30
0.000000
  70
    32
  0
VERTEX
  8
S-OBRYS
  5
661A3
 10
50572.4
 20
426784.
 30
0.000000
  70
    32
  0
VERTEX
  8
S-OBRYS
  5
661A4
 10
50572.5
 20
426784.
 30
0.000000
  70
    32
  0
VERTEX
  8
S-OBRYS
  5
661A5
 10
50572.7
 20
426784.
 30
0.000000
  70
    32
  0
VERTEX
  8
S-OBRYS
  5
661A6
 10
50572.8
 20
426784.
 30
0.000000
  70
    32
  0
VERTEX
  8
S-OBRYS
  5
661A7
 10
50572.9
 20
426784.
 30
0.000000
  70
    32
  0
VERTEX
  8
S-OBRYS
  5
661A8
 10
50573.0
 20
426784.
 30
0.000000
  70
    32
  0
VERTEX
  8
S-OBRYS
  5
661A9
 10
50573.1
 20
426784.
 30
0.000000
  70
    32
  0
VERTEX
  8
S-OBRYS
  5
661AA
 10
50573.2
 20
426784.
 30
0.000000
  70
    32
  0
VERTEX
  8
S-OBRYS
  5
661AB
 10
50573.3
 20
426784.
 30
0.000000
  70
    32
  0
VERTEX
  8
S-OBRYS
  5
661AC
 10
50573.4
 20
426784.
 30
0.000000
  70
    32
  0
VERTEX
  8
S-OBRYS
  5
661AD
 10
50573.5
 20
426784.
 30
0.000000
  70
    32
  0
VERTEX
  8
S-OBRYS
  5
661AE
 10
50573.6
 20
426784.
 30
0.000000
  70
    32
  0
VERTEX
  8
S-OBRYS
  5
661AF
 10
50573.8
 20
426783.
 30
0.000000
  70
    32
  0
VERTEX
  8
S-OBRYS
  5
661B0
 10
50573.9
 20
426783.
 30
0.000000
  70
    32
  0
VERTEX
  8
S-OBRYS
  5
661B1
 10
50574.0
 20
426783.
 30
0.000000
  70
    32
  0
VERTEX
  8
S-OBRYS
  5
661B2
 10
50574.1
 20
426783.
 30
0.000000
  70
    32
  0
VERTEX
  8
S-OBRYS
  5
661B3
 10
50574.2
 20
426783.
 30
0.000000
  70
    32
  0
VERTEX
  8
S-OBRYS
  5
661B4
 10
50574.3
 20
426783.
 30
0.000000
  70
    32
  0
VERTEX
  8
S-OBRYS
  5
661B5
 10
50574.5
 20
426783.
 30
0.000000
  70
    32
  0
VERTEX
  8
S-OBRYS
  5
661B6
 10
50574.6
 20
426783.
 30
0.000000
  70
    32
  0
VERTEX
  8
S-OBRYS
  5
661B7
 10
50574.7
 20
426783.
 30
0.000000
  70
    32
  0
VERTEX
  8
S-OBRYS
  5
661B8
 10
50574.8
 20
426783.
 30
0.000000
  70
    32
  0
VERTEX
  8
S-OBRYS
  5
661B9
 10
50574.9
 20
426783.
 30
0.000000
  70
    32
  0
VERTEX
  8
S-OBRYS
  5
661BA
 10
50575.1
 20
426783.
 30
0.000000
  70
    32
  0
VERTEX
  8
S-OBRYS
  5
661BB
 10
50575.2
 20
426783.
 30
0.000000
  70
    32
  0
VERTEX
  8
S-OBRYS
  5
661BC
 10
50575.3
 20
426783.
 30
0.000000
  70
    32
  0
VERTEX
  8
S-OBRYS
  5
661BD
 10
50575.5
 20
426783.
 30
0.000000
  70
    32
  0
VERTEX
  8
S-OBRYS
  5
661BE
 10
50575.6
 20
426783.
 30
0.000000
  70
    32
  0
VERTEX
  8
S-OBRYS
  5
661BF
 10
50575.7
 20
426783.
 30
0.000000
  70
    32
  0
VERTEX
  8
S-OBRYS
  5
661C0
 10
50575.8
 20
426783.
 30
0.000000
  70
    32
  0
VERTEX
  8
S-OBRYS
  5
661C1
 10
50576.0
 20
426783.
 30
0.000000
  70
    32
  0
VERTEX
  8
S-OBRYS
  5
661C2
 10
50576.1
 20
426783.
 30
0.000000
  70
    32
  0
VERTEX
  8
S-OBRYS
  5
661C3
 10
50576.2
 20
426783.
 30
0.000000
  70
    32
  0
VERTEX
  8
S-OBRYS
  5
661C4
 10
50576.4
 20
426783.
 30
0.000000
  70
    32
  0
VERTEX
  8
S-OBRYS
  5
661C5
 10
50576.5
 20
426783.
 30
0.000000
  70
    32
  0
VERTEX
  8
S-OBRYS
  5
661C6
 10
50576.6
 20
426783.
 30
0.000000
  70
    32
  0
VERTEX
  8
S-OBRYS
  5
661C7
 10
50576.8
 20
426783.
 30
0.000000
  70
    32
  0
VERTEX
  8
S-OBRYS
  5
661C8
 10
50576.9
 20
426783.
 30
0.000000
  70
    32
  0
VERTEX
  8
S-OBRYS
  5
661C9
 10
50577.0
 20
426783.
 30
0.000000
  70
    32
  0
VERTEX
  8
S-OBRYS
  5
661CA
 10
50577.2
 20
426783.
 30
0.000000
  70
    32
  0
VERTEX
  8
S-OBRYS
  5
661CB
 10
50577.3
 20
426783.
 30
0.000000
  70
    32
  0
VERTEX
  8
S-OBRYS
  5
661CC
 10
50577.4
 20
426783.
 30
0.000000
  70
    32
  0
VERTEX
  8
S-OBRYS
  5
661CD
 10
50577.6
 20
426783.
 30
0.000000
  70
    32
  0
VERTEX
  8
S-OBRYS
  5
661CE
 10
50577.7
 20
426783.
 30
0.000000
  70
    32
  0
VERTEX
  8
S-OBRYS
  5
661CF
 10
50577.8
 20
426783.
 30
0.000000
  70
    32
  0
VERTEX
  8
S-OBRYS
  5
661D0
 10
50578.0
 20
426783.
 30
0.000000
  70
    32
  0
VERTEX
  8
S-OBRYS
  5
661D1
 10
50578.1
 20
426783.
 30
0.000000
  70
    32
  0
VERTEX
  8
S-OBRYS
  5
661D2
 10
50578.2
 20
426783.
 30
0.000000
  70
    32
  0
VERTEX
  8
S-OBRYS
  5
661D3
 10
50578.4
 20
426783.
 30
0.000000
  70
    32
  0
VERTEX
  8
S-OBRYS
  5
661D4
 10
50578.5
 20
426783.
 30
0.000000
  70
    32
  0
VERTEX
  8
S-OBRYS
  5
661D5
 10
50578.6
 20
426783.
 30
0.000000
  70
    32
  0
VERTEX
  8
S-OBRYS
  5
661D6
 10
50578.8
 20
426783.
 30
0.000000
  70
    32
  0
VERTEX
  8
S-OBRYS
  5
661D7
 10
50578.9
 20
426783.
 30
0.000000
  70
    32
  0
VERTEX
  8
S-OBRYS
  5
661D8
 10
50579.0
 20
426783.
 30
0.000000
  70
    32
  0
VERTEX
  8
S-OBRYS
  5
661D9
 10
50579.2
 20
426783.
 30
0.000000
  70
    32
  0
VERTEX
  8
S-OBRYS
  5
661DA
 10
50579.3
 20
426783.
 30
0.000000
  70
    32
  0
VERTEX
  8
S-OBRYS
  5
661DB
 10
50579.4
 20
426783.
 30
0.000000
  70
    32
  0
VERTEX
  8
S-OBRYS
  5
661DC
 10
50579.5
 20
426783.
 30
0.000000
  70
    32
  0
VERTEX
  8
S-OBRYS
  5
661DD
 10
50579.7
 20
426783.
 30
0.000000
  70
    32
  0
VERTEX
  8
S-OBRYS
  5
661DE
 10
50579.8
 20
426783.
 30
0.000000
  70
    32
  0
VERTEX
  8
S-OBRYS
  5
661DF
 10
50579.9
 20
426783.
 30
0.000000
  70
    32
  0
VERTEX
  8
S-OBRYS
  5
661E0
 10
50580.0
 20
426783.
 30
0.000000
  70
    32
  0
VERTEX
  8
S-OBRYS
  5
661E1
 10
50580.2
 20
426783.
 30
0.000000
  70
    32
  0
VERTEX
  8
S-OBRYS
  5
661E2
 10
50580.3
 20
426783.
 30
0.000000
  70
    32
  0
VERTEX
  8
S-OBRYS
  5
661E3
 10
50580.4
 20
426783.
 30
0.000000
  70
    32
  0
VERTEX
  8
S-OBRYS
  5
661E4
 10
50580.5
 20
426782.
 30
0.000000
  70
    32
  0
VERTEX
  8
S-OBRYS
  5
661E5
 10
50580.6
 20
426782.
 30
0.000000
  70
    32
  0
VERTEX
  8
S-OBRYS
  5
661E6
 10
50580.8
 20
426782.
 30
0.000000
  70
    32
  0
VERTEX
  8
S-OBRYS
  5
661E7
 10
50580.9
 20
426782.
 30
0.000000
  70
    32
  0
VERTEX
  8
S-OBRYS
  5
661E8
 10
50581.0
 20
426782.
 30
0.000000
  70
    32
  0
VERTEX
  8
S-OBRYS
  5
661E9
 10
50581.1
 20
426782.
 30
0.000000
  70
    32
  0
VERTEX
  8
S-OBRYS
  5
661EA
 10
50581.2
 20
426782.
 30
0.000000
  70
    32
  0
VERTEX
  8
S-OBRYS
  5
661EB
 10
50581.4
 20
426782.
 30
0.000000
  70
    32
  0
VERTEX
  8
S-OBRYS
  5
661EC
 10
50581.5
 20
426782.
 30
0.000000
  70
    32
  0
VERTEX
  8
S-OBRYS
  5
661ED
 10
50581.6
 20
426782.
 30
0.000000
  70
    32
  0
VERTEX
  8
S-OBRYS
  5
661EE
 10
50581.7
 20
426782.
 30
0.000000
  70
    32
  0
VERTEX
  8
S-OBRYS
  5
661EF
 10
50581.8
 20
426782.
 30
0.000000
  70
    32
  0
VERTEX
  8
S-OBRYS
  5
661F0
 10
50581.9
 20
426782.
 30
0.000000
  70
    32
  0
VERTEX
  8
S-OBRYS
  5
661F1
 10
50582.1
 20
426782.
 30
0.000000
  70
    32
  0
VERTEX
  8
S-OBRYS
  5
661F2
 10
50582.2
 20
426782.
 30
0.000000
  70
    32
  0
VERTEX
  8
S-OBRYS
  5
661F3
 10
50582.3
 20
426781.
 30
0.000000
  70
    32
  0
VERTEX
  8
S-OBRYS
  5
661F4
 10
50582.4
 20
426781.
 30
0.000000
  70
    32
  0
VERTEX
  8
S-OBRYS
  5
661F5
 10
50582.5
 20
426781.
 30
0.000000
  70
    32
  0
VERTEX
  8
S-OBRYS
  5
661F6
 10
50582.6
 20
426781.
 30
0.000000
  70
    32
  0
VERTEX
  8
S-OBRYS
  5
661F7
 10
50582.8
 20
426781.
 30
0.000000
  70
    32
  0
VERTEX
  8
S-OBRYS
  5
661F8
 10
50582.9
 20
426781.
 30
0.000000
  70
    32
  0
VERTEX
  8
S-OBRYS
  5
661F9
 10
50583.0
 20
426781.
 30
0.000000
  70
    32
  0
VERTEX
  8
S-OBRYS
  5
661FA
 10
50583.1
 20
426781.
 30
0.000000
  70
    32
  0
VERTEX
  8
S-OBRYS
  5
661FB
 10
50583.2
 20
426781.
 30
0.000000
  70
    32
  0
VERTEX
  8
S-OBRYS
  5
661FC
 10
50583.3
 20
426781.
 30
0.000000
  70
    32
  0
VERTEX
  8
S-OBRYS
  5
661FD
 10
50583.4
 20
426781.
 30
0.000000
  70
    32
  0
VERTEX
  8
S-OBRYS
  5
661FE
 10
50583.6
 20
426781.
 30
0.000000
  70
    32
  0
VERTEX
  8
S-OBRYS
  5
661FF
 10
50583.7
 20
426781.
 30
0.000000
  70
    32
  0
VERTEX
  8
S-OBRYS
  5
66200
 10
50583.8
 20
426781.
 30
0.000000
  70
    32
  0
VERTEX
  8
S-OBRYS
  5
66201
 10
50583.9
 20
426781.
 30
0.000000
  70
    32
  0
VERTEX
  8
S-OBRYS
  5
66202
 10
50584.0
 20
426780.
 30
0.000000
  70
    32
  0
VERTEX
  8
S-OBRYS
  5
66203
 10
50584.2
 20
426780.
 30
0.000000
  70
    32
  0
VERTEX
  8
S-OBRYS
  5
66204
 10
50584.3
 20
426780.
 30
0.000000
  70
    32
  0
VERTEX
  8
S-OBRYS
  5
66205
 10
50584.4
 20
426780.
 30
0.000000
  70
    32
  0
VERTEX
  8
S-OBRYS
  5
66206
 10
50584.5
 20
426780.
 30
0.000000
  70
    32
  0
VERTEX
  8
S-OBRYS
  5
66207
 10
50584.6
 20
426780.
 30
0.000000
  70
    32
  0
VERTEX
  8
S-OBRYS
  5
66208
 10
50584.8
 20
426780.
 30
0.000000
  70
    32
  0
VERTEX
  8
S-OBRYS
  5
66209
 10
50584.9
 20
426780.
 30
0.000000
  70
    32
  0
VERTEX
  8
S-OBRYS
  5
6620A
 10
50585.0
 20
426780.
 30
0.000000
  70
    32
  0
VERTEX
  8
S-OBRYS
  5
6620B
 10
50585.1
 20
426780.
 30
0.000000
  70
    32
  0
VERTEX
  8
S-OBRYS
  5
6620C
 10
50585.2
 20
426780.
 30
0.000000
  70
    32
  0
VERTEX
  8
S-OBRYS
  5
6620D
 10
50585.4
 20
426780.
 30
0.000000
  70
    32
  0
VERTEX
  8
S-OBRYS
  5
6620E
 10
50585.5
 20
426780.
 30
0.000000
  70
    32
  0
VERTEX
  8
S-OBRYS
  5
6620F
 10
50585.6
 20
426780.
 30
0.000000
  70
    32
  0
VERTEX
  8
S-OBRYS
  5
66210
 10
50585.7
 20
426780.
 30
0.000000
  70
    32
  0
VERTEX
  8
S-OBRYS
  5
66211
 10
50585.9
 20
426780.
 30
0.000000
  70
    32
  0
VERTEX
  8
S-OBRYS
  5
66212
 10
50586.0
 20
426780.
 30
0.000000
  70
    32
  0
VERTEX
  8
S-OBRYS
  5
66213
 10
50586.1
 20
426780.
 30
0.000000
  70
    32
  0
VERTEX
  8
S-OBRYS
  5
66214
 10
50586.2
 20
426780.
 30
0.000000
  70
    32
  0
VERTEX
  8
S-OBRYS
  5
66215
 10
50586.4
 20
426780.
 30
0.000000
  70
    32
  0
VERTEX
  8
S-OBRYS
  5
66216
 10
50586.5
 20
426780.
 30
0.000000
  70
    32
  0
VERTEX
  8
S-OBRYS
  5
66217
 10
50586.6
 20
426780.
 30
0.000000
  70
    32
  0
VERTEX
  8
S-OBRYS
  5
66218
 10
50586.8
 20
426780.
 30
0.000000
  70
    32
  0
VERTEX
  8
S-OBRYS
  5
66219
 10
50586.9
 20
426780.
 30
0.000000
  70
    32
  0
VERTEX
  8
S-OBRYS
  5
6621A
 10
50587.0
 20
426780.
 30
0.000000
  70
    32
  0
VERTEX
  8
S-OBRYS
  5
6621B
 10
50587.2
 20
426780.
 30
0.000000
  70
    32
  0
VERTEX
  8
S-OBRYS
  5
6621C
 10
50587.3
 20
426780.
 30
0.000000
  70
    32
  0
VERTEX
  8
S-OBRYS
  5
6621D
 10
50587.4
 20
426780.
 30
0.000000
  70
    32
  0
VERTEX
  8
S-OBRYS
  5
6621E
 10
50587.6
 20
426780.
 30
0.000000
  70
    32
  0
VERTEX
  8
S-OBRYS
  5
6621F
 10
50587.7
 20
426780.
 30
0.000000
  70
    32
  0
VERTEX
  8
S-OBRYS
  5
66220
 10
50587.8
 20
426780.
 30
0.000000
  70
    32
  0
VERTEX
  8
S-OBRYS
  5
66221
 10
50587.9
 20
426780.
 30
0.000000
  70
    32
  0
VERTEX
  8
S-OBRYS
  5
66222
 10
50588.1
 20
426780.
 30
0.000000
  70
    32
  0
VERTEX
  8
S-OBRYS
  5
66223
 10
50588.2
 20
426781.
 30
0.000000
  70
    32
  0
VERTEX
  8
S-OBRYS
  5
66224
 10
50588.3
 20
426781.
 30
0.000000
  70
    32
  0
VERTEX
  8
S-OBRYS
  5
66225
 10
50588.5
 20
426781.
 30
0.000000
  70
    32
  0
VERTEX
  8
S-OBRYS
  5
66226
 10
50588.6
 20
426781.
 30
0.000000
  70
    32
  0
VERTEX
  8
S-OBRYS
  5
66227
 10
50588.7
 20
426781.
 30
0.000000
  70
    32
  0
VERTEX
  8
S-OBRYS
  5
66228
 10
50588.9
 20
426781.
 30
0.000000
  70
    32
  0
VERTEX
  8
S-OBRYS
  5
66229
 10
50589.0
 20
426781.
 30
0.000000
  70
    32
  0
VERTEX
  8
S-OBRYS
  5
6622A
 10
50589.1
 20
426781.
 30
0.000000
  70
    32
  0
VERTEX
  8
S-OBRYS
  5
6622B
 10
50589.3
 20
426781.
 30
0.000000
  70
    32
  0
VERTEX
  8
S-OBRYS
  5
6622C
 10
50589.4
 20
426781.
 30
0.000000
  70
    32
  0
VERTEX
  8
S-OBRYS
  5
6622D
 10
50589.5
 20
426781.
 30
0.000000
  70
    32
  0
VERTEX
  8
S-OBRYS
  5
6622E
 10
50589.7
 20
426781.
 30
0.000000
  70
    32
  0
VERTEX
  8
S-OBRYS
  5
6622F
 10
50589.8
 20
426781.
 30
0.000000
  70
    32
  0
VERTEX
  8
S-OBRYS
  5
66230
 10
50589.9
 20
426781.
 30
0.000000
  70
    32
  0
VERTEX
  8
S-OBRYS
  5
66231
 10
50590.0
 20
426781.
 30
0.000000
  70
    32
  0
VERTEX
  8
S-OBRYS
  5
66232
 10
50590.2
 20
426781.
 30
0.000000
  70
    32
  0
VERTEX
  8
S-OBRYS
  5
66233
 10
50590.3
 20
426781.
 30
0.000000
  70
    32
  0
VERTEX
  8
S-OBRYS
  5
66234
 10
50590.4
 20
426781.
 30
0.000000
  70
    32
  0
VERTEX
  8
S-OBRYS
  5
66235
 10
50590.5
 20
426781.
 30
0.000000
  70
    32
  0
VERTEX
  8
S-OBRYS
  5
66236
 10
50590.7
 20
426781.
 30
0.000000
  70
    32
  0
VERTEX
  8
S-OBRYS
  5
66237
 10
50590.8
 20
426781.
 30
0.000000
  70
    32
  0
VERTEX
  8
S-OBRYS
  5
66238
 10
50590.9
 20
426781.
 30
0.000000
  70
    32
  0
VERTEX
  8
S-OBRYS
  5
66239
 10
50591.0
 20
426781.
 30
0.000000
  70
    32
  0
VERTEX
  8
S-OBRYS
  5
6623A
 10
50591.2
 20
426781.
 30
0.000000
  70
    32
  0
VERTEX
  8
S-OBRYS
  5
6623B
 10
50591.3
 20
426781.
 30
0.000000
  70
    32
  0
VERTEX
  8
S-OBRYS
  5
6623C
 10
50591.4
 20
426781.
 30
0.000000
  70
    32
  0
VERTEX
  8
S-OBRYS
  5
6623D
 10
50591.5
 20
426781.
 30
0.000000
  70
    32
  0
VERTEX
  8
S-OBRYS
  5
6623E
 10
50591.7
 20
426781.
 30
0.000000
  70
    32
  0
VERTEX
  8
S-OBRYS
  5
6623F
 10
50591.8
 20
426781.
 30
0.000000
  70
    32
  0
VERTEX
  8
S-OBRYS
  5
66240
 10
50591.9
 20
426781.
 30
0.000000
  70
    32
  0
VERTEX
  8
S-OBRYS
  5
66241
 10
50592.0
 20
426781.
 30
0.000000
  70
    32
  0
VERTEX
  8
S-OBRYS
  5
66242
 10
50592.1
 20
426781.
 30
0.000000
  70
    32
  0
VERTEX
  8
S-OBRYS
  5
66243
 10
50592.2
 20
426781.
 30
0.000000
  70
    32
  0
VERTEX
  8
S-OBRYS
  5
66244
 10
50592.4
 20
426781.
 30
0.000000
  70
    32
  0
VERTEX
  8
S-OBRYS
  5
66245
 10
50592.5
 20
426781.
 30
0.000000
  70
    32
  0
VERTEX
  8
S-OBRYS
  5
66246
 10
50592.6
 20
426781.
 30
0.000000
  70
    32
  0
VERTEX
  8
S-OBRYS
  5
66247
 10
50592.7
 20
426780.
 30
0.000000
  70
    32
  0
VERTEX
  8
S-OBRYS
  5
66248
 10
50592.8
 20
426780.
 30
0.000000
  70
    32
  0
VERTEX
  8
S-OBRYS
  5
66249
 10
50592.9
 20
426780.
 30
0.000000
  70
    32
  0
VERTEX
  8
S-OBRYS
  5
6624A
 10
50593.0
 20
426780.
 30
0.000000
  70
    32
  0
VERTEX
  8
S-OBRYS
  5
6624B
 10
50593.2
 20
426780.
 30
0.000000
  70
    32
  0
VERTEX
  8
S-OBRYS
  5
6624C
 10
50593.3
 20
426780.
 30
0.000000
  70
    32
  0
VERTEX
  8
S-OBRYS
  5
6624D
 10
50593.4
 20
426780.
 30
0.000000
  70
    32
  0
VERTEX
  8
S-OBRYS
  5
6624E
 10
50593.5
 20
426780.
 30
0.000000
  70
    32
  0
VERTEX
  8
S-OBRYS
  5
6624F
 10
50593.6
 20
426780.
 30
0.000000
  70
    32
  0
VERTEX
  8
S-OBRYS
  5
66250
 10
50593.7
 20
426780.
 30
0.000000
  70
    32
  0
VERTEX
  8
S-OBRYS
  5
66251
 10
50593.8
 20
426780.
 30
0.000000
  70
    32
  0
VERTEX
  8
S-OBRYS
  5
66252
 10
50593.9
 20
426780.
 30
0.000000
  70
    32
  0
VERTEX
  8
S-OBRYS
  5
66253
 10
50594.0
 20
426780.
 30
0.000000
  70
    32
  0
VERTEX
  8
S-OBRYS
  5
66254
 10
50594.1
 20
426779.
 30
0.000000
  70
    32
  0
VERTEX
  8
S-OBRYS
  5
66255
 10
50594.3
 20
426779.
 30
0.000000
  70
    32
  0
VERTEX
  8
S-OBRYS
  5
66256
 10
50594.4
 20
426779.
 30
0.000000
  70
    32
  0
VERTEX
  8
S-OBRYS
  5
66257
 10
50594.5
 20
426779.
 30
0.000000
  70
    32
  0
VERTEX
  8
S-OBRYS
  5
66258
 10
50594.6
 20
426779.
 30
0.000000
  70
    32
  0
VERTEX
  8
S-OBRYS
  5
66259
 10
50594.7
 20
426779.
 30
0.000000
  70
    32
  0
VERTEX
  8
S-OBRYS
  5
6625A
 10
50594.8
 20
426779.
 30
0.000000
  70
    32
  0
VERTEX
  8
S-OBRYS
  5
6625B
 10
50594.9
 20
426779.
 30
0.000000
  70
    32
  0
VERTEX
  8
S-OBRYS
  5
6625C
 10
50595.0
 20
426779.
 30
0.000000
  70
    32
  0
VERTEX
  8
S-OBRYS
  5
6625D
 10
50595.1
 20
426779.
 30
0.000000
  70
    32
  0
VERTEX
  8
S-OBRYS
  5
6625E
 10
50595.2
 20
426779.
 30
0.000000
  70
    32
  0
SEQEND
  8
S-OBRYS
  5
6625F
  0
LINE
  5
657BE
  8
S-OBRYS
  6
CONTINUOUS
 10
50546.641689922959
 20
426871.73436578113
 30
0.0
 11
50546.641689922959
 21
426791.71785738663
 31
0.0
  0
LINE
  5
657BF
  8
S-OBRYS
  6
CONTINUOUS
 10
50595.232430043361
 20
426871.73436578113
 30
0.0
 11
50595.232430043361
 21
426778.57202914852
 31
0.0
  0
LINE
  5
657C0
  8
S-OBRYS
  6
CONTINUOUS
 10
50658.419668776063
 20
426678.10119791632
 30
0.0
 11
50658.419668776063
 21
426681.29622529593
 31
0.0
  0
ARC
  5
657C1
  8
S-OBRYS
  6
CONTINUOUS
 10
50987.375871460761
 20
426271.1011979162
 30
0.0
 40
90.651787726604198
 50
298.05484911689791
 51
0.0
  0
LINE
  5
657C2
  8
S-OBRYS
  6
CONTINUOUS
 10
50887.762138391503
 20
426171.45395299193
 30
0.0
 11
51077.127581391862
 21
426171.45395299193
 31
0.0
  0
LINE
  5
657C3
  8
S-OBRYS
  6
CONTINUOUS
 10
50818.419668776063
 20
426460.34753941651
 30
0.0
 11
50818.419668776063
 21
426678.10119791632
 31
0.0
  0
ARC
  5
657C4
  8
S-OBRYS
  6
CONTINUOUS
 10
50987.375871460761
 20
426351.10119791632
 30
0.0
 40
73.15768653098803
 50
358.6331386738907
 51
180.79616626195661
  0
ARC
  5
657C5
  8
S-OBRYS
  6
CONTINUOUS
 10
50987.375871460761
 20
426351.10119791632
 30
0.0
 40
73.15768653098803
 50
180.79616626195661
 51
213.14530182877661
  0
ARC
  5
657C6
  8
S-OBRYS
  6
CONTINUOUS
 10
50987.375871460761
 20
426271.1011979162
 30
0.0
 40
73.15768653098803
 50
146.85469817122339
 51
33.14530182877656
  0
LINE
  5
657C7
  8
S-OBRYS
  6
CONTINUOUS
 10
50920.946820947742
 20
426171.45395299193
 30
0.0
 11
50932.496419424133
 21
426191.10119791632
 31
0.0
  0
ARC
  5
657C8
  8
S-OBRYS
  6
CONTINUOUS
 10
50987.375871460761
 20
426351.10119791632
 30
0.0
 40
90.651787726604198
 50
0.0
 51
180.0
  0
ARC
  5
657C9
  8
S-OBRYS
  6
CONTINUOUS
 10
50987.375871460761
 20
426271.1011979162
 30
0.0
 40
90.651787726604198
 50
180.0
 51
241.94515088310209
  0
LINE
  5
657CA
  8
S-OBRYS
  6
CONTINUOUS
 10
50896.72408373416
 20
426271.1011979162
 30
0.0
 11
50896.72408373416
 21
426349.3536304232
 31
0.0
  0
ARC
  5
657CB
  8
S-OBRYS
  6
CONTINUOUS
 10
50709.635754831797
 20
426271.1011979162
 30
0.0
 40
163.0
 50
330.6557402694487
 51
29.357794754023931
  0
LINE
  5
657CC
  8
S-OBRYS
  6
CONTINUOUS
 10
50858.848672868036
 20
426350.89425604558
 30
0.0
 11
50868.730307324433
 21
426306.56841330131
 31
0.0
  0
ARC
  5
657CD
  8
S-OBRYS
  6
CONTINUOUS
 10
50709.635754831797
 20
426271.1011979162
 30
0.0
 40
103.2669389838192
 50
309.27175976809372
 51
50.734585695472482
  0
LINE
  5
657CE
  8
S-OBRYS
  6
CONTINUOUS
 10
50911.864562274823
 20
426191.10119791632
 30
0.0
 11
50921.985119254663
 21
426208.31747276452
 31
0.0
  0
LINE
  5
657CF
  8
S-OBRYS
  6
CONTINUOUS
 10
50870.180993306632
 20
426242.91917522351
 30
0.0
 11
50861.108823854047
 21
426191.23751900881
 31
0.0
  0
LINE
  5
657D0
  8
S-OBRYS
  6
CONTINUOUS
 10
50900.314963798432
 20
426171.45395299193
 30
0.0
 11
50911.864562274823
 21
426191.10119791632
 31
0.0
  0
LINE
  5
657D1
  8
S-OBRYS
  6
CONTINUOUS
 10
50834.448068855563
 20
426460.34753941651
 30
0.0
 11
50858.848672868036
 21
426350.89425604558
 31
0.0
  0
LINE
  5
657D2
  8
S-OBRYS
  6
CONTINUOUS
 10
50896.72408373416
 20
426349.3536304232
 30
0.0
 11
50896.72408373416
 21
426351.10119791632
 31
0.0
  0
ARC
  5
657D3
  8
S-OBRYS
  6
CONTINUOUS
 10
50987.375871460761
 20
426351.10119791632
 30
0.0
 40
73.15768653098803
 50
326.85469817122339
 51
358.6331386738907
  0
LINE
  5
657D4
  8
S-OBRYS
  6
CONTINUOUS
 10
51078.027659187363
 20
426271.1011979162
 30
0.0
 11
51078.027659187363
 21
426349.3536304232
 31
0.0
  0
LINE
  5
657D5
  8
S-OBRYS
  6
CONTINUOUS
 10
50987.375871460761
 20
426121.885518222
 30
0.0
 11
50987.375871460761
 21
426469.45508590742
 31
0.0
  0
ARC
  5
657D6
  8
S-OBRYS
  6
CONTINUOUS
 10
50987.375871460761
 20
426271.1011979162
 30
0.0
 40
90.651787726604198
 50
241.94515088310209
 51
298.05484911689791
  0
LINE
  5
657D7
  8
S-OBRYS
  6
CONTINUOUS
 10
50932.496419424133
 20
426191.10119791632
 30
0.0
 11
50935.729142774893
 21
426196.60044601362
 31
0.0
  0
LINE
  5
657D8
  8
S-OBRYS
  6
CONTINUOUS
 10
51062.8871806467
 20
426191.10119791632
 30
0.0
 11
51052.766623666859
 21
426208.31747276452
 31
0.0
  0
LINE
  5
657D9
  8
S-OBRYS
  6
CONTINUOUS
 10
51042.255323497382
 20
426191.10119791632
 30
0.0
 11
51039.022600146629
 21
426196.60044601362
 31
0.0
  0
LINE
  5
657DA
  8
S-OBRYS
  6
CONTINUOUS
 10
51053.804921973773
 20
426171.45395299193
 30
0.0
 11
51042.255323497382
 21
426191.10119791632
 31
0.0
  0
LINE
  5
657DB
  8
S-OBRYS
  6
CONTINUOUS
 10
51074.436779123098
 20
426171.45395299193
 30
0.0
 11
51062.8871806467
 21
426191.10119791632
 31
0.0
  0
LINE
  5
657DC
  8
S-OBRYS
  6
CONTINUOUS
 10
51078.027659187363
 20
426349.3536304232
 30
0.0
 11
51078.027659187363
 21
426351.10119791632
 31
0.0
  0
LINE
  5
657DD
  8
S-OBRYS
  6
CONTINUOUS
 10
50816.61789801265
 20
426681.29622529593
 30
0.0
 11
50816.61789801265
 21
426678.10119791632
 31
0.0
  0
LINE
  5
657DE
  8
S-OBRYS
  6
CONTINUOUS
 10
52856.86441569282
 20
426039.62591688079
 30
0.0
 11
52856.86441569282
 21
426723.73157167539
 31
0.0
  0
LINE
  5
657DF
  8
S-OBRYS
  6
CONTINUOUS
 10
53032.580824233293
 20
426131.58729715348
 30
0.0
 11
53032.580824233293
 21
426089.36518818029
 31
0.0
  0
LINE
  5
657E0
  8
S-OBRYS
  6
CONTINUOUS
 10
52459.294603006667
 20
426085.5410907506
 30
0.0
 11
52459.36322042346
 21
426090.68636022217
 31
0.0
  0
LINE
  5
657E1
  8
S-OBRYS
  6
CONTINUOUS
 10
52456.52926897697
 20
426135.79039694311
 30
0.0
 11
52456.52926897697
 21
426085.5410907506
 31
0.0
  0
POLYLINE
  5
657E2
  8
S-OBRYS
  6
CONTINUOUS
 66
     1
 10
0.0
 20
0.0
 30
0.0
 70
     1
  0
VERTEX
  5
65E1E
  8
S-OBRYS
  6
CONTINUOUS
 10
52647.676495954453
 20
426078.5471920378
 30
0.0
  0
VERTEX
  5
65E1F
  8
S-OBRYS
  6
CONTINUOUS
 10
52459.36322042346
 20
426090.68636022217
 30
0.0
  0
VERTEX
  5
65E20
  8
S-OBRYS
  6
CONTINUOUS
 10
52459.36322042346
 20
426128.83803484897
 30
0.0
  0
VERTEX
  5
65E21
  8
S-OBRYS
  6
CONTINUOUS
 10
52647.676495954453
 20
426139.24303701991
 30
0.0
  0
SEQEND
  5
65E22
  8
S-OBRYS
  6
CONTINUOUS
  0
POLYLINE
  5
657E3
  8
S-OBRYS
  6
CONTINUOUS
 66
     1
 10
0.0
 20
0.0
 30
0.0
 70
     1
  0
VERTEX
  5
65E23
  8
S-OBRYS
  6
CONTINUOUS
 10
52689.575007326232
 20
426153.9834562547
 30
0.0
  0
VERTEX
  5
65E24
  8
S-OBRYS
  6
CONTINUOUS
 10
52647.676495954453
 20
426153.9834562547
 30
0.0
  0
VERTEX
  5
65E25
  8
S-OBRYS
  6
CONTINUOUS
 10
52647.676495954453
 20
426065.54093881662
 30
0.0
  0
VERTEX
  5
65E26
  8
S-OBRYS
  6
CONTINUOUS
 10
52689.575007326232
 20
426065.54093881662
 30
0.0
  0
SEQEND
  5
65E27
  8
S-OBRYS
  6
CONTINUOUS
  0
LINE
  5
657E4
  8
S-OBRYS
  6
CONTINUOUS
 10
52928.781896998778
 20
426451.10119791632
 30
0.0
 11
52928.781896998778
 21
426051.10119791632
 31
0.0
  0
LINE
  5
657E5
  8
S-OBRYS
  6
CONTINUOUS
 10
52785.683263805797
 20
426451.10119791632
 30
0.0
 11
52785.683263805797
 21
426051.10119791632
 31
0.0
  0
LINE
  5
657E6
  8
S-OBRYS
  6
CONTINUOUS
 10
53108.440932516052
 20
426189.793612612
 30
0.0
 11
53071.057259012006
 21
426051.10119791632
 31
0.0
  0
LINE
  5
657E7
  8
S-OBRYS
  6
CONTINUOUS
 10
53064.202394054737
 20
426189.793612612
 30
0.0
 11
53026.818720550691
 21
426051.10119791632
 31
0.0
  0
LINE
  5
657E8
  8
S-OBRYS
  6
CONTINUOUS
 10
52689.575007326232
 20
426451.10119791632
 30
0.0
 11
52689.575007326232
 21
426051.10119791632
 31
0.0
  0
LINE
  5
657E9
  8
S-OBRYS
  6
CONTINUOUS
 10
53026.818720550691
 20
426051.10119791632
 30
0.0
 11
53026.818720550691
 21
426451.10119791632
 31
0.0
  0
LINE
  5
657EA
  8
S-OBRYS
  6
CONTINUOUS
 10
52689.575007326232
 20
426051.10119791632
 30
0.0
 11
53071.057259012006
 21
426051.10119791632
 31
0.0
  0
POLYLINE
  5
657EB
  8
S-OBRYS
  6
CONTINUOUS
 66
     1
 10
0.0
 20
0.0
 30
0.0
 70
     1
  0
VERTEX
  5
65E28
  8
S-OBRYS
  6
CONTINUOUS
 10
52705.196863938458
 20
426001.10119791632
 30
0.0
  0
VERTEX
  5
65E29
  8
S-OBRYS
  6
CONTINUOUS
 10
53011.196863938458
 20
426001.10119791632
 30
0.0
  0
VERTEX
  5
65E2A
  8
S-OBRYS
  6
CONTINUOUS
 10
53011.196863938458
 20
426051.10119791632
 30
0.0
  0
VERTEX
  5
65E2B
  8
S-OBRYS
  6
CONTINUOUS
 10
52705.196863938458
 20
426051.10119791632
 30
0.0
  0
SEQEND
  5
65E2C
  8
S-OBRYS
  6
CONTINUOUS
  0
LINE
  5
657EC
  8
S-OBRYS
  6
CONTINUOUS
 10
52459.294603006667
 20
426085.5410907506
 30
0.0
 11
52459.294603006667
 21
426085.5410907506
 31
0.0
  0
LINE
  5
657ED
  8
S-OBRYS
  6
CONTINUOUS
 10
52456.52926897697
 20
426085.5410907506
 30
0.0
 11
52459.294603006667
 21
426085.5410907506
 31
0.0
  0
LINE
  5
657EE
  8
S-OBRYS
  6
CONTINUOUS
 10
53032.580824233293
 20
426089.36518818029
 30
0.0
 11
53026.818720550691
 21
426089.36518818029
 31
0.0
  0
POLYLINE
  5
657EF
  8
S-OBRYS
  6
CONTINUOUS
 66
     1
 10
0.0
 20
0.0
 30
0.0
 70
     1
  0
VERTEX
  5
65E2D
  8
S-OBRYS
  6
CONTINUOUS
 10
52705.983262319744
 20
426451.10119791632
 30
0.0
  0
VERTEX
  5
65E2E
  8
S-OBRYS
  6
CONTINUOUS
 10
53007.745569065912
 20
426451.10119791632
 30
0.0
  0
VERTEX
  5
65E2F
  8
S-OBRYS
  6
CONTINUOUS
 10
53007.745569065912
 20
426683.05995620572
 30
0.0
  0
VERTEX
  5
65E30
  8
S-OBRYS
  6
CONTINUOUS
 10
52705.983262319744
 20
426683.05995620572
 30
0.0
  0
SEQEND
  5
65E31
  8
S-OBRYS
  6
CONTINUOUS
  0
LINE
  5
657F0
  8
S-OBRYS
  6
CONTINUOUS
 10
52477.184912707977
 20
426271.1011979162
 30
0.0
 11
53159.226449807422
 21
426271.1011979162
 31
0.0
  0
LINE
  5
657F1
  8
S-OBRYS
  6
CONTINUOUS
 10
53026.818720550691
 20
426451.10119791632
 30
0.0
 11
52689.575007326232
 21
426451.10119791632
 31
0.0
  0
LINE
  5
657F2
  8
S-OBRYS
  6
CONTINUOUS
 10
52700.453011316109
 20
426109.7621975356
 30
0.0
 11
52434.803809518933
 21
426109.7621975356
 31
0.0
  0
LINE
  5
657F3
  8
S-OBRYS
  6
CONTINUOUS
 10
52459.36322042346
 20
426135.79039694311
 30
0.0
 11
52456.52926897697
 21
426135.79039694311
 31
0.0
  0
LINE
  5
657F4
  8
S-OBRYS
  6
CONTINUOUS
 10
52459.36322042346
 20
426128.83803484897
 30
0.0
 11
52459.36322042346
 21
426135.79039694311
 31
0.0
  0
LINE
  5
657F5
  8
S-OBRYS
  6
CONTINUOUS
 10
52689.575007326232
 20
426353.20301524887
 30
0.0
 11
52519.205745366336
 21
426353.20301524887
 31
0.0
  0
LINE
  5
657F6
  8
S-OBRYS
  6
CONTINUOUS
 10
52519.205745366336
 20
426172.96161856462
 30
0.0
 11
52689.575007326232
 21
426172.96161856462
 31
0.0
  0
LINE
  5
657F7
  8
S-OBRYS
  6
CONTINUOUS
 10
52557.588915347609
 20
426195.33513350901
 30
0.0
 11
52689.575007326232
 21
426195.33513350901
 31
0.0
  0
LINE
  5
657F8
  8
S-OBRYS
  6
CONTINUOUS
 10
52557.588915347609
 20
426219.84554101637
 30
0.0
 11
52689.575007326232
 21
426219.84554101637
 31
0.0
  0
LINE
  5
657F9
  8
S-OBRYS
  6
CONTINUOUS
 10
52557.588915347609
 20
426244.35594852391
 30
0.0
 11
52689.575007326232
 21
426244.35594852391
 31
0.0
  0
LINE
  5
657FA
  8
S-OBRYS
  6
CONTINUOUS
 10
52557.588915347609
 20
426290.7967203228
 30
0.0
 11
52689.575007326232
 21
426290.7967203228
 31
0.0
  0
LINE
  5
657FB
  8
S-OBRYS
  6
CONTINUOUS
 10
52557.588915347609
 20
426328.20734188048
 30
0.0
 11
52689.575007326232
 21
426328.20734188048
 31
0.0
  0
LINE
  5
657FC
  8
S-OBRYS
  6
CONTINUOUS
 10
52557.588915347609
 20
426310.14704342833
 30
0.0
 11
52689.575007326232
 21
426310.14704342833
 31
0.0
  0
LINE
  5
657FD
  8
S-OBRYS
  6
CONTINUOUS
 10
52519.205745366336
 20
426353.20301524887
 30
0.0
 11
52519.205745366336
 21
426172.96161856462
 31
0.0
  0
LINE
  5
657FE
  8
S-OBRYS
  6
CONTINUOUS
 10
52557.588915347609
 20
426353.20301524887
 30
0.0
 11
52557.588915347609
 21
426172.96161856462
 31
0.0
  0
LINE
  5
657FF
  8
S-OBRYS
  6
CONTINUOUS
 10
52761.472730452391
 20
426669.00898151251
 30
0.0
 11
52761.396487280232
 21
426912.8698489411
 31
0.0
  0
LINE
  5
65800
  8
S-OBRYS
  6
CONTINUOUS
 10
52737.177360392197
 20
426683.05995620572
 30
0.0
 11
52737.177360392197
 21
426789.36812107608
 31
0.0
  0
POLYLINE
  8
S-OBRYS
  5
66260
  66
     1
 10
0.000000
 20
0.000000
 30
0.000000
  70
     8
  0
VERTEX
  8
S-OBRYS
  5
66261
 10
52737.2
 20
426789.
 30
0.000000
  70
    32
  0
VERTEX
  8
S-OBRYS
  5
66262
 10
52737.3
 20
426789.
 30
0.000000
  70
    32
  0
VERTEX
  8
S-OBRYS
  5
66263
 10
52737.4
 20
426789.
 30
0.000000
  70
    32
  0
VERTEX
  8
S-OBRYS
  5
66264
 10
52737.5
 20
426789.
 30
0.000000
  70
    32
  0
VERTEX
  8
S-OBRYS
  5
66265
 10
52737.6
 20
426789.
 30
0.000000
  70
    32
  0
VERTEX
  8
S-OBRYS
  5
66266
 10
52737.7
 20
426789.
 30
0.000000
  70
    32
  0
VERTEX
  8
S-OBRYS
  5
66267
 10
52737.9
 20
426789.
 30
0.000000
  70
    32
  0
VERTEX
  8
S-OBRYS
  5
66268
 10
52738.0
 20
426789.
 30
0.000000
  70
    32
  0
VERTEX
  8
S-OBRYS
  5
66269
 10
52738.1
 20
426789.
 30
0.000000
  70
    32
  0
VERTEX
  8
S-OBRYS
  5
6626A
 10
52738.2
 20
426788.
 30
0.000000
  70
    32
  0
VERTEX
  8
S-OBRYS
  5
6626B
 10
52738.3
 20
426788.
 30
0.000000
  70
    32
  0
VERTEX
  8
S-OBRYS
  5
6626C
 10
52738.4
 20
426788.
 30
0.000000
  70
    32
  0
VERTEX
  8
S-OBRYS
  5
6626D
 10
52738.5
 20
426788.
 30
0.000000
  70
    32
  0
VERTEX
  8
S-OBRYS
  5
6626E
 10
52738.6
 20
426788.
 30
0.000000
  70
    32
  0
VERTEX
  8
S-OBRYS
  5
6626F
 10
52738.8
 20
426788.
 30
0.000000
  70
    32
  0
VERTEX
  8
S-OBRYS
  5
66270
 10
52738.9
 20
426788.
 30
0.000000
  70
    32
  0
VERTEX
  8
S-OBRYS
  5
66271
 10
52739.0
 20
426788.
 30
0.000000
  70
    32
  0
VERTEX
  8
S-OBRYS
  5
66272
 10
52739.1
 20
426788.
 30
0.000000
  70
    32
  0
VERTEX
  8
S-OBRYS
  5
66273
 10
52739.2
 20
426788.
 30
0.000000
  70
    32
  0
VERTEX
  8
S-OBRYS
  5
66274
 10
52739.3
 20
426788.
 30
0.000000
  70
    32
  0
VERTEX
  8
S-OBRYS
  5
66275
 10
52739.4
 20
426787.
 30
0.000000
  70
    32
  0
VERTEX
  8
S-OBRYS
  5
66276
 10
52739.6
 20
426787.
 30
0.000000
  70
    32
  0
VERTEX
  8
S-OBRYS
  5
66277
 10
52739.7
 20
426787.
 30
0.000000
  70
    32
  0
VERTEX
  8
S-OBRYS
  5
66278
 10
52739.8
 20
426787.
 30
0.000000
  70
    32
  0
VERTEX
  8
S-OBRYS
  5
66279
 10
52739.9
 20
426787.
 30
0.000000
  70
    32
  0
VERTEX
  8
S-OBRYS
  5
6627A
 10
52740.0
 20
426787.
 30
0.000000
  70
    32
  0
VERTEX
  8
S-OBRYS
  5
6627B
 10
52740.1
 20
426787.
 30
0.000000
  70
    32
  0
VERTEX
  8
S-OBRYS
  5
6627C
 10
52740.3
 20
426787.
 30
0.000000
  70
    32
  0
VERTEX
  8
S-OBRYS
  5
6627D
 10
52740.4
 20
426787.
 30
0.000000
  70
    32
  0
VERTEX
  8
S-OBRYS
  5
6627E
 10
52740.5
 20
426787.
 30
0.000000
  70
    32
  0
VERTEX
  8
S-OBRYS
  5
6627F
 10
52740.6
 20
426787.
 30
0.000000
  70
    32
  0
VERTEX
  8
S-OBRYS
  5
66280
 10
52740.7
 20
426787.
 30
0.000000
  70
    32
  0
VERTEX
  8
S-OBRYS
  5
66281
 10
52740.8
 20
426787.
 30
0.000000
  70
    32
  0
VERTEX
  8
S-OBRYS
  5
66282
 10
52741.0
 20
426787.
 30
0.000000
  70
    32
  0
VERTEX
  8
S-OBRYS
  5
66283
 10
52741.1
 20
426787.
 30
0.000000
  70
    32
  0
VERTEX
  8
S-OBRYS
  5
66284
 10
52741.2
 20
426787.
 30
0.000000
  70
    32
  0
VERTEX
  8
S-OBRYS
  5
66285
 10
52741.3
 20
426787.
 30
0.000000
  70
    32
  0
VERTEX
  8
S-OBRYS
  5
66286
 10
52741.5
 20
426787.
 30
0.000000
  70
    32
  0
VERTEX
  8
S-OBRYS
  5
66287
 10
52741.6
 20
426787.
 30
0.000000
  70
    32
  0
VERTEX
  8
S-OBRYS
  5
66288
 10
52741.7
 20
426787.
 30
0.000000
  70
    32
  0
VERTEX
  8
S-OBRYS
  5
66289
 10
52741.8
 20
426787.
 30
0.000000
  70
    32
  0
VERTEX
  8
S-OBRYS
  5
6628A
 10
52741.9
 20
426787.
 30
0.000000
  70
    32
  0
VERTEX
  8
S-OBRYS
  5
6628B
 10
52742.1
 20
426787.
 30
0.000000
  70
    32
  0
VERTEX
  8
S-OBRYS
  5
6628C
 10
52742.2
 20
426787.
 30
0.000000
  70
    32
  0
VERTEX
  8
S-OBRYS
  5
6628D
 10
52742.3
 20
426787.
 30
0.000000
  70
    32
  0
VERTEX
  8
S-OBRYS
  5
6628E
 10
52742.5
 20
426787.
 30
0.000000
  70
    32
  0
VERTEX
  8
S-OBRYS
  5
6628F
 10
52742.6
 20
426787.
 30
0.000000
  70
    32
  0
VERTEX
  8
S-OBRYS
  5
66290
 10
52742.7
 20
426787.
 30
0.000000
  70
    32
  0
VERTEX
  8
S-OBRYS
  5
66291
 10
52742.8
 20
426787.
 30
0.000000
  70
    32
  0
VERTEX
  8
S-OBRYS
  5
66292
 10
52743.0
 20
426787.
 30
0.000000
  70
    32
  0
VERTEX
  8
S-OBRYS
  5
66293
 10
52743.1
 20
426787.
 30
0.000000
  70
    32
  0
VERTEX
  8
S-OBRYS
  5
66294
 10
52743.2
 20
426787.
 30
0.000000
  70
    32
  0
VERTEX
  8
S-OBRYS
  5
66295
 10
52743.4
 20
426787.
 30
0.000000
  70
    32
  0
VERTEX
  8
S-OBRYS
  5
66296
 10
52743.5
 20
426787.
 30
0.000000
  70
    32
  0
VERTEX
  8
S-OBRYS
  5
66297
 10
52743.6
 20
426787.
 30
0.000000
  70
    32
  0
VERTEX
  8
S-OBRYS
  5
66298
 10
52743.7
 20
426787.
 30
0.000000
  70
    32
  0
VERTEX
  8
S-OBRYS
  5
66299
 10
52743.9
 20
426787.
 30
0.000000
  70
    32
  0
VERTEX
  8
S-OBRYS
  5
6629A
 10
52744.0
 20
426787.
 30
0.000000
  70
    32
  0
VERTEX
  8
S-OBRYS
  5
6629B
 10
52744.1
 20
426787.
 30
0.000000
  70
    32
  0
VERTEX
  8
S-OBRYS
  5
6629C
 10
52744.3
 20
426787.
 30
0.000000
  70
    32
  0
VERTEX
  8
S-OBRYS
  5
6629D
 10
52744.4
 20
426788.
 30
0.000000
  70
    32
  0
VERTEX
  8
S-OBRYS
  5
6629E
 10
52744.5
 20
426788.
 30
0.000000
  70
    32
  0
VERTEX
  8
S-OBRYS
  5
6629F
 10
52744.6
 20
426788.
 30
0.000000
  70
    32
  0
VERTEX
  8
S-OBRYS
  5
662A0
 10
52744.8
 20
426788.
 30
0.000000
  70
    32
  0
VERTEX
  8
S-OBRYS
  5
662A1
 10
52744.9
 20
426788.
 30
0.000000
  70
    32
  0
VERTEX
  8
S-OBRYS
  5
662A2
 10
52745.0
 20
426788.
 30
0.000000
  70
    32
  0
VERTEX
  8
S-OBRYS
  5
662A3
 10
52745.1
 20
426788.
 30
0.000000
  70
    32
  0
VERTEX
  8
S-OBRYS
  5
662A4
 10
52745.2
 20
426788.
 30
0.000000
  70
    32
  0
VERTEX
  8
S-OBRYS
  5
662A5
 10
52745.4
 20
426788.
 30
0.000000
  70
    32
  0
VERTEX
  8
S-OBRYS
  5
662A6
 10
52745.5
 20
426788.
 30
0.000000
  70
    32
  0
VERTEX
  8
S-OBRYS
  5
662A7
 10
52745.6
 20
426788.
 30
0.000000
  70
    32
  0
VERTEX
  8
S-OBRYS
  5
662A8
 10
52745.7
 20
426788.
 30
0.000000
  70
    32
  0
VERTEX
  8
S-OBRYS
  5
662A9
 10
52745.8
 20
426788.
 30
0.000000
  70
    32
  0
VERTEX
  8
S-OBRYS
  5
662AA
 10
52745.9
 20
426788.
 30
0.000000
  70
    32
  0
VERTEX
  8
S-OBRYS
  5
662AB
 10
52746.0
 20
426788.
 30
0.000000
  70
    32
  0
VERTEX
  8
S-OBRYS
  5
662AC
 10
52746.1
 20
426788.
 30
0.000000
  70
    32
  0
VERTEX
  8
S-OBRYS
  5
662AD
 10
52746.2
 20
426788.
 30
0.000000
  70
    32
  0
VERTEX
  8
S-OBRYS
  5
662AE
 10
52746.3
 20
426788.
 30
0.000000
  70
    32
  0
VERTEX
  8
S-OBRYS
  5
662AF
 10
52746.4
 20
426787.
 30
0.000000
  70
    32
  0
VERTEX
  8
S-OBRYS
  5
662B0
 10
52746.5
 20
426787.
 30
0.000000
  70
    32
  0
VERTEX
  8
S-OBRYS
  5
662B1
 10
52746.6
 20
426787.
 30
0.000000
  70
    32
  0
VERTEX
  8
S-OBRYS
  5
662B2
 10
52746.7
 20
426787.
 30
0.000000
  70
    32
  0
VERTEX
  8
S-OBRYS
  5
662B3
 10
52746.8
 20
426787.
 30
0.000000
  70
    32
  0
VERTEX
  8
S-OBRYS
  5
662B4
 10
52746.9
 20
426787.
 30
0.000000
  70
    32
  0
VERTEX
  8
S-OBRYS
  5
662B5
 10
52747.0
 20
426787.
 30
0.000000
  70
    32
  0
VERTEX
  8
S-OBRYS
  5
662B6
 10
52747.1
 20
426787.
 30
0.000000
  70
    32
  0
VERTEX
  8
S-OBRYS
  5
662B7
 10
52747.2
 20
426787.
 30
0.000000
  70
    32
  0
VERTEX
  8
S-OBRYS
  5
662B8
 10
52747.3
 20
426787.
 30
0.000000
  70
    32
  0
VERTEX
  8
S-OBRYS
  5
662B9
 10
52747.3
 20
426786.
 30
0.000000
  70
    32
  0
VERTEX
  8
S-OBRYS
  5
662BA
 10
52747.4
 20
426786.
 30
0.000000
  70
    32
  0
VERTEX
  8
S-OBRYS
  5
662BB
 10
52747.5
 20
426786.
 30
0.000000
  70
    32
  0
VERTEX
  8
S-OBRYS
  5
662BC
 10
52747.6
 20
426786.
 30
0.000000
  70
    32
  0
VERTEX
  8
S-OBRYS
  5
662BD
 10
52747.7
 20
426786.
 30
0.000000
  70
    32
  0
VERTEX
  8
S-OBRYS
  5
662BE
 10
52747.8
 20
426786.
 30
0.000000
  70
    32
  0
VERTEX
  8
S-OBRYS
  5
662BF
 10
52747.9
 20
426786.
 30
0.000000
  70
    32
  0
VERTEX
  8
S-OBRYS
  5
662C0
 10
52748.0
 20
426786.
 30
0.000000
  70
    32
  0
VERTEX
  8
S-OBRYS
  5
662C1
 10
52748.1
 20
426786.
 30
0.000000
  70
    32
  0
VERTEX
  8
S-OBRYS
  5
662C2
 10
52748.2
 20
426785.
 30
0.000000
  70
    32
  0
VERTEX
  8
S-OBRYS
  5
662C3
 10
52748.3
 20
426785.
 30
0.000000
  70
    32
  0
VERTEX
  8
S-OBRYS
  5
662C4
 10
52748.4
 20
426785.
 30
0.000000
  70
    32
  0
VERTEX
  8
S-OBRYS
  5
662C5
 10
52748.5
 20
426785.
 30
0.000000
  70
    32
  0
VERTEX
  8
S-OBRYS
  5
662C6
 10
52748.6
 20
426785.
 30
0.000000
  70
    32
  0
VERTEX
  8
S-OBRYS
  5
662C7
 10
52748.7
 20
426785.
 30
0.000000
  70
    32
  0
VERTEX
  8
S-OBRYS
  5
662C8
 10
52748.8
 20
426785.
 30
0.000000
  70
    32
  0
VERTEX
  8
S-OBRYS
  5
662C9
 10
52748.9
 20
426785.
 30
0.000000
  70
    32
  0
VERTEX
  8
S-OBRYS
  5
662CA
 10
52749.0
 20
426785.
 30
0.000000
  70
    32
  0
VERTEX
  8
S-OBRYS
  5
662CB
 10
52749.1
 20
426785.
 30
0.000000
  70
    32
  0
VERTEX
  8
S-OBRYS
  5
662CC
 10
52749.2
 20
426785.
 30
0.000000
  70
    32
  0
VERTEX
  8
S-OBRYS
  5
662CD
 10
52749.3
 20
426785.
 30
0.000000
  70
    32
  0
VERTEX
  8
S-OBRYS
  5
662CE
 10
52749.4
 20
426785.
 30
0.000000
  70
    32
  0
VERTEX
  8
S-OBRYS
  5
662CF
 10
52749.5
 20
426785.
 30
0.000000
  70
    32
  0
VERTEX
  8
S-OBRYS
  5
662D0
 10
52749.6
 20
426785.
 30
0.000000
  70
    32
  0
VERTEX
  8
S-OBRYS
  5
662D1
 10
52749.8
 20
426785.
 30
0.000000
  70
    32
  0
VERTEX
  8
S-OBRYS
  5
662D2
 10
52749.9
 20
426785.
 30
0.000000
  70
    32
  0
VERTEX
  8
S-OBRYS
  5
662D3
 10
52750.0
 20
426785.
 30
0.000000
  70
    32
  0
VERTEX
  8
S-OBRYS
  5
662D4
 10
52750.1
 20
426785.
 30
0.000000
  70
    32
  0
VERTEX
  8
S-OBRYS
  5
662D5
 10
52750.2
 20
426785.
 30
0.000000
  70
    32
  0
VERTEX
  8
S-OBRYS
  5
662D6
 10
52750.4
 20
426785.
 30
0.000000
  70
    32
  0
VERTEX
  8
S-OBRYS
  5
662D7
 10
52750.5
 20
426785.
 30
0.000000
  70
    32
  0
VERTEX
  8
S-OBRYS
  5
662D8
 10
52750.6
 20
426785.
 30
0.000000
  70
    32
  0
VERTEX
  8
S-OBRYS
  5
662D9
 10
52750.8
 20
426785.
 30
0.000000
  70
    32
  0
VERTEX
  8
S-OBRYS
  5
662DA
 10
52750.9
 20
426785.
 30
0.000000
  70
    32
  0
VERTEX
  8
S-OBRYS
  5
662DB
 10
52751.0
 20
426785.
 30
0.000000
  70
    32
  0
VERTEX
  8
S-OBRYS
  5
662DC
 10
52751.2
 20
426785.
 30
0.000000
  70
    32
  0
VERTEX
  8
S-OBRYS
  5
662DD
 10
52751.3
 20
426785.
 30
0.000000
  70
    32
  0
VERTEX
  8
S-OBRYS
  5
662DE
 10
52751.4
 20
426785.
 30
0.000000
  70
    32
  0
VERTEX
  8
S-OBRYS
  5
662DF
 10
52751.6
 20
426785.
 30
0.000000
  70
    32
  0
VERTEX
  8
S-OBRYS
  5
662E0
 10
52751.7
 20
426785.
 30
0.000000
  70
    32
  0
VERTEX
  8
S-OBRYS
  5
662E1
 10
52751.8
 20
426785.
 30
0.000000
  70
    32
  0
VERTEX
  8
S-OBRYS
  5
662E2
 10
52752.0
 20
426785.
 30
0.000000
  70
    32
  0
VERTEX
  8
S-OBRYS
  5
662E3
 10
52752.1
 20
426785.
 30
0.000000
  70
    32
  0
VERTEX
  8
S-OBRYS
  5
662E4
 10
52752.2
 20
426785.
 30
0.000000
  70
    32
  0
VERTEX
  8
S-OBRYS
  5
662E5
 10
52752.4
 20
426785.
 30
0.000000
  70
    32
  0
VERTEX
  8
S-OBRYS
  5
662E6
 10
52752.5
 20
426786.
 30
0.000000
  70
    32
  0
VERTEX
  8
S-OBRYS
  5
662E7
 10
52752.6
 20
426786.
 30
0.000000
  70
    32
  0
VERTEX
  8
S-OBRYS
  5
662E8
 10
52752.8
 20
426786.
 30
0.000000
  70
    32
  0
VERTEX
  8
S-OBRYS
  5
662E9
 10
52752.9
 20
426786.
 30
0.000000
  70
    32
  0
VERTEX
  8
S-OBRYS
  5
662EA
 10
52753.0
 20
426786.
 30
0.000000
  70
    32
  0
VERTEX
  8
S-OBRYS
  5
662EB
 10
52753.1
 20
426786.
 30
0.000000
  70
    32
  0
VERTEX
  8
S-OBRYS
  5
662EC
 10
52753.3
 20
426786.
 30
0.000000
  70
    32
  0
VERTEX
  8
S-OBRYS
  5
662ED
 10
52753.4
 20
426786.
 30
0.000000
  70
    32
  0
VERTEX
  8
S-OBRYS
  5
662EE
 10
52753.5
 20
426786.
 30
0.000000
  70
    32
  0
VERTEX
  8
S-OBRYS
  5
662EF
 10
52753.6
 20
426786.
 30
0.000000
  70
    32
  0
VERTEX
  8
S-OBRYS
  5
662F0
 10
52753.8
 20
426786.
 30
0.000000
  70
    32
  0
VERTEX
  8
S-OBRYS
  5
662F1
 10
52753.9
 20
426786.
 30
0.000000
  70
    32
  0
VERTEX
  8
S-OBRYS
  5
662F2
 10
52754.0
 20
426786.
 30
0.000000
  70
    32
  0
VERTEX
  8
S-OBRYS
  5
662F3
 10
52754.1
 20
426786.
 30
0.000000
  70
    32
  0
VERTEX
  8
S-OBRYS
  5
662F4
 10
52754.2
 20
426786.
 30
0.000000
  70
    32
  0
VERTEX
  8
S-OBRYS
  5
662F5
 10
52754.3
 20
426786.
 30
0.000000
  70
    32
  0
VERTEX
  8
S-OBRYS
  5
662F6
 10
52754.4
 20
426786.
 30
0.000000
  70
    32
  0
VERTEX
  8
S-OBRYS
  5
662F7
 10
52754.6
 20
426786.
 30
0.000000
  70
    32
  0
VERTEX
  8
S-OBRYS
  5
662F8
 10
52754.7
 20
426786.
 30
0.000000
  70
    32
  0
VERTEX
  8
S-OBRYS
  5
662F9
 10
52754.8
 20
426786.
 30
0.000000
  70
    32
  0
VERTEX
  8
S-OBRYS
  5
662FA
 10
52754.9
 20
426786.
 30
0.000000
  70
    32
  0
VERTEX
  8
S-OBRYS
  5
662FB
 10
52754.9
 20
426786.
 30
0.000000
  70
    32
  0
VERTEX
  8
S-OBRYS
  5
662FC
 10
52755.0
 20
426786.
 30
0.000000
  70
    32
  0
VERTEX
  8
S-OBRYS
  5
662FD
 10
52755.1
 20
426786.
 30
0.000000
  70
    32
  0
VERTEX
  8
S-OBRYS
  5
662FE
 10
52755.2
 20
426786.
 30
0.000000
  70
    32
  0
VERTEX
  8
S-OBRYS
  5
662FF
 10
52755.3
 20
426785.
 30
0.000000
  70
    32
  0
VERTEX
  8
S-OBRYS
  5
66300
 10
52755.4
 20
426785.
 30
0.000000
  70
    32
  0
VERTEX
  8
S-OBRYS
  5
66301
 10
52755.5
 20
426785.
 30
0.000000
  70
    32
  0
VERTEX
  8
S-OBRYS
  5
66302
 10
52755.6
 20
426785.
 30
0.000000
  70
    32
  0
VERTEX
  8
S-OBRYS
  5
66303
 10
52755.7
 20
426785.
 30
0.000000
  70
    32
  0
VERTEX
  8
S-OBRYS
  5
66304
 10
52755.7
 20
426785.
 30
0.000000
  70
    32
  0
VERTEX
  8
S-OBRYS
  5
66305
 10
52755.8
 20
426785.
 30
0.000000
  70
    32
  0
VERTEX
  8
S-OBRYS
  5
66306
 10
52755.9
 20
426785.
 30
0.000000
  70
    32
  0
VERTEX
  8
S-OBRYS
  5
66307
 10
52756.0
 20
426785.
 30
0.000000
  70
    32
  0
VERTEX
  8
S-OBRYS
  5
66308
 10
52756.1
 20
426785.
 30
0.000000
  70
    32
  0
VERTEX
  8
S-OBRYS
  5
66309
 10
52756.1
 20
426784.
 30
0.000000
  70
    32
  0
VERTEX
  8
S-OBRYS
  5
6630A
 10
52756.2
 20
426784.
 30
0.000000
  70
    32
  0
VERTEX
  8
S-OBRYS
  5
6630B
 10
52756.3
 20
426784.
 30
0.000000
  70
    32
  0
VERTEX
  8
S-OBRYS
  5
6630C
 10
52756.4
 20
426784.
 30
0.000000
  70
    32
  0
VERTEX
  8
S-OBRYS
  5
6630D
 10
52756.5
 20
426784.
 30
0.000000
  70
    32
  0
VERTEX
  8
S-OBRYS
  5
6630E
 10
52756.5
 20
426784.
 30
0.000000
  70
    32
  0
VERTEX
  8
S-OBRYS
  5
6630F
 10
52756.6
 20
426784.
 30
0.000000
  70
    32
  0
VERTEX
  8
S-OBRYS
  5
66310
 10
52756.7
 20
426784.
 30
0.000000
  70
    32
  0
VERTEX
  8
S-OBRYS
  5
66311
 10
52756.8
 20
426783.
 30
0.000000
  70
    32
  0
VERTEX
  8
S-OBRYS
  5
66312
 10
52756.9
 20
426783.
 30
0.000000
  70
    32
  0
VERTEX
  8
S-OBRYS
  5
66313
 10
52757.0
 20
426783.
 30
0.000000
  70
    32
  0
VERTEX
  8
S-OBRYS
  5
66314
 10
52757.0
 20
426783.
 30
0.000000
  70
    32
  0
VERTEX
  8
S-OBRYS
  5
66315
 10
52757.1
 20
426783.
 30
0.000000
  70
    32
  0
VERTEX
  8
S-OBRYS
  5
66316
 10
52757.2
 20
426783.
 30
0.000000
  70
    32
  0
VERTEX
  8
S-OBRYS
  5
66317
 10
52757.3
 20
426783.
 30
0.000000
  70
    32
  0
VERTEX
  8
S-OBRYS
  5
66318
 10
52757.4
 20
426783.
 30
0.000000
  70
    32
  0
VERTEX
  8
S-OBRYS
  5
66319
 10
52757.5
 20
426783.
 30
0.000000
  70
    32
  0
VERTEX
  8
S-OBRYS
  5
6631A
 10
52757.6
 20
426782.
 30
0.000000
  70
    32
  0
VERTEX
  8
S-OBRYS
  5
6631B
 10
52757.7
 20
426782.
 30
0.000000
  70
    32
  0
VERTEX
  8
S-OBRYS
  5
6631C
 10
52757.8
 20
426782.
 30
0.000000
  70
    32
  0
VERTEX
  8
S-OBRYS
  5
6631D
 10
52757.9
 20
426782.
 30
0.000000
  70
    32
  0
VERTEX
  8
S-OBRYS
  5
6631E
 10
52758.0
 20
426782.
 30
0.000000
  70
    32
  0
VERTEX
  8
S-OBRYS
  5
6631F
 10
52758.1
 20
426782.
 30
0.000000
  70
    32
  0
VERTEX
  8
S-OBRYS
  5
66320
 10
52758.2
 20
426782.
 30
0.000000
  70
    32
  0
VERTEX
  8
S-OBRYS
  5
66321
 10
52758.3
 20
426782.
 30
0.000000
  70
    32
  0
VERTEX
  8
S-OBRYS
  5
66322
 10
52758.4
 20
426782.
 30
0.000000
  70
    32
  0
VERTEX
  8
S-OBRYS
  5
66323
 10
52758.5
 20
426782.
 30
0.000000
  70
    32
  0
VERTEX
  8
S-OBRYS
  5
66324
 10
52758.7
 20
426782.
 30
0.000000
  70
    32
  0
VERTEX
  8
S-OBRYS
  5
66325
 10
52758.8
 20
426782.
 30
0.000000
  70
    32
  0
VERTEX
  8
S-OBRYS
  5
66326
 10
52758.9
 20
426782.
 30
0.000000
  70
    32
  0
VERTEX
  8
S-OBRYS
  5
66327
 10
52759.0
 20
426782.
 30
0.000000
  70
    32
  0
VERTEX
  8
S-OBRYS
  5
66328
 10
52759.1
 20
426782.
 30
0.000000
  70
    32
  0
VERTEX
  8
S-OBRYS
  5
66329
 10
52759.3
 20
426782.
 30
0.000000
  70
    32
  0
VERTEX
  8
S-OBRYS
  5
6632A
 10
52759.4
 20
426782.
 30
0.000000
  70
    32
  0
VERTEX
  8
S-OBRYS
  5
6632B
 10
52759.5
 20
426782.
 30
0.000000
  70
    32
  0
VERTEX
  8
S-OBRYS
  5
6632C
 10
52759.7
 20
426782.
 30
0.000000
  70
    32
  0
VERTEX
  8
S-OBRYS
  5
6632D
 10
52759.8
 20
426782.
 30
0.000000
  70
    32
  0
VERTEX
  8
S-OBRYS
  5
6632E
 10
52759.9
 20
426782.
 30
0.000000
  70
    32
  0
VERTEX
  8
S-OBRYS
  5
6632F
 10
52760.0
 20
426782.
 30
0.000000
  70
    32
  0
VERTEX
  8
S-OBRYS
  5
66330
 10
52760.2
 20
426782.
 30
0.000000
  70
    32
  0
VERTEX
  8
S-OBRYS
  5
66331
 10
52760.3
 20
426782.
 30
0.000000
  70
    32
  0
VERTEX
  8
S-OBRYS
  5
66332
 10
52760.4
 20
426782.
 30
0.000000
  70
    32
  0
VERTEX
  8
S-OBRYS
  5
66333
 10
52760.6
 20
426782.
 30
0.000000
  70
    32
  0
VERTEX
  8
S-OBRYS
  5
66334
 10
52760.7
 20
426782.
 30
0.000000
  70
    32
  0
VERTEX
  8
S-OBRYS
  5
66335
 10
52760.9
 20
426782.
 30
0.000000
  70
    32
  0
VERTEX
  8
S-OBRYS
  5
66336
 10
52761.0
 20
426782.
 30
0.000000
  70
    32
  0
VERTEX
  8
S-OBRYS
  5
66337
 10
52761.1
 20
426782.
 30
0.000000
  70
    32
  0
VERTEX
  8
S-OBRYS
  5
66338
 10
52761.3
 20
426782.
 30
0.000000
  70
    32
  0
VERTEX
  8
S-OBRYS
  5
66339
 10
52761.4
 20
426782.
 30
0.000000
  70
    32
  0
VERTEX
  8
S-OBRYS
  5
6633A
 10
52761.6
 20
426782.
 30
0.000000
  70
    32
  0
VERTEX
  8
S-OBRYS
  5
6633B
 10
52761.7
 20
426782.
 30
0.000000
  70
    32
  0
VERTEX
  8
S-OBRYS
  5
6633C
 10
52761.8
 20
426782.
 30
0.000000
  70
    32
  0
VERTEX
  8
S-OBRYS
  5
6633D
 10
52762.0
 20
426782.
 30
0.000000
  70
    32
  0
VERTEX
  8
S-OBRYS
  5
6633E
 10
52762.1
 20
426782.
 30
0.000000
  70
    32
  0
VERTEX
  8
S-OBRYS
  5
6633F
 10
52762.3
 20
426782.
 30
0.000000
  70
    32
  0
VERTEX
  8
S-OBRYS
  5
66340
 10
52762.4
 20
426782.
 30
0.000000
  70
    32
  0
VERTEX
  8
S-OBRYS
  5
66341
 10
52762.5
 20
426782.
 30
0.000000
  70
    32
  0
VERTEX
  8
S-OBRYS
  5
66342
 10
52762.7
 20
426783.
 30
0.000000
  70
    32
  0
VERTEX
  8
S-OBRYS
  5
66343
 10
52762.8
 20
426783.
 30
0.000000
  70
    32
  0
VERTEX
  8
S-OBRYS
  5
66344
 10
52763.0
 20
426783.
 30
0.000000
  70
    32
  0
VERTEX
  8
S-OBRYS
  5
66345
 10
52763.1
 20
426783.
 30
0.000000
  70
    32
  0
VERTEX
  8
S-OBRYS
  5
66346
 10
52763.2
 20
426783.
 30
0.000000
  70
    32
  0
VERTEX
  8
S-OBRYS
  5
66347
 10
52763.4
 20
426783.
 30
0.000000
  70
    32
  0
VERTEX
  8
S-OBRYS
  5
66348
 10
52763.5
 20
426783.
 30
0.000000
  70
    32
  0
VERTEX
  8
S-OBRYS
  5
66349
 10
52763.7
 20
426783.
 30
0.000000
  70
    32
  0
VERTEX
  8
S-OBRYS
  5
6634A
 10
52763.8
 20
426783.
 30
0.000000
  70
    32
  0
VERTEX
  8
S-OBRYS
  5
6634B
 10
52763.9
 20
426783.
 30
0.000000
  70
    32
  0
VERTEX
  8
S-OBRYS
  5
6634C
 10
52764.1
 20
426783.
 30
0.000000
  70
    32
  0
VERTEX
  8
S-OBRYS
  5
6634D
 10
52764.2
 20
426783.
 30
0.000000
  70
    32
  0
VERTEX
  8
S-OBRYS
  5
6634E
 10
52764.4
 20
426783.
 30
0.000000
  70
    32
  0
VERTEX
  8
S-OBRYS
  5
6634F
 10
52764.5
 20
426783.
 30
0.000000
  70
    32
  0
VERTEX
  8
S-OBRYS
  5
66350
 10
52764.6
 20
426783.
 30
0.000000
  70
    32
  0
VERTEX
  8
S-OBRYS
  5
66351
 10
52764.8
 20
426783.
 30
0.000000
  70
    32
  0
VERTEX
  8
S-OBRYS
  5
66352
 10
52764.9
 20
426783.
 30
0.000000
  70
    32
  0
VERTEX
  8
S-OBRYS
  5
66353
 10
52765.0
 20
426783.
 30
0.000000
  70
    32
  0
VERTEX
  8
S-OBRYS
  5
66354
 10
52765.2
 20
426783.
 30
0.000000
  70
    32
  0
VERTEX
  8
S-OBRYS
  5
66355
 10
52765.3
 20
426783.
 30
0.000000
  70
    32
  0
VERTEX
  8
S-OBRYS
  5
66356
 10
52765.4
 20
426783.
 30
0.000000
  70
    32
  0
VERTEX
  8
S-OBRYS
  5
66357
 10
52765.5
 20
426783.
 30
0.000000
  70
    32
  0
VERTEX
  8
S-OBRYS
  5
66358
 10
52765.7
 20
426783.
 30
0.000000
  70
    32
  0
VERTEX
  8
S-OBRYS
  5
66359
 10
52765.8
 20
426783.
 30
0.000000
  70
    32
  0
VERTEX
  8
S-OBRYS
  5
6635A
 10
52765.9
 20
426783.
 30
0.000000
  70
    32
  0
VERTEX
  8
S-OBRYS
  5
6635B
 10
52766.0
 20
426783.
 30
0.000000
  70
    32
  0
VERTEX
  8
S-OBRYS
  5
6635C
 10
52766.2
 20
426783.
 30
0.000000
  70
    32
  0
VERTEX
  8
S-OBRYS
  5
6635D
 10
52766.3
 20
426783.
 30
0.000000
  70
    32
  0
VERTEX
  8
S-OBRYS
  5
6635E
 10
52766.4
 20
426783.
 30
0.000000
  70
    32
  0
VERTEX
  8
S-OBRYS
  5
6635F
 10
52766.5
 20
426782.
 30
0.000000
  70
    32
  0
VERTEX
  8
S-OBRYS
  5
66360
 10
52766.6
 20
426782.
 30
0.000000
  70
    32
  0
VERTEX
  8
S-OBRYS
  5
66361
 10
52766.7
 20
426782.
 30
0.000000
  70
    32
  0
VERTEX
  8
S-OBRYS
  5
66362
 10
52766.9
 20
426782.
 30
0.000000
  70
    32
  0
VERTEX
  8
S-OBRYS
  5
66363
 10
52767.0
 20
426782.
 30
0.000000
  70
    32
  0
VERTEX
  8
S-OBRYS
  5
66364
 10
52767.1
 20
426782.
 30
0.000000
  70
    32
  0
VERTEX
  8
S-OBRYS
  5
66365
 10
52767.2
 20
426782.
 30
0.000000
  70
    32
  0
VERTEX
  8
S-OBRYS
  5
66366
 10
52767.3
 20
426782.
 30
0.000000
  70
    32
  0
VERTEX
  8
S-OBRYS
  5
66367
 10
52767.4
 20
426782.
 30
0.000000
  70
    32
  0
VERTEX
  8
S-OBRYS
  5
66368
 10
52767.5
 20
426782.
 30
0.000000
  70
    32
  0
VERTEX
  8
S-OBRYS
  5
66369
 10
52767.6
 20
426782.
 30
0.000000
  70
    32
  0
VERTEX
  8
S-OBRYS
  5
6636A
 10
52767.7
 20
426782.
 30
0.000000
  70
    32
  0
VERTEX
  8
S-OBRYS
  5
6636B
 10
52767.9
 20
426782.
 30
0.000000
  70
    32
  0
VERTEX
  8
S-OBRYS
  5
6636C
 10
52768.0
 20
426782.
 30
0.000000
  70
    32
  0
VERTEX
  8
S-OBRYS
  5
6636D
 10
52768.1
 20
426781.
 30
0.000000
  70
    32
  0
VERTEX
  8
S-OBRYS
  5
6636E
 10
52768.2
 20
426781.
 30
0.000000
  70
    32
  0
VERTEX
  8
S-OBRYS
  5
6636F
 10
52768.3
 20
426781.
 30
0.000000
  70
    32
  0
VERTEX
  8
S-OBRYS
  5
66370
 10
52768.4
 20
426781.
 30
0.000000
  70
    32
  0
VERTEX
  8
S-OBRYS
  5
66371
 10
52768.5
 20
426781.
 30
0.000000
  70
    32
  0
VERTEX
  8
S-OBRYS
  5
66372
 10
52768.6
 20
426781.
 30
0.000000
  70
    32
  0
VERTEX
  8
S-OBRYS
  5
66373
 10
52768.8
 20
426781.
 30
0.000000
  70
    32
  0
VERTEX
  8
S-OBRYS
  5
66374
 10
52768.9
 20
426781.
 30
0.000000
  70
    32
  0
VERTEX
  8
S-OBRYS
  5
66375
 10
52769.0
 20
426781.
 30
0.000000
  70
    32
  0
VERTEX
  8
S-OBRYS
  5
66376
 10
52769.1
 20
426781.
 30
0.000000
  70
    32
  0
VERTEX
  8
S-OBRYS
  5
66377
 10
52769.2
 20
426781.
 30
0.000000
  70
    32
  0
VERTEX
  8
S-OBRYS
  5
66378
 10
52769.3
 20
426781.
 30
0.000000
  70
    32
  0
VERTEX
  8
S-OBRYS
  5
66379
 10
52769.5
 20
426781.
 30
0.000000
  70
    32
  0
VERTEX
  8
S-OBRYS
  5
6637A
 10
52769.6
 20
426781.
 30
0.000000
  70
    32
  0
VERTEX
  8
S-OBRYS
  5
6637B
 10
52769.7
 20
426781.
 30
0.000000
  70
    32
  0
VERTEX
  8
S-OBRYS
  5
6637C
 10
52769.8
 20
426781.
 30
0.000000
  70
    32
  0
VERTEX
  8
S-OBRYS
  5
6637D
 10
52769.9
 20
426780.
 30
0.000000
  70
    32
  0
VERTEX
  8
S-OBRYS
  5
6637E
 10
52770.1
 20
426780.
 30
0.000000
  70
    32
  0
VERTEX
  8
S-OBRYS
  5
6637F
 10
52770.2
 20
426780.
 30
0.000000
  70
    32
  0
VERTEX
  8
S-OBRYS
  5
66380
 10
52770.3
 20
426780.
 30
0.000000
  70
    32
  0
VERTEX
  8
S-OBRYS
  5
66381
 10
52770.4
 20
426780.
 30
0.000000
  70
    32
  0
VERTEX
  8
S-OBRYS
  5
66382
 10
52770.6
 20
426780.
 30
0.000000
  70
    32
  0
VERTEX
  8
S-OBRYS
  5
66383
 10
52770.7
 20
426780.
 30
0.000000
  70
    32
  0
VERTEX
  8
S-OBRYS
  5
66384
 10
52770.8
 20
426780.
 30
0.000000
  70
    32
  0
VERTEX
  8
S-OBRYS
  5
66385
 10
52771.0
 20
426780.
 30
0.000000
  70
    32
  0
VERTEX
  8
S-OBRYS
  5
66386
 10
52771.1
 20
426780.
 30
0.000000
  70
    32
  0
VERTEX
  8
S-OBRYS
  5
66387
 10
52771.2
 20
426780.
 30
0.000000
  70
    32
  0
VERTEX
  8
S-OBRYS
  5
66388
 10
52771.4
 20
426780.
 30
0.000000
  70
    32
  0
VERTEX
  8
S-OBRYS
  5
66389
 10
52771.5
 20
426780.
 30
0.000000
  70
    32
  0
VERTEX
  8
S-OBRYS
  5
6638A
 10
52771.6
 20
426780.
 30
0.000000
  70
    32
  0
VERTEX
  8
S-OBRYS
  5
6638B
 10
52771.8
 20
426780.
 30
0.000000
  70
    32
  0
VERTEX
  8
S-OBRYS
  5
6638C
 10
52771.9
 20
426780.
 30
0.000000
  70
    32
  0
VERTEX
  8
S-OBRYS
  5
6638D
 10
52772.0
 20
426780.
 30
0.000000
  70
    32
  0
VERTEX
  8
S-OBRYS
  5
6638E
 10
52772.2
 20
426780.
 30
0.000000
  70
    32
  0
VERTEX
  8
S-OBRYS
  5
6638F
 10
52772.3
 20
426780.
 30
0.000000
  70
    32
  0
VERTEX
  8
S-OBRYS
  5
66390
 10
52772.5
 20
426780.
 30
0.000000
  70
    32
  0
VERTEX
  8
S-OBRYS
  5
66391
 10
52772.6
 20
426780.
 30
0.000000
  70
    32
  0
VERTEX
  8
S-OBRYS
  5
66392
 10
52772.7
 20
426780.
 30
0.000000
  70
    32
  0
VERTEX
  8
S-OBRYS
  5
66393
 10
52772.9
 20
426780.
 30
0.000000
  70
    32
  0
VERTEX
  8
S-OBRYS
  5
66394
 10
52773.0
 20
426780.
 30
0.000000
  70
    32
  0
VERTEX
  8
S-OBRYS
  5
66395
 10
52773.1
 20
426780.
 30
0.000000
  70
    32
  0
VERTEX
  8
S-OBRYS
  5
66396
 10
52773.3
 20
426780.
 30
0.000000
  70
    32
  0
VERTEX
  8
S-OBRYS
  5
66397
 10
52773.4
 20
426780.
 30
0.000000
  70
    32
  0
VERTEX
  8
S-OBRYS
  5
66398
 10
52773.5
 20
426780.
 30
0.000000
  70
    32
  0
VERTEX
  8
S-OBRYS
  5
66399
 10
52773.7
 20
426780.
 30
0.000000
  70
    32
  0
VERTEX
  8
S-OBRYS
  5
6639A
 10
52773.8
 20
426780.
 30
0.000000
  70
    32
  0
VERTEX
  8
S-OBRYS
  5
6639B
 10
52774.0
 20
426780.
 30
0.000000
  70
    32
  0
VERTEX
  8
S-OBRYS
  5
6639C
 10
52774.1
 20
426780.
 30
0.000000
  70
    32
  0
VERTEX
  8
S-OBRYS
  5
6639D
 10
52774.2
 20
426780.
 30
0.000000
  70
    32
  0
VERTEX
  8
S-OBRYS
  5
6639E
 10
52774.4
 20
426780.
 30
0.000000
  70
    32
  0
VERTEX
  8
S-OBRYS
  5
6639F
 10
52774.5
 20
426780.
 30
0.000000
  70
    32
  0
VERTEX
  8
S-OBRYS
  5
663A0
 10
52774.6
 20
426780.
 30
0.000000
  70
    32
  0
VERTEX
  8
S-OBRYS
  5
663A1
 10
52774.8
 20
426780.
 30
0.000000
  70
    32
  0
VERTEX
  8
S-OBRYS
  5
663A2
 10
52774.9
 20
426780.
 30
0.000000
  70
    32
  0
VERTEX
  8
S-OBRYS
  5
663A3
 10
52775.0
 20
426780.
 30
0.000000
  70
    32
  0
VERTEX
  8
S-OBRYS
  5
663A4
 10
52775.1
 20
426780.
 30
0.000000
  70
    32
  0
VERTEX
  8
S-OBRYS
  5
663A5
 10
52775.3
 20
426780.
 30
0.000000
  70
    32
  0
VERTEX
  8
S-OBRYS
  5
663A6
 10
52775.4
 20
426780.
 30
0.000000
  70
    32
  0
VERTEX
  8
S-OBRYS
  5
663A7
 10
52775.5
 20
426780.
 30
0.000000
  70
    32
  0
VERTEX
  8
S-OBRYS
  5
663A8
 10
52775.6
 20
426780.
 30
0.000000
  70
    32
  0
VERTEX
  8
S-OBRYS
  5
663A9
 10
52775.8
 20
426780.
 30
0.000000
  70
    32
  0
VERTEX
  8
S-OBRYS
  5
663AA
 10
52775.9
 20
426780.
 30
0.000000
  70
    32
  0
VERTEX
  8
S-OBRYS
  5
663AB
 10
52776.0
 20
426780.
 30
0.000000
  70
    32
  0
VERTEX
  8
S-OBRYS
  5
663AC
 10
52776.1
 20
426780.
 30
0.000000
  70
    32
  0
VERTEX
  8
S-OBRYS
  5
663AD
 10
52776.3
 20
426780.
 30
0.000000
  70
    32
  0
VERTEX
  8
S-OBRYS
  5
663AE
 10
52776.4
 20
426780.
 30
0.000000
  70
    32
  0
VERTEX
  8
S-OBRYS
  5
663AF
 10
52776.5
 20
426780.
 30
0.000000
  70
    32
  0
VERTEX
  8
S-OBRYS
  5
663B0
 10
52776.6
 20
426780.
 30
0.000000
  70
    32
  0
VERTEX
  8
S-OBRYS
  5
663B1
 10
52776.7
 20
426780.
 30
0.000000
  70
    32
  0
VERTEX
  8
S-OBRYS
  5
663B2
 10
52776.8
 20
426780.
 30
0.000000
  70
    32
  0
VERTEX
  8
S-OBRYS
  5
663B3
 10
52776.9
 20
426780.
 30
0.000000
  70
    32
  0
VERTEX
  8
S-OBRYS
  5
663B4
 10
52777.0
 20
426780.
 30
0.000000
  70
    32
  0
VERTEX
  8
S-OBRYS
  5
663B5
 10
52777.1
 20
426780.
 30
0.000000
  70
    32
  0
VERTEX
  8
S-OBRYS
  5
663B6
 10
52777.2
 20
426779.
 30
0.000000
  70
    32
  0
VERTEX
  8
S-OBRYS
  5
663B7
 10
52777.3
 20
426779.
 30
0.000000
  70
    32
  0
VERTEX
  8
S-OBRYS
  5
663B8
 10
52777.5
 20
426779.
 30
0.000000
  70
    32
  0
VERTEX
  8
S-OBRYS
  5
663B9
 10
52777.6
 20
426779.
 30
0.000000
  70
    32
  0
VERTEX
  8
S-OBRYS
  5
663BA
 10
52777.7
 20
426779.
 30
0.000000
  70
    32
  0
VERTEX
  8
S-OBRYS
  5
663BB
 10
52777.8
 20
426779.
 30
0.000000
  70
    32
  0
VERTEX
  8
S-OBRYS
  5
663BC
 10
52777.9
 20
426779.
 30
0.000000
  70
    32
  0
VERTEX
  8
S-OBRYS
  5
663BD
 10
52777.9
 20
426779.
 30
0.000000
  70
    32
  0
VERTEX
  8
S-OBRYS
  5
663BE
 10
52778.0
 20
426779.
 30
0.000000
  70
    32
  0
VERTEX
  8
S-OBRYS
  5
663BF
 10
52778.1
 20
426779.
 30
0.000000
  70
    32
  0
VERTEX
  8
S-OBRYS
  5
663C0
 10
52778.2
 20
426779.
 30
0.000000
  70
    32
  0
VERTEX
  8
S-OBRYS
  5
663C1
 10
52778.3
 20
426778.
 30
0.000000
  70
    32
  0
VERTEX
  8
S-OBRYS
  5
663C2
 10
52778.4
 20
426778.
 30
0.000000
  70
    32
  0
VERTEX
  8
S-OBRYS
  5
663C3
 10
52778.5
 20
426778.
 30
0.000000
  70
    32
  0
VERTEX
  8
S-OBRYS
  5
663C4
 10
52778.6
 20
426778.
 30
0.000000
  70
    32
  0
VERTEX
  8
S-OBRYS
  5
663C5
 10
52778.7
 20
426778.
 30
0.000000
  70
    32
  0
VERTEX
  8
S-OBRYS
  5
663C6
 10
52778.8
 20
426778.
 30
0.000000
  70
    32
  0
VERTEX
  8
S-OBRYS
  5
663C7
 10
52778.9
 20
426778.
 30
0.000000
  70
    32
  0
VERTEX
  8
S-OBRYS
  5
663C8
 10
52779.0
 20
426778.
 30
0.000000
  70
    32
  0
VERTEX
  8
S-OBRYS
  5
663C9
 10
52779.1
 20
426778.
 30
0.000000
  70
    32
  0
VERTEX
  8
S-OBRYS
  5
663CA
 10
52779.2
 20
426778.
 30
0.000000
  70
    32
  0
VERTEX
  8
S-OBRYS
  5
663CB
 10
52779.3
 20
426777.
 30
0.000000
  70
    32
  0
VERTEX
  8
S-OBRYS
  5
663CC
 10
52779.4
 20
426777.
 30
0.000000
  70
    32
  0
VERTEX
  8
S-OBRYS
  5
663CD
 10
52779.5
 20
426777.
 30
0.000000
  70
    32
  0
VERTEX
  8
S-OBRYS
  5
663CE
 10
52779.6
 20
426777.
 30
0.000000
  70
    32
  0
VERTEX
  8
S-OBRYS
  5
663CF
 10
52779.7
 20
426777.
 30
0.000000
  70
    32
  0
VERTEX
  8
S-OBRYS
  5
663D0
 10
52779.8
 20
426777.
 30
0.000000
  70
    32
  0
VERTEX
  8
S-OBRYS
  5
663D1
 10
52779.9
 20
426777.
 30
0.000000
  70
    32
  0
VERTEX
  8
S-OBRYS
  5
663D2
 10
52780.0
 20
426777.
 30
0.000000
  70
    32
  0
VERTEX
  8
S-OBRYS
  5
663D3
 10
52780.1
 20
426777.
 30
0.000000
  70
    32
  0
VERTEX
  8
S-OBRYS
  5
663D4
 10
52780.2
 20
426777.
 30
0.000000
  70
    32
  0
VERTEX
  8
S-OBRYS
  5
663D5
 10
52780.3
 20
426777.
 30
0.000000
  70
    32
  0
VERTEX
  8
S-OBRYS
  5
663D6
 10
52780.4
 20
426777.
 30
0.000000
  70
    32
  0
VERTEX
  8
S-OBRYS
  5
663D7
 10
52780.5
 20
426776.
 30
0.000000
  70
    32
  0
VERTEX
  8
S-OBRYS
  5
663D8
 10
52780.6
 20
426776.
 30
0.000000
  70
    32
  0
VERTEX
  8
S-OBRYS
  5
663D9
 10
52780.7
 20
426776.
 30
0.000000
  70
    32
  0
VERTEX
  8
S-OBRYS
  5
663DA
 10
52780.8
 20
426776.
 30
0.000000
  70
    32
  0
VERTEX
  8
S-OBRYS
  5
663DB
 10
52780.9
 20
426776.
 30
0.000000
  70
    32
  0
VERTEX
  8
S-OBRYS
  5
663DC
 10
52781.0
 20
426776.
 30
0.000000
  70
    32
  0
VERTEX
  8
S-OBRYS
  5
663DD
 10
52781.1
 20
426776.
 30
0.000000
  70
    32
  0
VERTEX
  8
S-OBRYS
  5
663DE
 10
52781.3
 20
426776.
 30
0.000000
  70
    32
  0
VERTEX
  8
S-OBRYS
  5
663DF
 10
52781.4
 20
426776.
 30
0.000000
  70
    32
  0
VERTEX
  8
S-OBRYS
  5
663E0
 10
52781.5
 20
426776.
 30
0.000000
  70
    32
  0
VERTEX
  8
S-OBRYS
  5
663E1
 10
52781.6
 20
426776.
 30
0.000000
  70
    32
  0
VERTEX
  8
S-OBRYS
  5
663E2
 10
52781.7
 20
426776.
 30
0.000000
  70
    32
  0
VERTEX
  8
S-OBRYS
  5
663E3
 10
52781.9
 20
426776.
 30
0.000000
  70
    32
  0
VERTEX
  8
S-OBRYS
  5
663E4
 10
52782.0
 20
426776.
 30
0.000000
  70
    32
  0
VERTEX
  8
S-OBRYS
  5
663E5
 10
52782.1
 20
426776.
 30
0.000000
  70
    32
  0
VERTEX
  8
S-OBRYS
  5
663E6
 10
52782.2
 20
426776.
 30
0.000000
  70
    32
  0
VERTEX
  8
S-OBRYS
  5
663E7
 10
52782.4
 20
426776.
 30
0.000000
  70
    32
  0
VERTEX
  8
S-OBRYS
  5
663E8
 10
52782.5
 20
426776.
 30
0.000000
  70
    32
  0
VERTEX
  8
S-OBRYS
  5
663E9
 10
52782.6
 20
426776.
 30
0.000000
  70
    32
  0
VERTEX
  8
S-OBRYS
  5
663EA
 10
52782.7
 20
426776.
 30
0.000000
  70
    32
  0
VERTEX
  8
S-OBRYS
  5
663EB
 10
52782.9
 20
426776.
 30
0.000000
  70
    32
  0
VERTEX
  8
S-OBRYS
  5
663EC
 10
52783.0
 20
426776.
 30
0.000000
  70
    32
  0
VERTEX
  8
S-OBRYS
  5
663ED
 10
52783.1
 20
426776.
 30
0.000000
  70
    32
  0
VERTEX
  8
S-OBRYS
  5
663EE
 10
52783.3
 20
426776.
 30
0.000000
  70
    32
  0
VERTEX
  8
S-OBRYS
  5
663EF
 10
52783.4
 20
426776.
 30
0.000000
  70
    32
  0
VERTEX
  8
S-OBRYS
  5
663F0
 10
52783.5
 20
426776.
 30
0.000000
  70
    32
  0
VERTEX
  8
S-OBRYS
  5
663F1
 10
52783.7
 20
426776.
 30
0.000000
  70
    32
  0
VERTEX
  8
S-OBRYS
  5
663F2
 10
52783.8
 20
426776.
 30
0.000000
  70
    32
  0
VERTEX
  8
S-OBRYS
  5
663F3
 10
52784.0
 20
426776.
 30
0.000000
  70
    32
  0
VERTEX
  8
S-OBRYS
  5
663F4
 10
52784.1
 20
426776.
 30
0.000000
  70
    32
  0
VERTEX
  8
S-OBRYS
  5
663F5
 10
52784.2
 20
426776.
 30
0.000000
  70
    32
  0
VERTEX
  8
S-OBRYS
  5
663F6
 10
52784.4
 20
426776.
 30
0.000000
  70
    32
  0
VERTEX
  8
S-OBRYS
  5
663F7
 10
52784.5
 20
426776.
 30
0.000000
  70
    32
  0
VERTEX
  8
S-OBRYS
  5
663F8
 10
52784.6
 20
426776.
 30
0.000000
  70
    32
  0
VERTEX
  8
S-OBRYS
  5
663F9
 10
52784.8
 20
426776.
 30
0.000000
  70
    32
  0
VERTEX
  8
S-OBRYS
  5
663FA
 10
52784.9
 20
426776.
 30
0.000000
  70
    32
  0
VERTEX
  8
S-OBRYS
  5
663FB
 10
52785.1
 20
426776.
 30
0.000000
  70
    32
  0
VERTEX
  8
S-OBRYS
  5
663FC
 10
52785.2
 20
426776.
 30
0.000000
  70
    32
  0
VERTEX
  8
S-OBRYS
  5
663FD
 10
52785.3
 20
426776.
 30
0.000000
  70
    32
  0
VERTEX
  8
S-OBRYS
  5
663FE
 10
52785.5
 20
426776.
 30
0.000000
  70
    32
  0
VERTEX
  8
S-OBRYS
  5
663FF
 10
52785.6
 20
426776.
 30
0.000000
  70
    32
  0
VERTEX
  8
S-OBRYS
  5
66400
 10
52785.8
 20
426776.
 30
0.000000
  70
    32
  0
SEQEND
  8
S-OBRYS
  5
66401
  0
LINE
  5
65802
  8
S-OBRYS
  6
CONTINUOUS
 10
52785.7681005126
 20
426683.05995620572
 30
0.0
 11
52785.7681005126
 21
426776.22229283809
 31
0.0
  0
LINE
  5
65803
  8
S-OBRYS
  6
CONTINUOUS
 10
52737.183295483352
 20
426876.69312407041
 30
0.0
 11
52785.774035603761
 21
426876.69312407041
 31
0.0
  0
POLYLINE
  8
S-OBRYS
  5
66402
  66
     1
 10
0.000000
 20
0.000000
 30
0.000000
  70
     8
  0
VERTEX
  8
S-OBRYS
  5
66403
 10
52737.2
 20
426797.
 30
0.000000
  70
    32
  0
VERTEX
  8
S-OBRYS
  5
66404
 10
52737.3
 20
426797.
 30
0.000000
  70
    32
  0
VERTEX
  8
S-OBRYS
  5
66405
 10
52737.5
 20
426797.
 30
0.000000
  70
    32
  0
VERTEX
  8
S-OBRYS
  5
66406
 10
52737.6
 20
426797.
 30
0.000000
  70
    32
  0
VERTEX
  8
S-OBRYS
  5
66407
 10
52737.8
 20
426797.
 30
0.000000
  70
    32
  0
VERTEX
  8
S-OBRYS
  5
66408
 10
52737.9
 20
426797.
 30
0.000000
  70
    32
  0
VERTEX
  8
S-OBRYS
  5
66409
 10
52738.1
 20
426797.
 30
0.000000
  70
    32
  0
VERTEX
  8
S-OBRYS
  5
6640A
 10
52738.2
 20
426797.
 30
0.000000
  70
    32
  0
VERTEX
  8
S-OBRYS
  5
6640B
 10
52738.4
 20
426797.
 30
0.000000
  70
    32
  0
VERTEX
  8
S-OBRYS
  5
6640C
 10
52738.5
 20
426797.
 30
0.000000
  70
    32
  0
VERTEX
  8
S-OBRYS
  5
6640D
 10
52738.7
 20
426797.
 30
0.000000
  70
    32
  0
VERTEX
  8
S-OBRYS
  5
6640E
 10
52738.8
 20
426797.
 30
0.000000
  70
    32
  0
VERTEX
  8
S-OBRYS
  5
6640F
 10
52739.0
 20
426797.
 30
0.000000
  70
    32
  0
VERTEX
  8
S-OBRYS
  5
66410
 10
52739.1
 20
426797.
 30
0.000000
  70
    32
  0
VERTEX
  8
S-OBRYS
  5
66411
 10
52739.2
 20
426797.
 30
0.000000
  70
    32
  0
VERTEX
  8
S-OBRYS
  5
66412
 10
52739.4
 20
426797.
 30
0.000000
  70
    32
  0
VERTEX
  8
S-OBRYS
  5
66413
 10
52739.5
 20
426797.
 30
0.000000
  70
    32
  0
VERTEX
  8
S-OBRYS
  5
66414
 10
52739.7
 20
426797.
 30
0.000000
  70
    32
  0
VERTEX
  8
S-OBRYS
  5
66415
 10
52739.8
 20
426797.
 30
0.000000
  70
    32
  0
VERTEX
  8
S-OBRYS
  5
66416
 10
52740.0
 20
426797.
 30
0.000000
  70
    32
  0
VERTEX
  8
S-OBRYS
  5
66417
 10
52740.1
 20
426797.
 30
0.000000
  70
    32
  0
VERTEX
  8
S-OBRYS
  5
66418
 10
52740.2
 20
426797.
 30
0.000000
  70
    32
  0
VERTEX
  8
S-OBRYS
  5
66419
 10
52740.4
 20
426797.
 30
0.000000
  70
    32
  0
VERTEX
  8
S-OBRYS
  5
6641A
 10
52740.5
 20
426797.
 30
0.000000
  70
    32
  0
VERTEX
  8
S-OBRYS
  5
6641B
 10
52740.6
 20
426797.
 30
0.000000
  70
    32
  0
VERTEX
  8
S-OBRYS
  5
6641C
 10
52740.8
 20
426797.
 30
0.000000
  70
    32
  0
VERTEX
  8
S-OBRYS
  5
6641D
 10
52740.9
 20
426797.
 30
0.000000
  70
    32
  0
VERTEX
  8
S-OBRYS
  5
6641E
 10
52741.0
 20
426797.
 30
0.000000
  70
    32
  0
VERTEX
  8
S-OBRYS
  5
6641F
 10
52741.2
 20
426797.
 30
0.000000
  70
    32
  0
VERTEX
  8
S-OBRYS
  5
66420
 10
52741.3
 20
426797.
 30
0.000000
  70
    32
  0
VERTEX
  8
S-OBRYS
  5
66421
 10
52741.4
 20
426797.
 30
0.000000
  70
    32
  0
VERTEX
  8
S-OBRYS
  5
66422
 10
52741.5
 20
426797.
 30
0.000000
  70
    32
  0
VERTEX
  8
S-OBRYS
  5
66423
 10
52741.7
 20
426797.
 30
0.000000
  70
    32
  0
VERTEX
  8
S-OBRYS
  5
66424
 10
52741.8
 20
426797.
 30
0.000000
  70
    32
  0
VERTEX
  8
S-OBRYS
  5
66425
 10
52741.9
 20
426797.
 30
0.000000
  70
    32
  0
VERTEX
  8
S-OBRYS
  5
66426
 10
52742.0
 20
426797.
 30
0.000000
  70
    32
  0
VERTEX
  8
S-OBRYS
  5
66427
 10
52742.1
 20
426797.
 30
0.000000
  70
    32
  0
VERTEX
  8
S-OBRYS
  5
66428
 10
52742.2
 20
426797.
 30
0.000000
  70
    32
  0
VERTEX
  8
S-OBRYS
  5
66429
 10
52742.4
 20
426797.
 30
0.000000
  70
    32
  0
VERTEX
  8
S-OBRYS
  5
6642A
 10
52742.5
 20
426797.
 30
0.000000
  70
    32
  0
VERTEX
  8
S-OBRYS
  5
6642B
 10
52742.6
 20
426797.
 30
0.000000
  70
    32
  0
VERTEX
  8
S-OBRYS
  5
6642C
 10
52742.7
 20
426797.
 30
0.000000
  70
    32
  0
VERTEX
  8
S-OBRYS
  5
6642D
 10
52742.8
 20
426797.
 30
0.000000
  70
    32
  0
VERTEX
  8
S-OBRYS
  5
6642E
 10
52742.9
 20
426796.
 30
0.000000
  70
    32
  0
VERTEX
  8
S-OBRYS
  5
6642F
 10
52743.0
 20
426796.
 30
0.000000
  70
    32
  0
VERTEX
  8
S-OBRYS
  5
66430
 10
52743.1
 20
426796.
 30
0.000000
  70
    32
  0
VERTEX
  8
S-OBRYS
  5
66431
 10
52743.2
 20
426796.
 30
0.000000
  70
    32
  0
VERTEX
  8
S-OBRYS
  5
66432
 10
52743.3
 20
426796.
 30
0.000000
  70
    32
  0
VERTEX
  8
S-OBRYS
  5
66433
 10
52743.3
 20
426796.
 30
0.000000
  70
    32
  0
VERTEX
  8
S-OBRYS
  5
66434
 10
52743.4
 20
426796.
 30
0.000000
  70
    32
  0
VERTEX
  8
S-OBRYS
  5
66435
 10
52743.5
 20
426796.
 30
0.000000
  70
    32
  0
VERTEX
  8
S-OBRYS
  5
66436
 10
52743.6
 20
426796.
 30
0.000000
  70
    32
  0
VERTEX
  8
S-OBRYS
  5
66437
 10
52743.7
 20
426796.
 30
0.000000
  70
    32
  0
VERTEX
  8
S-OBRYS
  5
66438
 10
52743.8
 20
426795.
 30
0.000000
  70
    32
  0
VERTEX
  8
S-OBRYS
  5
66439
 10
52743.8
 20
426795.
 30
0.000000
  70
    32
  0
VERTEX
  8
S-OBRYS
  5
6643A
 10
52743.9
 20
426795.
 30
0.000000
  70
    32
  0
VERTEX
  8
S-OBRYS
  5
6643B
 10
52744.0
 20
426795.
 30
0.000000
  70
    32
  0
VERTEX
  8
S-OBRYS
  5
6643C
 10
52744.1
 20
426795.
 30
0.000000
  70
    32
  0
VERTEX
  8
S-OBRYS
  5
6643D
 10
52744.2
 20
426795.
 30
0.000000
  70
    32
  0
VERTEX
  8
S-OBRYS
  5
6643E
 10
52744.2
 20
426795.
 30
0.000000
  70
    32
  0
VERTEX
  8
S-OBRYS
  5
6643F
 10
52744.3
 20
426795.
 30
0.000000
  70
    32
  0
VERTEX
  8
S-OBRYS
  5
66440
 10
52744.4
 20
426795.
 30
0.000000
  70
    32
  0
VERTEX
  8
S-OBRYS
  5
66441
 10
52744.5
 20
426794.
 30
0.000000
  70
    32
  0
VERTEX
  8
S-OBRYS
  5
66442
 10
52744.6
 20
426794.
 30
0.000000
  70
    32
  0
VERTEX
  8
S-OBRYS
  5
66443
 10
52744.7
 20
426794.
 30
0.000000
  70
    32
  0
VERTEX
  8
S-OBRYS
  5
66444
 10
52744.7
 20
426794.
 30
0.000000
  70
    32
  0
VERTEX
  8
S-OBRYS
  5
66445
 10
52744.8
 20
426794.
 30
0.000000
  70
    32
  0
VERTEX
  8
S-OBRYS
  5
66446
 10
52744.9
 20
426794.
 30
0.000000
  70
    32
  0
VERTEX
  8
S-OBRYS
  5
66447
 10
52745.0
 20
426794.
 30
0.000000
  70
    32
  0
VERTEX
  8
S-OBRYS
  5
66448
 10
52745.1
 20
426794.
 30
0.000000
  70
    32
  0
VERTEX
  8
S-OBRYS
  5
66449
 10
52745.2
 20
426794.
 30
0.000000
  70
    32
  0
VERTEX
  8
S-OBRYS
  5
6644A
 10
52745.3
 20
426794.
 30
0.000000
  70
    32
  0
VERTEX
  8
S-OBRYS
  5
6644B
 10
52745.4
 20
426794.
 30
0.000000
  70
    32
  0
VERTEX
  8
S-OBRYS
  5
6644C
 10
52745.5
 20
426794.
 30
0.000000
  70
    32
  0
VERTEX
  8
S-OBRYS
  5
6644D
 10
52745.6
 20
426794.
 30
0.000000
  70
    32
  0
VERTEX
  8
S-OBRYS
  5
6644E
 10
52745.8
 20
426794.
 30
0.000000
  70
    32
  0
VERTEX
  8
S-OBRYS
  5
6644F
 10
52745.9
 20
426794.
 30
0.000000
  70
    32
  0
VERTEX
  8
S-OBRYS
  5
66450
 10
52746.0
 20
426794.
 30
0.000000
  70
    32
  0
VERTEX
  8
S-OBRYS
  5
66451
 10
52746.1
 20
426794.
 30
0.000000
  70
    32
  0
VERTEX
  8
S-OBRYS
  5
66452
 10
52746.2
 20
426794.
 30
0.000000
  70
    32
  0
VERTEX
  8
S-OBRYS
  5
66453
 10
52746.4
 20
426794.
 30
0.000000
  70
    32
  0
VERTEX
  8
S-OBRYS
  5
66454
 10
52746.5
 20
426794.
 30
0.000000
  70
    32
  0
VERTEX
  8
S-OBRYS
  5
66455
 10
52746.6
 20
426794.
 30
0.000000
  70
    32
  0
VERTEX
  8
S-OBRYS
  5
66456
 10
52746.7
 20
426794.
 30
0.000000
  70
    32
  0
VERTEX
  8
S-OBRYS
  5
66457
 10
52746.9
 20
426794.
 30
0.000000
  70
    32
  0
VERTEX
  8
S-OBRYS
  5
66458
 10
52747.0
 20
426794.
 30
0.000000
  70
    32
  0
VERTEX
  8
S-OBRYS
  5
66459
 10
52747.2
 20
426794.
 30
0.000000
  70
    32
  0
VERTEX
  8
S-OBRYS
  5
6645A
 10
52747.3
 20
426794.
 30
0.000000
  70
    32
  0
VERTEX
  8
S-OBRYS
  5
6645B
 10
52747.4
 20
426794.
 30
0.000000
  70
    32
  0
VERTEX
  8
S-OBRYS
  5
6645C
 10
52747.6
 20
426794.
 30
0.000000
  70
    32
  0
VERTEX
  8
S-OBRYS
  5
6645D
 10
52747.7
 20
426794.
 30
0.000000
  70
    32
  0
VERTEX
  8
S-OBRYS
  5
6645E
 10
52747.8
 20
426794.
 30
0.000000
  70
    32
  0
VERTEX
  8
S-OBRYS
  5
6645F
 10
52748.0
 20
426794.
 30
0.000000
  70
    32
  0
VERTEX
  8
S-OBRYS
  5
66460
 10
52748.1
 20
426794.
 30
0.000000
  70
    32
  0
VERTEX
  8
S-OBRYS
  5
66461
 10
52748.3
 20
426794.
 30
0.000000
  70
    32
  0
VERTEX
  8
S-OBRYS
  5
66462
 10
52748.4
 20
426794.
 30
0.000000
  70
    32
  0
VERTEX
  8
S-OBRYS
  5
66463
 10
52748.5
 20
426794.
 30
0.000000
  70
    32
  0
VERTEX
  8
S-OBRYS
  5
66464
 10
52748.7
 20
426795.
 30
0.000000
  70
    32
  0
VERTEX
  8
S-OBRYS
  5
66465
 10
52748.8
 20
426795.
 30
0.000000
  70
    32
  0
VERTEX
  8
S-OBRYS
  5
66466
 10
52748.9
 20
426795.
 30
0.000000
  70
    32
  0
VERTEX
  8
S-OBRYS
  5
66467
 10
52749.1
 20
426795.
 30
0.000000
  70
    32
  0
VERTEX
  8
S-OBRYS
  5
66468
 10
52749.2
 20
426795.
 30
0.000000
  70
    32
  0
VERTEX
  8
S-OBRYS
  5
66469
 10
52749.3
 20
426795.
 30
0.000000
  70
    32
  0
VERTEX
  8
S-OBRYS
  5
6646A
 10
52749.5
 20
426795.
 30
0.000000
  70
    32
  0
VERTEX
  8
S-OBRYS
  5
6646B
 10
52749.6
 20
426795.
 30
0.000000
  70
    32
  0
VERTEX
  8
S-OBRYS
  5
6646C
 10
52749.7
 20
426795.
 30
0.000000
  70
    32
  0
VERTEX
  8
S-OBRYS
  5
6646D
 10
52749.8
 20
426795.
 30
0.000000
  70
    32
  0
VERTEX
  8
S-OBRYS
  5
6646E
 10
52749.9
 20
426795.
 30
0.000000
  70
    32
  0
VERTEX
  8
S-OBRYS
  5
6646F
 10
52750.1
 20
426795.
 30
0.000000
  70
    32
  0
VERTEX
  8
S-OBRYS
  5
66470
 10
52750.2
 20
426795.
 30
0.000000
  70
    32
  0
VERTEX
  8
S-OBRYS
  5
66471
 10
52750.3
 20
426795.
 30
0.000000
  70
    32
  0
VERTEX
  8
S-OBRYS
  5
66472
 10
52750.4
 20
426795.
 30
0.000000
  70
    32
  0
VERTEX
  8
S-OBRYS
  5
66473
 10
52750.5
 20
426795.
 30
0.000000
  70
    32
  0
VERTEX
  8
S-OBRYS
  5
66474
 10
52750.6
 20
426794.
 30
0.000000
  70
    32
  0
VERTEX
  8
S-OBRYS
  5
66475
 10
52750.7
 20
426794.
 30
0.000000
  70
    32
  0
VERTEX
  8
S-OBRYS
  5
66476
 10
52750.8
 20
426794.
 30
0.000000
  70
    32
  0
VERTEX
  8
S-OBRYS
  5
66477
 10
52750.9
 20
426794.
 30
0.000000
  70
    32
  0
VERTEX
  8
S-OBRYS
  5
66478
 10
52751.0
 20
426794.
 30
0.000000
  70
    32
  0
VERTEX
  8
S-OBRYS
  5
66479
 10
52751.1
 20
426794.
 30
0.000000
  70
    32
  0
VERTEX
  8
S-OBRYS
  5
6647A
 10
52751.2
 20
426794.
 30
0.000000
  70
    32
  0
VERTEX
  8
S-OBRYS
  5
6647B
 10
52751.3
 20
426794.
 30
0.000000
  70
    32
  0
VERTEX
  8
S-OBRYS
  5
6647C
 10
52751.4
 20
426794.
 30
0.000000
  70
    32
  0
VERTEX
  8
S-OBRYS
  5
6647D
 10
52751.4
 20
426794.
 30
0.000000
  70
    32
  0
VERTEX
  8
S-OBRYS
  5
6647E
 10
52751.5
 20
426794.
 30
0.000000
  70
    32
  0
VERTEX
  8
S-OBRYS
  5
6647F
 10
52751.6
 20
426793.
 30
0.000000
  70
    32
  0
VERTEX
  8
S-OBRYS
  5
66480
 10
52751.7
 20
426793.
 30
0.000000
  70
    32
  0
VERTEX
  8
S-OBRYS
  5
66481
 10
52751.8
 20
426793.
 30
0.000000
  70
    32
  0
VERTEX
  8
S-OBRYS
  5
66482
 10
52751.9
 20
426793.
 30
0.000000
  70
    32
  0
VERTEX
  8
S-OBRYS
  5
66483
 10
52751.9
 20
426793.
 30
0.000000
  70
    32
  0
VERTEX
  8
S-OBRYS
  5
66484
 10
52752.0
 20
426793.
 30
0.000000
  70
    32
  0
VERTEX
  8
S-OBRYS
  5
66485
 10
52752.1
 20
426793.
 30
0.000000
  70
    32
  0
VERTEX
  8
S-OBRYS
  5
66486
 10
52752.2
 20
426793.
 30
0.000000
  70
    32
  0
VERTEX
  8
S-OBRYS
  5
66487
 10
52752.3
 20
426792.
 30
0.000000
  70
    32
  0
VERTEX
  8
S-OBRYS
  5
66488
 10
52752.4
 20
426792.
 30
0.000000
  70
    32
  0
VERTEX
  8
S-OBRYS
  5
66489
 10
52752.4
 20
426792.
 30
0.000000
  70
    32
  0
VERTEX
  8
S-OBRYS
  5
6648A
 10
52752.5
 20
426792.
 30
0.000000
  70
    32
  0
VERTEX
  8
S-OBRYS
  5
6648B
 10
52752.6
 20
426792.
 30
0.000000
  70
    32
  0
VERTEX
  8
S-OBRYS
  5
6648C
 10
52752.7
 20
426792.
 30
0.000000
  70
    32
  0
VERTEX
  8
S-OBRYS
  5
6648D
 10
52752.8
 20
426792.
 30
0.000000
  70
    32
  0
VERTEX
  8
S-OBRYS
  5
6648E
 10
52752.9
 20
426792.
 30
0.000000
  70
    32
  0
VERTEX
  8
S-OBRYS
  5
6648F
 10
52752.9
 20
426791.
 30
0.000000
  70
    32
  0
VERTEX
  8
S-OBRYS
  5
66490
 10
52753.0
 20
426791.
 30
0.000000
  70
    32
  0
VERTEX
  8
S-OBRYS
  5
66491
 10
52753.1
 20
426791.
 30
0.000000
  70
    32
  0
VERTEX
  8
S-OBRYS
  5
66492
 10
52753.2
 20
426791.
 30
0.000000
  70
    32
  0
VERTEX
  8
S-OBRYS
  5
66493
 10
52753.3
 20
426791.
 30
0.000000
  70
    32
  0
VERTEX
  8
S-OBRYS
  5
66494
 10
52753.4
 20
426791.
 30
0.000000
  70
    32
  0
VERTEX
  8
S-OBRYS
  5
66495
 10
52753.5
 20
426791.
 30
0.000000
  70
    32
  0
VERTEX
  8
S-OBRYS
  5
66496
 10
52753.6
 20
426791.
 30
0.000000
  70
    32
  0
VERTEX
  8
S-OBRYS
  5
66497
 10
52753.7
 20
426791.
 30
0.000000
  70
    32
  0
VERTEX
  8
S-OBRYS
  5
66498
 10
52753.8
 20
426791.
 30
0.000000
  70
    32
  0
VERTEX
  8
S-OBRYS
  5
66499
 10
52753.9
 20
426791.
 30
0.000000
  70
    32
  0
VERTEX
  8
S-OBRYS
  5
6649A
 10
52754.0
 20
426791.
 30
0.000000
  70
    32
  0
VERTEX
  8
S-OBRYS
  5
6649B
 10
52754.1
 20
426791.
 30
0.000000
  70
    32
  0
VERTEX
  8
S-OBRYS
  5
6649C
 10
52754.2
 20
426791.
 30
0.000000
  70
    32
  0
VERTEX
  8
S-OBRYS
  5
6649D
 10
52754.3
 20
426791.
 30
0.000000
  70
    32
  0
VERTEX
  8
S-OBRYS
  5
6649E
 10
52754.5
 20
426791.
 30
0.000000
  70
    32
  0
VERTEX
  8
S-OBRYS
  5
6649F
 10
52754.6
 20
426791.
 30
0.000000
  70
    32
  0
VERTEX
  8
S-OBRYS
  5
664A0
 10
52754.7
 20
426791.
 30
0.000000
  70
    32
  0
VERTEX
  8
S-OBRYS
  5
664A1
 10
52754.8
 20
426791.
 30
0.000000
  70
    32
  0
VERTEX
  8
S-OBRYS
  5
664A2
 10
52754.9
 20
426791.
 30
0.000000
  70
    32
  0
VERTEX
  8
S-OBRYS
  5
664A3
 10
52755.0
 20
426791.
 30
0.000000
  70
    32
  0
VERTEX
  8
S-OBRYS
  5
664A4
 10
52755.2
 20
426791.
 30
0.000000
  70
    32
  0
VERTEX
  8
S-OBRYS
  5
664A5
 10
52755.3
 20
426791.
 30
0.000000
  70
    32
  0
VERTEX
  8
S-OBRYS
  5
664A6
 10
52755.4
 20
426791.
 30
0.000000
  70
    32
  0
VERTEX
  8
S-OBRYS
  5
664A7
 10
52755.6
 20
426791.
 30
0.000000
  70
    32
  0
VERTEX
  8
S-OBRYS
  5
664A8
 10
52755.7
 20
426791.
 30
0.000000
  70
    32
  0
VERTEX
  8
S-OBRYS
  5
664A9
 10
52755.8
 20
426791.
 30
0.000000
  70
    32
  0
VERTEX
  8
S-OBRYS
  5
664AA
 10
52755.9
 20
426791.
 30
0.000000
  70
    32
  0
VERTEX
  8
S-OBRYS
  5
664AB
 10
52756.1
 20
426791.
 30
0.000000
  70
    32
  0
VERTEX
  8
S-OBRYS
  5
664AC
 10
52756.2
 20
426791.
 30
0.000000
  70
    32
  0
VERTEX
  8
S-OBRYS
  5
664AD
 10
52756.3
 20
426792.
 30
0.000000
  70
    32
  0
VERTEX
  8
S-OBRYS
  5
664AE
 10
52756.5
 20
426792.
 30
0.000000
  70
    32
  0
VERTEX
  8
S-OBRYS
  5
664AF
 10
52756.6
 20
426792.
 30
0.000000
  70
    32
  0
VERTEX
  8
S-OBRYS
  5
664B0
 10
52756.7
 20
426792.
 30
0.000000
  70
    32
  0
VERTEX
  8
S-OBRYS
  5
664B1
 10
52756.9
 20
426792.
 30
0.000000
  70
    32
  0
VERTEX
  8
S-OBRYS
  5
664B2
 10
52757.0
 20
426792.
 30
0.000000
  70
    32
  0
VERTEX
  8
S-OBRYS
  5
664B3
 10
52757.1
 20
426792.
 30
0.000000
  70
    32
  0
VERTEX
  8
S-OBRYS
  5
664B4
 10
52757.3
 20
426792.
 30
0.000000
  70
    32
  0
VERTEX
  8
S-OBRYS
  5
664B5
 10
52757.4
 20
426792.
 30
0.000000
  70
    32
  0
VERTEX
  8
S-OBRYS
  5
664B6
 10
52757.5
 20
426792.
 30
0.000000
  70
    32
  0
VERTEX
  8
S-OBRYS
  5
664B7
 10
52757.6
 20
426792.
 30
0.000000
  70
    32
  0
VERTEX
  8
S-OBRYS
  5
664B8
 10
52757.8
 20
426792.
 30
0.000000
  70
    32
  0
VERTEX
  8
S-OBRYS
  5
664B9
 10
52757.9
 20
426792.
 30
0.000000
  70
    32
  0
VERTEX
  8
S-OBRYS
  5
664BA
 10
52758.0
 20
426792.
 30
0.000000
  70
    32
  0
VERTEX
  8
S-OBRYS
  5
664BB
 10
52758.2
 20
426792.
 30
0.000000
  70
    32
  0
VERTEX
  8
S-OBRYS
  5
664BC
 10
52758.3
 20
426792.
 30
0.000000
  70
    32
  0
VERTEX
  8
S-OBRYS
  5
664BD
 10
52758.4
 20
426792.
 30
0.000000
  70
    32
  0
VERTEX
  8
S-OBRYS
  5
664BE
 10
52758.5
 20
426792.
 30
0.000000
  70
    32
  0
VERTEX
  8
S-OBRYS
  5
664BF
 10
52758.7
 20
426792.
 30
0.000000
  70
    32
  0
VERTEX
  8
S-OBRYS
  5
664C0
 10
52758.8
 20
426792.
 30
0.000000
  70
    32
  0
VERTEX
  8
S-OBRYS
  5
664C1
 10
52758.9
 20
426792.
 30
0.000000
  70
    32
  0
VERTEX
  8
S-OBRYS
  5
664C2
 10
52759.0
 20
426792.
 30
0.000000
  70
    32
  0
VERTEX
  8
S-OBRYS
  5
664C3
 10
52759.1
 20
426792.
 30
0.000000
  70
    32
  0
VERTEX
  8
S-OBRYS
  5
664C4
 10
52759.2
 20
426792.
 30
0.000000
  70
    32
  0
VERTEX
  8
S-OBRYS
  5
664C5
 10
52759.4
 20
426792.
 30
0.000000
  70
    32
  0
VERTEX
  8
S-OBRYS
  5
664C6
 10
52759.5
 20
426792.
 30
0.000000
  70
    32
  0
VERTEX
  8
S-OBRYS
  5
664C7
 10
52759.6
 20
426792.
 30
0.000000
  70
    32
  0
VERTEX
  8
S-OBRYS
  5
664C8
 10
52759.7
 20
426792.
 30
0.000000
  70
    32
  0
VERTEX
  8
S-OBRYS
  5
664C9
 10
52759.8
 20
426792.
 30
0.000000
  70
    32
  0
VERTEX
  8
S-OBRYS
  5
664CA
 10
52759.9
 20
426792.
 30
0.000000
  70
    32
  0
VERTEX
  8
S-OBRYS
  5
664CB
 10
52760.0
 20
426792.
 30
0.000000
  70
    32
  0
VERTEX
  8
S-OBRYS
  5
664CC
 10
52760.1
 20
426792.
 30
0.000000
  70
    32
  0
VERTEX
  8
S-OBRYS
  5
664CD
 10
52760.3
 20
426792.
 30
0.000000
  70
    32
  0
VERTEX
  8
S-OBRYS
  5
664CE
 10
52760.4
 20
426792.
 30
0.000000
  70
    32
  0
VERTEX
  8
S-OBRYS
  5
664CF
 10
52760.5
 20
426792.
 30
0.000000
  70
    32
  0
VERTEX
  8
S-OBRYS
  5
664D0
 10
52760.6
 20
426792.
 30
0.000000
  70
    32
  0
VERTEX
  8
S-OBRYS
  5
664D1
 10
52760.7
 20
426792.
 30
0.000000
  70
    32
  0
VERTEX
  8
S-OBRYS
  5
664D2
 10
52760.8
 20
426791.
 30
0.000000
  70
    32
  0
VERTEX
  8
S-OBRYS
  5
664D3
 10
52760.9
 20
426791.
 30
0.000000
  70
    32
  0
VERTEX
  8
S-OBRYS
  5
664D4
 10
52761.0
 20
426791.
 30
0.000000
  70
    32
  0
VERTEX
  8
S-OBRYS
  5
664D5
 10
52761.1
 20
426791.
 30
0.000000
  70
    32
  0
VERTEX
  8
S-OBRYS
  5
664D6
 10
52761.2
 20
426791.
 30
0.000000
  70
    32
  0
VERTEX
  8
S-OBRYS
  5
664D7
 10
52761.3
 20
426791.
 30
0.000000
  70
    32
  0
VERTEX
  8
S-OBRYS
  5
664D8
 10
52761.4
 20
426791.
 30
0.000000
  70
    32
  0
VERTEX
  8
S-OBRYS
  5
664D9
 10
52761.5
 20
426791.
 30
0.000000
  70
    32
  0
VERTEX
  8
S-OBRYS
  5
664DA
 10
52761.6
 20
426791.
 30
0.000000
  70
    32
  0
VERTEX
  8
S-OBRYS
  5
664DB
 10
52761.7
 20
426791.
 30
0.000000
  70
    32
  0
VERTEX
  8
S-OBRYS
  5
664DC
 10
52761.8
 20
426791.
 30
0.000000
  70
    32
  0
VERTEX
  8
S-OBRYS
  5
664DD
 10
52761.9
 20
426790.
 30
0.000000
  70
    32
  0
VERTEX
  8
S-OBRYS
  5
664DE
 10
52762.0
 20
426790.
 30
0.000000
  70
    32
  0
VERTEX
  8
S-OBRYS
  5
664DF
 10
52762.1
 20
426790.
 30
0.000000
  70
    32
  0
VERTEX
  8
S-OBRYS
  5
664E0
 10
52762.3
 20
426790.
 30
0.000000
  70
    32
  0
VERTEX
  8
S-OBRYS
  5
664E1
 10
52762.4
 20
426790.
 30
0.000000
  70
    32
  0
VERTEX
  8
S-OBRYS
  5
664E2
 10
52762.5
 20
426790.
 30
0.000000
  70
    32
  0
VERTEX
  8
S-OBRYS
  5
664E3
 10
52762.6
 20
426790.
 30
0.000000
  70
    32
  0
VERTEX
  8
S-OBRYS
  5
664E4
 10
52762.7
 20
426790.
 30
0.000000
  70
    32
  0
VERTEX
  8
S-OBRYS
  5
664E5
 10
52762.8
 20
426790.
 30
0.000000
  70
    32
  0
VERTEX
  8
S-OBRYS
  5
664E6
 10
52762.9
 20
426790.
 30
0.000000
  70
    32
  0
VERTEX
  8
S-OBRYS
  5
664E7
 10
52763.0
 20
426789.
 30
0.000000
  70
    32
  0
VERTEX
  8
S-OBRYS
  5
664E8
 10
52763.1
 20
426789.
 30
0.000000
  70
    32
  0
VERTEX
  8
S-OBRYS
  5
664E9
 10
52763.2
 20
426789.
 30
0.000000
  70
    32
  0
VERTEX
  8
S-OBRYS
  5
664EA
 10
52763.3
 20
426789.
 30
0.000000
  70
    32
  0
VERTEX
  8
S-OBRYS
  5
664EB
 10
52763.4
 20
426789.
 30
0.000000
  70
    32
  0
VERTEX
  8
S-OBRYS
  5
664EC
 10
52763.5
 20
426789.
 30
0.000000
  70
    32
  0
VERTEX
  8
S-OBRYS
  5
664ED
 10
52763.6
 20
426789.
 30
0.000000
  70
    32
  0
VERTEX
  8
S-OBRYS
  5
664EE
 10
52763.7
 20
426789.
 30
0.000000
  70
    32
  0
VERTEX
  8
S-OBRYS
  5
664EF
 10
52763.8
 20
426789.
 30
0.000000
  70
    32
  0
VERTEX
  8
S-OBRYS
  5
664F0
 10
52764.0
 20
426789.
 30
0.000000
  70
    32
  0
VERTEX
  8
S-OBRYS
  5
664F1
 10
52764.1
 20
426789.
 30
0.000000
  70
    32
  0
VERTEX
  8
S-OBRYS
  5
664F2
 10
52764.2
 20
426788.
 30
0.000000
  70
    32
  0
VERTEX
  8
S-OBRYS
  5
664F3
 10
52764.3
 20
426788.
 30
0.000000
  70
    32
  0
VERTEX
  8
S-OBRYS
  5
664F4
 10
52764.4
 20
426788.
 30
0.000000
  70
    32
  0
VERTEX
  8
S-OBRYS
  5
664F5
 10
52764.5
 20
426788.
 30
0.000000
  70
    32
  0
VERTEX
  8
S-OBRYS
  5
664F6
 10
52764.6
 20
426788.
 30
0.000000
  70
    32
  0
VERTEX
  8
S-OBRYS
  5
664F7
 10
52764.8
 20
426788.
 30
0.000000
  70
    32
  0
VERTEX
  8
S-OBRYS
  5
664F8
 10
52764.9
 20
426788.
 30
0.000000
  70
    32
  0
VERTEX
  8
S-OBRYS
  5
664F9
 10
52765.0
 20
426788.
 30
0.000000
  70
    32
  0
VERTEX
  8
S-OBRYS
  5
664FA
 10
52765.1
 20
426788.
 30
0.000000
  70
    32
  0
VERTEX
  8
S-OBRYS
  5
664FB
 10
52765.2
 20
426788.
 30
0.000000
  70
    32
  0
VERTEX
  8
S-OBRYS
  5
664FC
 10
52765.4
 20
426788.
 30
0.000000
  70
    32
  0
VERTEX
  8
S-OBRYS
  5
664FD
 10
52765.5
 20
426788.
 30
0.000000
  70
    32
  0
VERTEX
  8
S-OBRYS
  5
664FE
 10
52765.6
 20
426788.
 30
0.000000
  70
    32
  0
VERTEX
  8
S-OBRYS
  5
664FF
 10
52765.7
 20
426788.
 30
0.000000
  70
    32
  0
VERTEX
  8
S-OBRYS
  5
66500
 10
52765.9
 20
426788.
 30
0.000000
  70
    32
  0
VERTEX
  8
S-OBRYS
  5
66501
 10
52766.0
 20
426788.
 30
0.000000
  70
    32
  0
VERTEX
  8
S-OBRYS
  5
66502
 10
52766.1
 20
426788.
 30
0.000000
  70
    32
  0
VERTEX
  8
S-OBRYS
  5
66503
 10
52766.3
 20
426788.
 30
0.000000
  70
    32
  0
VERTEX
  8
S-OBRYS
  5
66504
 10
52766.4
 20
426788.
 30
0.000000
  70
    32
  0
VERTEX
  8
S-OBRYS
  5
66505
 10
52766.5
 20
426788.
 30
0.000000
  70
    32
  0
VERTEX
  8
S-OBRYS
  5
66506
 10
52766.7
 20
426788.
 30
0.000000
  70
    32
  0
VERTEX
  8
S-OBRYS
  5
66507
 10
52766.8
 20
426788.
 30
0.000000
  70
    32
  0
VERTEX
  8
S-OBRYS
  5
66508
 10
52766.9
 20
426788.
 30
0.000000
  70
    32
  0
VERTEX
  8
S-OBRYS
  5
66509
 10
52767.0
 20
426788.
 30
0.000000
  70
    32
  0
VERTEX
  8
S-OBRYS
  5
6650A
 10
52767.2
 20
426788.
 30
0.000000
  70
    32
  0
VERTEX
  8
S-OBRYS
  5
6650B
 10
52767.3
 20
426788.
 30
0.000000
  70
    32
  0
VERTEX
  8
S-OBRYS
  5
6650C
 10
52767.5
 20
426788.
 30
0.000000
  70
    32
  0
VERTEX
  8
S-OBRYS
  5
6650D
 10
52767.6
 20
426788.
 30
0.000000
  70
    32
  0
VERTEX
  8
S-OBRYS
  5
6650E
 10
52767.7
 20
426788.
 30
0.000000
  70
    32
  0
VERTEX
  8
S-OBRYS
  5
6650F
 10
52767.9
 20
426788.
 30
0.000000
  70
    32
  0
VERTEX
  8
S-OBRYS
  5
66510
 10
52768.0
 20
426788.
 30
0.000000
  70
    32
  0
VERTEX
  8
S-OBRYS
  5
66511
 10
52768.1
 20
426788.
 30
0.000000
  70
    32
  0
VERTEX
  8
S-OBRYS
  5
66512
 10
52768.3
 20
426788.
 30
0.000000
  70
    32
  0
VERTEX
  8
S-OBRYS
  5
66513
 10
52768.4
 20
426788.
 30
0.000000
  70
    32
  0
VERTEX
  8
S-OBRYS
  5
66514
 10
52768.5
 20
426788.
 30
0.000000
  70
    32
  0
VERTEX
  8
S-OBRYS
  5
66515
 10
52768.7
 20
426788.
 30
0.000000
  70
    32
  0
VERTEX
  8
S-OBRYS
  5
66516
 10
52768.8
 20
426788.
 30
0.000000
  70
    32
  0
VERTEX
  8
S-OBRYS
  5
66517
 10
52768.9
 20
426788.
 30
0.000000
  70
    32
  0
VERTEX
  8
S-OBRYS
  5
66518
 10
52769.1
 20
426788.
 30
0.000000
  70
    32
  0
VERTEX
  8
S-OBRYS
  5
66519
 10
52769.2
 20
426788.
 30
0.000000
  70
    32
  0
VERTEX
  8
S-OBRYS
  5
6651A
 10
52769.3
 20
426788.
 30
0.000000
  70
    32
  0
VERTEX
  8
S-OBRYS
  5
6651B
 10
52769.4
 20
426788.
 30
0.000000
  70
    32
  0
VERTEX
  8
S-OBRYS
  5
6651C
 10
52769.6
 20
426788.
 30
0.000000
  70
    32
  0
VERTEX
  8
S-OBRYS
  5
6651D
 10
52769.7
 20
426788.
 30
0.000000
  70
    32
  0
VERTEX
  8
S-OBRYS
  5
6651E
 10
52769.8
 20
426788.
 30
0.000000
  70
    32
  0
VERTEX
  8
S-OBRYS
  5
6651F
 10
52770.0
 20
426788.
 30
0.000000
  70
    32
  0
VERTEX
  8
S-OBRYS
  5
66520
 10
52770.1
 20
426788.
 30
0.000000
  70
    32
  0
VERTEX
  8
S-OBRYS
  5
66521
 10
52770.2
 20
426788.
 30
0.000000
  70
    32
  0
VERTEX
  8
S-OBRYS
  5
66522
 10
52770.3
 20
426788.
 30
0.000000
  70
    32
  0
VERTEX
  8
S-OBRYS
  5
66523
 10
52770.5
 20
426788.
 30
0.000000
  70
    32
  0
VERTEX
  8
S-OBRYS
  5
66524
 10
52770.6
 20
426788.
 30
0.000000
  70
    32
  0
VERTEX
  8
S-OBRYS
  5
66525
 10
52770.7
 20
426788.
 30
0.000000
  70
    32
  0
VERTEX
  8
S-OBRYS
  5
66526
 10
52770.8
 20
426788.
 30
0.000000
  70
    32
  0
VERTEX
  8
S-OBRYS
  5
66527
 10
52770.9
 20
426787.
 30
0.000000
  70
    32
  0
VERTEX
  8
S-OBRYS
  5
66528
 10
52771.1
 20
426787.
 30
0.000000
  70
    32
  0
VERTEX
  8
S-OBRYS
  5
66529
 10
52771.2
 20
426787.
 30
0.000000
  70
    32
  0
VERTEX
  8
S-OBRYS
  5
6652A
 10
52771.3
 20
426787.
 30
0.000000
  70
    32
  0
VERTEX
  8
S-OBRYS
  5
6652B
 10
52771.4
 20
426787.
 30
0.000000
  70
    32
  0
VERTEX
  8
S-OBRYS
  5
6652C
 10
52771.5
 20
426787.
 30
0.000000
  70
    32
  0
VERTEX
  8
S-OBRYS
  5
6652D
 10
52771.7
 20
426787.
 30
0.000000
  70
    32
  0
VERTEX
  8
S-OBRYS
  5
6652E
 10
52771.8
 20
426787.
 30
0.000000
  70
    32
  0
VERTEX
  8
S-OBRYS
  5
6652F
 10
52771.9
 20
426787.
 30
0.000000
  70
    32
  0
VERTEX
  8
S-OBRYS
  5
66530
 10
52772.0
 20
426787.
 30
0.000000
  70
    32
  0
VERTEX
  8
S-OBRYS
  5
66531
 10
52772.1
 20
426787.
 30
0.000000
  70
    32
  0
VERTEX
  8
S-OBRYS
  5
66532
 10
52772.2
 20
426787.
 30
0.000000
  70
    32
  0
VERTEX
  8
S-OBRYS
  5
66533
 10
52772.4
 20
426787.
 30
0.000000
  70
    32
  0
VERTEX
  8
S-OBRYS
  5
66534
 10
52772.5
 20
426787.
 30
0.000000
  70
    32
  0
VERTEX
  8
S-OBRYS
  5
66535
 10
52772.6
 20
426787.
 30
0.000000
  70
    32
  0
VERTEX
  8
S-OBRYS
  5
66536
 10
52772.7
 20
426786.
 30
0.000000
  70
    32
  0
VERTEX
  8
S-OBRYS
  5
66537
 10
52772.8
 20
426786.
 30
0.000000
  70
    32
  0
VERTEX
  8
S-OBRYS
  5
66538
 10
52772.9
 20
426786.
 30
0.000000
  70
    32
  0
VERTEX
  8
S-OBRYS
  5
66539
 10
52773.1
 20
426786.
 30
0.000000
  70
    32
  0
VERTEX
  8
S-OBRYS
  5
6653A
 10
52773.2
 20
426786.
 30
0.000000
  70
    32
  0
VERTEX
  8
S-OBRYS
  5
6653B
 10
52773.3
 20
426786.
 30
0.000000
  70
    32
  0
VERTEX
  8
S-OBRYS
  5
6653C
 10
52773.4
 20
426786.
 30
0.000000
  70
    32
  0
VERTEX
  8
S-OBRYS
  5
6653D
 10
52773.5
 20
426786.
 30
0.000000
  70
    32
  0
VERTEX
  8
S-OBRYS
  5
6653E
 10
52773.6
 20
426786.
 30
0.000000
  70
    32
  0
VERTEX
  8
S-OBRYS
  5
6653F
 10
52773.8
 20
426786.
 30
0.000000
  70
    32
  0
VERTEX
  8
S-OBRYS
  5
66540
 10
52773.9
 20
426786.
 30
0.000000
  70
    32
  0
VERTEX
  8
S-OBRYS
  5
66541
 10
52774.0
 20
426786.
 30
0.000000
  70
    32
  0
VERTEX
  8
S-OBRYS
  5
66542
 10
52774.1
 20
426786.
 30
0.000000
  70
    32
  0
VERTEX
  8
S-OBRYS
  5
66543
 10
52774.2
 20
426786.
 30
0.000000
  70
    32
  0
VERTEX
  8
S-OBRYS
  5
66544
 10
52774.3
 20
426786.
 30
0.000000
  70
    32
  0
VERTEX
  8
S-OBRYS
  5
66545
 10
52774.5
 20
426785.
 30
0.000000
  70
    32
  0
VERTEX
  8
S-OBRYS
  5
66546
 10
52774.6
 20
426785.
 30
0.000000
  70
    32
  0
VERTEX
  8
S-OBRYS
  5
66547
 10
52774.7
 20
426785.
 30
0.000000
  70
    32
  0
VERTEX
  8
S-OBRYS
  5
66548
 10
52774.8
 20
426785.
 30
0.000000
  70
    32
  0
VERTEX
  8
S-OBRYS
  5
66549
 10
52774.9
 20
426785.
 30
0.000000
  70
    32
  0
VERTEX
  8
S-OBRYS
  5
6654A
 10
52775.1
 20
426785.
 30
0.000000
  70
    32
  0
VERTEX
  8
S-OBRYS
  5
6654B
 10
52775.2
 20
426785.
 30
0.000000
  70
    32
  0
VERTEX
  8
S-OBRYS
  5
6654C
 10
52775.3
 20
426785.
 30
0.000000
  70
    32
  0
VERTEX
  8
S-OBRYS
  5
6654D
 10
52775.4
 20
426785.
 30
0.000000
  70
    32
  0
VERTEX
  8
S-OBRYS
  5
6654E
 10
52775.5
 20
426785.
 30
0.000000
  70
    32
  0
VERTEX
  8
S-OBRYS
  5
6654F
 10
52775.7
 20
426785.
 30
0.000000
  70
    32
  0
VERTEX
  8
S-OBRYS
  5
66550
 10
52775.8
 20
426785.
 30
0.000000
  70
    32
  0
VERTEX
  8
S-OBRYS
  5
66551
 10
52775.9
 20
426785.
 30
0.000000
  70
    32
  0
VERTEX
  8
S-OBRYS
  5
66552
 10
52776.0
 20
426785.
 30
0.000000
  70
    32
  0
VERTEX
  8
S-OBRYS
  5
66553
 10
52776.2
 20
426785.
 30
0.000000
  70
    32
  0
VERTEX
  8
S-OBRYS
  5
66554
 10
52776.3
 20
426785.
 30
0.000000
  70
    32
  0
VERTEX
  8
S-OBRYS
  5
66555
 10
52776.4
 20
426785.
 30
0.000000
  70
    32
  0
VERTEX
  8
S-OBRYS
  5
66556
 10
52776.5
 20
426785.
 30
0.000000
  70
    32
  0
VERTEX
  8
S-OBRYS
  5
66557
 10
52776.7
 20
426785.
 30
0.000000
  70
    32
  0
VERTEX
  8
S-OBRYS
  5
66558
 10
52776.8
 20
426785.
 30
0.000000
  70
    32
  0
VERTEX
  8
S-OBRYS
  5
66559
 10
52776.9
 20
426785.
 30
0.000000
  70
    32
  0
VERTEX
  8
S-OBRYS
  5
6655A
 10
52777.0
 20
426785.
 30
0.000000
  70
    32
  0
VERTEX
  8
S-OBRYS
  5
6655B
 10
52777.2
 20
426785.
 30
0.000000
  70
    32
  0
VERTEX
  8
S-OBRYS
  5
6655C
 10
52777.3
 20
426785.
 30
0.000000
  70
    32
  0
VERTEX
  8
S-OBRYS
  5
6655D
 10
52777.4
 20
426785.
 30
0.000000
  70
    32
  0
VERTEX
  8
S-OBRYS
  5
6655E
 10
52777.6
 20
426785.
 30
0.000000
  70
    32
  0
VERTEX
  8
S-OBRYS
  5
6655F
 10
52777.7
 20
426785.
 30
0.000000
  70
    32
  0
VERTEX
  8
S-OBRYS
  5
66560
 10
52777.8
 20
426785.
 30
0.000000
  70
    32
  0
VERTEX
  8
S-OBRYS
  5
66561
 10
52778.0
 20
426785.
 30
0.000000
  70
    32
  0
VERTEX
  8
S-OBRYS
  5
66562
 10
52778.1
 20
426785.
 30
0.000000
  70
    32
  0
VERTEX
  8
S-OBRYS
  5
66563
 10
52778.2
 20
426785.
 30
0.000000
  70
    32
  0
VERTEX
  8
S-OBRYS
  5
66564
 10
52778.4
 20
426785.
 30
0.000000
  70
    32
  0
VERTEX
  8
S-OBRYS
  5
66565
 10
52778.5
 20
426785.
 30
0.000000
  70
    32
  0
VERTEX
  8
S-OBRYS
  5
66566
 10
52778.6
 20
426785.
 30
0.000000
  70
    32
  0
VERTEX
  8
S-OBRYS
  5
66567
 10
52778.8
 20
426785.
 30
0.000000
  70
    32
  0
VERTEX
  8
S-OBRYS
  5
66568
 10
52778.9
 20
426786.
 30
0.000000
  70
    32
  0
VERTEX
  8
S-OBRYS
  5
66569
 10
52779.0
 20
426786.
 30
0.000000
  70
    32
  0
VERTEX
  8
S-OBRYS
  5
6656A
 10
52779.1
 20
426786.
 30
0.000000
  70
    32
  0
VERTEX
  8
S-OBRYS
  5
6656B
 10
52779.3
 20
426786.
 30
0.000000
  70
    32
  0
VERTEX
  8
S-OBRYS
  5
6656C
 10
52779.4
 20
426786.
 30
0.000000
  70
    32
  0
VERTEX
  8
S-OBRYS
  5
6656D
 10
52779.5
 20
426786.
 30
0.000000
  70
    32
  0
VERTEX
  8
S-OBRYS
  5
6656E
 10
52779.7
 20
426786.
 30
0.000000
  70
    32
  0
VERTEX
  8
S-OBRYS
  5
6656F
 10
52779.8
 20
426786.
 30
0.000000
  70
    32
  0
VERTEX
  8
S-OBRYS
  5
66570
 10
52779.9
 20
426786.
 30
0.000000
  70
    32
  0
VERTEX
  8
S-OBRYS
  5
66571
 10
52780.1
 20
426786.
 30
0.000000
  70
    32
  0
VERTEX
  8
S-OBRYS
  5
66572
 10
52780.2
 20
426786.
 30
0.000000
  70
    32
  0
VERTEX
  8
S-OBRYS
  5
66573
 10
52780.3
 20
426786.
 30
0.000000
  70
    32
  0
VERTEX
  8
S-OBRYS
  5
66574
 10
52780.5
 20
426786.
 30
0.000000
  70
    32
  0
VERTEX
  8
S-OBRYS
  5
66575
 10
52780.6
 20
426786.
 30
0.000000
  70
    32
  0
VERTEX
  8
S-OBRYS
  5
66576
 10
52780.7
 20
426786.
 30
0.000000
  70
    32
  0
VERTEX
  8
S-OBRYS
  5
66577
 10
52780.8
 20
426786.
 30
0.000000
  70
    32
  0
VERTEX
  8
S-OBRYS
  5
66578
 10
52781.0
 20
426786.
 30
0.000000
  70
    32
  0
VERTEX
  8
S-OBRYS
  5
66579
 10
52781.1
 20
426786.
 30
0.000000
  70
    32
  0
VERTEX
  8
S-OBRYS
  5
6657A
 10
52781.2
 20
426786.
 30
0.000000
  70
    32
  0
VERTEX
  8
S-OBRYS
  5
6657B
 10
52781.3
 20
426786.
 30
0.000000
  70
    32
  0
VERTEX
  8
S-OBRYS
  5
6657C
 10
52781.5
 20
426786.
 30
0.000000
  70
    32
  0
VERTEX
  8
S-OBRYS
  5
6657D
 10
52781.6
 20
426786.
 30
0.000000
  70
    32
  0
VERTEX
  8
S-OBRYS
  5
6657E
 10
52781.7
 20
426786.
 30
0.000000
  70
    32
  0
VERTEX
  8
S-OBRYS
  5
6657F
 10
52781.8
 20
426786.
 30
0.000000
  70
    32
  0
VERTEX
  8
S-OBRYS
  5
66580
 10
52782.0
 20
426786.
 30
0.000000
  70
    32
  0
VERTEX
  8
S-OBRYS
  5
66581
 10
52782.1
 20
426786.
 30
0.000000
  70
    32
  0
VERTEX
  8
S-OBRYS
  5
66582
 10
52782.2
 20
426786.
 30
0.000000
  70
    32
  0
VERTEX
  8
S-OBRYS
  5
66583
 10
52782.3
 20
426786.
 30
0.000000
  70
    32
  0
VERTEX
  8
S-OBRYS
  5
66584
 10
52782.4
 20
426786.
 30
0.000000
  70
    32
  0
VERTEX
  8
S-OBRYS
  5
66585
 10
52782.5
 20
426786.
 30
0.000000
  70
    32
  0
VERTEX
  8
S-OBRYS
  5
66586
 10
52782.7
 20
426786.
 30
0.000000
  70
    32
  0
VERTEX
  8
S-OBRYS
  5
66587
 10
52782.8
 20
426786.
 30
0.000000
  70
    32
  0
VERTEX
  8
S-OBRYS
  5
66588
 10
52782.9
 20
426786.
 30
0.000000
  70
    32
  0
VERTEX
  8
S-OBRYS
  5
66589
 10
52783.0
 20
426786.
 30
0.000000
  70
    32
  0
VERTEX
  8
S-OBRYS
  5
6658A
 10
52783.1
 20
426786.
 30
0.000000
  70
    32
  0
VERTEX
  8
S-OBRYS
  5
6658B
 10
52783.2
 20
426785.
 30
0.000000
  70
    32
  0
VERTEX
  8
S-OBRYS
  5
6658C
 10
52783.4
 20
426785.
 30
0.000000
  70
    32
  0
VERTEX
  8
S-OBRYS
  5
6658D
 10
52783.5
 20
426785.
 30
0.000000
  70
    32
  0
VERTEX
  8
S-OBRYS
  5
6658E
 10
52783.6
 20
426785.
 30
0.000000
  70
    32
  0
VERTEX
  8
S-OBRYS
  5
6658F
 10
52783.7
 20
426785.
 30
0.000000
  70
    32
  0
VERTEX
  8
S-OBRYS
  5
66590
 10
52783.8
 20
426785.
 30
0.000000
  70
    32
  0
VERTEX
  8
S-OBRYS
  5
66591
 10
52783.9
 20
426785.
 30
0.000000
  70
    32
  0
VERTEX
  8
S-OBRYS
  5
66592
 10
52784.0
 20
426785.
 30
0.000000
  70
    32
  0
VERTEX
  8
S-OBRYS
  5
66593
 10
52784.1
 20
426785.
 30
0.000000
  70
    32
  0
VERTEX
  8
S-OBRYS
  5
66594
 10
52784.2
 20
426785.
 30
0.000000
  70
    32
  0
VERTEX
  8
S-OBRYS
  5
66595
 10
52784.4
 20
426785.
 30
0.000000
  70
    32
  0
VERTEX
  8
S-OBRYS
  5
66596
 10
52784.5
 20
426785.
 30
0.000000
  70
    32
  0
VERTEX
  8
S-OBRYS
  5
66597
 10
52784.6
 20
426785.
 30
0.000000
  70
    32
  0
VERTEX
  8
S-OBRYS
  5
66598
 10
52784.7
 20
426784.
 30
0.000000
  70
    32
  0
VERTEX
  8
S-OBRYS
  5
66599
 10
52784.8
 20
426784.
 30
0.000000
  70
    32
  0
VERTEX
  8
S-OBRYS
  5
6659A
 10
52784.9
 20
426784.
 30
0.000000
  70
    32
  0
VERTEX
  8
S-OBRYS
  5
6659B
 10
52785.0
 20
426784.
 30
0.000000
  70
    32
  0
VERTEX
  8
S-OBRYS
  5
6659C
 10
52785.1
 20
426784.
 30
0.000000
  70
    32
  0
VERTEX
  8
S-OBRYS
  5
6659D
 10
52785.2
 20
426784.
 30
0.000000
  70
    32
  0
VERTEX
  8
S-OBRYS
  5
6659E
 10
52785.3
 20
426784.
 30
0.000000
  70
    32
  0
VERTEX
  8
S-OBRYS
  5
6659F
 10
52785.4
 20
426784.
 30
0.000000
  70
    32
  0
VERTEX
  8
S-OBRYS
  5
665A0
 10
52785.6
 20
426784.
 30
0.000000
  70
    32
  0
VERTEX
  8
S-OBRYS
  5
665A1
 10
52785.7
 20
426784.
 30
0.000000
  70
    32
  0
VERTEX
  8
S-OBRYS
  5
665A2
 10
52785.8
 20
426784.
 30
0.000000
  70
    32
  0
SEQEND
  8
S-OBRYS
  5
665A3
  0
LINE
  5
65805
  8
S-OBRYS
  6
CONTINUOUS
 10
52737.183295483352
 20
426876.69312407041
 30
0.0
 11
52737.183295483352
 21
426796.67661567591
 31
0.0
  0
LINE
  5
65806
  8
S-OBRYS
  6
CONTINUOUS
 10
52785.774035603761
 20
426876.69312407041
 30
0.0
 11
52785.774035603761
 21
426783.53078743792
 31
0.0
  0
POLYLINE
  5
65807
  8
S-OBRYS
  6
CONTINUOUS
 66
     1
 10
0.0
 20
0.0
 30
0.0
  0
VERTEX
  5
65E32
  8
S-OBRYS
  6
CONTINUOUS
 10
53083.362930373107
 20
426096.7549048838
 30
0.0
  0
VERTEX
  5
65E33
  8
S-OBRYS
  6
CONTINUOUS
 10
53168.785832107307
 20
426096.7549048838
 30
0.0
  0
VERTEX
  5
65E34
  8
S-OBRYS
  6
CONTINUOUS
 10
53168.785832107307
 20
426122.76949018741
 30
0.0
  0
VERTEX
  5
65E35
  8
S-OBRYS
  6
CONTINUOUS
 10
53090.374999241219
 20
426122.76949018741
 30
0.0
  0
SEQEND
  5
65E36
  8
S-OBRYS
  6
CONTINUOUS
  0
LINE
  5
65808
  8
S-OBRYS
  6
CONTINUOUS
 10
53006.618844835961
 20
426109.7621975356
 30
0.0
 11
53181.601620476351
 21
426109.7621975356
 31
0.0
  0
LINE
  5
65809
  8
S-OBRYS
  6
CONTINUOUS
 10
53064.202394054737
 20
426350.02532789571
 30
0.0
 11
53064.202394054737
 21
426189.793612612
 31
0.0
  0
LINE
  5
6580A
  8
S-OBRYS
  6
CONTINUOUS
 10
53108.440932516052
 20
426350.02532789571
 30
0.0
 11
53108.440932516052
 21
426189.793612612
 31
0.0
  0
POLYLINE
  5
6580B
  8
S-OBRYS
  6
CONTINUOUS
 66
     1
 10
0.0
 20
0.0
 30
0.0
  0
VERTEX
  5
65E37
  8
S-OBRYS
  6
CONTINUOUS
 10
53046.136460779897
 20
426122.76949018741
 30
0.0
  0
VERTEX
  5
65E38
  8
S-OBRYS
  6
CONTINUOUS
 10
53026.818720550691
 20
426122.76949018741
 30
0.0
  0
VERTEX
  5
65E39
  8
S-OBRYS
  6
CONTINUOUS
 10
53026.818720550691
 20
426096.7549048838
 30
0.0
  0
VERTEX
  5
65E3A
  8
S-OBRYS
  6
CONTINUOUS
 10
53039.124391911799
 20
426096.7549048838
 30
0.0
  0
SEQEND
  5
65E3B
  8
S-OBRYS
  6
CONTINUOUS
  0
LINE
  5
6580C
  8
S-OBRYS
  6
CONTINUOUS
 10
53026.818720550691
 20
426131.58729715348
 30
0.0
 11
53032.580824233293
 21
426131.58729715348
 31
0.0
  0
LINE
  5
6580D
  8
S-OBRYS
  6
CONTINUOUS
 10
53064.202394054737
 20
426189.793612612
 30
0.0
 11
53108.440932516052
 21
426189.793612612
 31
0.0
  0
LINE
  5
6580E
  8
S-OBRYS
  6
CONTINUOUS
 10
53108.440932516052
 20
426350.02532789571
 30
0.0
 11
53064.202394054737
 21
426350.02532789571
 31
0.0
  0
LINE
  5
6580F
  8
S-OBRYS
  6
CONTINUOUS
 10
52976.545535902304
 20
426876.69312407041
 30
0.0
 11
52927.954795781887
 21
426876.69312407041
 31
0.0
  0
POLYLINE
  8
S-OBRYS
  5
665A4
  66
     1
 10
0.000000
 20
0.000000
 30
0.000000
  70
     8
  0
VERTEX
  8
S-OBRYS
  5
665A5
 10
52976.5
 20
426797.
 30
0.000000
  70
    32
  0
VERTEX
  8
S-OBRYS
  5
665A6
 10
52976.4
 20
426797.
 30
0.000000
  70
    32
  0
VERTEX
  8
S-OBRYS
  5
665A7
 10
52976.2
 20
426797.
 30
0.000000
  70
    32
  0
VERTEX
  8
S-OBRYS
  5
665A8
 10
52976.1
 20
426797.
 30
0.000000
  70
    32
  0
VERTEX
  8
S-OBRYS
  5
665A9
 10
52975.9
 20
426797.
 30
0.000000
  70
    32
  0
VERTEX
  8
S-OBRYS
  5
665AA
 10
52975.8
 20
426797.
 30
0.000000
  70
    32
  0
VERTEX
  8
S-OBRYS
  5
665AB
 10
52975.7
 20
426797.
 30
0.000000
  70
    32
  0
VERTEX
  8
S-OBRYS
  5
665AC
 10
52975.5
 20
426797.
 30
0.000000
  70
    32
  0
VERTEX
  8
S-OBRYS
  5
665AD
 10
52975.4
 20
426797.
 30
0.000000
  70
    32
  0
VERTEX
  8
S-OBRYS
  5
665AE
 10
52975.2
 20
426797.
 30
0.000000
  70
    32
  0
VERTEX
  8
S-OBRYS
  5
665AF
 10
52975.1
 20
426797.
 30
0.000000
  70
    32
  0
VERTEX
  8
S-OBRYS
  5
665B0
 10
52974.9
 20
426797.
 30
0.000000
  70
    32
  0
VERTEX
  8
S-OBRYS
  5
665B1
 10
52974.8
 20
426797.
 30
0.000000
  70
    32
  0
VERTEX
  8
S-OBRYS
  5
665B2
 10
52974.6
 20
426797.
 30
0.000000
  70
    32
  0
VERTEX
  8
S-OBRYS
  5
665B3
 10
52974.5
 20
426797.
 30
0.000000
  70
    32
  0
VERTEX
  8
S-OBRYS
  5
665B4
 10
52974.3
 20
426797.
 30
0.000000
  70
    32
  0
VERTEX
  8
S-OBRYS
  5
665B5
 10
52974.2
 20
426797.
 30
0.000000
  70
    32
  0
VERTEX
  8
S-OBRYS
  5
665B6
 10
52974.1
 20
426797.
 30
0.000000
  70
    32
  0
VERTEX
  8
S-OBRYS
  5
665B7
 10
52973.9
 20
426797.
 30
0.000000
  70
    32
  0
VERTEX
  8
S-OBRYS
  5
665B8
 10
52973.8
 20
426797.
 30
0.000000
  70
    32
  0
VERTEX
  8
S-OBRYS
  5
665B9
 10
52973.6
 20
426797.
 30
0.000000
  70
    32
  0
VERTEX
  8
S-OBRYS
  5
665BA
 10
52973.5
 20
426797.
 30
0.000000
  70
    32
  0
VERTEX
  8
S-OBRYS
  5
665BB
 10
52973.4
 20
426797.
 30
0.000000
  70
    32
  0
VERTEX
  8
S-OBRYS
  5
665BC
 10
52973.2
 20
426797.
 30
0.000000
  70
    32
  0
VERTEX
  8
S-OBRYS
  5
665BD
 10
52973.1
 20
426797.
 30
0.000000
  70
    32
  0
VERTEX
  8
S-OBRYS
  5
665BE
 10
52973.0
 20
426797.
 30
0.000000
  70
    32
  0
VERTEX
  8
S-OBRYS
  5
665BF
 10
52972.8
 20
426797.
 30
0.000000
  70
    32
  0
VERTEX
  8
S-OBRYS
  5
665C0
 10
52972.7
 20
426797.
 30
0.000000
  70
    32
  0
VERTEX
  8
S-OBRYS
  5
665C1
 10
52972.6
 20
426797.
 30
0.000000
  70
    32
  0
VERTEX
  8
S-OBRYS
  5
665C2
 10
52972.4
 20
426797.
 30
0.000000
  70
    32
  0
VERTEX
  8
S-OBRYS
  5
665C3
 10
52972.3
 20
426797.
 30
0.000000
  70
    32
  0
VERTEX
  8
S-OBRYS
  5
665C4
 10
52972.2
 20
426797.
 30
0.000000
  70
    32
  0
VERTEX
  8
S-OBRYS
  5
665C5
 10
52972.1
 20
426797.
 30
0.000000
  70
    32
  0
VERTEX
  8
S-OBRYS
  5
665C6
 10
52971.9
 20
426797.
 30
0.000000
  70
    32
  0
VERTEX
  8
S-OBRYS
  5
665C7
 10
52971.8
 20
426797.
 30
0.000000
  70
    32
  0
VERTEX
  8
S-OBRYS
  5
665C8
 10
52971.7
 20
426797.
 30
0.000000
  70
    32
  0
VERTEX
  8
S-OBRYS
  5
665C9
 10
52971.6
 20
426797.
 30
0.000000
  70
    32
  0
VERTEX
  8
S-OBRYS
  5
665CA
 10
52971.5
 20
426797.
 30
0.000000
  70
    32
  0
VERTEX
  8
S-OBRYS
  5
665CB
 10
52971.4
 20
426797.
 30
0.000000
  70
    32
  0
VERTEX
  8
S-OBRYS
  5
665CC
 10
52971.3
 20
426797.
 30
0.000000
  70
    32
  0
VERTEX
  8
S-OBRYS
  5
665CD
 10
52971.2
 20
426797.
 30
0.000000
  70
    32
  0
VERTEX
  8
S-OBRYS
  5
665CE
 10
52971.1
 20
426797.
 30
0.000000
  70
    32
  0
VERTEX
  8
S-OBRYS
  5
665CF
 10
52971.0
 20
426797.
 30
0.000000
  70
    32
  0
VERTEX
  8
S-OBRYS
  5
665D0
 10
52970.9
 20
426796.
 30
0.000000
  70
    32
  0
VERTEX
  8
S-OBRYS
  5
665D1
 10
52970.8
 20
426796.
 30
0.000000
  70
    32
  0
VERTEX
  8
S-OBRYS
  5
665D2
 10
52970.7
 20
426796.
 30
0.000000
  70
    32
  0
VERTEX
  8
S-OBRYS
  5
665D3
 10
52970.6
 20
426796.
 30
0.000000
  70
    32
  0
VERTEX
  8
S-OBRYS
  5
665D4
 10
52970.5
 20
426796.
 30
0.000000
  70
    32
  0
VERTEX
  8
S-OBRYS
  5
665D5
 10
52970.4
 20
426796.
 30
0.000000
  70
    32
  0
VERTEX
  8
S-OBRYS
  5
665D6
 10
52970.3
 20
426796.
 30
0.000000
  70
    32
  0
VERTEX
  8
S-OBRYS
  5
665D7
 10
52970.2
 20
426796.
 30
0.000000
  70
    32
  0
VERTEX
  8
S-OBRYS
  5
665D8
 10
52970.1
 20
426796.
 30
0.000000
  70
    32
  0
VERTEX
  8
S-OBRYS
  5
665D9
 10
52970.0
 20
426796.
 30
0.000000
  70
    32
  0
VERTEX
  8
S-OBRYS
  5
665DA
 10
52970.0
 20
426795.
 30
0.000000
  70
    32
  0
VERTEX
  8
S-OBRYS
  5
665DB
 10
52969.9
 20
426795.
 30
0.000000
  70
    32
  0
VERTEX
  8
S-OBRYS
  5
665DC
 10
52969.8
 20
426795.
 30
0.000000
  70
    32
  0
VERTEX
  8
S-OBRYS
  5
665DD
 10
52969.7
 20
426795.
 30
0.000000
  70
    32
  0
VERTEX
  8
S-OBRYS
  5
665DE
 10
52969.6
 20
426795.
 30
0.000000
  70
    32
  0
VERTEX
  8
S-OBRYS
  5
665DF
 10
52969.6
 20
426795.
 30
0.000000
  70
    32
  0
VERTEX
  8
S-OBRYS
  5
665E0
 10
52969.5
 20
426795.
 30
0.000000
  70
    32
  0
VERTEX
  8
S-OBRYS
  5
665E1
 10
52969.4
 20
426795.
 30
0.000000
  70
    32
  0
VERTEX
  8
S-OBRYS
  5
665E2
 10
52969.3
 20
426795.
 30
0.000000
  70
    32
  0
VERTEX
  8
S-OBRYS
  5
665E3
 10
52969.2
 20
426794.
 30
0.000000
  70
    32
  0
VERTEX
  8
S-OBRYS
  5
665E4
 10
52969.2
 20
426794.
 30
0.000000
  70
    32
  0
VERTEX
  8
S-OBRYS
  5
665E5
 10
52969.1
 20
426794.
 30
0.000000
  70
    32
  0
VERTEX
  8
S-OBRYS
  5
665E6
 10
52969.0
 20
426794.
 30
0.000000
  70
    32
  0
VERTEX
  8
S-OBRYS
  5
665E7
 10
52968.9
 20
426794.
 30
0.000000
  70
    32
  0
VERTEX
  8
S-OBRYS
  5
665E8
 10
52968.8
 20
426794.
 30
0.000000
  70
    32
  0
VERTEX
  8
S-OBRYS
  5
665E9
 10
52968.7
 20
426794.
 30
0.000000
  70
    32
  0
VERTEX
  8
S-OBRYS
  5
665EA
 10
52968.6
 20
426794.
 30
0.000000
  70
    32
  0
VERTEX
  8
S-OBRYS
  5
665EB
 10
52968.5
 20
426794.
 30
0.000000
  70
    32
  0
VERTEX
  8
S-OBRYS
  5
665EC
 10
52968.4
 20
426794.
 30
0.000000
  70
    32
  0
VERTEX
  8
S-OBRYS
  5
665ED
 10
52968.3
 20
426794.
 30
0.000000
  70
    32
  0
VERTEX
  8
S-OBRYS
  5
665EE
 10
52968.2
 20
426794.
 30
0.000000
  70
    32
  0
VERTEX
  8
S-OBRYS
  5
665EF
 10
52968.1
 20
426794.
 30
0.000000
  70
    32
  0
VERTEX
  8
S-OBRYS
  5
665F0
 10
52968.0
 20
426794.
 30
0.000000
  70
    32
  0
VERTEX
  8
S-OBRYS
  5
665F1
 10
52967.9
 20
426794.
 30
0.000000
  70
    32
  0
VERTEX
  8
S-OBRYS
  5
665F2
 10
52967.7
 20
426794.
 30
0.000000
  70
    32
  0
VERTEX
  8
S-OBRYS
  5
665F3
 10
52967.6
 20
426794.
 30
0.000000
  70
    32
  0
VERTEX
  8
S-OBRYS
  5
665F4
 10
52967.5
 20
426794.
 30
0.000000
  70
    32
  0
VERTEX
  8
S-OBRYS
  5
665F5
 10
52967.4
 20
426794.
 30
0.000000
  70
    32
  0
VERTEX
  8
S-OBRYS
  5
665F6
 10
52967.2
 20
426794.
 30
0.000000
  70
    32
  0
VERTEX
  8
S-OBRYS
  5
665F7
 10
52967.1
 20
426794.
 30
0.000000
  70
    32
  0
VERTEX
  8
S-OBRYS
  5
665F8
 10
52967.0
 20
426794.
 30
0.000000
  70
    32
  0
VERTEX
  8
S-OBRYS
  5
665F9
 10
52966.8
 20
426794.
 30
0.000000
  70
    32
  0
VERTEX
  8
S-OBRYS
  5
665FA
 10
52966.7
 20
426794.
 30
0.000000
  70
    32
  0
VERTEX
  8
S-OBRYS
  5
665FB
 10
52966.6
 20
426794.
 30
0.000000
  70
    32
  0
VERTEX
  8
S-OBRYS
  5
665FC
 10
52966.4
 20
426794.
 30
0.000000
  70
    32
  0
VERTEX
  8
S-OBRYS
  5
665FD
 10
52966.3
 20
426794.
 30
0.000000
  70
    32
  0
VERTEX
  8
S-OBRYS
  5
665FE
 10
52966.2
 20
426794.
 30
0.000000
  70
    32
  0
VERTEX
  8
S-OBRYS
  5
665FF
 10
52966.0
 20
426794.
 30
0.000000
  70
    32
  0
VERTEX
  8
S-OBRYS
  5
66600
 10
52965.9
 20
426794.
 30
0.000000
  70
    32
  0
VERTEX
  8
S-OBRYS
  5
66601
 10
52965.8
 20
426794.
 30
0.000000
  70
    32
  0
VERTEX
  8
S-OBRYS
  5
66602
 10
52965.6
 20
426794.
 30
0.000000
  70
    32
  0
VERTEX
  8
S-OBRYS
  5
66603
 10
52965.5
 20
426794.
 30
0.000000
  70
    32
  0
VERTEX
  8
S-OBRYS
  5
66604
 10
52965.3
 20
426794.
 30
0.000000
  70
    32
  0
VERTEX
  8
S-OBRYS
  5
66605
 10
52965.2
 20
426794.
 30
0.000000
  70
    32
  0
VERTEX
  8
S-OBRYS
  5
66606
 10
52965.1
 20
426795.
 30
0.000000
  70
    32
  0
VERTEX
  8
S-OBRYS
  5
66607
 10
52964.9
 20
426795.
 30
0.000000
  70
    32
  0
VERTEX
  8
S-OBRYS
  5
66608
 10
52964.8
 20
426795.
 30
0.000000
  70
    32
  0
VERTEX
  8
S-OBRYS
  5
66609
 10
52964.7
 20
426795.
 30
0.000000
  70
    32
  0
VERTEX
  8
S-OBRYS
  5
6660A
 10
52964.5
 20
426795.
 30
0.000000
  70
    32
  0
VERTEX
  8
S-OBRYS
  5
6660B
 10
52964.4
 20
426795.
 30
0.000000
  70
    32
  0
VERTEX
  8
S-OBRYS
  5
6660C
 10
52964.3
 20
426795.
 30
0.000000
  70
    32
  0
VERTEX
  8
S-OBRYS
  5
6660D
 10
52964.2
 20
426795.
 30
0.000000
  70
    32
  0
VERTEX
  8
S-OBRYS
  5
6660E
 10
52964.0
 20
426795.
 30
0.000000
  70
    32
  0
VERTEX
  8
S-OBRYS
  5
6660F
 10
52963.9
 20
426795.
 30
0.000000
  70
    32
  0
VERTEX
  8
S-OBRYS
  5
66610
 10
52963.8
 20
426795.
 30
0.000000
  70
    32
  0
VERTEX
  8
S-OBRYS
  5
66611
 10
52963.7
 20
426795.
 30
0.000000
  70
    32
  0
VERTEX
  8
S-OBRYS
  5
66612
 10
52963.6
 20
426795.
 30
0.000000
  70
    32
  0
VERTEX
  8
S-OBRYS
  5
66613
 10
52963.4
 20
426795.
 30
0.000000
  70
    32
  0
VERTEX
  8
S-OBRYS
  5
66614
 10
52963.3
 20
426795.
 30
0.000000
  70
    32
  0
VERTEX
  8
S-OBRYS
  5
66615
 10
52963.2
 20
426795.
 30
0.000000
  70
    32
  0
VERTEX
  8
S-OBRYS
  5
66616
 10
52963.1
 20
426794.
 30
0.000000
  70
    32
  0
VERTEX
  8
S-OBRYS
  5
66617
 10
52963.0
 20
426794.
 30
0.000000
  70
    32
  0
VERTEX
  8
S-OBRYS
  5
66618
 10
52962.9
 20
426794.
 30
0.000000
  70
    32
  0
VERTEX
  8
S-OBRYS
  5
66619
 10
52962.8
 20
426794.
 30
0.000000
  70
    32
  0
VERTEX
  8
S-OBRYS
  5
6661A
 10
52962.7
 20
426794.
 30
0.000000
  70
    32
  0
VERTEX
  8
S-OBRYS
  5
6661B
 10
52962.6
 20
426794.
 30
0.000000
  70
    32
  0
VERTEX
  8
S-OBRYS
  5
6661C
 10
52962.6
 20
426794.
 30
0.000000
  70
    32
  0
VERTEX
  8
S-OBRYS
  5
6661D
 10
52962.5
 20
426794.
 30
0.000000
  70
    32
  0
VERTEX
  8
S-OBRYS
  5
6661E
 10
52962.4
 20
426794.
 30
0.000000
  70
    32
  0
VERTEX
  8
S-OBRYS
  5
6661F
 10
52962.3
 20
426794.
 30
0.000000
  70
    32
  0
VERTEX
  8
S-OBRYS
  5
66620
 10
52962.2
 20
426794.
 30
0.000000
  70
    32
  0
VERTEX
  8
S-OBRYS
  5
66621
 10
52962.1
 20
426793.
 30
0.000000
  70
    32
  0
VERTEX
  8
S-OBRYS
  5
66622
 10
52962.0
 20
426793.
 30
0.000000
  70
    32
  0
VERTEX
  8
S-OBRYS
  5
66623
 10
52961.9
 20
426793.
 30
0.000000
  70
    32
  0
VERTEX
  8
S-OBRYS
  5
66624
 10
52961.9
 20
426793.
 30
0.000000
  70
    32
  0
VERTEX
  8
S-OBRYS
  5
66625
 10
52961.8
 20
426793.
 30
0.000000
  70
    32
  0
VERTEX
  8
S-OBRYS
  5
66626
 10
52961.7
 20
426793.
 30
0.000000
  70
    32
  0
VERTEX
  8
S-OBRYS
  5
66627
 10
52961.6
 20
426793.
 30
0.000000
  70
    32
  0
VERTEX
  8
S-OBRYS
  5
66628
 10
52961.5
 20
426793.
 30
0.000000
  70
    32
  0
VERTEX
  8
S-OBRYS
  5
66629
 10
52961.5
 20
426792.
 30
0.000000
  70
    32
  0
VERTEX
  8
S-OBRYS
  5
6662A
 10
52961.4
 20
426792.
 30
0.000000
  70
    32
  0
VERTEX
  8
S-OBRYS
  5
6662B
 10
52961.3
 20
426792.
 30
0.000000
  70
    32
  0
VERTEX
  8
S-OBRYS
  5
6662C
 10
52961.2
 20
426792.
 30
0.000000
  70
    32
  0
VERTEX
  8
S-OBRYS
  5
6662D
 10
52961.1
 20
426792.
 30
0.000000
  70
    32
  0
VERTEX
  8
S-OBRYS
  5
6662E
 10
52961.0
 20
426792.
 30
0.000000
  70
    32
  0
VERTEX
  8
S-OBRYS
  5
6662F
 10
52961.0
 20
426792.
 30
0.000000
  70
    32
  0
VERTEX
  8
S-OBRYS
  5
66630
 10
52960.9
 20
426792.
 30
0.000000
  70
    32
  0
VERTEX
  8
S-OBRYS
  5
66631
 10
52960.8
 20
426791.
 30
0.000000
  70
    32
  0
VERTEX
  8
S-OBRYS
  5
66632
 10
52960.7
 20
426791.
 30
0.000000
  70
    32
  0
VERTEX
  8
S-OBRYS
  5
66633
 10
52960.6
 20
426791.
 30
0.000000
  70
    32
  0
VERTEX
  8
S-OBRYS
  5
66634
 10
52960.5
 20
426791.
 30
0.000000
  70
    32
  0
VERTEX
  8
S-OBRYS
  5
66635
 10
52960.4
 20
426791.
 30
0.000000
  70
    32
  0
VERTEX
  8
S-OBRYS
  5
66636
 10
52960.3
 20
426791.
 30
0.000000
  70
    32
  0
VERTEX
  8
S-OBRYS
  5
66637
 10
52960.2
 20
426791.
 30
0.000000
  70
    32
  0
VERTEX
  8
S-OBRYS
  5
66638
 10
52960.1
 20
426791.
 30
0.000000
  70
    32
  0
VERTEX
  8
S-OBRYS
  5
66639
 10
52960.0
 20
426791.
 30
0.000000
  70
    32
  0
VERTEX
  8
S-OBRYS
  5
6663A
 10
52959.9
 20
426791.
 30
0.000000
  70
    32
  0
VERTEX
  8
S-OBRYS
  5
6663B
 10
52959.8
 20
426791.
 30
0.000000
  70
    32
  0
VERTEX
  8
S-OBRYS
  5
6663C
 10
52959.7
 20
426791.
 30
0.000000
  70
    32
  0
VERTEX
  8
S-OBRYS
  5
6663D
 10
52959.6
 20
426791.
 30
0.000000
  70
    32
  0
VERTEX
  8
S-OBRYS
  5
6663E
 10
52959.5
 20
426791.
 30
0.000000
  70
    32
  0
VERTEX
  8
S-OBRYS
  5
6663F
 10
52959.4
 20
426791.
 30
0.000000
  70
    32
  0
VERTEX
  8
S-OBRYS
  5
66640
 10
52959.3
 20
426791.
 30
0.000000
  70
    32
  0
VERTEX
  8
S-OBRYS
  5
66641
 10
52959.2
 20
426791.
 30
0.000000
  70
    32
  0
VERTEX
  8
S-OBRYS
  5
66642
 10
52959.0
 20
426791.
 30
0.000000
  70
    32
  0
VERTEX
  8
S-OBRYS
  5
66643
 10
52958.9
 20
426791.
 30
0.000000
  70
    32
  0
VERTEX
  8
S-OBRYS
  5
66644
 10
52958.8
 20
426791.
 30
0.000000
  70
    32
  0
VERTEX
  8
S-OBRYS
  5
66645
 10
52958.7
 20
426791.
 30
0.000000
  70
    32
  0
VERTEX
  8
S-OBRYS
  5
66646
 10
52958.6
 20
426791.
 30
0.000000
  70
    32
  0
VERTEX
  8
S-OBRYS
  5
66647
 10
52958.4
 20
426791.
 30
0.000000
  70
    32
  0
VERTEX
  8
S-OBRYS
  5
66648
 10
52958.3
 20
426791.
 30
0.000000
  70
    32
  0
VERTEX
  8
S-OBRYS
  5
66649
 10
52958.2
 20
426791.
 30
0.000000
  70
    32
  0
VERTEX
  8
S-OBRYS
  5
6664A
 10
52958.0
 20
426791.
 30
0.000000
  70
    32
  0
VERTEX
  8
S-OBRYS
  5
6664B
 10
52957.9
 20
426791.
 30
0.000000
  70
    32
  0
VERTEX
  8
S-OBRYS
  5
6664C
 10
52957.8
 20
426791.
 30
0.000000
  70
    32
  0
VERTEX
  8
S-OBRYS
  5
6664D
 10
52957.7
 20
426791.
 30
0.000000
  70
    32
  0
VERTEX
  8
S-OBRYS
  5
6664E
 10
52957.5
 20
426791.
 30
0.000000
  70
    32
  0
VERTEX
  8
S-OBRYS
  5
6664F
 10
52957.4
 20
426792.
 30
0.000000
  70
    32
  0
VERTEX
  8
S-OBRYS
  5
66650
 10
52957.3
 20
426792.
 30
0.000000
  70
    32
  0
VERTEX
  8
S-OBRYS
  5
66651
 10
52957.1
 20
426792.
 30
0.000000
  70
    32
  0
VERTEX
  8
S-OBRYS
  5
66652
 10
52957.0
 20
426792.
 30
0.000000
  70
    32
  0
VERTEX
  8
S-OBRYS
  5
66653
 10
52956.9
 20
426792.
 30
0.000000
  70
    32
  0
VERTEX
  8
S-OBRYS
  5
66654
 10
52956.7
 20
426792.
 30
0.000000
  70
    32
  0
VERTEX
  8
S-OBRYS
  5
66655
 10
52956.6
 20
426792.
 30
0.000000
  70
    32
  0
VERTEX
  8
S-OBRYS
  5
66656
 10
52956.5
 20
426792.
 30
0.000000
  70
    32
  0
VERTEX
  8
S-OBRYS
  5
66657
 10
52956.3
 20
426792.
 30
0.000000
  70
    32
  0
VERTEX
  8
S-OBRYS
  5
66658
 10
52956.2
 20
426792.
 30
0.000000
  70
    32
  0
VERTEX
  8
S-OBRYS
  5
66659
 10
52956.1
 20
426792.
 30
0.000000
  70
    32
  0
VERTEX
  8
S-OBRYS
  5
6665A
 10
52956.0
 20
426792.
 30
0.000000
  70
    32
  0
VERTEX
  8
S-OBRYS
  5
6665B
 10
52955.8
 20
426792.
 30
0.000000
  70
    32
  0
VERTEX
  8
S-OBRYS
  5
6665C
 10
52955.7
 20
426792.
 30
0.000000
  70
    32
  0
VERTEX
  8
S-OBRYS
  5
6665D
 10
52955.6
 20
426792.
 30
0.000000
  70
    32
  0
VERTEX
  8
S-OBRYS
  5
6665E
 10
52955.4
 20
426792.
 30
0.000000
  70
    32
  0
VERTEX
  8
S-OBRYS
  5
6665F
 10
52955.3
 20
426792.
 30
0.000000
  70
    32
  0
VERTEX
  8
S-OBRYS
  5
66660
 10
52955.2
 20
426792.
 30
0.000000
  70
    32
  0
VERTEX
  8
S-OBRYS
  5
66661
 10
52955.1
 20
426792.
 30
0.000000
  70
    32
  0
VERTEX
  8
S-OBRYS
  5
66662
 10
52955.0
 20
426792.
 30
0.000000
  70
    32
  0
VERTEX
  8
S-OBRYS
  5
66663
 10
52954.8
 20
426792.
 30
0.000000
  70
    32
  0
VERTEX
  8
S-OBRYS
  5
66664
 10
52954.7
 20
426792.
 30
0.000000
  70
    32
  0
VERTEX
  8
S-OBRYS
  5
66665
 10
52954.6
 20
426792.
 30
0.000000
  70
    32
  0
VERTEX
  8
S-OBRYS
  5
66666
 10
52954.5
 20
426792.
 30
0.000000
  70
    32
  0
VERTEX
  8
S-OBRYS
  5
66667
 10
52954.4
 20
426792.
 30
0.000000
  70
    32
  0
VERTEX
  8
S-OBRYS
  5
66668
 10
52954.3
 20
426792.
 30
0.000000
  70
    32
  0
VERTEX
  8
S-OBRYS
  5
66669
 10
52954.1
 20
426792.
 30
0.000000
  70
    32
  0
VERTEX
  8
S-OBRYS
  5
6666A
 10
52954.0
 20
426792.
 30
0.000000
  70
    32
  0
VERTEX
  8
S-OBRYS
  5
6666B
 10
52953.9
 20
426792.
 30
0.000000
  70
    32
  0
VERTEX
  8
S-OBRYS
  5
6666C
 10
52953.8
 20
426792.
 30
0.000000
  70
    32
  0
VERTEX
  8
S-OBRYS
  5
6666D
 10
52953.7
 20
426792.
 30
0.000000
  70
    32
  0
VERTEX
  8
S-OBRYS
  5
6666E
 10
52953.6
 20
426792.
 30
0.000000
  70
    32
  0
VERTEX
  8
S-OBRYS
  5
6666F
 10
52953.5
 20
426792.
 30
0.000000
  70
    32
  0
VERTEX
  8
S-OBRYS
  5
66670
 10
52953.4
 20
426792.
 30
0.000000
  70
    32
  0
VERTEX
  8
S-OBRYS
  5
66671
 10
52953.3
 20
426792.
 30
0.000000
  70
    32
  0
VERTEX
  8
S-OBRYS
  5
66672
 10
52953.2
 20
426792.
 30
0.000000
  70
    32
  0
VERTEX
  8
S-OBRYS
  5
66673
 10
52953.0
 20
426792.
 30
0.000000
  70
    32
  0
VERTEX
  8
S-OBRYS
  5
66674
 10
52952.9
 20
426791.
 30
0.000000
  70
    32
  0
VERTEX
  8
S-OBRYS
  5
66675
 10
52952.8
 20
426791.
 30
0.000000
  70
    32
  0
VERTEX
  8
S-OBRYS
  5
66676
 10
52952.7
 20
426791.
 30
0.000000
  70
    32
  0
VERTEX
  8
S-OBRYS
  5
66677
 10
52952.6
 20
426791.
 30
0.000000
  70
    32
  0
VERTEX
  8
S-OBRYS
  5
66678
 10
52952.5
 20
426791.
 30
0.000000
  70
    32
  0
VERTEX
  8
S-OBRYS
  5
66679
 10
52952.4
 20
426791.
 30
0.000000
  70
    32
  0
VERTEX
  8
S-OBRYS
  5
6667A
 10
52952.3
 20
426791.
 30
0.000000
  70
    32
  0
VERTEX
  8
S-OBRYS
  5
6667B
 10
52952.2
 20
426791.
 30
0.000000
  70
    32
  0
VERTEX
  8
S-OBRYS
  5
6667C
 10
52952.1
 20
426791.
 30
0.000000
  70
    32
  0
VERTEX
  8
S-OBRYS
  5
6667D
 10
52952.0
 20
426791.
 30
0.000000
  70
    32
  0
VERTEX
  8
S-OBRYS
  5
6667E
 10
52951.9
 20
426791.
 30
0.000000
  70
    32
  0
VERTEX
  8
S-OBRYS
  5
6667F
 10
52951.8
 20
426790.
 30
0.000000
  70
    32
  0
VERTEX
  8
S-OBRYS
  5
66680
 10
52951.7
 20
426790.
 30
0.000000
  70
    32
  0
VERTEX
  8
S-OBRYS
  5
66681
 10
52951.6
 20
426790.
 30
0.000000
  70
    32
  0
VERTEX
  8
S-OBRYS
  5
66682
 10
52951.5
 20
426790.
 30
0.000000
  70
    32
  0
VERTEX
  8
S-OBRYS
  5
66683
 10
52951.4
 20
426790.
 30
0.000000
  70
    32
  0
VERTEX
  8
S-OBRYS
  5
66684
 10
52951.3
 20
426790.
 30
0.000000
  70
    32
  0
VERTEX
  8
S-OBRYS
  5
66685
 10
52951.2
 20
426790.
 30
0.000000
  70
    32
  0
VERTEX
  8
S-OBRYS
  5
66686
 10
52951.1
 20
426790.
 30
0.000000
  70
    32
  0
VERTEX
  8
S-OBRYS
  5
66687
 10
52951.0
 20
426790.
 30
0.000000
  70
    32
  0
VERTEX
  8
S-OBRYS
  5
66688
 10
52950.9
 20
426790.
 30
0.000000
  70
    32
  0
VERTEX
  8
S-OBRYS
  5
66689
 10
52950.7
 20
426789.
 30
0.000000
  70
    32
  0
VERTEX
  8
S-OBRYS
  5
6668A
 10
52950.6
 20
426789.
 30
0.000000
  70
    32
  0
VERTEX
  8
S-OBRYS
  5
6668B
 10
52950.5
 20
426789.
 30
0.000000
  70
    32
  0
VERTEX
  8
S-OBRYS
  5
6668C
 10
52950.4
 20
426789.
 30
0.000000
  70
    32
  0
VERTEX
  8
S-OBRYS
  5
6668D
 10
52950.3
 20
426789.
 30
0.000000
  70
    32
  0
VERTEX
  8
S-OBRYS
  5
6668E
 10
52950.2
 20
426789.
 30
0.000000
  70
    32
  0
VERTEX
  8
S-OBRYS
  5
6668F
 10
52950.1
 20
426789.
 30
0.000000
  70
    32
  0
VERTEX
  8
S-OBRYS
  5
66690
 10
52950.0
 20
426789.
 30
0.000000
  70
    32
  0
VERTEX
  8
S-OBRYS
  5
66691
 10
52949.9
 20
426789.
 30
0.000000
  70
    32
  0
VERTEX
  8
S-OBRYS
  5
66692
 10
52949.8
 20
426789.
 30
0.000000
  70
    32
  0
VERTEX
  8
S-OBRYS
  5
66693
 10
52949.7
 20
426789.
 30
0.000000
  70
    32
  0
VERTEX
  8
S-OBRYS
  5
66694
 10
52949.5
 20
426788.
 30
0.000000
  70
    32
  0
VERTEX
  8
S-OBRYS
  5
66695
 10
52949.4
 20
426788.
 30
0.000000
  70
    32
  0
VERTEX
  8
S-OBRYS
  5
66696
 10
52949.3
 20
426788.
 30
0.000000
  70
    32
  0
VERTEX
  8
S-OBRYS
  5
66697
 10
52949.2
 20
426788.
 30
0.000000
  70
    32
  0
VERTEX
  8
S-OBRYS
  5
66698
 10
52949.1
 20
426788.
 30
0.000000
  70
    32
  0
VERTEX
  8
S-OBRYS
  5
66699
 10
52949.0
 20
426788.
 30
0.000000
  70
    32
  0
VERTEX
  8
S-OBRYS
  5
6669A
 10
52948.8
 20
426788.
 30
0.000000
  70
    32
  0
VERTEX
  8
S-OBRYS
  5
6669B
 10
52948.7
 20
426788.
 30
0.000000
  70
    32
  0
VERTEX
  8
S-OBRYS
  5
6669C
 10
52948.6
 20
426788.
 30
0.000000
  70
    32
  0
VERTEX
  8
S-OBRYS
  5
6669D
 10
52948.5
 20
426788.
 30
0.000000
  70
    32
  0
VERTEX
  8
S-OBRYS
  5
6669E
 10
52948.4
 20
426788.
 30
0.000000
  70
    32
  0
VERTEX
  8
S-OBRYS
  5
6669F
 10
52948.2
 20
426788.
 30
0.000000
  70
    32
  0
VERTEX
  8
S-OBRYS
  5
666A0
 10
52948.1
 20
426788.
 30
0.000000
  70
    32
  0
VERTEX
  8
S-OBRYS
  5
666A1
 10
52948.0
 20
426788.
 30
0.000000
  70
    32
  0
VERTEX
  8
S-OBRYS
  5
666A2
 10
52947.9
 20
426788.
 30
0.000000
  70
    32
  0
VERTEX
  8
S-OBRYS
  5
666A3
 10
52947.7
 20
426788.
 30
0.000000
  70
    32
  0
VERTEX
  8
S-OBRYS
  5
666A4
 10
52947.6
 20
426788.
 30
0.000000
  70
    32
  0
VERTEX
  8
S-OBRYS
  5
666A5
 10
52947.5
 20
426788.
 30
0.000000
  70
    32
  0
VERTEX
  8
S-OBRYS
  5
666A6
 10
52947.3
 20
426788.
 30
0.000000
  70
    32
  0
VERTEX
  8
S-OBRYS
  5
666A7
 10
52947.2
 20
426788.
 30
0.000000
  70
    32
  0
VERTEX
  8
S-OBRYS
  5
666A8
 10
52947.1
 20
426788.
 30
0.000000
  70
    32
  0
VERTEX
  8
S-OBRYS
  5
666A9
 10
52946.9
 20
426788.
 30
0.000000
  70
    32
  0
VERTEX
  8
S-OBRYS
  5
666AA
 10
52946.8
 20
426788.
 30
0.000000
  70
    32
  0
VERTEX
  8
S-OBRYS
  5
666AB
 10
52946.7
 20
426788.
 30
0.000000
  70
    32
  0
VERTEX
  8
S-OBRYS
  5
666AC
 10
52946.5
 20
426788.
 30
0.000000
  70
    32
  0
VERTEX
  8
S-OBRYS
  5
666AD
 10
52946.4
 20
426788.
 30
0.000000
  70
    32
  0
VERTEX
  8
S-OBRYS
  5
666AE
 10
52946.3
 20
426788.
 30
0.000000
  70
    32
  0
VERTEX
  8
S-OBRYS
  5
666AF
 10
52946.1
 20
426788.
 30
0.000000
  70
    32
  0
VERTEX
  8
S-OBRYS
  5
666B0
 10
52946.0
 20
426788.
 30
0.000000
  70
    32
  0
VERTEX
  8
S-OBRYS
  5
666B1
 10
52945.9
 20
426788.
 30
0.000000
  70
    32
  0
VERTEX
  8
S-OBRYS
  5
666B2
 10
52945.7
 20
426788.
 30
0.000000
  70
    32
  0
VERTEX
  8
S-OBRYS
  5
666B3
 10
52945.6
 20
426788.
 30
0.000000
  70
    32
  0
VERTEX
  8
S-OBRYS
  5
666B4
 10
52945.5
 20
426788.
 30
0.000000
  70
    32
  0
VERTEX
  8
S-OBRYS
  5
666B5
 10
52945.3
 20
426788.
 30
0.000000
  70
    32
  0
VERTEX
  8
S-OBRYS
  5
666B6
 10
52945.2
 20
426788.
 30
0.000000
  70
    32
  0
VERTEX
  8
S-OBRYS
  5
666B7
 10
52945.1
 20
426788.
 30
0.000000
  70
    32
  0
VERTEX
  8
S-OBRYS
  5
666B8
 10
52944.9
 20
426788.
 30
0.000000
  70
    32
  0
VERTEX
  8
S-OBRYS
  5
666B9
 10
52944.8
 20
426788.
 30
0.000000
  70
    32
  0
VERTEX
  8
S-OBRYS
  5
666BA
 10
52944.7
 20
426788.
 30
0.000000
  70
    32
  0
VERTEX
  8
S-OBRYS
  5
666BB
 10
52944.5
 20
426788.
 30
0.000000
  70
    32
  0
VERTEX
  8
S-OBRYS
  5
666BC
 10
52944.4
 20
426788.
 30
0.000000
  70
    32
  0
VERTEX
  8
S-OBRYS
  5
666BD
 10
52944.3
 20
426788.
 30
0.000000
  70
    32
  0
VERTEX
  8
S-OBRYS
  5
666BE
 10
52944.2
 20
426788.
 30
0.000000
  70
    32
  0
VERTEX
  8
S-OBRYS
  5
666BF
 10
52944.0
 20
426788.
 30
0.000000
  70
    32
  0
VERTEX
  8
S-OBRYS
  5
666C0
 10
52943.9
 20
426788.
 30
0.000000
  70
    32
  0
VERTEX
  8
S-OBRYS
  5
666C1
 10
52943.8
 20
426788.
 30
0.000000
  70
    32
  0
VERTEX
  8
S-OBRYS
  5
666C2
 10
52943.6
 20
426788.
 30
0.000000
  70
    32
  0
VERTEX
  8
S-OBRYS
  5
666C3
 10
52943.5
 20
426788.
 30
0.000000
  70
    32
  0
VERTEX
  8
S-OBRYS
  5
666C4
 10
52943.4
 20
426788.
 30
0.000000
  70
    32
  0
VERTEX
  8
S-OBRYS
  5
666C5
 10
52943.3
 20
426788.
 30
0.000000
  70
    32
  0
VERTEX
  8
S-OBRYS
  5
666C6
 10
52943.1
 20
426788.
 30
0.000000
  70
    32
  0
VERTEX
  8
S-OBRYS
  5
666C7
 10
52943.0
 20
426788.
 30
0.000000
  70
    32
  0
VERTEX
  8
S-OBRYS
  5
666C8
 10
52942.9
 20
426788.
 30
0.000000
  70
    32
  0
VERTEX
  8
S-OBRYS
  5
666C9
 10
52942.8
 20
426787.
 30
0.000000
  70
    32
  0
VERTEX
  8
S-OBRYS
  5
666CA
 10
52942.7
 20
426787.
 30
0.000000
  70
    32
  0
VERTEX
  8
S-OBRYS
  5
666CB
 10
52942.5
 20
426787.
 30
0.000000
  70
    32
  0
VERTEX
  8
S-OBRYS
  5
666CC
 10
52942.4
 20
426787.
 30
0.000000
  70
    32
  0
VERTEX
  8
S-OBRYS
  5
666CD
 10
52942.3
 20
426787.
 30
0.000000
  70
    32
  0
VERTEX
  8
S-OBRYS
  5
666CE
 10
52942.2
 20
426787.
 30
0.000000
  70
    32
  0
VERTEX
  8
S-OBRYS
  5
666CF
 10
52942.1
 20
426787.
 30
0.000000
  70
    32
  0
VERTEX
  8
S-OBRYS
  5
666D0
 10
52941.9
 20
426787.
 30
0.000000
  70
    32
  0
VERTEX
  8
S-OBRYS
  5
666D1
 10
52941.8
 20
426787.
 30
0.000000
  70
    32
  0
VERTEX
  8
S-OBRYS
  5
666D2
 10
52941.7
 20
426787.
 30
0.000000
  70
    32
  0
VERTEX
  8
S-OBRYS
  5
666D3
 10
52941.6
 20
426787.
 30
0.000000
  70
    32
  0
VERTEX
  8
S-OBRYS
  5
666D4
 10
52941.5
 20
426787.
 30
0.000000
  70
    32
  0
VERTEX
  8
S-OBRYS
  5
666D5
 10
52941.4
 20
426787.
 30
0.000000
  70
    32
  0
VERTEX
  8
S-OBRYS
  5
666D6
 10
52941.2
 20
426787.
 30
0.000000
  70
    32
  0
VERTEX
  8
S-OBRYS
  5
666D7
 10
52941.1
 20
426787.
 30
0.000000
  70
    32
  0
VERTEX
  8
S-OBRYS
  5
666D8
 10
52941.0
 20
426786.
 30
0.000000
  70
    32
  0
VERTEX
  8
S-OBRYS
  5
666D9
 10
52940.9
 20
426786.
 30
0.000000
  70
    32
  0
VERTEX
  8
S-OBRYS
  5
666DA
 10
52940.8
 20
426786.
 30
0.000000
  70
    32
  0
VERTEX
  8
S-OBRYS
  5
666DB
 10
52940.7
 20
426786.
 30
0.000000
  70
    32
  0
VERTEX
  8
S-OBRYS
  5
666DC
 10
52940.6
 20
426786.
 30
0.000000
  70
    32
  0
VERTEX
  8
S-OBRYS
  5
666DD
 10
52940.4
 20
426786.
 30
0.000000
  70
    32
  0
VERTEX
  8
S-OBRYS
  5
666DE
 10
52940.3
 20
426786.
 30
0.000000
  70
    32
  0
VERTEX
  8
S-OBRYS
  5
666DF
 10
52940.2
 20
426786.
 30
0.000000
  70
    32
  0
VERTEX
  8
S-OBRYS
  5
666E0
 10
52940.1
 20
426786.
 30
0.000000
  70
    32
  0
VERTEX
  8
S-OBRYS
  5
666E1
 10
52940.0
 20
426786.
 30
0.000000
  70
    32
  0
VERTEX
  8
S-OBRYS
  5
666E2
 10
52939.9
 20
426786.
 30
0.000000
  70
    32
  0
VERTEX
  8
S-OBRYS
  5
666E3
 10
52939.7
 20
426786.
 30
0.000000
  70
    32
  0
VERTEX
  8
S-OBRYS
  5
666E4
 10
52939.6
 20
426786.
 30
0.000000
  70
    32
  0
VERTEX
  8
S-OBRYS
  5
666E5
 10
52939.5
 20
426786.
 30
0.000000
  70
    32
  0
VERTEX
  8
S-OBRYS
  5
666E6
 10
52939.4
 20
426786.
 30
0.000000
  70
    32
  0
VERTEX
  8
S-OBRYS
  5
666E7
 10
52939.3
 20
426785.
 30
0.000000
  70
    32
  0
VERTEX
  8
S-OBRYS
  5
666E8
 10
52939.2
 20
426785.
 30
0.000000
  70
    32
  0
VERTEX
  8
S-OBRYS
  5
666E9
 10
52939.0
 20
426785.
 30
0.000000
  70
    32
  0
VERTEX
  8
S-OBRYS
  5
666EA
 10
52938.9
 20
426785.
 30
0.000000
  70
    32
  0
VERTEX
  8
S-OBRYS
  5
666EB
 10
52938.8
 20
426785.
 30
0.000000
  70
    32
  0
VERTEX
  8
S-OBRYS
  5
666EC
 10
52938.7
 20
426785.
 30
0.000000
  70
    32
  0
VERTEX
  8
S-OBRYS
  5
666ED
 10
52938.6
 20
426785.
 30
0.000000
  70
    32
  0
VERTEX
  8
S-OBRYS
  5
666EE
 10
52938.4
 20
426785.
 30
0.000000
  70
    32
  0
VERTEX
  8
S-OBRYS
  5
666EF
 10
52938.3
 20
426785.
 30
0.000000
  70
    32
  0
VERTEX
  8
S-OBRYS
  5
666F0
 10
52938.2
 20
426785.
 30
0.000000
  70
    32
  0
VERTEX
  8
S-OBRYS
  5
666F1
 10
52938.1
 20
426785.
 30
0.000000
  70
    32
  0
VERTEX
  8
S-OBRYS
  5
666F2
 10
52937.9
 20
426785.
 30
0.000000
  70
    32
  0
VERTEX
  8
S-OBRYS
  5
666F3
 10
52937.8
 20
426785.
 30
0.000000
  70
    32
  0
VERTEX
  8
S-OBRYS
  5
666F4
 10
52937.7
 20
426785.
 30
0.000000
  70
    32
  0
VERTEX
  8
S-OBRYS
  5
666F5
 10
52937.6
 20
426785.
 30
0.000000
  70
    32
  0
VERTEX
  8
S-OBRYS
  5
666F6
 10
52937.4
 20
426785.
 30
0.000000
  70
    32
  0
VERTEX
  8
S-OBRYS
  5
666F7
 10
52937.3
 20
426785.
 30
0.000000
  70
    32
  0
VERTEX
  8
S-OBRYS
  5
666F8
 10
52937.2
 20
426785.
 30
0.000000
  70
    32
  0
VERTEX
  8
S-OBRYS
  5
666F9
 10
52937.1
 20
426785.
 30
0.000000
  70
    32
  0
VERTEX
  8
S-OBRYS
  5
666FA
 10
52936.9
 20
426785.
 30
0.000000
  70
    32
  0
VERTEX
  8
S-OBRYS
  5
666FB
 10
52936.8
 20
426785.
 30
0.000000
  70
    32
  0
VERTEX
  8
S-OBRYS
  5
666FC
 10
52936.7
 20
426785.
 30
0.000000
  70
    32
  0
VERTEX
  8
S-OBRYS
  5
666FD
 10
52936.6
 20
426785.
 30
0.000000
  70
    32
  0
VERTEX
  8
S-OBRYS
  5
666FE
 10
52936.4
 20
426785.
 30
0.000000
  70
    32
  0
VERTEX
  8
S-OBRYS
  5
666FF
 10
52936.3
 20
426785.
 30
0.000000
  70
    32
  0
VERTEX
  8
S-OBRYS
  5
66700
 10
52936.2
 20
426785.
 30
0.000000
  70
    32
  0
VERTEX
  8
S-OBRYS
  5
66701
 10
52936.0
 20
426785.
 30
0.000000
  70
    32
  0
VERTEX
  8
S-OBRYS
  5
66702
 10
52935.9
 20
426785.
 30
0.000000
  70
    32
  0
VERTEX
  8
S-OBRYS
  5
66703
 10
52935.8
 20
426785.
 30
0.000000
  70
    32
  0
VERTEX
  8
S-OBRYS
  5
66704
 10
52935.6
 20
426785.
 30
0.000000
  70
    32
  0
VERTEX
  8
S-OBRYS
  5
66705
 10
52935.5
 20
426785.
 30
0.000000
  70
    32
  0
VERTEX
  8
S-OBRYS
  5
66706
 10
52935.4
 20
426785.
 30
0.000000
  70
    32
  0
VERTEX
  8
S-OBRYS
  5
66707
 10
52935.2
 20
426785.
 30
0.000000
  70
    32
  0
VERTEX
  8
S-OBRYS
  5
66708
 10
52935.1
 20
426785.
 30
0.000000
  70
    32
  0
VERTEX
  8
S-OBRYS
  5
66709
 10
52935.0
 20
426785.
 30
0.000000
  70
    32
  0
VERTEX
  8
S-OBRYS
  5
6670A
 10
52934.8
 20
426786.
 30
0.000000
  70
    32
  0
VERTEX
  8
S-OBRYS
  5
6670B
 10
52934.7
 20
426786.
 30
0.000000
  70
    32
  0
VERTEX
  8
S-OBRYS
  5
6670C
 10
52934.6
 20
426786.
 30
0.000000
  70
    32
  0
VERTEX
  8
S-OBRYS
  5
6670D
 10
52934.4
 20
426786.
 30
0.000000
  70
    32
  0
VERTEX
  8
S-OBRYS
  5
6670E
 10
52934.3
 20
426786.
 30
0.000000
  70
    32
  0
VERTEX
  8
S-OBRYS
  5
6670F
 10
52934.2
 20
426786.
 30
0.000000
  70
    32
  0
VERTEX
  8
S-OBRYS
  5
66710
 10
52934.1
 20
426786.
 30
0.000000
  70
    32
  0
VERTEX
  8
S-OBRYS
  5
66711
 10
52933.9
 20
426786.
 30
0.000000
  70
    32
  0
VERTEX
  8
S-OBRYS
  5
66712
 10
52933.8
 20
426786.
 30
0.000000
  70
    32
  0
VERTEX
  8
S-OBRYS
  5
66713
 10
52933.7
 20
426786.
 30
0.000000
  70
    32
  0
VERTEX
  8
S-OBRYS
  5
66714
 10
52933.5
 20
426786.
 30
0.000000
  70
    32
  0
VERTEX
  8
S-OBRYS
  5
66715
 10
52933.4
 20
426786.
 30
0.000000
  70
    32
  0
VERTEX
  8
S-OBRYS
  5
66716
 10
52933.3
 20
426786.
 30
0.000000
  70
    32
  0
VERTEX
  8
S-OBRYS
  5
66717
 10
52933.1
 20
426786.
 30
0.000000
  70
    32
  0
VERTEX
  8
S-OBRYS
  5
66718
 10
52933.0
 20
426786.
 30
0.000000
  70
    32
  0
VERTEX
  8
S-OBRYS
  5
66719
 10
52932.9
 20
426786.
 30
0.000000
  70
    32
  0
VERTEX
  8
S-OBRYS
  5
6671A
 10
52932.8
 20
426786.
 30
0.000000
  70
    32
  0
VERTEX
  8
S-OBRYS
  5
6671B
 10
52932.6
 20
426786.
 30
0.000000
  70
    32
  0
VERTEX
  8
S-OBRYS
  5
6671C
 10
52932.5
 20
426786.
 30
0.000000
  70
    32
  0
VERTEX
  8
S-OBRYS
  5
6671D
 10
52932.4
 20
426786.
 30
0.000000
  70
    32
  0
VERTEX
  8
S-OBRYS
  5
6671E
 10
52932.3
 20
426786.
 30
0.000000
  70
    32
  0
VERTEX
  8
S-OBRYS
  5
6671F
 10
52932.1
 20
426786.
 30
0.000000
  70
    32
  0
VERTEX
  8
S-OBRYS
  5
66720
 10
52932.0
 20
426786.
 30
0.000000
  70
    32
  0
VERTEX
  8
S-OBRYS
  5
66721
 10
52931.9
 20
426786.
 30
0.000000
  70
    32
  0
VERTEX
  8
S-OBRYS
  5
66722
 10
52931.8
 20
426786.
 30
0.000000
  70
    32
  0
VERTEX
  8
S-OBRYS
  5
66723
 10
52931.7
 20
426786.
 30
0.000000
  70
    32
  0
VERTEX
  8
S-OBRYS
  5
66724
 10
52931.5
 20
426786.
 30
0.000000
  70
    32
  0
VERTEX
  8
S-OBRYS
  5
66725
 10
52931.4
 20
426786.
 30
0.000000
  70
    32
  0
VERTEX
  8
S-OBRYS
  5
66726
 10
52931.3
 20
426786.
 30
0.000000
  70
    32
  0
VERTEX
  8
S-OBRYS
  5
66727
 10
52931.2
 20
426786.
 30
0.000000
  70
    32
  0
VERTEX
  8
S-OBRYS
  5
66728
 10
52931.1
 20
426786.
 30
0.000000
  70
    32
  0
VERTEX
  8
S-OBRYS
  5
66729
 10
52930.9
 20
426786.
 30
0.000000
  70
    32
  0
VERTEX
  8
S-OBRYS
  5
6672A
 10
52930.8
 20
426786.
 30
0.000000
  70
    32
  0
VERTEX
  8
S-OBRYS
  5
6672B
 10
52930.7
 20
426786.
 30
0.000000
  70
    32
  0
VERTEX
  8
S-OBRYS
  5
6672C
 10
52930.6
 20
426786.
 30
0.000000
  70
    32
  0
VERTEX
  8
S-OBRYS
  5
6672D
 10
52930.5
 20
426785.
 30
0.000000
  70
    32
  0
VERTEX
  8
S-OBRYS
  5
6672E
 10
52930.4
 20
426785.
 30
0.000000
  70
    32
  0
VERTEX
  8
S-OBRYS
  5
6672F
 10
52930.3
 20
426785.
 30
0.000000
  70
    32
  0
VERTEX
  8
S-OBRYS
  5
66730
 10
52930.1
 20
426785.
 30
0.000000
  70
    32
  0
VERTEX
  8
S-OBRYS
  5
66731
 10
52930.0
 20
426785.
 30
0.000000
  70
    32
  0
VERTEX
  8
S-OBRYS
  5
66732
 10
52929.9
 20
426785.
 30
0.000000
  70
    32
  0
VERTEX
  8
S-OBRYS
  5
66733
 10
52929.8
 20
426785.
 30
0.000000
  70
    32
  0
VERTEX
  8
S-OBRYS
  5
66734
 10
52929.7
 20
426785.
 30
0.000000
  70
    32
  0
VERTEX
  8
S-OBRYS
  5
66735
 10
52929.6
 20
426785.
 30
0.000000
  70
    32
  0
VERTEX
  8
S-OBRYS
  5
66736
 10
52929.5
 20
426785.
 30
0.000000
  70
    32
  0
VERTEX
  8
S-OBRYS
  5
66737
 10
52929.4
 20
426785.
 30
0.000000
  70
    32
  0
VERTEX
  8
S-OBRYS
  5
66738
 10
52929.3
 20
426785.
 30
0.000000
  70
    32
  0
VERTEX
  8
S-OBRYS
  5
66739
 10
52929.2
 20
426785.
 30
0.000000
  70
    32
  0
VERTEX
  8
S-OBRYS
  5
6673A
 10
52929.0
 20
426784.
 30
0.000000
  70
    32
  0
VERTEX
  8
S-OBRYS
  5
6673B
 10
52928.9
 20
426784.
 30
0.000000
  70
    32
  0
VERTEX
  8
S-OBRYS
  5
6673C
 10
52928.8
 20
426784.
 30
0.000000
  70
    32
  0
VERTEX
  8
S-OBRYS
  5
6673D
 10
52928.7
 20
426784.
 30
0.000000
  70
    32
  0
VERTEX
  8
S-OBRYS
  5
6673E
 10
52928.6
 20
426784.
 30
0.000000
  70
    32
  0
VERTEX
  8
S-OBRYS
  5
6673F
 10
52928.5
 20
426784.
 30
0.000000
  70
    32
  0
VERTEX
  8
S-OBRYS
  5
66740
 10
52928.4
 20
426784.
 30
0.000000
  70
    32
  0
VERTEX
  8
S-OBRYS
  5
66741
 10
52928.3
 20
426784.
 30
0.000000
  70
    32
  0
VERTEX
  8
S-OBRYS
  5
66742
 10
52928.2
 20
426784.
 30
0.000000
  70
    32
  0
VERTEX
  8
S-OBRYS
  5
66743
 10
52928.1
 20
426784.
 30
0.000000
  70
    32
  0
VERTEX
  8
S-OBRYS
  5
66744
 10
52928.0
 20
426784.
 30
0.000000
  70
    32
  0
SEQEND
  8
S-OBRYS
  5
66745
  0
POLYLINE
  8
S-OBRYS
  5
66746
  66
     1
 10
0.000000
 20
0.000000
 30
0.000000
  70
     8
  0
VERTEX
  8
S-OBRYS
  5
66747
 10
52976.6
 20
426789.
 30
0.000000
  70
    32
  0
VERTEX
  8
S-OBRYS
  5
66748
 10
52976.4
 20
426789.
 30
0.000000
  70
    32
  0
VERTEX
  8
S-OBRYS
  5
66749
 10
52976.3
 20
426789.
 30
0.000000
  70
    32
  0
VERTEX
  8
S-OBRYS
  5
6674A
 10
52976.2
 20
426789.
 30
0.000000
  70
    32
  0
VERTEX
  8
S-OBRYS
  5
6674B
 10
52976.1
 20
426789.
 30
0.000000
  70
    32
  0
VERTEX
  8
S-OBRYS
  5
6674C
 10
52976.0
 20
426789.
 30
0.000000
  70
    32
  0
VERTEX
  8
S-OBRYS
  5
6674D
 10
52975.9
 20
426789.
 30
0.000000
  70
    32
  0
VERTEX
  8
S-OBRYS
  5
6674E
 10
52975.8
 20
426789.
 30
0.000000
  70
    32
  0
VERTEX
  8
S-OBRYS
  5
6674F
 10
52975.7
 20
426789.
 30
0.000000
  70
    32
  0
VERTEX
  8
S-OBRYS
  5
66750
 10
52975.5
 20
426788.
 30
0.000000
  70
    32
  0
VERTEX
  8
S-OBRYS
  5
66751
 10
52975.4
 20
426788.
 30
0.000000
  70
    32
  0
VERTEX
  8
S-OBRYS
  5
66752
 10
52975.3
 20
426788.
 30
0.000000
  70
    32
  0
VERTEX
  8
S-OBRYS
  5
66753
 10
52975.2
 20
426788.
 30
0.000000
  70
    32
  0
VERTEX
  8
S-OBRYS
  5
66754
 10
52975.1
 20
426788.
 30
0.000000
  70
    32
  0
VERTEX
  8
S-OBRYS
  5
66755
 10
52975.0
 20
426788.
 30
0.000000
  70
    32
  0
VERTEX
  8
S-OBRYS
  5
66756
 10
52974.9
 20
426788.
 30
0.000000
  70
    32
  0
VERTEX
  8
S-OBRYS
  5
66757
 10
52974.7
 20
426788.
 30
0.000000
  70
    32
  0
VERTEX
  8
S-OBRYS
  5
66758
 10
52974.6
 20
426788.
 30
0.000000
  70
    32
  0
VERTEX
  8
S-OBRYS
  5
66759
 10
52974.5
 20
426788.
 30
0.000000
  70
    32
  0
VERTEX
  8
S-OBRYS
  5
6675A
 10
52974.4
 20
426788.
 30
0.000000
  70
    32
  0
VERTEX
  8
S-OBRYS
  5
6675B
 10
52974.3
 20
426787.
 30
0.000000
  70
    32
  0
VERTEX
  8
S-OBRYS
  5
6675C
 10
52974.2
 20
426787.
 30
0.000000
  70
    32
  0
VERTEX
  8
S-OBRYS
  5
6675D
 10
52974.1
 20
426787.
 30
0.000000
  70
    32
  0
VERTEX
  8
S-OBRYS
  5
6675E
 10
52973.9
 20
426787.
 30
0.000000
  70
    32
  0
VERTEX
  8
S-OBRYS
  5
6675F
 10
52973.8
 20
426787.
 30
0.000000
  70
    32
  0
VERTEX
  8
S-OBRYS
  5
66760
 10
52973.7
 20
426787.
 30
0.000000
  70
    32
  0
VERTEX
  8
S-OBRYS
  5
66761
 10
52973.6
 20
426787.
 30
0.000000
  70
    32
  0
VERTEX
  8
S-OBRYS
  5
66762
 10
52973.5
 20
426787.
 30
0.000000
  70
    32
  0
VERTEX
  8
S-OBRYS
  5
66763
 10
52973.4
 20
426787.
 30
0.000000
  70
    32
  0
VERTEX
  8
S-OBRYS
  5
66764
 10
52973.2
 20
426787.
 30
0.000000
  70
    32
  0
VERTEX
  8
S-OBRYS
  5
66765
 10
52973.1
 20
426787.
 30
0.000000
  70
    32
  0
VERTEX
  8
S-OBRYS
  5
66766
 10
52973.0
 20
426787.
 30
0.000000
  70
    32
  0
VERTEX
  8
S-OBRYS
  5
66767
 10
52972.9
 20
426787.
 30
0.000000
  70
    32
  0
VERTEX
  8
S-OBRYS
  5
66768
 10
52972.8
 20
426787.
 30
0.000000
  70
    32
  0
VERTEX
  8
S-OBRYS
  5
66769
 10
52972.6
 20
426787.
 30
0.000000
  70
    32
  0
VERTEX
  8
S-OBRYS
  5
6676A
 10
52972.5
 20
426787.
 30
0.000000
  70
    32
  0
VERTEX
  8
S-OBRYS
  5
6676B
 10
52972.4
 20
426787.
 30
0.000000
  70
    32
  0
VERTEX
  8
S-OBRYS
  5
6676C
 10
52972.3
 20
426787.
 30
0.000000
  70
    32
  0
VERTEX
  8
S-OBRYS
  5
6676D
 10
52972.2
 20
426787.
 30
0.000000
  70
    32
  0
VERTEX
  8
S-OBRYS
  5
6676E
 10
52972.0
 20
426787.
 30
0.000000
  70
    32
  0
VERTEX
  8
S-OBRYS
  5
6676F
 10
52971.9
 20
426787.
 30
0.000000
  70
    32
  0
VERTEX
  8
S-OBRYS
  5
66770
 10
52971.8
 20
426787.
 30
0.000000
  70
    32
  0
VERTEX
  8
S-OBRYS
  5
66771
 10
52971.7
 20
426787.
 30
0.000000
  70
    32
  0
VERTEX
  8
S-OBRYS
  5
66772
 10
52971.5
 20
426787.
 30
0.000000
  70
    32
  0
VERTEX
  8
S-OBRYS
  5
66773
 10
52971.4
 20
426787.
 30
0.000000
  70
    32
  0
VERTEX
  8
S-OBRYS
  5
66774
 10
52971.3
 20
426787.
 30
0.000000
  70
    32
  0
VERTEX
  8
S-OBRYS
  5
66775
 10
52971.1
 20
426787.
 30
0.000000
  70
    32
  0
VERTEX
  8
S-OBRYS
  5
66776
 10
52971.0
 20
426787.
 30
0.000000
  70
    32
  0
VERTEX
  8
S-OBRYS
  5
66777
 10
52970.9
 20
426787.
 30
0.000000
  70
    32
  0
VERTEX
  8
S-OBRYS
  5
66778
 10
52970.8
 20
426787.
 30
0.000000
  70
    32
  0
VERTEX
  8
S-OBRYS
  5
66779
 10
52970.6
 20
426787.
 30
0.000000
  70
    32
  0
VERTEX
  8
S-OBRYS
  5
6677A
 10
52970.5
 20
426787.
 30
0.000000
  70
    32
  0
VERTEX
  8
S-OBRYS
  5
6677B
 10
52970.4
 20
426787.
 30
0.000000
  70
    32
  0
VERTEX
  8
S-OBRYS
  5
6677C
 10
52970.2
 20
426787.
 30
0.000000
  70
    32
  0
VERTEX
  8
S-OBRYS
  5
6677D
 10
52970.1
 20
426787.
 30
0.000000
  70
    32
  0
VERTEX
  8
S-OBRYS
  5
6677E
 10
52970.0
 20
426787.
 30
0.000000
  70
    32
  0
VERTEX
  8
S-OBRYS
  5
6677F
 10
52969.9
 20
426787.
 30
0.000000
  70
    32
  0
VERTEX
  8
S-OBRYS
  5
66780
 10
52969.7
 20
426787.
 30
0.000000
  70
    32
  0
VERTEX
  8
S-OBRYS
  5
66781
 10
52969.6
 20
426787.
 30
0.000000
  70
    32
  0
VERTEX
  8
S-OBRYS
  5
66782
 10
52969.5
 20
426787.
 30
0.000000
  70
    32
  0
VERTEX
  8
S-OBRYS
  5
66783
 10
52969.3
 20
426788.
 30
0.000000
  70
    32
  0
VERTEX
  8
S-OBRYS
  5
66784
 10
52969.2
 20
426788.
 30
0.000000
  70
    32
  0
VERTEX
  8
S-OBRYS
  5
66785
 10
52969.1
 20
426788.
 30
0.000000
  70
    32
  0
VERTEX
  8
S-OBRYS
  5
66786
 10
52969.0
 20
426788.
 30
0.000000
  70
    32
  0
VERTEX
  8
S-OBRYS
  5
66787
 10
52968.9
 20
426788.
 30
0.000000
  70
    32
  0
VERTEX
  8
S-OBRYS
  5
66788
 10
52968.7
 20
426788.
 30
0.000000
  70
    32
  0
VERTEX
  8
S-OBRYS
  5
66789
 10
52968.6
 20
426788.
 30
0.000000
  70
    32
  0
VERTEX
  8
S-OBRYS
  5
6678A
 10
52968.5
 20
426788.
 30
0.000000
  70
    32
  0
VERTEX
  8
S-OBRYS
  5
6678B
 10
52968.4
 20
426788.
 30
0.000000
  70
    32
  0
VERTEX
  8
S-OBRYS
  5
6678C
 10
52968.3
 20
426788.
 30
0.000000
  70
    32
  0
VERTEX
  8
S-OBRYS
  5
6678D
 10
52968.1
 20
426788.
 30
0.000000
  70
    32
  0
VERTEX
  8
S-OBRYS
  5
6678E
 10
52968.0
 20
426788.
 30
0.000000
  70
    32
  0
VERTEX
  8
S-OBRYS
  5
6678F
 10
52967.9
 20
426788.
 30
0.000000
  70
    32
  0
VERTEX
  8
S-OBRYS
  5
66790
 10
52967.8
 20
426788.
 30
0.000000
  70
    32
  0
VERTEX
  8
S-OBRYS
  5
66791
 10
52967.7
 20
426788.
 30
0.000000
  70
    32
  0
VERTEX
  8
S-OBRYS
  5
66792
 10
52967.6
 20
426788.
 30
0.000000
  70
    32
  0
VERTEX
  8
S-OBRYS
  5
66793
 10
52967.5
 20
426788.
 30
0.000000
  70
    32
  0
VERTEX
  8
S-OBRYS
  5
66794
 10
52967.4
 20
426788.
 30
0.000000
  70
    32
  0
VERTEX
  8
S-OBRYS
  5
66795
 10
52967.3
 20
426787.
 30
0.000000
  70
    32
  0
VERTEX
  8
S-OBRYS
  5
66796
 10
52967.2
 20
426787.
 30
0.000000
  70
    32
  0
VERTEX
  8
S-OBRYS
  5
66797
 10
52967.1
 20
426787.
 30
0.000000
  70
    32
  0
VERTEX
  8
S-OBRYS
  5
66798
 10
52967.0
 20
426787.
 30
0.000000
  70
    32
  0
VERTEX
  8
S-OBRYS
  5
66799
 10
52966.9
 20
426787.
 30
0.000000
  70
    32
  0
VERTEX
  8
S-OBRYS
  5
6679A
 10
52966.8
 20
426787.
 30
0.000000
  70
    32
  0
VERTEX
  8
S-OBRYS
  5
6679B
 10
52966.7
 20
426787.
 30
0.000000
  70
    32
  0
VERTEX
  8
S-OBRYS
  5
6679C
 10
52966.7
 20
426787.
 30
0.000000
  70
    32
  0
VERTEX
  8
S-OBRYS
  5
6679D
 10
52966.6
 20
426787.
 30
0.000000
  70
    32
  0
VERTEX
  8
S-OBRYS
  5
6679E
 10
52966.5
 20
426787.
 30
0.000000
  70
    32
  0
VERTEX
  8
S-OBRYS
  5
6679F
 10
52966.4
 20
426786.
 30
0.000000
  70
    32
  0
VERTEX
  8
S-OBRYS
  5
667A0
 10
52966.3
 20
426786.
 30
0.000000
  70
    32
  0
VERTEX
  8
S-OBRYS
  5
667A1
 10
52966.2
 20
426786.
 30
0.000000
  70
    32
  0
VERTEX
  8
S-OBRYS
  5
667A2
 10
52966.1
 20
426786.
 30
0.000000
  70
    32
  0
VERTEX
  8
S-OBRYS
  5
667A3
 10
52966.0
 20
426786.
 30
0.000000
  70
    32
  0
VERTEX
  8
S-OBRYS
  5
667A4
 10
52965.9
 20
426786.
 30
0.000000
  70
    32
  0
VERTEX
  8
S-OBRYS
  5
667A5
 10
52965.8
 20
426786.
 30
0.000000
  70
    32
  0
VERTEX
  8
S-OBRYS
  5
667A6
 10
52965.7
 20
426786.
 30
0.000000
  70
    32
  0
VERTEX
  8
S-OBRYS
  5
667A7
 10
52965.6
 20
426786.
 30
0.000000
  70
    32
  0
VERTEX
  8
S-OBRYS
  5
667A8
 10
52965.6
 20
426785.
 30
0.000000
  70
    32
  0
VERTEX
  8
S-OBRYS
  5
667A9
 10
52965.5
 20
426785.
 30
0.000000
  70
    32
  0
VERTEX
  8
S-OBRYS
  5
667AA
 10
52965.4
 20
426785.
 30
0.000000
  70
    32
  0
VERTEX
  8
S-OBRYS
  5
667AB
 10
52965.3
 20
426785.
 30
0.000000
  70
    32
  0
VERTEX
  8
S-OBRYS
  5
667AC
 10
52965.2
 20
426785.
 30
0.000000
  70
    32
  0
VERTEX
  8
S-OBRYS
  5
667AD
 10
52965.1
 20
426785.
 30
0.000000
  70
    32
  0
VERTEX
  8
S-OBRYS
  5
667AE
 10
52965.0
 20
426785.
 30
0.000000
  70
    32
  0
VERTEX
  8
S-OBRYS
  5
667AF
 10
52964.9
 20
426785.
 30
0.000000
  70
    32
  0
VERTEX
  8
S-OBRYS
  5
667B0
 10
52964.8
 20
426785.
 30
0.000000
  70
    32
  0
VERTEX
  8
S-OBRYS
  5
667B1
 10
52964.7
 20
426785.
 30
0.000000
  70
    32
  0
VERTEX
  8
S-OBRYS
  5
667B2
 10
52964.5
 20
426785.
 30
0.000000
  70
    32
  0
VERTEX
  8
S-OBRYS
  5
667B3
 10
52964.4
 20
426785.
 30
0.000000
  70
    32
  0
VERTEX
  8
S-OBRYS
  5
667B4
 10
52964.3
 20
426785.
 30
0.000000
  70
    32
  0
VERTEX
  8
S-OBRYS
  5
667B5
 10
52964.2
 20
426785.
 30
0.000000
  70
    32
  0
VERTEX
  8
S-OBRYS
  5
667B6
 10
52964.1
 20
426785.
 30
0.000000
  70
    32
  0
VERTEX
  8
S-OBRYS
  5
667B7
 10
52964.0
 20
426785.
 30
0.000000
  70
    32
  0
VERTEX
  8
S-OBRYS
  5
667B8
 10
52963.9
 20
426785.
 30
0.000000
  70
    32
  0
VERTEX
  8
S-OBRYS
  5
667B9
 10
52963.7
 20
426785.
 30
0.000000
  70
    32
  0
VERTEX
  8
S-OBRYS
  5
667BA
 10
52963.6
 20
426785.
 30
0.000000
  70
    32
  0
VERTEX
  8
S-OBRYS
  5
667BB
 10
52963.5
 20
426785.
 30
0.000000
  70
    32
  0
VERTEX
  8
S-OBRYS
  5
667BC
 10
52963.4
 20
426785.
 30
0.000000
  70
    32
  0
VERTEX
  8
S-OBRYS
  5
667BD
 10
52963.2
 20
426785.
 30
0.000000
  70
    32
  0
VERTEX
  8
S-OBRYS
  5
667BE
 10
52963.1
 20
426785.
 30
0.000000
  70
    32
  0
VERTEX
  8
S-OBRYS
  5
667BF
 10
52963.0
 20
426785.
 30
0.000000
  70
    32
  0
VERTEX
  8
S-OBRYS
  5
667C0
 10
52962.8
 20
426785.
 30
0.000000
  70
    32
  0
VERTEX
  8
S-OBRYS
  5
667C1
 10
52962.7
 20
426785.
 30
0.000000
  70
    32
  0
VERTEX
  8
S-OBRYS
  5
667C2
 10
52962.6
 20
426785.
 30
0.000000
  70
    32
  0
VERTEX
  8
S-OBRYS
  5
667C3
 10
52962.4
 20
426785.
 30
0.000000
  70
    32
  0
VERTEX
  8
S-OBRYS
  5
667C4
 10
52962.3
 20
426785.
 30
0.000000
  70
    32
  0
VERTEX
  8
S-OBRYS
  5
667C5
 10
52962.2
 20
426785.
 30
0.000000
  70
    32
  0
VERTEX
  8
S-OBRYS
  5
667C6
 10
52962.0
 20
426785.
 30
0.000000
  70
    32
  0
VERTEX
  8
S-OBRYS
  5
667C7
 10
52961.9
 20
426785.
 30
0.000000
  70
    32
  0
VERTEX
  8
S-OBRYS
  5
667C8
 10
52961.8
 20
426785.
 30
0.000000
  70
    32
  0
VERTEX
  8
S-OBRYS
  5
667C9
 10
52961.6
 20
426785.
 30
0.000000
  70
    32
  0
VERTEX
  8
S-OBRYS
  5
667CA
 10
52961.5
 20
426785.
 30
0.000000
  70
    32
  0
VERTEX
  8
S-OBRYS
  5
667CB
 10
52961.4
 20
426785.
 30
0.000000
  70
    32
  0
VERTEX
  8
S-OBRYS
  5
667CC
 10
52961.2
 20
426786.
 30
0.000000
  70
    32
  0
VERTEX
  8
S-OBRYS
  5
667CD
 10
52961.1
 20
426786.
 30
0.000000
  70
    32
  0
VERTEX
  8
S-OBRYS
  5
667CE
 10
52961.0
 20
426786.
 30
0.000000
  70
    32
  0
VERTEX
  8
S-OBRYS
  5
667CF
 10
52960.8
 20
426786.
 30
0.000000
  70
    32
  0
VERTEX
  8
S-OBRYS
  5
667D0
 10
52960.7
 20
426786.
 30
0.000000
  70
    32
  0
VERTEX
  8
S-OBRYS
  5
667D1
 10
52960.6
 20
426786.
 30
0.000000
  70
    32
  0
VERTEX
  8
S-OBRYS
  5
667D2
 10
52960.5
 20
426786.
 30
0.000000
  70
    32
  0
VERTEX
  8
S-OBRYS
  5
667D3
 10
52960.3
 20
426786.
 30
0.000000
  70
    32
  0
VERTEX
  8
S-OBRYS
  5
667D4
 10
52960.2
 20
426786.
 30
0.000000
  70
    32
  0
VERTEX
  8
S-OBRYS
  5
667D5
 10
52960.1
 20
426786.
 30
0.000000
  70
    32
  0
VERTEX
  8
S-OBRYS
  5
667D6
 10
52960.0
 20
426786.
 30
0.000000
  70
    32
  0
VERTEX
  8
S-OBRYS
  5
667D7
 10
52959.8
 20
426786.
 30
0.000000
  70
    32
  0
VERTEX
  8
S-OBRYS
  5
667D8
 10
52959.7
 20
426786.
 30
0.000000
  70
    32
  0
VERTEX
  8
S-OBRYS
  5
667D9
 10
52959.6
 20
426786.
 30
0.000000
  70
    32
  0
VERTEX
  8
S-OBRYS
  5
667DA
 10
52959.5
 20
426786.
 30
0.000000
  70
    32
  0
VERTEX
  8
S-OBRYS
  5
667DB
 10
52959.4
 20
426786.
 30
0.000000
  70
    32
  0
VERTEX
  8
S-OBRYS
  5
667DC
 10
52959.3
 20
426786.
 30
0.000000
  70
    32
  0
VERTEX
  8
S-OBRYS
  5
667DD
 10
52959.2
 20
426786.
 30
0.000000
  70
    32
  0
VERTEX
  8
S-OBRYS
  5
667DE
 10
52959.1
 20
426786.
 30
0.000000
  70
    32
  0
VERTEX
  8
S-OBRYS
  5
667DF
 10
52959.0
 20
426786.
 30
0.000000
  70
    32
  0
VERTEX
  8
S-OBRYS
  5
667E0
 10
52958.9
 20
426786.
 30
0.000000
  70
    32
  0
VERTEX
  8
S-OBRYS
  5
667E1
 10
52958.8
 20
426786.
 30
0.000000
  70
    32
  0
VERTEX
  8
S-OBRYS
  5
667E2
 10
52958.7
 20
426786.
 30
0.000000
  70
    32
  0
VERTEX
  8
S-OBRYS
  5
667E3
 10
52958.6
 20
426786.
 30
0.000000
  70
    32
  0
VERTEX
  8
S-OBRYS
  5
667E4
 10
52958.5
 20
426786.
 30
0.000000
  70
    32
  0
VERTEX
  8
S-OBRYS
  5
667E5
 10
52958.4
 20
426785.
 30
0.000000
  70
    32
  0
VERTEX
  8
S-OBRYS
  5
667E6
 10
52958.3
 20
426785.
 30
0.000000
  70
    32
  0
VERTEX
  8
S-OBRYS
  5
667E7
 10
52958.2
 20
426785.
 30
0.000000
  70
    32
  0
VERTEX
  8
S-OBRYS
  5
667E8
 10
52958.2
 20
426785.
 30
0.000000
  70
    32
  0
VERTEX
  8
S-OBRYS
  5
667E9
 10
52958.1
 20
426785.
 30
0.000000
  70
    32
  0
VERTEX
  8
S-OBRYS
  5
667EA
 10
52958.0
 20
426785.
 30
0.000000
  70
    32
  0
VERTEX
  8
S-OBRYS
  5
667EB
 10
52957.9
 20
426785.
 30
0.000000
  70
    32
  0
VERTEX
  8
S-OBRYS
  5
667EC
 10
52957.8
 20
426785.
 30
0.000000
  70
    32
  0
VERTEX
  8
S-OBRYS
  5
667ED
 10
52957.7
 20
426785.
 30
0.000000
  70
    32
  0
VERTEX
  8
S-OBRYS
  5
667EE
 10
52957.7
 20
426785.
 30
0.000000
  70
    32
  0
VERTEX
  8
S-OBRYS
  5
667EF
 10
52957.6
 20
426784.
 30
0.000000
  70
    32
  0
VERTEX
  8
S-OBRYS
  5
667F0
 10
52957.5
 20
426784.
 30
0.000000
  70
    32
  0
VERTEX
  8
S-OBRYS
  5
667F1
 10
52957.4
 20
426784.
 30
0.000000
  70
    32
  0
VERTEX
  8
S-OBRYS
  5
667F2
 10
52957.3
 20
426784.
 30
0.000000
  70
    32
  0
VERTEX
  8
S-OBRYS
  5
667F3
 10
52957.3
 20
426784.
 30
0.000000
  70
    32
  0
VERTEX
  8
S-OBRYS
  5
667F4
 10
52957.2
 20
426784.
 30
0.000000
  70
    32
  0
VERTEX
  8
S-OBRYS
  5
667F5
 10
52957.1
 20
426784.
 30
0.000000
  70
    32
  0
VERTEX
  8
S-OBRYS
  5
667F6
 10
52957.0
 20
426784.
 30
0.000000
  70
    32
  0
VERTEX
  8
S-OBRYS
  5
667F7
 10
52956.9
 20
426783.
 30
0.000000
  70
    32
  0
VERTEX
  8
S-OBRYS
  5
667F8
 10
52956.9
 20
426783.
 30
0.000000
  70
    32
  0
VERTEX
  8
S-OBRYS
  5
667F9
 10
52956.8
 20
426783.
 30
0.000000
  70
    32
  0
VERTEX
  8
S-OBRYS
  5
667FA
 10
52956.7
 20
426783.
 30
0.000000
  70
    32
  0
VERTEX
  8
S-OBRYS
  5
667FB
 10
52956.6
 20
426783.
 30
0.000000
  70
    32
  0
VERTEX
  8
S-OBRYS
  5
667FC
 10
52956.5
 20
426783.
 30
0.000000
  70
    32
  0
VERTEX
  8
S-OBRYS
  5
667FD
 10
52956.4
 20
426783.
 30
0.000000
  70
    32
  0
VERTEX
  8
S-OBRYS
  5
667FE
 10
52956.3
 20
426783.
 30
0.000000
  70
    32
  0
VERTEX
  8
S-OBRYS
  5
667FF
 10
52956.2
 20
426783.
 30
0.000000
  70
    32
  0
VERTEX
  8
S-OBRYS
  5
66800
 10
52956.1
 20
426782.
 30
0.000000
  70
    32
  0
VERTEX
  8
S-OBRYS
  5
66801
 10
52956.0
 20
426782.
 30
0.000000
  70
    32
  0
VERTEX
  8
S-OBRYS
  5
66802
 10
52955.9
 20
426782.
 30
0.000000
  70
    32
  0
VERTEX
  8
S-OBRYS
  5
66803
 10
52955.8
 20
426782.
 30
0.000000
  70
    32
  0
VERTEX
  8
S-OBRYS
  5
66804
 10
52955.7
 20
426782.
 30
0.000000
  70
    32
  0
VERTEX
  8
S-OBRYS
  5
66805
 10
52955.6
 20
426782.
 30
0.000000
  70
    32
  0
VERTEX
  8
S-OBRYS
  5
66806
 10
52955.5
 20
426782.
 30
0.000000
  70
    32
  0
VERTEX
  8
S-OBRYS
  5
66807
 10
52955.4
 20
426782.
 30
0.000000
  70
    32
  0
VERTEX
  8
S-OBRYS
  5
66808
 10
52955.3
 20
426782.
 30
0.000000
  70
    32
  0
VERTEX
  8
S-OBRYS
  5
66809
 10
52955.2
 20
426782.
 30
0.000000
  70
    32
  0
VERTEX
  8
S-OBRYS
  5
6680A
 10
52955.1
 20
426782.
 30
0.000000
  70
    32
  0
VERTEX
  8
S-OBRYS
  5
6680B
 10
52954.9
 20
426782.
 30
0.000000
  70
    32
  0
VERTEX
  8
S-OBRYS
  5
6680C
 10
52954.8
 20
426782.
 30
0.000000
  70
    32
  0
VERTEX
  8
S-OBRYS
  5
6680D
 10
52954.7
 20
426782.
 30
0.000000
  70
    32
  0
VERTEX
  8
S-OBRYS
  5
6680E
 10
52954.6
 20
426782.
 30
0.000000
  70
    32
  0
VERTEX
  8
S-OBRYS
  5
6680F
 10
52954.5
 20
426782.
 30
0.000000
  70
    32
  0
VERTEX
  8
S-OBRYS
  5
66810
 10
52954.3
 20
426782.
 30
0.000000
  70
    32
  0
VERTEX
  8
S-OBRYS
  5
66811
 10
52954.2
 20
426782.
 30
0.000000
  70
    32
  0
VERTEX
  8
S-OBRYS
  5
66812
 10
52954.1
 20
426782.
 30
0.000000
  70
    32
  0
VERTEX
  8
S-OBRYS
  5
66813
 10
52953.9
 20
426782.
 30
0.000000
  70
    32
  0
VERTEX
  8
S-OBRYS
  5
66814
 10
52953.8
 20
426782.
 30
0.000000
  70
    32
  0
VERTEX
  8
S-OBRYS
  5
66815
 10
52953.7
 20
426782.
 30
0.000000
  70
    32
  0
VERTEX
  8
S-OBRYS
  5
66816
 10
52953.6
 20
426782.
 30
0.000000
  70
    32
  0
VERTEX
  8
S-OBRYS
  5
66817
 10
52953.4
 20
426782.
 30
0.000000
  70
    32
  0
VERTEX
  8
S-OBRYS
  5
66818
 10
52953.3
 20
426782.
 30
0.000000
  70
    32
  0
VERTEX
  8
S-OBRYS
  5
66819
 10
52953.1
 20
426782.
 30
0.000000
  70
    32
  0
VERTEX
  8
S-OBRYS
  5
6681A
 10
52953.0
 20
426782.
 30
0.000000
  70
    32
  0
VERTEX
  8
S-OBRYS
  5
6681B
 10
52952.9
 20
426782.
 30
0.000000
  70
    32
  0
VERTEX
  8
S-OBRYS
  5
6681C
 10
52952.7
 20
426782.
 30
0.000000
  70
    32
  0
VERTEX
  8
S-OBRYS
  5
6681D
 10
52952.6
 20
426782.
 30
0.000000
  70
    32
  0
VERTEX
  8
S-OBRYS
  5
6681E
 10
52952.5
 20
426782.
 30
0.000000
  70
    32
  0
VERTEX
  8
S-OBRYS
  5
6681F
 10
52952.3
 20
426782.
 30
0.000000
  70
    32
  0
VERTEX
  8
S-OBRYS
  5
66820
 10
52952.2
 20
426782.
 30
0.000000
  70
    32
  0
VERTEX
  8
S-OBRYS
  5
66821
 10
52952.0
 20
426782.
 30
0.000000
  70
    32
  0
VERTEX
  8
S-OBRYS
  5
66822
 10
52951.9
 20
426782.
 30
0.000000
  70
    32
  0
VERTEX
  8
S-OBRYS
  5
66823
 10
52951.8
 20
426782.
 30
0.000000
  70
    32
  0
VERTEX
  8
S-OBRYS
  5
66824
 10
52951.6
 20
426782.
 30
0.000000
  70
    32
  0
VERTEX
  8
S-OBRYS
  5
66825
 10
52951.5
 20
426782.
 30
0.000000
  70
    32
  0
VERTEX
  8
S-OBRYS
  5
66826
 10
52951.3
 20
426782.
 30
0.000000
  70
    32
  0
VERTEX
  8
S-OBRYS
  5
66827
 10
52951.2
 20
426782.
 30
0.000000
  70
    32
  0
VERTEX
  8
S-OBRYS
  5
66828
 10
52951.0
 20
426783.
 30
0.000000
  70
    32
  0
VERTEX
  8
S-OBRYS
  5
66829
 10
52950.9
 20
426783.
 30
0.000000
  70
    32
  0
VERTEX
  8
S-OBRYS
  5
6682A
 10
52950.8
 20
426783.
 30
0.000000
  70
    32
  0
VERTEX
  8
S-OBRYS
  5
6682B
 10
52950.6
 20
426783.
 30
0.000000
  70
    32
  0
VERTEX
  8
S-OBRYS
  5
6682C
 10
52950.5
 20
426783.
 30
0.000000
  70
    32
  0
VERTEX
  8
S-OBRYS
  5
6682D
 10
52950.3
 20
426783.
 30
0.000000
  70
    32
  0
VERTEX
  8
S-OBRYS
  5
6682E
 10
52950.2
 20
426783.
 30
0.000000
  70
    32
  0
VERTEX
  8
S-OBRYS
  5
6682F
 10
52950.1
 20
426783.
 30
0.000000
  70
    32
  0
VERTEX
  8
S-OBRYS
  5
66830
 10
52949.9
 20
426783.
 30
0.000000
  70
    32
  0
VERTEX
  8
S-OBRYS
  5
66831
 10
52949.8
 20
426783.
 30
0.000000
  70
    32
  0
VERTEX
  8
S-OBRYS
  5
66832
 10
52949.6
 20
426783.
 30
0.000000
  70
    32
  0
VERTEX
  8
S-OBRYS
  5
66833
 10
52949.5
 20
426783.
 30
0.000000
  70
    32
  0
VERTEX
  8
S-OBRYS
  5
66834
 10
52949.4
 20
426783.
 30
0.000000
  70
    32
  0
VERTEX
  8
S-OBRYS
  5
66835
 10
52949.2
 20
426783.
 30
0.000000
  70
    32
  0
VERTEX
  8
S-OBRYS
  5
66836
 10
52949.1
 20
426783.
 30
0.000000
  70
    32
  0
VERTEX
  8
S-OBRYS
  5
66837
 10
52949.0
 20
426783.
 30
0.000000
  70
    32
  0
VERTEX
  8
S-OBRYS
  5
66838
 10
52948.8
 20
426783.
 30
0.000000
  70
    32
  0
VERTEX
  8
S-OBRYS
  5
66839
 10
52948.7
 20
426783.
 30
0.000000
  70
    32
  0
VERTEX
  8
S-OBRYS
  5
6683A
 10
52948.6
 20
426783.
 30
0.000000
  70
    32
  0
VERTEX
  8
S-OBRYS
  5
6683B
 10
52948.4
 20
426783.
 30
0.000000
  70
    32
  0
VERTEX
  8
S-OBRYS
  5
6683C
 10
52948.3
 20
426783.
 30
0.000000
  70
    32
  0
VERTEX
  8
S-OBRYS
  5
6683D
 10
52948.2
 20
426783.
 30
0.000000
  70
    32
  0
VERTEX
  8
S-OBRYS
  5
6683E
 10
52948.1
 20
426783.
 30
0.000000
  70
    32
  0
VERTEX
  8
S-OBRYS
  5
6683F
 10
52947.9
 20
426783.
 30
0.000000
  70
    32
  0
VERTEX
  8
S-OBRYS
  5
66840
 10
52947.8
 20
426783.
 30
0.000000
  70
    32
  0
VERTEX
  8
S-OBRYS
  5
66841
 10
52947.7
 20
426783.
 30
0.000000
  70
    32
  0
VERTEX
  8
S-OBRYS
  5
66842
 10
52947.6
 20
426783.
 30
0.000000
  70
    32
  0
VERTEX
  8
S-OBRYS
  5
66843
 10
52947.5
 20
426783.
 30
0.000000
  70
    32
  0
VERTEX
  8
S-OBRYS
  5
66844
 10
52947.3
 20
426783.
 30
0.000000
  70
    32
  0
VERTEX
  8
S-OBRYS
  5
66845
 10
52947.2
 20
426782.
 30
0.000000
  70
    32
  0
VERTEX
  8
S-OBRYS
  5
66846
 10
52947.1
 20
426782.
 30
0.000000
  70
    32
  0
VERTEX
  8
S-OBRYS
  5
66847
 10
52947.0
 20
426782.
 30
0.000000
  70
    32
  0
VERTEX
  8
S-OBRYS
  5
66848
 10
52946.9
 20
426782.
 30
0.000000
  70
    32
  0
VERTEX
  8
S-OBRYS
  5
66849
 10
52946.8
 20
426782.
 30
0.000000
  70
    32
  0
VERTEX
  8
S-OBRYS
  5
6684A
 10
52946.7
 20
426782.
 30
0.000000
  70
    32
  0
VERTEX
  8
S-OBRYS
  5
6684B
 10
52946.5
 20
426782.
 30
0.000000
  70
    32
  0
VERTEX
  8
S-OBRYS
  5
6684C
 10
52946.4
 20
426782.
 30
0.000000
  70
    32
  0
VERTEX
  8
S-OBRYS
  5
6684D
 10
52946.3
 20
426782.
 30
0.000000
  70
    32
  0
VERTEX
  8
S-OBRYS
  5
6684E
 10
52946.2
 20
426782.
 30
0.000000
  70
    32
  0
VERTEX
  8
S-OBRYS
  5
6684F
 10
52946.1
 20
426782.
 30
0.000000
  70
    32
  0
VERTEX
  8
S-OBRYS
  5
66850
 10
52946.0
 20
426782.
 30
0.000000
  70
    32
  0
VERTEX
  8
S-OBRYS
  5
66851
 10
52945.9
 20
426782.
 30
0.000000
  70
    32
  0
VERTEX
  8
S-OBRYS
  5
66852
 10
52945.8
 20
426782.
 30
0.000000
  70
    32
  0
VERTEX
  8
S-OBRYS
  5
66853
 10
52945.6
 20
426781.
 30
0.000000
  70
    32
  0
VERTEX
  8
S-OBRYS
  5
66854
 10
52945.5
 20
426781.
 30
0.000000
  70
    32
  0
VERTEX
  8
S-OBRYS
  5
66855
 10
52945.4
 20
426781.
 30
0.000000
  70
    32
  0
VERTEX
  8
S-OBRYS
  5
66856
 10
52945.3
 20
426781.
 30
0.000000
  70
    32
  0
VERTEX
  8
S-OBRYS
  5
66857
 10
52945.2
 20
426781.
 30
0.000000
  70
    32
  0
VERTEX
  8
S-OBRYS
  5
66858
 10
52945.1
 20
426781.
 30
0.000000
  70
    32
  0
VERTEX
  8
S-OBRYS
  5
66859
 10
52945.0
 20
426781.
 30
0.000000
  70
    32
  0
VERTEX
  8
S-OBRYS
  5
6685A
 10
52944.9
 20
426781.
 30
0.000000
  70
    32
  0
VERTEX
  8
S-OBRYS
  5
6685B
 10
52944.7
 20
426781.
 30
0.000000
  70
    32
  0
VERTEX
  8
S-OBRYS
  5
6685C
 10
52944.6
 20
426781.
 30
0.000000
  70
    32
  0
VERTEX
  8
S-OBRYS
  5
6685D
 10
52944.5
 20
426781.
 30
0.000000
  70
    32
  0
VERTEX
  8
S-OBRYS
  5
6685E
 10
52944.4
 20
426781.
 30
0.000000
  70
    32
  0
VERTEX
  8
S-OBRYS
  5
6685F
 10
52944.3
 20
426781.
 30
0.000000
  70
    32
  0
VERTEX
  8
S-OBRYS
  5
66860
 10
52944.2
 20
426781.
 30
0.000000
  70
    32
  0
VERTEX
  8
S-OBRYS
  5
66861
 10
52944.0
 20
426781.
 30
0.000000
  70
    32
  0
VERTEX
  8
S-OBRYS
  5
66862
 10
52943.9
 20
426781.
 30
0.000000
  70
    32
  0
VERTEX
  8
S-OBRYS
  5
66863
 10
52943.8
 20
426780.
 30
0.000000
  70
    32
  0
VERTEX
  8
S-OBRYS
  5
66864
 10
52943.7
 20
426780.
 30
0.000000
  70
    32
  0
VERTEX
  8
S-OBRYS
  5
66865
 10
52943.5
 20
426780.
 30
0.000000
  70
    32
  0
VERTEX
  8
S-OBRYS
  5
66866
 10
52943.4
 20
426780.
 30
0.000000
  70
    32
  0
VERTEX
  8
S-OBRYS
  5
66867
 10
52943.3
 20
426780.
 30
0.000000
  70
    32
  0
VERTEX
  8
S-OBRYS
  5
66868
 10
52943.2
 20
426780.
 30
0.000000
  70
    32
  0
VERTEX
  8
S-OBRYS
  5
66869
 10
52943.0
 20
426780.
 30
0.000000
  70
    32
  0
VERTEX
  8
S-OBRYS
  5
6686A
 10
52942.9
 20
426780.
 30
0.000000
  70
    32
  0
VERTEX
  8
S-OBRYS
  5
6686B
 10
52942.8
 20
426780.
 30
0.000000
  70
    32
  0
VERTEX
  8
S-OBRYS
  5
6686C
 10
52942.6
 20
426780.
 30
0.000000
  70
    32
  0
VERTEX
  8
S-OBRYS
  5
6686D
 10
52942.5
 20
426780.
 30
0.000000
  70
    32
  0
VERTEX
  8
S-OBRYS
  5
6686E
 10
52942.4
 20
426780.
 30
0.000000
  70
    32
  0
VERTEX
  8
S-OBRYS
  5
6686F
 10
52942.2
 20
426780.
 30
0.000000
  70
    32
  0
VERTEX
  8
S-OBRYS
  5
66870
 10
52942.1
 20
426780.
 30
0.000000
  70
    32
  0
VERTEX
  8
S-OBRYS
  5
66871
 10
52942.0
 20
426780.
 30
0.000000
  70
    32
  0
VERTEX
  8
S-OBRYS
  5
66872
 10
52941.8
 20
426780.
 30
0.000000
  70
    32
  0
VERTEX
  8
S-OBRYS
  5
66873
 10
52941.7
 20
426780.
 30
0.000000
  70
    32
  0
VERTEX
  8
S-OBRYS
  5
66874
 10
52941.5
 20
426780.
 30
0.000000
  70
    32
  0
VERTEX
  8
S-OBRYS
  5
66875
 10
52941.4
 20
426780.
 30
0.000000
  70
    32
  0
VERTEX
  8
S-OBRYS
  5
66876
 10
52941.3
 20
426780.
 30
0.000000
  70
    32
  0
VERTEX
  8
S-OBRYS
  5
66877
 10
52941.1
 20
426780.
 30
0.000000
  70
    32
  0
VERTEX
  8
S-OBRYS
  5
66878
 10
52941.0
 20
426780.
 30
0.000000
  70
    32
  0
VERTEX
  8
S-OBRYS
  5
66879
 10
52940.9
 20
426780.
 30
0.000000
  70
    32
  0
VERTEX
  8
S-OBRYS
  5
6687A
 10
52940.7
 20
426780.
 30
0.000000
  70
    32
  0
VERTEX
  8
S-OBRYS
  5
6687B
 10
52940.6
 20
426780.
 30
0.000000
  70
    32
  0
VERTEX
  8
S-OBRYS
  5
6687C
 10
52940.5
 20
426780.
 30
0.000000
  70
    32
  0
VERTEX
  8
S-OBRYS
  5
6687D
 10
52940.3
 20
426780.
 30
0.000000
  70
    32
  0
VERTEX
  8
S-OBRYS
  5
6687E
 10
52940.2
 20
426780.
 30
0.000000
  70
    32
  0
VERTEX
  8
S-OBRYS
  5
6687F
 10
52940.0
 20
426780.
 30
0.000000
  70
    32
  0
VERTEX
  8
S-OBRYS
  5
66880
 10
52939.9
 20
426780.
 30
0.000000
  70
    32
  0
VERTEX
  8
S-OBRYS
  5
66881
 10
52939.8
 20
426780.
 30
0.000000
  70
    32
  0
VERTEX
  8
S-OBRYS
  5
66882
 10
52939.6
 20
426780.
 30
0.000000
  70
    32
  0
VERTEX
  8
S-OBRYS
  5
66883
 10
52939.5
 20
426780.
 30
0.000000
  70
    32
  0
VERTEX
  8
S-OBRYS
  5
66884
 10
52939.4
 20
426780.
 30
0.000000
  70
    32
  0
VERTEX
  8
S-OBRYS
  5
66885
 10
52939.2
 20
426780.
 30
0.000000
  70
    32
  0
VERTEX
  8
S-OBRYS
  5
66886
 10
52939.1
 20
426780.
 30
0.000000
  70
    32
  0
VERTEX
  8
S-OBRYS
  5
66887
 10
52939.0
 20
426780.
 30
0.000000
  70
    32
  0
VERTEX
  8
S-OBRYS
  5
66888
 10
52938.8
 20
426780.
 30
0.000000
  70
    32
  0
VERTEX
  8
S-OBRYS
  5
66889
 10
52938.7
 20
426780.
 30
0.000000
  70
    32
  0
VERTEX
  8
S-OBRYS
  5
6688A
 10
52938.6
 20
426780.
 30
0.000000
  70
    32
  0
VERTEX
  8
S-OBRYS
  5
6688B
 10
52938.5
 20
426780.
 30
0.000000
  70
    32
  0
VERTEX
  8
S-OBRYS
  5
6688C
 10
52938.3
 20
426780.
 30
0.000000
  70
    32
  0
VERTEX
  8
S-OBRYS
  5
6688D
 10
52938.2
 20
426780.
 30
0.000000
  70
    32
  0
VERTEX
  8
S-OBRYS
  5
6688E
 10
52938.1
 20
426780.
 30
0.000000
  70
    32
  0
VERTEX
  8
S-OBRYS
  5
6688F
 10
52938.0
 20
426780.
 30
0.000000
  70
    32
  0
VERTEX
  8
S-OBRYS
  5
66890
 10
52937.8
 20
426780.
 30
0.000000
  70
    32
  0
VERTEX
  8
S-OBRYS
  5
66891
 10
52937.7
 20
426780.
 30
0.000000
  70
    32
  0
VERTEX
  8
S-OBRYS
  5
66892
 10
52937.6
 20
426780.
 30
0.000000
  70
    32
  0
VERTEX
  8
S-OBRYS
  5
66893
 10
52937.5
 20
426780.
 30
0.000000
  70
    32
  0
VERTEX
  8
S-OBRYS
  5
66894
 10
52937.4
 20
426780.
 30
0.000000
  70
    32
  0
VERTEX
  8
S-OBRYS
  5
66895
 10
52937.2
 20
426780.
 30
0.000000
  70
    32
  0
VERTEX
  8
S-OBRYS
  5
66896
 10
52937.1
 20
426780.
 30
0.000000
  70
    32
  0
VERTEX
  8
S-OBRYS
  5
66897
 10
52937.0
 20
426780.
 30
0.000000
  70
    32
  0
VERTEX
  8
S-OBRYS
  5
66898
 10
52936.9
 20
426780.
 30
0.000000
  70
    32
  0
VERTEX
  8
S-OBRYS
  5
66899
 10
52936.8
 20
426780.
 30
0.000000
  70
    32
  0
VERTEX
  8
S-OBRYS
  5
6689A
 10
52936.7
 20
426780.
 30
0.000000
  70
    32
  0
VERTEX
  8
S-OBRYS
  5
6689B
 10
52936.6
 20
426780.
 30
0.000000
  70
    32
  0
VERTEX
  8
S-OBRYS
  5
6689C
 10
52936.5
 20
426779.
 30
0.000000
  70
    32
  0
VERTEX
  8
S-OBRYS
  5
6689D
 10
52936.4
 20
426779.
 30
0.000000
  70
    32
  0
VERTEX
  8
S-OBRYS
  5
6689E
 10
52936.3
 20
426779.
 30
0.000000
  70
    32
  0
VERTEX
  8
S-OBRYS
  5
6689F
 10
52936.2
 20
426779.
 30
0.000000
  70
    32
  0
VERTEX
  8
S-OBRYS
  5
668A0
 10
52936.1
 20
426779.
 30
0.000000
  70
    32
  0
VERTEX
  8
S-OBRYS
  5
668A1
 10
52936.0
 20
426779.
 30
0.000000
  70
    32
  0
VERTEX
  8
S-OBRYS
  5
668A2
 10
52935.9
 20
426779.
 30
0.000000
  70
    32
  0
VERTEX
  8
S-OBRYS
  5
668A3
 10
52935.8
 20
426779.
 30
0.000000
  70
    32
  0
VERTEX
  8
S-OBRYS
  5
668A4
 10
52935.7
 20
426779.
 30
0.000000
  70
    32
  0
VERTEX
  8
S-OBRYS
  5
668A5
 10
52935.6
 20
426779.
 30
0.000000
  70
    32
  0
VERTEX
  8
S-OBRYS
  5
668A6
 10
52935.5
 20
426779.
 30
0.000000
  70
    32
  0
VERTEX
  8
S-OBRYS
  5
668A7
 10
52935.4
 20
426778.
 30
0.000000
  70
    32
  0
VERTEX
  8
S-OBRYS
  5
668A8
 10
52935.3
 20
426778.
 30
0.000000
  70
    32
  0
VERTEX
  8
S-OBRYS
  5
668A9
 10
52935.2
 20
426778.
 30
0.000000
  70
    32
  0
VERTEX
  8
S-OBRYS
  5
668AA
 10
52935.1
 20
426778.
 30
0.000000
  70
    32
  0
VERTEX
  8
S-OBRYS
  5
668AB
 10
52935.0
 20
426778.
 30
0.000000
  70
    32
  0
VERTEX
  8
S-OBRYS
  5
668AC
 10
52934.9
 20
426778.
 30
0.000000
  70
    32
  0
VERTEX
  8
S-OBRYS
  5
668AD
 10
52934.8
 20
426778.
 30
0.000000
  70
    32
  0
VERTEX
  8
S-OBRYS
  5
668AE
 10
52934.7
 20
426778.
 30
0.000000
  70
    32
  0
VERTEX
  8
S-OBRYS
  5
668AF
 10
52934.6
 20
426778.
 30
0.000000
  70
    32
  0
VERTEX
  8
S-OBRYS
  5
668B0
 10
52934.5
 20
426778.
 30
0.000000
  70
    32
  0
VERTEX
  8
S-OBRYS
  5
668B1
 10
52934.4
 20
426777.
 30
0.000000
  70
    32
  0
VERTEX
  8
S-OBRYS
  5
668B2
 10
52934.3
 20
426777.
 30
0.000000
  70
    32
  0
VERTEX
  8
S-OBRYS
  5
668B3
 10
52934.2
 20
426777.
 30
0.000000
  70
    32
  0
VERTEX
  8
S-OBRYS
  5
668B4
 10
52934.2
 20
426777.
 30
0.000000
  70
    32
  0
VERTEX
  8
S-OBRYS
  5
668B5
 10
52934.1
 20
426777.
 30
0.000000
  70
    32
  0
VERTEX
  8
S-OBRYS
  5
668B6
 10
52934.0
 20
426777.
 30
0.000000
  70
    32
  0
VERTEX
  8
S-OBRYS
  5
668B7
 10
52933.9
 20
426777.
 30
0.000000
  70
    32
  0
VERTEX
  8
S-OBRYS
  5
668B8
 10
52933.8
 20
426777.
 30
0.000000
  70
    32
  0
VERTEX
  8
S-OBRYS
  5
668B9
 10
52933.7
 20
426777.
 30
0.000000
  70
    32
  0
VERTEX
  8
S-OBRYS
  5
668BA
 10
52933.6
 20
426777.
 30
0.000000
  70
    32
  0
VERTEX
  8
S-OBRYS
  5
668BB
 10
52933.5
 20
426777.
 30
0.000000
  70
    32
  0
VERTEX
  8
S-OBRYS
  5
668BC
 10
52933.3
 20
426777.
 30
0.000000
  70
    32
  0
VERTEX
  8
S-OBRYS
  5
668BD
 10
52933.2
 20
426776.
 30
0.000000
  70
    32
  0
VERTEX
  8
S-OBRYS
  5
668BE
 10
52933.1
 20
426776.
 30
0.000000
  70
    32
  0
VERTEX
  8
S-OBRYS
  5
668BF
 10
52933.0
 20
426776.
 30
0.000000
  70
    32
  0
VERTEX
  8
S-OBRYS
  5
668C0
 10
52932.9
 20
426776.
 30
0.000000
  70
    32
  0
VERTEX
  8
S-OBRYS
  5
668C1
 10
52932.8
 20
426776.
 30
0.000000
  70
    32
  0
VERTEX
  8
S-OBRYS
  5
668C2
 10
52932.7
 20
426776.
 30
0.000000
  70
    32
  0
VERTEX
  8
S-OBRYS
  5
668C3
 10
52932.6
 20
426776.
 30
0.000000
  70
    32
  0
VERTEX
  8
S-OBRYS
  5
668C4
 10
52932.5
 20
426776.
 30
0.000000
  70
    32
  0
VERTEX
  8
S-OBRYS
  5
668C5
 10
52932.3
 20
426776.
 30
0.000000
  70
    32
  0
VERTEX
  8
S-OBRYS
  5
668C6
 10
52932.2
 20
426776.
 30
0.000000
  70
    32
  0
VERTEX
  8
S-OBRYS
  5
668C7
 10
52932.1
 20
426776.
 30
0.000000
  70
    32
  0
VERTEX
  8
S-OBRYS
  5
668C8
 10
52932.0
 20
426776.
 30
0.000000
  70
    32
  0
VERTEX
  8
S-OBRYS
  5
668C9
 10
52931.9
 20
426776.
 30
0.000000
  70
    32
  0
VERTEX
  8
S-OBRYS
  5
668CA
 10
52931.7
 20
426776.
 30
0.000000
  70
    32
  0
VERTEX
  8
S-OBRYS
  5
668CB
 10
52931.6
 20
426776.
 30
0.000000
  70
    32
  0
VERTEX
  8
S-OBRYS
  5
668CC
 10
52931.5
 20
426776.
 30
0.000000
  70
    32
  0
VERTEX
  8
S-OBRYS
  5
668CD
 10
52931.4
 20
426776.
 30
0.000000
  70
    32
  0
VERTEX
  8
S-OBRYS
  5
668CE
 10
52931.2
 20
426776.
 30
0.000000
  70
    32
  0
VERTEX
  8
S-OBRYS
  5
668CF
 10
52931.1
 20
426776.
 30
0.000000
  70
    32
  0
VERTEX
  8
S-OBRYS
  5
668D0
 10
52931.0
 20
426776.
 30
0.000000
  70
    32
  0
VERTEX
  8
S-OBRYS
  5
668D1
 10
52930.8
 20
426776.
 30
0.000000
  70
    32
  0
VERTEX
  8
S-OBRYS
  5
668D2
 10
52930.7
 20
426776.
 30
0.000000
  70
    32
  0
VERTEX
  8
S-OBRYS
  5
668D3
 10
52930.6
 20
426776.
 30
0.000000
  70
    32
  0
VERTEX
  8
S-OBRYS
  5
668D4
 10
52930.5
 20
426776.
 30
0.000000
  70
    32
  0
VERTEX
  8
S-OBRYS
  5
668D5
 10
52930.3
 20
426776.
 30
0.000000
  70
    32
  0
VERTEX
  8
S-OBRYS
  5
668D6
 10
52930.2
 20
426776.
 30
0.000000
  70
    32
  0
VERTEX
  8
S-OBRYS
  5
668D7
 10
52930.0
 20
426776.
 30
0.000000
  70
    32
  0
VERTEX
  8
S-OBRYS
  5
668D8
 10
52929.9
 20
426776.
 30
0.000000
  70
    32
  0
VERTEX
  8
S-OBRYS
  5
668D9
 10
52929.8
 20
426776.
 30
0.000000
  70
    32
  0
VERTEX
  8
S-OBRYS
  5
668DA
 10
52929.6
 20
426776.
 30
0.000000
  70
    32
  0
VERTEX
  8
S-OBRYS
  5
668DB
 10
52929.5
 20
426776.
 30
0.000000
  70
    32
  0
VERTEX
  8
S-OBRYS
  5
668DC
 10
52929.4
 20
426776.
 30
0.000000
  70
    32
  0
VERTEX
  8
S-OBRYS
  5
668DD
 10
52929.2
 20
426776.
 30
0.000000
  70
    32
  0
VERTEX
  8
S-OBRYS
  5
668DE
 10
52929.1
 20
426776.
 30
0.000000
  70
    32
  0
VERTEX
  8
S-OBRYS
  5
668DF
 10
52928.9
 20
426776.
 30
0.000000
  70
    32
  0
VERTEX
  8
S-OBRYS
  5
668E0
 10
52928.8
 20
426776.
 30
0.000000
  70
    32
  0
VERTEX
  8
S-OBRYS
  5
668E1
 10
52928.7
 20
426776.
 30
0.000000
  70
    32
  0
VERTEX
  8
S-OBRYS
  5
668E2
 10
52928.5
 20
426776.
 30
0.000000
  70
    32
  0
VERTEX
  8
S-OBRYS
  5
668E3
 10
52928.4
 20
426776.
 30
0.000000
  70
    32
  0
VERTEX
  8
S-OBRYS
  5
668E4
 10
52928.2
 20
426776.
 30
0.000000
  70
    32
  0
VERTEX
  8
S-OBRYS
  5
668E5
 10
52928.1
 20
426776.
 30
0.000000
  70
    32
  0
VERTEX
  8
S-OBRYS
  5
668E6
 10
52928.0
 20
426776.
 30
0.000000
  70
    32
  0
SEQEND
  8
S-OBRYS
  5
668E7
  0
LINE
  5
65812
  8
S-OBRYS
  6
CONTINUOUS
 10
52952.256100933249
 20
426669.00898151251
 30
0.0
 11
52952.332344105424
 21
426912.8698489411
 31
0.0
  0
LINE
  5
65813
  8
S-OBRYS
  6
CONTINUOUS
 10
52927.960730873063
 20
426683.05995620572
 30
0.0
 11
52927.960730873063
 21
426776.22229283809
 31
0.0
  0
LINE
  5
65814
  8
S-OBRYS
  6
CONTINUOUS
 10
52927.954795781887
 20
426876.69312407041
 30
0.0
 11
52927.954795781887
 21
426783.53078743792
 31
0.0
  0
LINE
  5
65815
  8
S-OBRYS
  6
CONTINUOUS
 10
52976.55147099345
 20
426683.05995620572
 30
0.0
 11
52976.55147099345
 21
426789.36812107608
 31
0.0
  0
LINE
  5
65816
  8
S-OBRYS
  6
CONTINUOUS
 10
52976.545535902304
 20
426876.69312407041
 30
0.0
 11
52976.545535902304
 21
426796.67661567591
 31
0.0
  0
LINE
  5
6581F
  8
S-OBRYS
  6
CONTINUOUS
 10
51097.127581391862
 20
426171.45395299193
 30
0.0
 11
51156.321314627552
 21
426171.45395299193
 31
0.0
  0
DIMENSION
  5
65823
  8
S-OBRYS
  6
CONTINUOUS
  2
*D21
 10
50506.505926443562
 20
426051.10119791632
 30
0.0
 11
50506.505926443489
 21
425678.95834077342
 31
0.0
 70
   128
 13
50582.762138391503
 23
426001.10119791632
 33
0.0
 14
50582.762138391503
 24
426051.10119791632
 34
0.0
 50
90.0
1001
ACAD
1000
DSTYLE
1002
{
1070
    41
1040
1.0
1070
   140
1040
1.0
1002
}
  0
DIMENSION
  5
65824
  8
S-OBRYS
  6
CONTINUOUS
  2
*D22
 10
51192.762138391503
 20
425765.14645380049
 30
0.0
 11
50881.706056523602
 21
425765.14645380049
 31
0.0
 70
   128
 13
50582.762138391503
 23
426001.10119791632
 33
0.0
 14
51192.762138391503
 24
426001.10119791632
 34
0.0
1001
ACAD
1000
DSTYLE
1002
{
1070
    41
1040
1.0
1070
   140
1040
1.0
1002
}
  0
DIMENSION
  5
65825
  8
S-OBRYS
  6
CONTINUOUS
  2
*D14
 10
50208.949561278328
 20
426001.10119791632
 30
0.0
 11
50158.949561278263
 21
426436.41778184869
 31
0.0
 70
     0
  1
870
 13
50546.641689922959
 23
426871.73436578113
 33
0.0
 14
50579.612138391502
 24
426001.10119791632
 34
0.0
 50
90.0
1001
ACAD
1000
DSTYLE
1002
{
1070
    41
1040
1.0
1070
   140
1040
1.0
1002
}
  0
DIMENSION
  5
65826
  8
S-OBRYS
  6
CONTINUOUS
  2
*D15
 10
50284.089897394711
 20
426001.10119791632
 30
0.0
 11
50284.089897394653
 21
425747.52976934478
 31
0.0
 70
   128
  1
460
 13
50584.823440808039
 23
426460.34753941651
 33
0.0
 14
50582.762138391503
 24
426001.10119791632
 34
0.0
 50
90.0
1001
ACAD
1000
DSTYLE
1002
{
1070
    41
1040
1.0
1070
   140
1040
1.0
1002
}
  0
DIMENSION
  5
65827
  8
S-OBRYS
  6
CONTINUOUS
  2
*D16
 10
51578.699835650863
 20
426001.10119791632
 30
0.0
 11
51528.69983565079
 21
426341.19871160609
 31
0.0
 70
     0
  1
680
 13
50816.61789801265
 23
426681.29622529593
 33
0.0
 14
51192.762138391503
 24
426001.10119791632
 34
0.0
 50
90.0
1001
ACAD
1000
DSTYLE
1002
{
1070
    41
1040
1.0
1070
   140
1040
1.0
1002
}
  0
DIMENSION
  5
65828
  8
S-OBRYS
  6
CONTINUOUS
  2
*D17
 10
51374.52698549092
 20
426001.10119791632
 30
0.0
 11
51324.526985490862
 21
426136.10119791632
 31
0.0
 70
     0
 13
50709.635754831797
 23
426271.1011979162
 33
0.0
 14
51192.762138391503
 24
426001.10119791632
 34
0.0
 50
90.0
1001
ACAD
1000
DSTYLE
1002
{
1070
    41
1040
1.0
1070
   140
1040
1.0
1002
}
  0
DIMENSION
  5
65829
  8
S-OBRYS
  6
CONTINUOUS
  2
*D18
 10
52456.52926897697
 20
425782.85752554738
 30
0.0
 11
52812.657550542142
 21
425832.85752554738
 31
0.0
 70
     0
  1
712
 13
53168.785832107307
 23
426096.7549048838
 33
0.0
 14
52456.52926897697
 24
426085.5410907506
 34
0.0
1001
ACAD
1000
DSTYLE
1002
{
1070
    41
1040
1.0
1070
   140
1040
1.0
1002
}
  0
DIMENSION
  5
6582A
  8
S-OBRYS
  6
CONTINUOUS
  2
*D19
 10
53520.801383235957
 20
426109.7621975356
 30
0.0
 11
53470.801383235892
 21
426283.33362610708
 31
0.0
 70
     0
  1
108
 13
53011.196863938458
 23
426001.10119791632
 33
0.0
 14
53168.785832107307
 24
426109.7621975356
 34
0.0
 50
90.0
1001
ACAD
1000
DSTYLE
1002
{
1070
    41
1040
1.0
1070
   140
1040
1.0
1002
}
  0
DIMENSION
  5
6582B
  8
S-OBRYS
  6
CONTINUOUS
  2
*D20
 10
53311.758593001403
 20
426122.76949018741
 30
0.0
 11
53261.758593001337
 21
426280.15044256829
 31
0.0
 70
     0
  1
26
 13
53168.785832107307
 23
426096.7549048838
 33
0.0
 14
53168.785832107307
 24
426122.76949018741
 34
0.0
 50
90.0
1001
ACAD
1000
DSTYLE
1002
{
1070
    41
1040
1.0
1070
   140
1040
1.0
1002
}
  0
LINE
  5
65B84
  8
S-OBRYS
  6
CONTINUOUS
 10
50833.965113074511
 20
424431.57418128417
 30
0.0
 11
50833.965113074511
 21
423761.11289991147
 31
0.0
  0
LINE
  5
65B85
  8
S-OBRYS
  6
CONTINUOUS
 10
50537.835326251683
 20
424320.27315239789
 30
0.0
 11
50537.835326251683
 21
423870.27315239789
 31
0.0
  0
LINE
  5
65B86
  8
S-OBRYS
  6
CONTINUOUS
 10
50588.265921136532
 20
424320.27315239789
 30
0.0
 11
50588.265921136532
 21
423870.27315239789
 31
0.0
  0
POLYLINE
  5
65B87
  8
S-OBRYS
  6
CONTINUOUS
 66
     1
 10
0.0
 20
0.0
 30
0.0
 70
     1
  0
VERTEX
  5
65EA8
  8
S-OBRYS
  6
CONTINUOUS
 10
50713.965113074519
 20
424315.67082982179
 30
0.0
  0
VERTEX
  5
65EA9
  8
S-OBRYS
  6
CONTINUOUS
 10
50713.965113074519
 20
424155.67082982173
 30
0.0
  0
VERTEX
  5
65EAA
  8
S-OBRYS
  6
CONTINUOUS
 10
50953.965113074519
 20
424155.67082982173
 30
0.0
  0
VERTEX
  5
65EAB
  8
S-OBRYS
  6
CONTINUOUS
 10
50953.965113074519
 20
424315.67082982179
 30
0.0
  0
SEQEND
  5
65EAC
  8
S-OBRYS
  6
CONTINUOUS
  0
LINE
  5
65B88
  8
S-OBRYS
  6
CONTINUOUS
 10
50986.965113074511
 20
424122.76497895789
 30
0.0
 11
50986.965113074511
 21
424392.76497895789
 31
0.0
  0
POLYLINE
  5
65B89
  8
S-OBRYS
  6
CONTINUOUS
 66
     1
 10
0.0
 20
0.0
 30
0.0
  0
VERTEX
  5
65EAD
  8
S-OBRYS
  6
CONTINUOUS
 10
50680.965113074519
 20
424420.76497895789
 30
0.0
  0
VERTEX
  5
65EAE
  8
S-OBRYS
  6
CONTINUOUS
 10
50680.965113074519
 20
423774.63859539828
 30
0.0
  0
VERTEX
  5
65EAF
  8
S-OBRYS
  6
CONTINUOUS
 10
50986.965113074511
 20
423774.63859539828
 30
0.0
  0
VERTEX
  5
65EB0
  8
S-OBRYS
  6
CONTINUOUS
 10
50986.965113074511
 20
424420.76497895789
 30
0.0
  0
SEQEND
  5
65EB1
  8
S-OBRYS
  6
CONTINUOUS
  0
LINE
  5
65B8A
  8
S-OBRYS
  6
CONTINUOUS
 10
51246.298224845079
 20
424257.764978958
 30
0.0
 11
50506.63068467861
 21
424257.764978958
 31
0.0
  0
LINE
  5
65B8B
  8
S-OBRYS
  6
CONTINUOUS
 10
50680.965113074519
 20
424420.76497895789
 30
0.0
 11
50986.965113074511
 21
424420.76497895789
 31
0.0
  0
LINE
  5
65B8C
  8
S-OBRYS
  6
CONTINUOUS
 10
50980.368086915631
 20
424396.54585206992
 30
0.0
 11
50909.17042890202
 21
424396.54585206992
 31
0.0
  0
LINE
  5
65B8D
  8
S-OBRYS
  6
CONTINUOUS
 10
50687.562139233458
 20
424396.54585206992
 30
0.0
 11
50758.759797247068
 21
424396.54585206992
 31
0.0
  0
LINE
  5
65B8E
  8
S-OBRYS
  6
CONTINUOUS
 10
50718.413375604658
 20
424432.3393244787
 30
0.0
 11
50718.393308904597
 21
424359.88651449699
 31
0.0
  0
POLYLINE
  5
65B8F
  8
S-OBRYS
  6
CONTINUOUS
 66
     1
 10
0.0
 20
0.0
 30
0.0
 70
     1
  0
VERTEX
  5
65EB2
  8
S-OBRYS
  6
CONTINUOUS
 10
50742.40615196916
 20
424420.54585206992
 30
0.0
  0
VERTEX
  5
65EB3
  8
S-OBRYS
  6
CONTINUOUS
 10
50742.40615196916
 20
424372.54585206992
 30
0.0
  0
VERTEX
  5
65EB4
  8
S-OBRYS
  6
CONTINUOUS
 10
50694.40615196916
 20
424372.54585206992
 30
0.0
  0
VERTEX
  5
65EB5
  8
S-OBRYS
  6
CONTINUOUS
 10
50694.40615196916
 20
424420.54585206992
 30
0.0
  0
SEQEND
  5
65EB6
  8
S-OBRYS
  6
CONTINUOUS
  0
POLYLINE
  5
65B90
  8
S-OBRYS
  6
CONTINUOUS
 66
     1
 10
0.0
 20
0.0
 30
0.0
 70
     1
  0
VERTEX
  5
65EB7
  8
S-OBRYS
  6
CONTINUOUS
 10
50925.524074179928
 20
424420.54585206992
 30
0.0
  0
VERTEX
  5
65EB8
  8
S-OBRYS
  6
CONTINUOUS
 10
50925.524074179928
 20
424372.54585206992
 30
0.0
  0
VERTEX
  5
65EB9
  8
S-OBRYS
  6
CONTINUOUS
 10
50973.524074179928
 20
424372.54585206992
 30
0.0
  0
VERTEX
  5
65EBA
  8
S-OBRYS
  6
CONTINUOUS
 10
50973.524074179928
 20
424420.54585206992
 30
0.0
  0
SEQEND
  5
65EBB
  8
S-OBRYS
  6
CONTINUOUS
  0
LINE
  5
65B91
  8
S-OBRYS
  6
CONTINUOUS
 10
50949.516850544431
 20
424432.3393244787
 30
0.0
 11
50949.536917244492
 21
424359.88651449699
 31
0.0
  0
LINE
  5
65B92
  8
S-OBRYS
  6
CONTINUOUS
 10
50588.265921136532
 20
424300.27315239777
 30
0.0
 11
50680.965113074519
 21
424300.27315239777
 31
0.0
  0
LINE
  5
65B93
  8
S-OBRYS
  6
CONTINUOUS
 10
50537.835326251683
 20
424320.27315239789
 30
0.0
 11
50680.965113074519
 21
424320.27315239789
 31
0.0
  0
POLYLINE
  5
65B94
  8
S-OBRYS
  6
CONTINUOUS
 66
     1
 10
0.0
 20
0.0
 30
0.0
  0
VERTEX
  5
65EBC
  8
S-OBRYS
  6
CONTINUOUS
 10
50523.129533535102
 20
424244.7576863062
 30
0.0
  0
VERTEX
  5
65EBD
  8
S-OBRYS
  6
CONTINUOUS
 10
50537.835326251683
 20
424244.7576863062
 30
0.0
  0
SEQEND
  5
65EBE
  8
S-OBRYS
  6
CONTINUOUS
  0
LINE
  5
65B95
  8
S-OBRYS
  6
CONTINUOUS
 10
50523.129533535102
 20
424270.77227160957
 30
0.0
 11
50523.129533535102
 21
424244.7576863062
 31
0.0
  0
LINE
  5
65B96
  8
S-OBRYS
  6
CONTINUOUS
 10
50675.20300939196
 20
424235.93987934
 30
0.0
 11
50675.20300939196
 21
424278.16198831331
 31
0.0
  0
LINE
  5
65B97
  8
S-OBRYS
  6
CONTINUOUS
 10
50675.20300939196
 20
424278.16198831331
 30
0.0
 11
50680.965113074519
 21
424278.16198831331
 31
0.0
  0
LINE
  5
65B98
  8
S-OBRYS
  6
CONTINUOUS
 10
50680.965113074519
 20
424235.93987934
 30
0.0
 11
50675.20300939196
 21
424235.93987934
 31
0.0
  0
POLYLINE
  5
65B99
  8
S-OBRYS
  6
CONTINUOUS
 66
     1
 10
0.0
 20
0.0
 30
0.0
 70
     1
  0
VERTEX
  5
65EBF
  8
S-OBRYS
  6
CONTINUOUS
 10
51028.863624446327
 20
424288.97998445568
 30
0.0
  0
VERTEX
  5
65EC0
  8
S-OBRYS
  6
CONTINUOUS
 10
51217.176899977319
 20
424276.84081627137
 30
0.0
  0
VERTEX
  5
65EC1
  8
S-OBRYS
  6
CONTINUOUS
 10
51217.176899977319
 20
424238.68914164457
 30
0.0
  0
VERTEX
  5
65EC2
  8
S-OBRYS
  6
CONTINUOUS
 10
51028.863624446327
 20
424228.28413947357
 30
0.0
  0
SEQEND
  5
65EC3
  8
S-OBRYS
  6
CONTINUOUS
  0
POLYLINE
  5
65B9A
  8
S-OBRYS
  6
CONTINUOUS
 66
     1
 10
0.0
 20
0.0
 30
0.0
 70
     1
  0
VERTEX
  5
65EC4
  8
S-OBRYS
  6
CONTINUOUS
 10
50986.965113074511
 20
424213.54372023902
 30
0.0
  0
VERTEX
  5
65EC5
  8
S-OBRYS
  6
CONTINUOUS
 10
51028.863624446327
 20
424213.54372023902
 30
0.0
  0
VERTEX
  5
65EC6
  8
S-OBRYS
  6
CONTINUOUS
 10
51028.863624446327
 20
424301.98623767687
 30
0.0
  0
VERTEX
  5
65EC7
  8
S-OBRYS
  6
CONTINUOUS
 10
50986.965113074511
 20
424301.98623767687
 30
0.0
  0
SEQEND
  5
65EC8
  8
S-OBRYS
  6
CONTINUOUS
  0
LINE
  5
65B9B
  8
S-OBRYS
  6
CONTINUOUS
 10
51217.245517394098
 20
424281.986085743
 30
0.0
 11
51217.176899977319
 21
424276.84081627137
 31
0.0
  0
LINE
  5
65B9C
  8
S-OBRYS
  6
CONTINUOUS
 10
51220.01085142378
 20
424231.7367795505
 30
0.0
 11
51220.01085142378
 21
424281.986085743
 31
0.0
  0
LINE
  5
65B9D
  8
S-OBRYS
  6
CONTINUOUS
 10
51217.245517394098
 20
424281.986085743
 30
0.0
 11
51217.245517394098
 21
424281.986085743
 31
0.0
  0
LINE
  5
65B9E
  8
S-OBRYS
  6
CONTINUOUS
 10
51220.01085142378
 20
424281.986085743
 30
0.0
 11
51217.245517394098
 21
424281.986085743
 31
0.0
  0
LINE
  5
65B9F
  8
S-OBRYS
  6
CONTINUOUS
 10
51217.176899977319
 20
424231.7367795505
 30
0.0
 11
51220.01085142378
 21
424231.7367795505
 31
0.0
  0
LINE
  5
65BA0
  8
S-OBRYS
  6
CONTINUOUS
 10
51217.176899977319
 20
424238.68914164457
 30
0.0
 11
51217.176899977319
 21
424231.7367795505
 31
0.0
  0
LINE
  5
65BA1
  8
S-OBRYS
  6
CONTINUOUS
 10
50849.801441370219
 20
423980.02486232901
 30
0.0
 11
51177.172484984912
 21
423980.02486232901
 31
0.0
  0
LINE
  5
65BA2
  8
S-OBRYS
  6
CONTINUOUS
 10
51118.951205053192
 20
423914.89983735519
 30
0.0
 11
50986.965113074511
 21
423914.89983735519
 31
0.0
  0
LINE
  5
65BA3
  8
S-OBRYS
  6
CONTINUOUS
 10
51118.951205053192
 20
423932.96013580752
 30
0.0
 11
50986.965113074511
 21
423932.96013580752
 31
0.0
  0
LINE
  5
65BA4
  8
S-OBRYS
  6
CONTINUOUS
 10
51118.951205053192
 20
423952.31045891298
 30
0.0
 11
50986.965113074511
 21
423952.31045891298
 31
0.0
  0
LINE
  5
65BA5
  8
S-OBRYS
  6
CONTINUOUS
 10
50874.620727618683
 20
423889.90416398679
 30
0.0
 11
50986.965113074511
 21
423889.90416398679
 31
0.0
  0
LINE
  5
65BA6
  8
S-OBRYS
  6
CONTINUOUS
 10
51118.951205053192
 20
423998.75123071182
 30
0.0
 11
50986.965113074511
 21
423998.75123071182
 31
0.0
  0
LINE
  5
65BA7
  8
S-OBRYS
  6
CONTINUOUS
 10
51118.951205053192
 20
424047.77204572677
 30
0.0
 11
50986.965113074511
 21
424047.77204572677
 31
0.0
  0
LINE
  5
65BA8
  8
S-OBRYS
  6
CONTINUOUS
 10
51118.951205053192
 20
424023.26163821929
 30
0.0
 11
50986.965113074511
 21
424023.26163821929
 31
0.0
  0
LINE
  5
65BA9
  8
S-OBRYS
  6
CONTINUOUS
 10
51157.334375034428
 20
424070.14556067111
 30
0.0
 11
50986.965113074511
 21
424070.14556067111
 31
0.0
  0
LINE
  5
65BAA
  8
S-OBRYS
  6
CONTINUOUS
 10
50986.965113074511
 20
424149.21579059417
 30
0.0
 11
50680.965113074519
 21
424149.21579059417
 31
0.0
  0
LINE
  5
65BAB
  8
S-OBRYS
  6
CONTINUOUS
 10
50874.620727618683
 20
424070.14556067111
 30
0.0
 11
50874.620727618683
 21
423890.04655869358
 31
0.0
  0
LINE
  5
65BAC
  8
S-OBRYS
  6
CONTINUOUS
 10
50588.265921136532
 20
423890.27315239789
 30
0.0
 11
50680.965113074519
 21
423890.27315239789
 31
0.0
  0
LINE
  5
65BAD
  8
S-OBRYS
  6
CONTINUOUS
 10
50537.835326251683
 20
423870.27315239789
 30
0.0
 11
50680.965113074519
 21
423870.27315239789
 31
0.0
  0
LINE
  5
65BAE
  8
S-OBRYS
  6
CONTINUOUS
 10
51118.951205053192
 20
423889.90416398679
 30
0.0
 11
51118.951205053192
 21
424070.14556067111
 31
0.0
  0
LINE
  5
65BAF
  8
S-OBRYS
  6
CONTINUOUS
 10
51157.334375034428
 20
423889.90416398679
 30
0.0
 11
51157.334375034428
 21
424070.14556067111
 31
0.0
  0
LINE
  5
65BB0
  8
S-OBRYS
  6
CONTINUOUS
 10
50986.965113074511
 20
424047.77204572677
 30
0.0
 11
50874.620727618683
 21
424047.77204572677
 31
0.0
  0
LINE
  5
65BB1
  8
S-OBRYS
  6
CONTINUOUS
 10
50986.965113074511
 20
424070.14556067111
 30
0.0
 11
50874.620727618683
 21
424070.14556067111
 31
0.0
  0
LINE
  5
65BB2
  8
S-OBRYS
  6
CONTINUOUS
 10
50986.965113074511
 20
424023.26163821929
 30
0.0
 11
50874.620727618683
 21
424023.26163821929
 31
0.0
  0
LINE
  5
65BB3
  8
S-OBRYS
  6
CONTINUOUS
 10
50986.965113074511
 20
423998.75123071182
 30
0.0
 11
50874.620727618683
 21
423998.75123071182
 31
0.0
  0
LINE
  5
65BB4
  8
S-OBRYS
  6
CONTINUOUS
 10
50986.965113074511
 20
423889.90416398679
 30
0.0
 11
51157.334375034428
 21
423889.90416398679
 31
0.0
  0
LINE
  5
65BB5
  8
S-OBRYS
  6
CONTINUOUS
 10
50986.965113074511
 20
423914.89983735519
 30
0.0
 11
50874.620727618683
 21
423914.89983735519
 31
0.0
  0
LINE
  5
65BB6
  8
S-OBRYS
  6
CONTINUOUS
 10
50986.965113074511
 20
423932.96013580752
 30
0.0
 11
50874.620727618683
 21
423932.96013580752
 31
0.0
  0
LINE
  5
65BB7
  8
S-OBRYS
  6
CONTINUOUS
 10
50986.965113074511
 20
423952.31045891298
 30
0.0
 11
50874.620727618683
 21
423952.31045891298
 31
0.0
  0
POLYLINE
  5
65BB8
  8
S-OBRYS
  6
CONTINUOUS
 66
     1
 10
0.0
 20
0.0
 30
0.0
  0
VERTEX
  5
65EC9
  8
S-OBRYS
  6
CONTINUOUS
 10
50588.265921136532
 20
424244.7576863062
 30
0.0
  0
VERTEX
  5
65ECA
  8
S-OBRYS
  6
CONTINUOUS
 10
50675.20300939196
 20
424244.7576863062
 30
0.0
  0
SEQEND
  5
65ECB
  8
S-OBRYS
  6
CONTINUOUS
  0
POLYLINE
  5
65BB9
  8
S-OBRYS
  6
CONTINUOUS
 66
     1
 10
0.0
 20
0.0
 30
0.0
  0
VERTEX
  5
65ECC
  8
S-OBRYS
  6
CONTINUOUS
 10
50537.835326251683
 20
424270.77227160957
 30
0.0
  0
VERTEX
  5
65ECD
  8
S-OBRYS
  6
CONTINUOUS
 10
50522.573648427031
 20
424270.77227160957
 30
0.0
  0
SEQEND
  5
65ECE
  8
S-OBRYS
  6
CONTINUOUS
  0
POLYLINE
  5
65BBA
  8
S-OBRYS
  6
CONTINUOUS
 66
     1
 10
0.0
 20
0.0
 30
0.0
  0
VERTEX
  5
65ECF
  8
S-OBRYS
  6
CONTINUOUS
 10
50675.20300939196
 20
424270.77227160957
 30
0.0
  0
VERTEX
  5
65ED0
  8
S-OBRYS
  6
CONTINUOUS
 10
50588.265921136532
 20
424270.77227160957
 30
0.0
  0
SEQEND
  5
65ED1
  8
S-OBRYS
  6
CONTINUOUS
  0
DIMENSION
  5
65BBB
  8
S-OBRYS
  6
CONTINUOUS
  2
*D31
 10
51414.727482792987
 20
423774.63859539828
 30
0.0
 11
51414.727482792921
 21
424097.70178717811
 31
0.0
 70
   128
  1
646
 13
50680.965113074519
 23
424420.76497895789
 33
0.0
 14
50680.965113074519
 24
423774.63859539828
 34
0.0
 50
90.0
1001
ACAD
1000
DSTYLE
1002
{
1070
    41
1040
1.0
1070
   140
1040
1.0
1002
}
  0
DIMENSION
  5
65BBC
  8
S-OBRYS
  6
CONTINUOUS
  2
*D32
 10
50389.304128318327
 20
424420.76497895789
 30
0.0
 11
50339.304128318261
 21
424339.26497895789
 31
0.0
 70
     0
 13
50523.129533535102
 23
424257.764978958
 33
0.0
 14
50680.965113074519
 24
424420.76497895789
 34
0.0
 50
90.0
1001
ACAD
1000
DSTYLE
1002
{
1070
    41
1040
1.0
1070
   140
1040
1.0
1002
}
  0
DIMENSION
  5
65BBD
  8
S-OBRYS
  6
CONTINUOUS
  2
*D33
 10
50833.965113074511
 20
424630.11223270389
 30
0.0
 11
51026.987982249142
 21
424630.11223270389
 31
0.0
 70
   128
  1
386
 13
51220.01085142378
 23
424257.764978958
 33
0.0
 14
50833.965113074511
 24
424420.76497895789
 34
0.0
1001
ACAD
1000
DSTYLE
1002
{
1070
    41
1040
1.0
1070
   140
1040
1.0
1002
}
  0
LINE
  5
65BBE
  8
S-OBRYS
  6
CONTINUOUS
 10
52849.623294864548
 20
424431.57418128417
 30
0.0
 11
52849.623294864548
 21
423761.11289991147
 31
0.0
  0
LINE
  5
65BBF
  8
S-OBRYS
  6
CONTINUOUS
 10
52553.49350804172
 20
424320.27315239789
 30
0.0
 11
52553.49350804172
 21
423870.27315239789
 31
0.0
  0
LINE
  5
65BC0
  8
S-OBRYS
  6
CONTINUOUS
 10
52603.924102926569
 20
424320.27315239789
 30
0.0
 11
52603.924102926569
 21
423870.27315239789
 31
0.0
  0
POLYLINE
  5
65BC1
  8
S-OBRYS
  6
CONTINUOUS
 66
     1
 10
0.0
 20
0.0
 30
0.0
 70
     1
  0
VERTEX
  5
65ED2
  8
S-OBRYS
  6
CONTINUOUS
 10
52729.623294864541
 20
424315.67082982179
 30
0.0
  0
VERTEX
  5
65ED3
  8
S-OBRYS
  6
CONTINUOUS
 10
52729.623294864541
 20
424155.67082982173
 30
0.0
  0
VERTEX
  5
65ED4
  8
S-OBRYS
  6
CONTINUOUS
 10
52969.623294864541
 20
424155.67082982173
 30
0.0
  0
VERTEX
  5
65ED5
  8
S-OBRYS
  6
CONTINUOUS
 10
52969.623294864541
 20
424315.67082982179
 30
0.0
  0
SEQEND
  5
65ED6
  8
S-OBRYS
  6
CONTINUOUS
  0
LINE
  5
65BC2
  8
S-OBRYS
  6
CONTINUOUS
 10
53002.623294864548
 20
424122.76497895789
 30
0.0
 11
53002.623294864548
 21
424392.76497895789
 31
0.0
  0
POLYLINE
  5
65BC3
  8
S-OBRYS
  6
CONTINUOUS
 66
     1
 10
0.0
 20
0.0
 30
0.0
  0
VERTEX
  5
65ED7
  8
S-OBRYS
  6
CONTINUOUS
 10
52696.623294864548
 20
424420.76497895789
 30
0.0
  0
VERTEX
  5
65ED8
  8
S-OBRYS
  6
CONTINUOUS
 10
52696.623294864548
 20
423774.63859539828
 30
0.0
  0
VERTEX
  5
65ED9
  8
S-OBRYS
  6
CONTINUOUS
 10
53002.623294864548
 20
423774.63859539828
 30
0.0
  0
VERTEX
  5
65EDA
  8
S-OBRYS
  6
CONTINUOUS
 10
53002.623294864548
 20
424420.76497895789
 30
0.0
  0
SEQEND
  5
65EDB
  8
S-OBRYS
  6
CONTINUOUS
  0
LINE
  5
65BC4
  8
S-OBRYS
  6
CONTINUOUS
 10
53261.956406635109
 20
424257.764978958
 30
0.0
 11
52522.28886646864
 21
424257.764978958
 31
0.0
  0
LINE
  5
65BC5
  8
S-OBRYS
  6
CONTINUOUS
 10
52696.623294864548
 20
424420.76497895789
 30
0.0
 11
53002.623294864548
 21
424420.76497895789
 31
0.0
  0
LINE
  5
65BC6
  8
S-OBRYS
  6
CONTINUOUS
 10
52996.026268705667
 20
424396.54585206992
 30
0.0
 11
52924.82861069205
 21
424396.54585206992
 31
0.0
  0
LINE
  5
65BC7
  8
S-OBRYS
  6
CONTINUOUS
 10
52703.220321023487
 20
424396.54585206992
 30
0.0
 11
52774.417979037091
 21
424396.54585206992
 31
0.0
  0
LINE
  5
65BC8
  8
S-OBRYS
  6
CONTINUOUS
 10
52734.071557394687
 20
424432.3393244787
 30
0.0
 11
52734.051490694626
 21
424359.88651449699
 31
0.0
  0
POLYLINE
  5
65BC9
  8
S-OBRYS
  6
CONTINUOUS
 66
     1
 10
0.0
 20
0.0
 30
0.0
 70
     1
  0
VERTEX
  5
65EDC
  8
S-OBRYS
  6
CONTINUOUS
 10
52758.06433375919
 20
424420.54585206992
 30
0.0
  0
VERTEX
  5
65EDD
  8
S-OBRYS
  6
CONTINUOUS
 10
52758.06433375919
 20
424372.54585206992
 30
0.0
  0
VERTEX
  5
65EDE
  8
S-OBRYS
  6
CONTINUOUS
 10
52710.06433375919
 20
424372.54585206992
 30
0.0
  0
VERTEX
  5
65EDF
  8
S-OBRYS
  6
CONTINUOUS
 10
52710.06433375919
 20
424420.54585206992
 30
0.0
  0
SEQEND
  5
65EE0
  8
S-OBRYS
  6
CONTINUOUS
  0
POLYLINE
  5
65BCA
  8
S-OBRYS
  6
CONTINUOUS
 66
     1
 10
0.0
 20
0.0
 30
0.0
 70
     1
  0
VERTEX
  5
65EE1
  8
S-OBRYS
  6
CONTINUOUS
 10
52941.182255969972
 20
424420.54585206992
 30
0.0
  0
VERTEX
  5
65EE2
  8
S-OBRYS
  6
CONTINUOUS
 10
52941.182255969972
 20
424372.54585206992
 30
0.0
  0
VERTEX
  5
65EE3
  8
S-OBRYS
  6
CONTINUOUS
 10
52989.182255969958
 20
424372.54585206992
 30
0.0
  0
VERTEX
  5
65EE4
  8
S-OBRYS
  6
CONTINUOUS
 10
52989.182255969958
 20
424420.54585206992
 30
0.0
  0
SEQEND
  5
65EE5
  8
S-OBRYS
  6
CONTINUOUS
  0
LINE
  5
65BCB
  8
S-OBRYS
  6
CONTINUOUS
 10
52965.17503233446
 20
424432.3393244787
 30
0.0
 11
52965.195099034521
 21
424359.88651449699
 31
0.0
  0
LINE
  5
65BCC
  8
S-OBRYS
  6
CONTINUOUS
 10
52603.924102926569
 20
424300.27315239777
 30
0.0
 11
52696.623294864548
 21
424300.27315239777
 31
0.0
  0
LINE
  5
65BCD
  8
S-OBRYS
  6
CONTINUOUS
 10
52553.49350804172
 20
424320.27315239789
 30
0.0
 11
52696.623294864548
 21
424320.27315239789
 31
0.0
  0
POLYLINE
  5
65BCE
  8
S-OBRYS
  6
CONTINUOUS
 66
     1
 10
0.0
 20
0.0
 30
0.0
  0
VERTEX
  5
65EE6
  8
S-OBRYS
  6
CONTINUOUS
 10
52538.787715325132
 20
424244.7576863062
 30
0.0
  0
VERTEX
  5
65EE7
  8
S-OBRYS
  6
CONTINUOUS
 10
52553.49350804172
 20
424244.7576863062
 30
0.0
  0
SEQEND
  5
65EE8
  8
S-OBRYS
  6
CONTINUOUS
  0
LINE
  5
65BCF
  8
S-OBRYS
  6
CONTINUOUS
 10
52538.787715325132
 20
424270.77227160957
 30
0.0
 11
52538.787715325132
 21
424244.7576863062
 31
0.0
  0
LINE
  5
65BD0
  8
S-OBRYS
  6
CONTINUOUS
 10
52690.86119118199
 20
424235.93987934
 30
0.0
 11
52690.86119118199
 21
424278.16198831331
 31
0.0
  0
LINE
  5
65BD1
  8
S-OBRYS
  6
CONTINUOUS
 10
52690.86119118199
 20
424278.16198831331
 30
0.0
 11
52696.623294864548
 21
424278.16198831331
 31
0.0
  0
LINE
  5
65BD2
  8
S-OBRYS
  6
CONTINUOUS
 10
52696.623294864548
 20
424235.93987934
 30
0.0
 11
52690.86119118199
 21
424235.93987934
 31
0.0
  0
POLYLINE
  5
65BD3
  8
S-OBRYS
  6
CONTINUOUS
 66
     1
 10
0.0
 20
0.0
 30
0.0
 70
     1
  0
VERTEX
  5
65EE9
  8
S-OBRYS
  6
CONTINUOUS
 10
53044.521806236349
 20
424288.97998445568
 30
0.0
  0
VERTEX
  5
65EEA
  8
S-OBRYS
  6
CONTINUOUS
 10
53232.835081767349
 20
424276.84081627137
 30
0.0
  0
VERTEX
  5
65EEB
  8
S-OBRYS
  6
CONTINUOUS
 10
53232.835081767349
 20
424238.68914164457
 30
0.0
  0
VERTEX
  5
65EEC
  8
S-OBRYS
  6
CONTINUOUS
 10
53044.521806236349
 20
424228.28413947357
 30
0.0
  0
SEQEND
  5
65EED
  8
S-OBRYS
  6
CONTINUOUS
  0
POLYLINE
  5
65BD4
  8
S-OBRYS
  6
CONTINUOUS
 66
     1
 10
0.0
 20
0.0
 30
0.0
 70
     1
  0
VERTEX
  5
65EEE
  8
S-OBRYS
  6
CONTINUOUS
 10
53002.623294864548
 20
424213.54372023902
 30
0.0
  0
VERTEX
  5
65EEF
  8
S-OBRYS
  6
CONTINUOUS
 10
53044.521806236349
 20
424213.54372023902
 30
0.0
  0
VERTEX
  5
65EF0
  8
S-OBRYS
  6
CONTINUOUS
 10
53044.521806236349
 20
424301.98623767687
 30
0.0
  0
VERTEX
  5
65EF1
  8
S-OBRYS
  6
CONTINUOUS
 10
53002.623294864548
 20
424301.98623767687
 30
0.0
  0
SEQEND
  5
65EF2
  8
S-OBRYS
  6
CONTINUOUS
  0
LINE
  5
65BD5
  8
S-OBRYS
  6
CONTINUOUS
 10
53232.903699184128
 20
424281.986085743
 30
0.0
 11
53232.835081767349
 21
424276.84081627137
 31
0.0
  0
LINE
  5
65BD6
  8
S-OBRYS
  6
CONTINUOUS
 10
53235.669033213802
 20
424231.7367795505
 30
0.0
 11
53235.669033213802
 21
424281.986085743
 31
0.0
  0
LINE
  5
65BD7
  8
S-OBRYS
  6
CONTINUOUS
 10
53232.903699184128
 20
424281.986085743
 30
0.0
 11
53232.903699184128
 21
424281.986085743
 31
0.0
  0
LINE
  5
65BD8
  8
S-OBRYS
  6
CONTINUOUS
 10
53235.669033213802
 20
424281.986085743
 30
0.0
 11
53232.903699184128
 21
424281.986085743
 31
0.0
  0
LINE
  5
65BD9
  8
S-OBRYS
  6
CONTINUOUS
 10
53232.835081767349
 20
424231.7367795505
 30
0.0
 11
53235.669033213802
 21
424231.7367795505
 31
0.0
  0
LINE
  5
65BDA
  8
S-OBRYS
  6
CONTINUOUS
 10
53232.835081767349
 20
424238.68914164457
 30
0.0
 11
53232.835081767349
 21
424231.7367795505
 31
0.0
  0
LINE
  5
65BDB
  8
S-OBRYS
  6
CONTINUOUS
 10
52865.459623160248
 20
423980.02486232901
 30
0.0
 11
53192.830666774942
 21
423980.02486232901
 31
0.0
  0
LINE
  5
65BDC
  8
S-OBRYS
  6
CONTINUOUS
 10
53134.609386843222
 20
423914.89983735519
 30
0.0
 11
53002.623294864548
 21
423914.89983735519
 31
0.0
  0
LINE
  5
65BDD
  8
S-OBRYS
  6
CONTINUOUS
 10
53134.609386843222
 20
423932.96013580752
 30
0.0
 11
53002.623294864548
 21
423932.96013580752
 31
0.0
  0
LINE
  5
65BDE
  8
S-OBRYS
  6
CONTINUOUS
 10
53134.609386843222
 20
423952.31045891298
 30
0.0
 11
53002.623294864548
 21
423952.31045891298
 31
0.0
  0
LINE
  5
65BDF
  8
S-OBRYS
  6
CONTINUOUS
 10
52890.27890940872
 20
423889.90416398679
 30
0.0
 11
53002.623294864548
 21
423889.90416398679
 31
0.0
  0
LINE
  5
65BE0
  8
S-OBRYS
  6
CONTINUOUS
 10
53134.609386843222
 20
423998.75123071182
 30
0.0
 11
53002.623294864548
 21
423998.75123071182
 31
0.0
  0
LINE
  5
65BE1
  8
S-OBRYS
  6
CONTINUOUS
 10
53134.609386843222
 20
424047.77204572677
 30
0.0
 11
53002.623294864548
 21
424047.77204572677
 31
0.0
  0
LINE
  5
65BE2
  8
S-OBRYS
  6
CONTINUOUS
 10
53134.609386843222
 20
424023.26163821929
 30
0.0
 11
53002.623294864548
 21
424023.26163821929
 31
0.0
  0
LINE
  5
65BE3
  8
S-OBRYS
  6
CONTINUOUS
 10
53172.992556824458
 20
424070.14556067111
 30
0.0
 11
53002.623294864548
 21
424070.14556067111
 31
0.0
  0
LINE
  5
65BE4
  8
S-OBRYS
  6
CONTINUOUS
 10
53002.623294864548
 20
424149.21579059417
 30
0.0
 11
52696.623294864548
 21
424149.21579059417
 31
0.0
  0
LINE
  5
65BE5
  8
S-OBRYS
  6
CONTINUOUS
 10
52890.27890940872
 20
424070.14556067111
 30
0.0
 11
52890.27890940872
 21
423890.04655869358
 31
0.0
  0
LINE
  5
65BE6
  8
S-OBRYS
  6
CONTINUOUS
 10
52603.924102926569
 20
423890.27315239789
 30
0.0
 11
52696.623294864548
 21
423890.27315239789
 31
0.0
  0
LINE
  5
65BE7
  8
S-OBRYS
  6
CONTINUOUS
 10
52553.49350804172
 20
423870.27315239789
 30
0.0
 11
52696.623294864548
 21
423870.27315239789
 31
0.0
  0
LINE
  5
65BE8
  8
S-OBRYS
  6
CONTINUOUS
 10
53134.609386843222
 20
423889.90416398679
 30
0.0
 11
53134.609386843222
 21
424070.14556067111
 31
0.0
  0
LINE
  5
65BE9
  8
S-OBRYS
  6
CONTINUOUS
 10
53172.992556824458
 20
423889.90416398679
 30
0.0
 11
53172.992556824458
 21
424070.14556067111
 31
0.0
  0
LINE
  5
65BEA
  8
S-OBRYS
  6
CONTINUOUS
 10
53002.623294864548
 20
424047.77204572677
 30
0.0
 11
52890.27890940872
 21
424047.77204572677
 31
0.0
  0
LINE
  5
65BEB
  8
S-OBRYS
  6
CONTINUOUS
 10
53002.623294864548
 20
424070.14556067111
 30
0.0
 11
52890.27890940872
 21
424070.14556067111
 31
0.0
  0
LINE
  5
65BEC
  8
S-OBRYS
  6
CONTINUOUS
 10
53002.623294864548
 20
424023.26163821929
 30
0.0
 11
52890.27890940872
 21
424023.26163821929
 31
0.0
  0
LINE
  5
65BED
  8
S-OBRYS
  6
CONTINUOUS
 10
53002.623294864548
 20
423998.75123071182
 30
0.0
 11
52890.27890940872
 21
423998.75123071182
 31
0.0
  0
LINE
  5
65BEE
  8
S-OBRYS
  6
CONTINUOUS
 10
53002.623294864548
 20
423889.90416398679
 30
0.0
 11
53172.992556824458
 21
423889.90416398679
 31
0.0
  0
LINE
  5
65BEF
  8
S-OBRYS
  6
CONTINUOUS
 10
53002.623294864548
 20
423914.89983735519
 30
0.0
 11
52890.27890940872
 21
423914.89983735519
 31
0.0
  0
LINE
  5
65BF0
  8
S-OBRYS
  6
CONTINUOUS
 10
53002.623294864548
 20
423932.96013580752
 30
0.0
 11
52890.27890940872
 21
423932.96013580752
 31
0.0
  0
LINE
  5
65BF1
  8
S-OBRYS
  6
CONTINUOUS
 10
53002.623294864548
 20
423952.31045891298
 30
0.0
 11
52890.27890940872
 21
423952.31045891298
 31
0.0
  0
POLYLINE
  5
65BF2
  8
S-OBRYS
  6
CONTINUOUS
 66
     1
 10
0.0
 20
0.0
 30
0.0
  0
VERTEX
  5
65EF3
  8
S-OBRYS
  6
CONTINUOUS
 10
52603.924102926569
 20
424244.7576863062
 30
0.0
  0
VERTEX
  5
65EF4
  8
S-OBRYS
  6
CONTINUOUS
 10
52690.86119118199
 20
424244.7576863062
 30
0.0
  0
SEQEND
  5
65EF5
  8
S-OBRYS
  6
CONTINUOUS
  0
POLYLINE
  5
65BF3
  8
S-OBRYS
  6
CONTINUOUS
 66
     1
 10
0.0
 20
0.0
 30
0.0
  0
VERTEX
  5
65EF6
  8
S-OBRYS
  6
CONTINUOUS
 10
52553.49350804172
 20
424270.77227160957
 30
0.0
  0
VERTEX
  5
65EF7
  8
S-OBRYS
  6
CONTINUOUS
 10
52538.231830217053
 20
424270.77227160957
 30
0.0
  0
SEQEND
  5
65EF8
  8
S-OBRYS
  6
CONTINUOUS
  0
POLYLINE
  5
65BF4
  8
S-OBRYS
  6
CONTINUOUS
 66
     1
 10
0.0
 20
0.0
 30
0.0
  0
VERTEX
  5
65EF9
  8
S-OBRYS
  6
CONTINUOUS
 10
52690.86119118199
 20
424270.77227160957
 30
0.0
  0
VERTEX
  5
65EFA
  8
S-OBRYS
  6
CONTINUOUS
 10
52603.924102926569
 20
424270.77227160957
 30
0.0
  0
SEQEND
  5
65EFB
  8
S-OBRYS
  6
CONTINUOUS
  0
DIMENSION
  5
65BF5
  8
S-OBRYS
  6
CONTINUOUS
  2
*D27
 10
53430.385664583009
 20
423774.63859539828
 30
0.0
 11
53430.385664582951
 21
424097.70178717811
 31
0.0
 70
   128
  1
646
 13
52696.623294864548
 23
424420.76497895789
 33
0.0
 14
52696.623294864548
 24
423774.63859539828
 34
0.0
 50
90.0
1001
ACAD
1000
DSTYLE
1002
{
1070
    41
1040
1.0
1070
   140
1040
1.0
1002
}
  0
DIMENSION
  5
65BF6
  8
S-OBRYS
  6
CONTINUOUS
  2
*D28
 10
52404.962310108349
 20
424420.76497895789
 30
0.0
 11
52354.962310108291
 21
424339.26497895789
 31
0.0
 70
     0
 13
52538.787715325132
 23
424257.764978958
 33
0.0
 14
52696.623294864548
 24
424420.76497895789
 34
0.0
 50
90.0
1001
ACAD
1000
DSTYLE
1002
{
1070
    41
1040
1.0
1070
   140
1040
1.0
1002
}
  0
DIMENSION
  5
65BF7
  8
S-OBRYS
  6
CONTINUOUS
  2
*D29
 10
52849.623294864548
 20
424630.11223270389
 30
0.0
 11
53042.646164039172
 21
424630.11223270389
 31
0.0
 70
   128
  1
386
 13
53235.669033213802
 23
424257.764978958
 33
0.0
 14
52849.623294864548
 24
424420.76497895789
 34
0.0
1001
ACAD
1000
DSTYLE
1002
{
1070
    41
1040
1.0
1070
   140
1040
1.0
1002
}
  0
DIMENSION
  5
65BF8
  8
S-OBRYS
  6
CONTINUOUS
  2
*D30
 10
51875.275207158178
 20
423981.3409642647
 30
0.0
 11
52214.384357599949
 21
424031.34096426482
 31
0.0
 70
     0
  1
MIN.200
 13
52553.493508041727
 23
424067.56524074782
 33
0.0
 14
51875.275207158178
 24
424067.56524074782
 34
0.0
1001
ACAD
1000
DSTYLE
1002
{
1070
    41
1040
1.0
1070
   140
1040
1.0
1002
}
  0
LINE
  5
65BF9
  8
S-OBRYS
  6
CONTINUOUS
 10
51875.275207158178
 20
424064.41524074791
 30
0.0
 11
51875.275207158178
 21
424610.94546104601
 31
0.0
  0
LINE
  5
65BFA
  8
S-OBRYS
  6
CONTINUOUS
 10
51875.275207158178
 20
424610.94546104601
 30
0.0
 11
51875.275207158178
 21
423758.5571301296
 31
0.0
  0
LINE
  5
65BFB
  8
S-OBRYS
  6
CONTINUOUS
 10
51875.275207158178
 20
424610.94546104601
 30
0.0
 11
51820.899723934708
 21
424584.52570127312
 31
0.0
  0
LINE
  5
65BFC
  8
S-OBRYS
  6
CONTINUOUS
 10
51875.275207158178
 20
424579.3789481796
 30
0.0
 11
51820.899723934708
 21
424552.9591884067
 31
0.0
  0
LINE
  5
65BFD
  8
S-OBRYS
  6
CONTINUOUS
 10
51875.275207158178
 20
424544.94365022372
 30
0.0
 11
51820.899723934708
 21
424518.52389045071
 31
0.0
  0
LINE
  5
65BFE
  8
S-OBRYS
  6
CONTINUOUS
 10
51875.275207158178
 20
424509.5502947747
 30
0.0
 11
51820.899723934708
 21
424483.13053500181
 31
0.0
  0
LINE
  5
65BFF
  8
S-OBRYS
  6
CONTINUOUS
 10
51875.275207158178
 20
424472.24531383108
 30
0.0
 11
51820.899723934708
 21
424445.82555405807
 31
0.0
  0
LINE
  5
65C00
  8
S-OBRYS
  6
CONTINUOUS
 10
51875.275207158178
 20
424433.02601369767
 30
0.0
 11
51820.899723934708
 21
424406.60625392472
 31
0.0
  0
LINE
  5
65C01
  8
S-OBRYS
  6
CONTINUOUS
 10
51875.275207158178
 20
424392.85045186779
 30
0.0
 11
51820.899723934708
 21
424366.4306920949
 31
0.0
  0
LINE
  5
65C02
  8
S-OBRYS
  6
CONTINUOUS
 10
51875.275207158178
 20
424353.63204963272
 30
0.0
 11
51820.899723934708
 21
424327.21228985977
 31
0.0
  0
LINE
  5
65C03
  8
S-OBRYS
  6
CONTINUOUS
 10
51875.275207158178
 20
424313.45648780302
 30
0.0
 11
51820.899723934708
 21
424287.03672803001
 31
0.0
  0
LINE
  5
65C04
  8
S-OBRYS
  6
CONTINUOUS
 10
51875.275207158178
 20
424269.4549812887
 30
0.0
 11
51820.899723934708
 21
424243.03522151581
 31
0.0
  0
LINE
  5
65C05
  8
S-OBRYS
  6
CONTINUOUS
 10
51875.275207158178
 20
424227.36689606588
 30
0.0
 11
51820.899723934708
 21
424200.94713629287
 31
0.0
  0
LINE
  5
65C06
  8
S-OBRYS
  6
CONTINUOUS
 10
51875.275207158178
 20
424182.0391937528
 30
0.0
 11
51820.899723934708
 21
424155.61943397979
 31
0.0
  0
LINE
  5
65C07
  8
S-OBRYS
  6
CONTINUOUS
 10
51875.275207158178
 20
424127.5161148819
 30
0.0
 11
51820.899723934708
 21
424101.09635510889
 31
0.0
  0
LINE
  5
65C08
  8
S-OBRYS
  6
CONTINUOUS
 10
51875.275207158178
 20
424077.77434449369
 30
0.0
 11
51820.899723934708
 21
424051.35458472068
 31
0.0
  0
LINE
  5
65C09
  8
S-OBRYS
  6
CONTINUOUS
 10
51875.275207158178
 20
424028.99063159851
 30
0.0
 11
51820.899723934708
 21
424002.57087182562
 31
0.0
  0
LINE
  5
65C0A
  8
S-OBRYS
  6
CONTINUOUS
 10
51875.275207158178
 20
423979.24975910858
 30
0.0
 11
51820.899723934708
 21
423952.82999933558
 31
0.0
  0
LINE
  5
65C0B
  8
S-OBRYS
  6
CONTINUOUS
 10
51875.275207158178
 20
423929.50888661871
 30
0.0
 11
51820.899723934708
 21
423903.08912684582
 31
0.0
  0
LINE
  5
65C0C
  8
S-OBRYS
  6
CONTINUOUS
 10
51875.275207158178
 20
423880.72427582531
 30
0.0
 11
51820.899723934708
 21
423854.3045160523
 31
0.0
  0
LINE
  5
65C0D
  8
S-OBRYS
  6
CONTINUOUS
 10
51875.275207158178
 20
423836.72276931111
 30
0.0
 11
51820.899723934708
 21
423810.3030095381
 31
0.0
  0
LINE
  5
65C0E
  8
S-OBRYS
  6
CONTINUOUS
 10
51875.275207158178
 20
423793.67752449343
 30
0.0
 11
51820.899723934708
 21
423767.25776472042
 31
0.0
  0
LINE
  5
65C0F
  8
S-OBRYS
  6
CONTINUOUS
 10
51875.275207158178
 20
423758.28506694263
 30
0.0
 11
51820.899723934708
 21
423731.86530716968
 31
0.0
  0
VIEWPORT
  5
1FAB5
 67
     1
  8
0
  6
ČERCHOVANÁ
 10
12.669026204836801
 20
9.4585013259736659
 30
0.0
 40
41.707206501782828
 41
24.2248555085413
 68
     1
 69
     1
1001
ACAD
1000
MVIEW
1002
{
1070
    16
1010
0.0
1020
0.0
1030
0.0
1010
0.0
1020
0.0
1030
1.0
1040
0.0
1040
24.2248555085413
1040
12.669026204836801
1040
9.4585013259736659
1040
50.0
1040
0.0
1040
0.0
1070
     0
1070
   100
1070
     1
1070
     1
1070
     0
1070
     0
1070
     0
1070
     0
1040
0.0
1040
0.0
1040
0.0
1040
10.0
1040
10.0
1040
10.0
1040
10.0
1070
     0
1002
{
1002
}
1002
}
  0
VIEWPORT
  5
1FAB7
 67
     1
  8
2-VZT
  6
ČERCHOVANÁ
 10
5.24999976158142
 20
3.99999976158142
 30
0.0
 40
8.3999996185302717
 41
6.3999996185302717
 68
     2
 69
     2
1001
ACAD
1000
MVIEW
1002
{
1070
    16
1010
0.0
1020
0.0
1030
0.0
1010
0.0
1020
0.0
1030
1.0
1040
0.0
1040
517776.44812413253
1040
-335493.7046016907
1040
-205251.99203018961
1040
50.0
1040
0.0
1040
0.0
1070
     0
1070
   100
1070
     1
1070
     0
1070
     0
1070
     0
1070
     0
1070
     0
1040
0.0
1040
0.0
1040
0.0
1040
1.0
1040
1.0
1040
1.0
1040
1.0
1070
     0
1002
{
1002
}
1002
}
  0
ENDSEC
  0
EOF
