  0
SECTION
  2
HEADER
  9
$ACADVER
  1
AC1009
  9
$INSBASE
 10
0.0
 20
0.0
 30
0.0
  9
$EXTMIN
 10
11314.672356200281
 20
394711.161749786
 30
0.0
  9
$EXTMAX
 10
47875.624264079772
 20
409561.16174978612
 30
0.0
  9
$LIMMIN
 10
-127022.6804658414
 20
-67144.462473645661
  9
$LIMMAX
 10
-873.19720690528334
 20
6755.1563308572058
  9
$ORTHOMODE
 70
     0
  9
$REGENMODE
 70
     1
  9
$FILLMODE
 70
     1
  9
$QTEXTMODE
 70
     0
  9
$MIRRTEXT
 70
     0
  9
$DRAGMODE
 70
     2
  9
$LTSCALE
 40
50.0
  9
$OSMODE
 70
   679
  9
$ATTMODE
 70
     1
  9
$TEXTSIZE
 40
200.0
  9
$TRACEWID
 40
10.0
  9
$TEXTSTYLE
  7
R
  9
$CLAYER
  8
S-OBRYS
  9
$CELTYPE
  6
CONTINUOUS
  9
$CECOLOR
 62
   256
  9
$DIMSCALE
 40
50.0
  9
$DIMASZ
 40
2.0
  9
$DIMEXO
 40
0.063
  9
$DIMDLI
 40
5.0
  9
$DIMRND
 40
0.0
  9
$DIMDLE
 40
0.0
  9
$DIMEXE
 40
0.2
  9
$DIMTP
 40
0.0
  9
$DIMTM
 40
0.0
  9
$DIMTXT
 40
2.0
  9
$DIMCEN
 40
2.0
  9
$DIMTSZ
 40
0.0
  9
$DIMTOL
 70
     0
  9
$DIMLIM
 70
     0
  9
$DIMTIH
 70
     0
  9
$DIMTOH
 70
     0
  9
$DIMSE1
 70
     0
  9
$DIMSE2
 70
     0
  9
$DIMTAD
 70
     1
  9
$DIMZIN
 70
    12
  9
$DIMBLK
  1

  9
$DIMASO
 70
     1
  9
$DIMSHO
 70
     0
  9
$DIMPOST
  1

  9
$DIMAPOST
  1

  9
$DIMALT
 70
     0
  9
$DIMALTD
 70
     2
  9
$DIMALTF
 40
25.399999999999999
  9
$DIMLFAC
 40
1.0
  9
$DIMTOFL
 70
     1
  9
$DIMTVP
 40
0.0
  9
$DIMTIX
 70
     0
  9
$DIMSOXD
 70
     0
  9
$DIMSAH
 70
     1
  9
$DIMBLK1
  1
OPEN
  9
$DIMBLK2
  1
OPEN
  9
$DIMSTYLE
  2
EMBABA
  9
$DIMCLRD
 70
     0
  9
$DIMCLRE
 70
     0
  9
$DIMCLRT
 70
     7
  9
$DIMTFAC
 40
1.0
  9
$DIMGAP
 40
0.5
  9
$LUNITS
 70
     2
  9
$LUPREC
 70
     0
  9
$SKETCHINC
 40
10.0
  9
$FILLETRAD
 40
400.0
  9
$AUNITS
 70
     0
  9
$AUPREC
 70
     4
  9
$MENU
  1
ACAD
  9
$ELEVATION
 40
0.0
  9
$PELEVATION
 40
0.0
  9
$THICKNESS
 40
0.0
  9
$LIMCHECK
 70
     0
  9
$BLIPMODE
 70
     0
  9
$CHAMFERA
 40
0.0
  9
$CHAMFERB
 40
0.0
  9
$SKPOLY
 70
     0
  9
$TDCREATE
 40
2450205.720229167
  9
$TDUPDATE
 40
2453528.498691042
  9
$TDINDWG
 40
42.3745141319
  9
$TDUSRTIMER
 40
42.3745141319
  9
$USRTIMER
 70
     1
  9
$ANGBASE
 50
0.0
  9
$ANGDIR
 70
     0
  9
$PDMODE
 70
     2
  9
$PDSIZE
 40
-5.0
  9
$PLINEWID
 40
0.0
  9
$COORDS
 70
     0
  9
$SPLFRAME
 70
     0
  9
$SPLINETYPE
 70
     6
  9
$SPLINESEGS
 70
     8
  9
$ATTDIA
 70
     0
  9
$ATTREQ
 70
     1
  9
$HANDLING
 70
     1
  9
$HANDSEED
  5
6A26C
  9
$SURFTAB1
 70
    18
  9
$SURFTAB2
 70
    18
  9
$SURFTYPE
 70
     6
  9
$SURFU
 70
    18
  9
$SURFV
 70
    18
  9
$UCSNAME
  2

  9
$UCSORG
 10
0.0
 20
0.0
 30
0.0
  9
$UCSXDIR
 10
1.0
 20
0.0
 30
0.0
  9
$UCSYDIR
 10
0.0
 20
1.0
 30
0.0
  9
$PUCSNAME
  2

  9
$PUCSORG
 10
0.0
 20
0.0
 30
0.0
  9
$PUCSXDIR
 10
1.0
 20
0.0
 30
0.0
  9
$PUCSYDIR
 10
0.0
 20
1.0
 30
0.0
  9
$USERI1
 70
     0
  9
$USERI2
 70
     0
  9
$USERI3
 70
     0
  9
$USERI4
 70
     0
  9
$USERI5
 70
     0
  9
$USERR1
 40
0.0
  9
$USERR2
 40
50.0
  9
$USERR3
 40
0.0
  9
$USERR4
 40
0.0
  9
$USERR5
 40
0.0
  9
$WORLDVIEW
 70
     1
  9
$SHADEDGE
 70
     3
  9
$SHADEDIF
 70
    70
  9
$TILEMODE
 70
     1
  9
$MAXACTVP
 70
    16
  9
$PLIMCHECK
 70
     0
  9
$PEXTMIN
 10
1.049999952316284
 20
0.7999999523162842
 30
0.0
  9
$PEXTMAX
 10
9.4499995708465558
 20
7.1999995708465558
 30
0.0
  9
$PLIMMIN
 10
-0.2500002402958907
 20
-0.2499999962453767
  9
$PLIMMAX
 10
10.74999951940821
 20
8.2499997634587316
  9
$UNITMODE
 70
     0
  9
$VISRETAIN
 70
     0
  9
$PLINEGEN
 70
     0
  9
$PSLTSCALE
 70
     1
  0
ENDSEC
  0
SECTION
  2
TABLES
  0
TABLE
  2
VPORT
 70
     4
  0
VPORT
  2
*ACTIVE
 70
     0
 10
0.0
 20
0.0
 11
1.0
 21
1.0
 12
21238.299532505989
 22
406237.46093954792
 13
0.0
 23
0.0
 14
1.0
 24
1.0
 15
1.0
 25
1.0
 16
0.0
 26
0.0
 36
1.0
 17
0.0
 27
0.0
 37
0.0
 40
35278.401379531948
 41
1.6116303219106951
 42
50.0
 43
0.0
 44
0.0
 50
0.0
 51
0.0
 71
     0
 72
   100
 73
     1
 74
     0
 75
     0
 76
     1
 77
     0
 78
     0
  0
ENDTAB
  0
TABLE
  2
LTYPE
 70
     3
  0
LTYPE
  2
CONTINUOUS
 70
     0
  3
Solid line
 72
    65
 73
     0
 40
0.0
  0
LTYPE
  2
ČERCHOVANÁ
 70
     0
  3
Čerchovaná __ . __ . __ . __ . __ . __ . __ . _
 72
    65
 73
     4
 40
1.0
 49
0.5
 49
-0.25
 49
0.0
 49
-0.25
  0
ENDTAB
  0
TABLE
  2
LAYER
 70
    21
  0
LAYER
  2
0
 70
     0
 62
     7
  6
CONTINUOUS
  0
LAYER
  2
RAZ
 70
     0
 62
     7
  6
CONTINUOUS
  0
LAYER
  2
KOTY
 70
     0
 62
     2
  6
CONTINUOUS
  0
LAYER
  2
DEFPOINTS
 70
     0
 62
     7
  6
CONTINUOUS
  0
LAYER
  2
2-VZT
 70
     0
 62
     4
  6
CONTINUOUS
  0
LAYER
  2
OBRYS
 70
     0
 62
     7
  6
CONTINUOUS
  0
LAYER
  2
S-OBRYS
 70
     0
 62
     7
  6
CONTINUOUS
  0
ENDTAB
  0
TABLE
  2
STYLE
 70
     9
  0
STYLE
  2
STANDARD
 70
     0
 40
0.0
 41
0.8
 50
0.0
 71
     0
 42
200.0
  3
ROMANS.SHX
  4

  0
STYLE
  2
R
 70
     0
 40
0.0
 41
1.0
 50
0.0
 71
     0
 42
200.0
  3
romans.shx
  4

  0
STYLE
  2
ROMANS
 70
     0
 40
0.0
 41
0.8
 50
0.0
 71
     0
 42
300.0
  3
ROMANS.shx
  4

  0
STYLE
  2
R08
 70
     0
 40
0.0
 41
0.8
 50
0.0
 71
     0
 42
800.0
  3
ROMANS.shx
  4

  0
STYLE
  2
ROMANT
 70
     0
 40
0.0
 41
0.7
 50
0.0
 71
     0
 42
3.0
  3
romant
  4

  0
STYLE
  2
CYRILLIC
 70
     0
 40
2.2999999999999989
 41
0.7
 50
0.0
 71
     0
 42
2.2999999999999989
  3
cyrillic
  4

  0
STYLE
  2
PROKOP
 70
     0
 40
100.0
 41
0.7
 50
0.0
 71
     0
 42
100.0
  3
romanc.shx
  4

  0
ENDTAB
  0
TABLE
  2
VIEW
 70
     0
  0
ENDTAB
  0
TABLE
  2
UCS
 70
     0
  0
ENDTAB
  0
TABLE
  2
APPID
 70
     6
  0
APPID
  2
ACAD
 70
     0
  0
APPID
  2
PHOENIX7010
 70
     0
  0
APPID
  2
CONTENTBLOCKICON
 70
     0
  0
APPID
  2
CONTENTLONGBLOCKNAME
 70
     0
  0
APPID
  2
ACAD_DSTYLE_DIMTEXT_FILL
 70
     0
  0
APPID
  2
DCO15
 70
     0
  0
ENDTAB
  0
TABLE
  2
DIMSTYLE
 70
     5
  0
DIMSTYLE
  2
STANDARD
 70
     0
  3

  4

  5

  6
OPEN
  7
OPEN
 40
1.0
 41
80.0
 42
1.0
 43
0.0
 44
1.0
 45
0.0
 46
0.8
 47
0.0
 48
0.0
140
70.0
141
-3.0
142
0.0
143
0.0394
144
1.0
145
1.0
146
0.5
147
1.0
 71
     0
 72
     0
 73
     0
 74
     0
 75
     0
 76
     0
 77
     0
 78
     8
170
     0
171
     2
172
     1
173
     1
174
     0
175
     0
176
     7
177
     7
178
     2
  0
DIMSTYLE
  2
EMBABA
 70
     0
  3

  4

  5

  6
OPEN
  7
OPEN
 40
50.0
 41
2.0
 42
0.063
 43
5.0
 44
0.2
 45
0.0
 46
0.0
 47
0.0
 48
0.0
140
2.0
141
2.0
142
0.0
143
25.399999999999999
144
1.0
145
0.0
146
1.0
147
0.5
 71
     0
 72
     0
 73
     0
 74
     0
 75
     0
 76
     0
 77
     1
 78
    12
170
     0
171
     2
172
     1
173
     1
174
     0
175
     0
176
     0
177
     0
178
     7
  0
ENDTAB
  0
ENDSEC
  0
SECTION
  2
BLOCKS
  0
BLOCK
  8
0
  2
$MODEL_SPACE
 70
     0
 10
0.0
 20
0.0
 30
0.0
  3
$MODEL_SPACE
  1

  0
ENDBLK
  5
9
  8
0
  0
BLOCK
 67
     1
  8
0
  2
$PAPER_SPACE
 70
     0
 10
0.0
 20
0.0
 30
0.0
  3
$PAPER_SPACE
  1

  0
ENDBLK
  5
E
 67
     1
  8
0
  0
BLOCK
  8
0
  2
_OPEN
 70
     0
 10
0.0
 20
0.0
 30
0.0
  3
_OPEN
  1

  0
LINE
  5
28
  8
0
  6
BYBLOCK
 62
     0
 10
-1.0
 20
0.1666666666666666
 30
0.0
 11
0.0
 21
0.0
 31
0.0
  0
LINE
  5
29
  8
0
  6
BYBLOCK
 62
     0
 10
0.0
 20
0.0
 30
0.0
 11
-1.0
 21
-0.1666666666666666
 31
0.0
  0
LINE
  5
2A
  8
0
  6
BYBLOCK
 62
     0
 10
0.0
 20
0.0
 30
0.0
 11
-1.0
 21
0.0
 31
0.0
  0
ENDBLK
  5
2C
  8
0
  0
BLOCK
  8
0
  2
*D33
 70
     1
 10
0.0
 20
0.0
 30
0.0
  3
*D33
  1

  0
LINE
  5
69CD1
  8
S-OBRYS
  6
CONTINUOUS
 62
     0
 10
15244.08791836847
 20
402879.62381876248
 30
0.0
 11
15244.08791836847
 21
403044.75252953341
 31
0.0
  0
LINE
  5
69CD2
  8
S-OBRYS
  6
CONTINUOUS
 62
     0
 10
15386.0804100203
 20
402831.0316846043
 30
0.0
 11
15386.0804100203
 21
403044.75252953341
 31
0.0
  0
LINE
  5
69CD3
  8
S-OBRYS
  6
CONTINUOUS
 62
     0
 10
15144.08791836847
 20
403034.75252953352
 30
0.0
 11
15044.08791836847
 21
403034.75252953352
 31
0.0
  0
LINE
  5
69CD4
  8
S-OBRYS
  6
CONTINUOUS
 62
     0
 10
15486.0804100203
 20
403034.75252953352
 30
0.0
 11
15830.366124306011
 21
403034.75252953352
 31
0.0
  0
LINE
  5
69CD5
  8
S-OBRYS
  6
CONTINUOUS
 62
     0
 10
15244.08791836847
 20
403034.75252953352
 30
0.0
 11
15386.0804100203
 21
403034.75252953352
 31
0.0
  0
INSERT
  5
69CD6
  8
S-OBRYS
  6
CONTINUOUS
 62
     0
  2
_OPEN
 10
15244.08791836847
 20
403034.75252953352
 30
0.0
 41
100.0
 42
100.0
 43
100.0
  0
INSERT
  5
69CD7
  8
S-OBRYS
  6
CONTINUOUS
 62
     0
  2
_OPEN
 10
15386.0804100203
 20
403034.75252953352
 30
0.0
 41
100.0
 42
100.0
 43
100.0
 50
180.0
  0
INSERT
  5
69CD8
  8
S-OBRYS
  6
CONTINUOUS
  2
*U137
 10
0.0
 20
0.0
 30
0.0
  0
POINT
  5
69CD9
  8
DEFPOINTS
  6
CONTINUOUS
 62
     0
 10
15244.08791836847
 20
402876.47381876252
 30
0.0
  0
POINT
  5
69CDA
  8
DEFPOINTS
  6
CONTINUOUS
 62
     0
 10
15386.0804100203
 20
402827.88168460422
 30
0.0
  0
POINT
  5
69CDB
  8
DEFPOINTS
  6
CONTINUOUS
 62
     0
 10
15386.0804100203
 20
403034.75252953352
 30
0.0
  0
ENDBLK
  5
69783
  8
0
  0
BLOCK
  8
0
  2
*D34
 70
     1
 10
0.0
 20
0.0
 30
0.0
  3
*D34
  1

  0
LINE
  5
69CDC
  8
S-OBRYS
  6
CONTINUOUS
 62
     0
 10
15244.08791836847
 20
402882.77381876251
 30
0.0
 11
15244.08791836847
 21
403044.75252953341
 31
0.0
  0
LINE
  5
69CDD
  8
S-OBRYS
  6
CONTINUOUS
 62
     0
 10
14663.0804100203
 20
402643.53240685433
 30
0.0
 11
14663.0804100203
 21
403044.75252953341
 31
0.0
  0
LINE
  5
69CDE
  8
S-OBRYS
  6
CONTINUOUS
 62
     0
 10
15144.08791836847
 20
403034.75252953352
 30
0.0
 11
14763.0804100203
 21
403034.75252953352
 31
0.0
  0
INSERT
  5
69CDF
  8
S-OBRYS
  6
CONTINUOUS
 62
     0
  2
_OPEN
 10
15244.08791836847
 20
403034.75252953352
 30
0.0
 41
100.0
 42
100.0
 43
100.0
  0
INSERT
  5
69CE0
  8
S-OBRYS
  6
CONTINUOUS
 62
     0
  2
_OPEN
 10
14663.0804100203
 20
403034.75252953352
 30
0.0
 41
100.0
 42
100.0
 43
100.0
 50
180.0
  0
INSERT
  5
69CE1
  8
S-OBRYS
  6
CONTINUOUS
  2
*U138
 10
0.0
 20
0.0
 30
0.0
  0
POINT
  5
69CE2
  8
DEFPOINTS
  6
CONTINUOUS
 62
     0
 10
15244.08791836847
 20
402879.62381876248
 30
0.0
  0
POINT
  5
69CE3
  8
DEFPOINTS
  6
CONTINUOUS
 62
     0
 10
14663.0804100203
 20
402640.3824068543
 30
0.0
  0
POINT
  5
69CE4
  8
DEFPOINTS
  6
CONTINUOUS
 62
     0
 10
14663.0804100203
 20
403034.75252953352
 30
0.0
  0
ENDBLK
  5
6978F
  8
0
  0
BLOCK
  8
0
  2
*D35
 70
     1
 10
0.0
 20
0.0
 30
0.0
  3
*D35
  1

  0
LINE
  5
69CE5
  8
S-OBRYS
  6
CONTINUOUS
 62
     0
 10
14663.0804100203
 20
402646.68240685441
 30
0.0
 11
14663.0804100203
 21
403044.75252953341
 31
0.0
  0
LINE
  5
69CE6
  8
S-OBRYS
  6
CONTINUOUS
 62
     0
 10
13590.0804100203
 20
402705.96825559437
 30
0.0
 11
13590.0804100203
 21
403044.75252953341
 31
0.0
  0
LINE
  5
69CE7
  8
S-OBRYS
  6
CONTINUOUS
 62
     0
 10
14563.0804100203
 20
403034.75252953352
 30
0.0
 11
13690.0804100203
 21
403034.75252953352
 31
0.0
  0
INSERT
  5
69CE8
  8
S-OBRYS
  6
CONTINUOUS
 62
     0
  2
_OPEN
 10
14663.0804100203
 20
403034.75252953352
 30
0.0
 41
100.0
 42
100.0
 43
100.0
  0
INSERT
  5
69CE9
  8
S-OBRYS
  6
CONTINUOUS
 62
     0
  2
_OPEN
 10
13590.0804100203
 20
403034.75252953352
 30
0.0
 41
100.0
 42
100.0
 43
100.0
 50
180.0
  0
INSERT
  5
69CEA
  8
S-OBRYS
  6
CONTINUOUS
  2
*U139
 10
0.0
 20
0.0
 30
0.0
  0
POINT
  5
69CEB
  8
DEFPOINTS
  6
CONTINUOUS
 62
     0
 10
14663.0804100203
 20
402643.53240685433
 30
0.0
  0
POINT
  5
69CEC
  8
DEFPOINTS
  6
CONTINUOUS
 62
     0
 10
13590.0804100203
 20
402702.81825559441
 30
0.0
  0
POINT
  5
69CED
  8
DEFPOINTS
  6
CONTINUOUS
 62
     0
 10
13590.0804100203
 20
403034.75252953352
 30
0.0
  0
ENDBLK
  5
6979B
  8
0
  0
BLOCK
  8
0
  2
*D36
 70
     1
 10
0.0
 20
0.0
 30
0.0
  3
*D36
  1

  0
LINE
  5
69CEE
  8
S-OBRYS
  6
CONTINUOUS
 62
     0
 10
13590.0804100203
 20
402919.72563665343
 30
0.0
 11
13590.0804100203
 21
403044.75252953341
 31
0.0
  0
LINE
  5
69CEF
  8
S-OBRYS
  6
CONTINUOUS
 62
     0
 10
13274.0804100203
 20
402831.0316846043
 30
0.0
 11
13274.0804100203
 21
403044.75252953341
 31
0.0
  0
LINE
  5
69CF0
  8
S-OBRYS
  6
CONTINUOUS
 62
     0
 10
13490.0804100203
 20
403034.75252953352
 30
0.0
 11
13374.0804100203
 21
403034.75252953352
 31
0.0
  0
INSERT
  5
69CF1
  8
S-OBRYS
  6
CONTINUOUS
 62
     0
  2
_OPEN
 10
13590.0804100203
 20
403034.75252953352
 30
0.0
 41
100.0
 42
100.0
 43
100.0
  0
INSERT
  5
69CF2
  8
S-OBRYS
  6
CONTINUOUS
 62
     0
  2
_OPEN
 10
13274.0804100203
 20
403034.75252953352
 30
0.0
 41
100.0
 42
100.0
 43
100.0
 50
180.0
  0
INSERT
  5
69CF3
  8
S-OBRYS
  6
CONTINUOUS
  2
*U140
 10
0.0
 20
0.0
 30
0.0
  0
POINT
  5
69CF4
  8
DEFPOINTS
  6
CONTINUOUS
 62
     0
 10
13590.0804100203
 20
402916.57563665329
 30
0.0
  0
POINT
  5
69CF5
  8
DEFPOINTS
  6
CONTINUOUS
 62
     0
 10
13274.0804100203
 20
402827.88168460422
 30
0.0
  0
POINT
  5
69CF6
  8
DEFPOINTS
  6
CONTINUOUS
 62
     0
 10
13274.0804100203
 20
403034.75252953352
 30
0.0
  0
ENDBLK
  5
697A7
  8
0
  0
BLOCK
  8
0
  2
*D37
 70
     1
 10
0.0
 20
0.0
 30
0.0
  3
*D37
  1

  0
LINE
  5
69CF7
  8
S-OBRYS
  6
CONTINUOUS
 62
     0
 10
13270.930410020301
 20
402327.88312910427
 30
0.0
 11
13094.433451598359
 21
402327.88312910427
 31
0.0
  0
LINE
  5
69CF8
  8
S-OBRYS
  6
CONTINUOUS
 62
     0
 10
13270.930410020301
 20
402827.88168460422
 30
0.0
 11
13094.433451598359
 21
402827.88168460422
 31
0.0
  0
LINE
  5
69CF9
  8
S-OBRYS
  6
CONTINUOUS
 62
     0
 10
13104.433451598359
 20
402427.88312910422
 30
0.0
 11
13104.433451598359
 21
402727.88168460422
 31
0.0
  0
INSERT
  5
69CFA
  8
S-OBRYS
  6
CONTINUOUS
 62
     0
  2
_OPEN
 10
13104.433451598359
 20
402327.88312910427
 30
0.0
 41
100.0
 42
100.0
 43
100.0
 50
270.0
  0
INSERT
  5
69CFB
  8
S-OBRYS
  6
CONTINUOUS
 62
     0
  2
_OPEN
 10
13104.433451598359
 20
402827.88168460422
 30
0.0
 41
100.0
 42
100.0
 43
100.0
 50
90.0
  0
INSERT
  5
69CFC
  8
S-OBRYS
  6
CONTINUOUS
  2
*U141
 10
0.0
 20
0.0
 30
0.0
  0
POINT
  5
69CFD
  8
DEFPOINTS
  6
CONTINUOUS
 62
     0
 10
13274.0804100203
 20
402327.88312910427
 30
0.0
  0
POINT
  5
69CFE
  8
DEFPOINTS
  6
CONTINUOUS
 62
     0
 10
13274.0804100203
 20
402827.88168460422
 30
0.0
  0
POINT
  5
69CFF
  8
DEFPOINTS
  6
CONTINUOUS
 62
     0
 10
13104.433451598359
 20
402827.88168460422
 30
0.0
  0
ENDBLK
  5
697B3
  8
0
  0
BLOCK
  8
0
  2
*D38
 70
     1
 10
0.0
 20
0.0
 30
0.0
  3
*D38
  1

  0
LINE
  5
698FE
  8
S-OBRYS
  6
CONTINUOUS
 62
     0
 10
14031.336600031729
 20
404796.68695903389
 30
0.0
 11
14031.336600031729
 21
404559.16450423462
 31
0.0
  0
LINE
  5
698FF
  8
S-OBRYS
  6
CONTINUOUS
 62
     0
 10
14805.336600031729
 20
404796.68695903389
 30
0.0
 11
14805.336600031729
 21
404559.16450423462
 31
0.0
  0
LINE
  5
69900
  8
S-OBRYS
  6
CONTINUOUS
 62
     0
 10
14131.336600031729
 20
404569.16450423462
 30
0.0
 11
14705.336600031729
 21
404569.16450423462
 31
0.0
  0
INSERT
  5
69901
  8
S-OBRYS
  6
CONTINUOUS
 62
     0
  2
_OPEN
 10
14031.336600031729
 20
404569.16450423462
 30
0.0
 41
100.0
 42
100.0
 43
100.0
 50
180.0
  0
INSERT
  5
69902
  8
S-OBRYS
  6
CONTINUOUS
 62
     0
  2
_OPEN
 10
14805.336600031729
 20
404569.16450423462
 30
0.0
 41
100.0
 42
100.0
 43
100.0
  0
INSERT
  5
69903
  8
S-OBRYS
  6
CONTINUOUS
  2
*U101
 10
0.0
 20
0.0
 30
0.0
  0
POINT
  5
69904
  8
DEFPOINTS
  6
CONTINUOUS
 62
     0
 10
14031.336600031729
 20
404799.83695903397
 30
0.0
  0
POINT
  5
69905
  8
DEFPOINTS
  6
CONTINUOUS
 62
     0
 10
14805.336600031729
 20
404799.83695903409
 30
0.0
  0
POINT
  5
69906
  8
DEFPOINTS
  6
CONTINUOUS
 62
     0
 10
14805.336600031729
 20
404569.16450423462
 30
0.0
  0
ENDBLK
  5
697BF
  8
0
  0
BLOCK
  8
0
  2
*D39
 70
     1
 10
0.0
 20
0.0
 30
0.0
  3
*D39
  1

  0
LINE
  5
69907
  8
S-OBRYS
  6
CONTINUOUS
 62
     0
 10
14805.336600031729
 20
404566.0145042346
 30
0.0
 11
14805.336600031729
 21
404549.1645042345
 31
0.0
  0
LINE
  5
69908
  8
S-OBRYS
  6
CONTINUOUS
 62
     0
 10
15340.336600031729
 20
404772.52748068568
 30
0.0
 11
15340.336600031729
 21
404549.1645042345
 31
0.0
  0
LINE
  5
69909
  8
S-OBRYS
  6
CONTINUOUS
 62
     0
 10
14905.336600031729
 20
404559.16450423462
 30
0.0
 11
15240.336600031729
 21
404559.16450423462
 31
0.0
  0
INSERT
  5
6990A
  8
S-OBRYS
  6
CONTINUOUS
 62
     0
  2
_OPEN
 10
14805.336600031729
 20
404559.16450423462
 30
0.0
 41
100.0
 42
100.0
 43
100.0
 50
180.0
  0
INSERT
  5
6990B
  8
S-OBRYS
  6
CONTINUOUS
 62
     0
  2
_OPEN
 10
15340.336600031729
 20
404559.16450423462
 30
0.0
 41
100.0
 42
100.0
 43
100.0
  0
INSERT
  5
6990C
  8
S-OBRYS
  6
CONTINUOUS
  2
*U102
 10
0.0
 20
0.0
 30
0.0
  0
POINT
  5
6990D
  8
DEFPOINTS
  6
CONTINUOUS
 62
     0
 10
14805.336600031729
 20
404569.16450423462
 30
0.0
  0
POINT
  5
6990E
  8
DEFPOINTS
  6
CONTINUOUS
 62
     0
 10
15340.336600031729
 20
404775.67748068582
 30
0.0
  0
POINT
  5
6990F
  8
DEFPOINTS
  6
CONTINUOUS
 62
     0
 10
15340.336600031729
 20
404559.16450423462
 30
0.0
  0
ENDBLK
  5
697CB
  8
0
  0
BLOCK
  8
0
  2
*D40
 70
     1
 10
0.0
 20
0.0
 30
0.0
  3
*D40
  1

  0
LINE
  5
69910
  8
S-OBRYS
  6
CONTINUOUS
 62
     0
 10
14031.336600031729
 20
404556.0145042346
 30
0.0
 11
14031.336600031729
 21
404283.58694884437
 31
0.0
  0
LINE
  5
69911
  8
S-OBRYS
  6
CONTINUOUS
 62
     0
 10
15340.336600031729
 20
404546.0145042346
 30
0.0
 11
15340.336600031729
 21
404283.58694884437
 31
0.0
  0
LINE
  5
69912
  8
S-OBRYS
  6
CONTINUOUS
 62
     0
 10
14131.336600031729
 20
404293.58694884437
 30
0.0
 11
15240.336600031729
 21
404293.58694884437
 31
0.0
  0
INSERT
  5
69913
  8
S-OBRYS
  6
CONTINUOUS
 62
     0
  2
_OPEN
 10
14031.336600031729
 20
404293.58694884437
 30
0.0
 41
100.0
 42
100.0
 43
100.0
 50
180.0
  0
INSERT
  5
69914
  8
S-OBRYS
  6
CONTINUOUS
 62
     0
  2
_OPEN
 10
15340.336600031729
 20
404293.58694884437
 30
0.0
 41
100.0
 42
100.0
 43
100.0
  0
INSERT
  5
69915
  8
S-OBRYS
  6
CONTINUOUS
  2
*U103
 10
0.0
 20
0.0
 30
0.0
  0
POINT
  5
69916
  8
DEFPOINTS
  6
CONTINUOUS
 62
     0
 10
14031.336600031729
 20
404559.16450423462
 30
0.0
  0
POINT
  5
69917
  8
DEFPOINTS
  6
CONTINUOUS
 62
     0
 10
15340.336600031729
 20
404549.1645042345
 30
0.0
  0
POINT
  5
69918
  8
DEFPOINTS
  6
CONTINUOUS
 62
     0
 10
15340.336600031729
 20
404293.58694884437
 30
0.0
  0
ENDBLK
  5
697D7
  8
0
  0
BLOCK
  8
0
  2
*D41
 70
     1
 10
0.0
 20
0.0
 30
0.0
  3
*D41
  1

  0
LINE
  5
69919
  8
S-OBRYS
  6
CONTINUOUS
 62
     0
 10
15340.336600031729
 20
404657.69599246018
 30
0.0
 11
15340.336600031729
 21
404549.1645042345
 31
0.0
  0
LINE
  5
6991A
  8
S-OBRYS
  6
CONTINUOUS
 62
     0
 10
15846.294563982099
 20
404698.06122489949
 30
0.0
 11
15846.294563982099
 21
404549.1645042345
 31
0.0
  0
LINE
  5
6991B
  8
S-OBRYS
  6
CONTINUOUS
 62
     0
 10
15440.336600031729
 20
404559.16450423462
 30
0.0
 11
15746.294563982099
 21
404559.16450423462
 31
0.0
  0
INSERT
  5
6991C
  8
S-OBRYS
  6
CONTINUOUS
 62
     0
  2
_OPEN
 10
15340.336600031729
 20
404559.16450423462
 30
0.0
 41
100.0
 42
100.0
 43
100.0
 50
180.0
  0
INSERT
  5
6991D
  8
S-OBRYS
  6
CONTINUOUS
 62
     0
  2
_OPEN
 10
15846.294563982099
 20
404559.16450423462
 30
0.0
 41
100.0
 42
100.0
 43
100.0
  0
INSERT
  5
6991E
  8
S-OBRYS
  6
CONTINUOUS
  2
*U104
 10
0.0
 20
0.0
 30
0.0
  0
POINT
  5
6991F
  8
DEFPOINTS
  6
CONTINUOUS
 62
     0
 10
15340.336600031729
 20
404660.84599246021
 30
0.0
  0
POINT
  5
69920
  8
DEFPOINTS
  6
CONTINUOUS
 62
     0
 10
15846.294563982099
 20
404701.21122489951
 30
0.0
  0
POINT
  5
69921
  8
DEFPOINTS
  6
CONTINUOUS
 62
     0
 10
15846.294563982099
 20
404559.16450423462
 30
0.0
  0
ENDBLK
  5
697E3
  8
0
  0
BLOCK
  8
0
  2
*D42
 70
     1
 10
0.0
 20
0.0
 30
0.0
  3
*D42
  1

  0
LINE
  5
69922
  8
S-OBRYS
  6
CONTINUOUS
 62
     0
 10
18231.377938729242
 20
406233.66468344221
 30
0.0
 11
18231.377938729242
 21
406500.7938429736
 31
0.0
  0
LINE
  5
69923
  8
S-OBRYS
  6
CONTINUOUS
 62
     0
 10
18731.377938729242
 20
406233.66468344221
 30
0.0
 11
18731.377938729242
 21
406500.7938429736
 31
0.0
  0
LINE
  5
69924
  8
S-OBRYS
  6
CONTINUOUS
 62
     0
 10
18331.377938729242
 20
406490.7938429736
 30
0.0
 11
18631.377938729242
 21
406490.7938429736
 31
0.0
  0
INSERT
  5
69925
  8
S-OBRYS
  6
CONTINUOUS
 62
     0
  2
_OPEN
 10
18231.377938729242
 20
406490.7938429736
 30
0.0
 41
100.0
 42
100.0
 43
100.0
 50
180.0
  0
INSERT
  5
69926
  8
S-OBRYS
  6
CONTINUOUS
 62
     0
  2
_OPEN
 10
18731.377938729242
 20
406490.7938429736
 30
0.0
 41
100.0
 42
100.0
 43
100.0
  0
INSERT
  5
69927
  8
S-OBRYS
  6
CONTINUOUS
  2
*U105
 10
0.0
 20
0.0
 30
0.0
  0
POINT
  5
69928
  8
DEFPOINTS
  6
CONTINUOUS
 62
     0
 10
18231.377938729242
 20
406230.51468344219
 30
0.0
  0
POINT
  5
69929
  8
DEFPOINTS
  6
CONTINUOUS
 62
     0
 10
18731.377938729242
 20
406230.51468344219
 30
0.0
  0
POINT
  5
6992A
  8
DEFPOINTS
  6
CONTINUOUS
 62
     0
 10
18731.377938729242
 20
406490.7938429736
 30
0.0
  0
ENDBLK
  5
697EF
  8
0
  0
BLOCK
  8
0
  2
*D43
 70
     1
 10
0.0
 20
0.0
 30
0.0
  3
*D43
  1

  0
LINE
  5
6992B
  8
S-OBRYS
  6
CONTINUOUS
 62
     0
 10
18146.377938729242
 20
406148.66625044227
 30
0.0
 11
18146.377938729242
 21
406690.5234842549
 31
0.0
  0
LINE
  5
6992C
  8
S-OBRYS
  6
CONTINUOUS
 62
     0
 10
18816.377938729242
 20
406148.66625044227
 30
0.0
 11
18816.377938729242
 21
406690.5234842549
 31
0.0
  0
LINE
  5
6992D
  8
S-OBRYS
  6
CONTINUOUS
 62
     0
 10
18246.377938729242
 20
406680.5234842549
 30
0.0
 11
18716.377938729242
 21
406680.5234842549
 31
0.0
  0
INSERT
  5
6992E
  8
S-OBRYS
  6
CONTINUOUS
 62
     0
  2
_OPEN
 10
18146.377938729242
 20
406680.5234842549
 30
0.0
 41
100.0
 42
100.0
 43
100.0
 50
180.0
  0
INSERT
  5
6992F
  8
S-OBRYS
  6
CONTINUOUS
 62
     0
  2
_OPEN
 10
18816.377938729242
 20
406680.5234842549
 30
0.0
 41
100.0
 42
100.0
 43
100.0
  0
INSERT
  5
69930
  8
S-OBRYS
  6
CONTINUOUS
  2
*U106
 10
0.0
 20
0.0
 30
0.0
  0
POINT
  5
69931
  8
DEFPOINTS
  6
CONTINUOUS
 62
     0
 10
18146.377938729242
 20
406145.51625044219
 30
0.0
  0
POINT
  5
69932
  8
DEFPOINTS
  6
CONTINUOUS
 62
     0
 10
18816.377938729242
 20
406145.51625044219
 30
0.0
  0
POINT
  5
69933
  8
DEFPOINTS
  6
CONTINUOUS
 62
     0
 10
18816.377938729242
 20
406680.5234842549
 30
0.0
  0
ENDBLK
  5
697FB
  8
0
  0
BLOCK
  8
0
  2
*D44
 70
     1
 10
0.0
 20
0.0
 30
0.0
  3
*D44
  1

  0
LINE
  5
69934
  8
S-OBRYS
  6
CONTINUOUS
 62
     0
 10
18338.22793872924
 20
406300.5140354422
 30
0.0
 11
17993.61702194401
 21
406300.5140354422
 31
0.0
  0
LINE
  5
69935
  8
S-OBRYS
  6
CONTINUOUS
 62
     0
 10
18228.22793872924
 20
404830.51773744222
 30
0.0
 11
17993.61702194401
 21
404830.51773744222
 31
0.0
  0
LINE
  5
69936
  8
S-OBRYS
  6
CONTINUOUS
 62
     0
 10
18003.61702194401
 20
406200.5140354422
 30
0.0
 11
18003.61702194401
 21
404930.51773744228
 31
0.0
  0
INSERT
  5
69937
  8
S-OBRYS
  6
CONTINUOUS
 62
     0
  2
_OPEN
 10
18003.61702194401
 20
406300.5140354422
 30
0.0
 41
100.0
 42
100.0
 43
100.0
 50
90.0
  0
INSERT
  5
69938
  8
S-OBRYS
  6
CONTINUOUS
 62
     0
  2
_OPEN
 10
18003.61702194401
 20
404830.51773744222
 30
0.0
 41
100.0
 42
100.0
 43
100.0
 50
270.0
  0
INSERT
  5
69939
  8
S-OBRYS
  6
CONTINUOUS
  2
*U107
 10
0.0
 20
0.0
 30
0.0
  0
POINT
  5
6993A
  8
DEFPOINTS
  6
CONTINUOUS
 62
     0
 10
18341.377938729242
 20
406300.5140354422
 30
0.0
  0
POINT
  5
6993B
  8
DEFPOINTS
  6
CONTINUOUS
 62
     0
 10
18231.377938729242
 20
404830.51773744222
 30
0.0
  0
POINT
  5
6993C
  8
DEFPOINTS
  6
CONTINUOUS
 62
     0
 10
18003.61702194401
 20
404830.51773744222
 30
0.0
  0
ENDBLK
  5
69807
  8
0
  0
BLOCK
  8
0
  2
*D45
 70
     1
 10
0.0
 20
0.0
 30
0.0
  3
*D45
  1

  0
LINE
  5
69CC6
  8
S-OBRYS
  6
CONTINUOUS
 62
     0
 10
13538.9945612802
 20
402654.88240685442
 30
0.0
 11
13449.16961835955
 21
402654.88240685442
 31
0.0
  0
LINE
  5
69CC7
  8
S-OBRYS
  6
CONTINUOUS
 62
     0
 10
13538.9945612802
 20
402577.8824068543
 30
0.0
 11
13449.16961835955
 21
402577.8824068543
 31
0.0
  0
LINE
  5
69CC8
  8
S-OBRYS
  6
CONTINUOUS
 62
     0
 10
13459.16961835955
 20
402477.8824068543
 30
0.0
 11
13459.16961835955
 21
402377.8824068543
 31
0.0
  0
LINE
  5
69CC9
  8
S-OBRYS
  6
CONTINUOUS
 62
     0
 10
13459.16961835955
 20
402754.8824068543
 30
0.0
 11
13459.16961835955
 21
403034.40621637809
 31
0.0
  0
LINE
  5
69CCA
  8
S-OBRYS
  6
CONTINUOUS
 62
     0
 10
13459.16961835955
 20
402577.8824068543
 30
0.0
 11
13459.16961835955
 21
402654.88240685442
 31
0.0
  0
INSERT
  5
69CCB
  8
S-OBRYS
  6
CONTINUOUS
 62
     0
  2
_OPEN
 10
13459.16961835955
 20
402577.8824068543
 30
0.0
 41
100.0
 42
100.0
 43
100.0
 50
90.0
  0
INSERT
  5
69CCC
  8
S-OBRYS
  6
CONTINUOUS
 62
     0
  2
_OPEN
 10
13459.16961835955
 20
402654.88240685442
 30
0.0
 41
100.0
 42
100.0
 43
100.0
 50
270.0
  0
INSERT
  5
69CCD
  8
S-OBRYS
  6
CONTINUOUS
  2
*U136
 10
0.0
 20
0.0
 30
0.0
  0
POINT
  5
69CCE
  8
DEFPOINTS
  6
CONTINUOUS
 62
     0
 10
13542.1445612802
 20
402654.88240685442
 30
0.0
  0
POINT
  5
69CCF
  8
DEFPOINTS
  6
CONTINUOUS
 62
     0
 10
13542.1445612802
 20
402577.8824068543
 30
0.0
  0
POINT
  5
69CD0
  8
DEFPOINTS
  6
CONTINUOUS
 62
     0
 10
13459.16961835955
 20
402577.8824068543
 30
0.0
  0
ENDBLK
  5
69815
  8
0
  0
BLOCK
  8
0
  2
*D46
 70
     1
 10
0.0
 20
0.0
 30
0.0
  3
*D46
  1

  0
LINE
  5
69D00
  8
S-OBRYS
  6
CONTINUOUS
 62
     0
 10
19663.358864291949
 20
402781.3643716448
 30
0.0
 11
19663.358864291949
 21
402881.62705868151
 31
0.0
  0
LINE
  5
69D01
  8
S-OBRYS
  6
CONTINUOUS
 62
     0
 10
19543.358864291949
 20
402781.3643716448
 30
0.0
 11
19543.358864291949
 21
402881.62705868151
 31
0.0
  0
LINE
  5
69D02
  8
S-OBRYS
  6
CONTINUOUS
 62
     0
 10
19443.358864291949
 20
402871.62705868151
 30
0.0
 11
19343.358864291949
 21
402871.62705868151
 31
0.0
  0
LINE
  5
69D03
  8
S-OBRYS
  6
CONTINUOUS
 62
     0
 10
19763.358864291949
 20
402871.62705868151
 30
0.0
 11
20107.64457857766
 21
402871.62705868151
 31
0.0
  0
LINE
  5
69D04
  8
S-OBRYS
  6
CONTINUOUS
 62
     0
 10
19543.358864291949
 20
402871.62705868151
 30
0.0
 11
19663.358864291949
 21
402871.62705868151
 31
0.0
  0
INSERT
  5
69D05
  8
S-OBRYS
  6
CONTINUOUS
 62
     0
  2
_OPEN
 10
19543.358864291949
 20
402871.62705868151
 30
0.0
 41
100.0
 42
100.0
 43
100.0
  0
INSERT
  5
69D06
  8
S-OBRYS
  6
CONTINUOUS
 62
     0
  2
_OPEN
 10
19663.358864291949
 20
402871.62705868151
 30
0.0
 41
100.0
 42
100.0
 43
100.0
 50
180.0
  0
INSERT
  5
69D07
  8
S-OBRYS
  6
CONTINUOUS
  2
*U142
 10
0.0
 20
0.0
 30
0.0
  0
POINT
  5
69D08
  8
DEFPOINTS
  6
CONTINUOUS
 62
     0
 10
19663.358864291949
 20
402778.21437164472
 30
0.0
  0
POINT
  5
69D09
  8
DEFPOINTS
  6
CONTINUOUS
 62
     0
 10
19543.358864291949
 20
402778.21437164472
 30
0.0
  0
POINT
  5
69D0A
  8
DEFPOINTS
  6
CONTINUOUS
 62
     0
 10
19543.358864291949
 20
402871.62705868151
 30
0.0
  0
ENDBLK
  5
69823
  8
0
  0
BLOCK
  8
0
  2
*D47
 70
     1
 10
0.0
 20
0.0
 30
0.0
  3
*D47
  1

  0
LINE
  5
69D0B
  8
S-OBRYS
  6
CONTINUOUS
 62
     0
 10
19543.358864291949
 20
402781.9893716448
 30
0.0
 11
19543.358864291949
 21
403014.5881021223
 31
0.0
  0
LINE
  5
69D0C
  8
S-OBRYS
  6
CONTINUOUS
 62
     0
 10
19363.358864291931
 20
402781.9893716448
 30
0.0
 11
19363.358864291931
 21
403014.5881021223
 31
0.0
  0
LINE
  5
69D0D
  8
S-OBRYS
  6
CONTINUOUS
 62
     0
 10
19643.358864291949
 20
403004.5881021223
 30
0.0
 11
19743.358864291949
 21
403004.5881021223
 31
0.0
  0
LINE
  5
69D0E
  8
S-OBRYS
  6
CONTINUOUS
 62
     0
 10
19263.358864291931
 20
403004.5881021223
 30
0.0
 11
19163.358864291931
 21
403004.5881021223
 31
0.0
  0
LINE
  5
69D0F
  8
S-OBRYS
  6
CONTINUOUS
 62
     0
 10
19543.358864291949
 20
403004.5881021223
 30
0.0
 11
19363.358864291931
 21
403004.5881021223
 31
0.0
  0
INSERT
  5
69D10
  8
S-OBRYS
  6
CONTINUOUS
 62
     0
  2
_OPEN
 10
19543.358864291949
 20
403004.5881021223
 30
0.0
 41
100.0
 42
100.0
 43
100.0
 50
180.0
  0
INSERT
  5
69D11
  8
S-OBRYS
  6
CONTINUOUS
 62
     0
  2
_OPEN
 10
19363.358864291931
 20
403004.5881021223
 30
0.0
 41
100.0
 42
100.0
 43
100.0
  0
INSERT
  5
69D12
  8
S-OBRYS
  6
CONTINUOUS
  2
*U143
 10
0.0
 20
0.0
 30
0.0
  0
POINT
  5
69D13
  8
DEFPOINTS
  6
CONTINUOUS
 62
     0
 10
19543.358864291949
 20
402778.83937164478
 30
0.0
  0
POINT
  5
69D14
  8
DEFPOINTS
  6
CONTINUOUS
 62
     0
 10
19363.358864291931
 20
402778.83937164478
 30
0.0
  0
POINT
  5
69D15
  8
DEFPOINTS
  6
CONTINUOUS
 62
     0
 10
19363.358864291931
 20
403004.5881021223
 30
0.0
  0
ENDBLK
  5
69831
  8
0
  0
BLOCK
  8
0
  2
*D48
 70
     1
 10
0.0
 20
0.0
 30
0.0
  3
*D48
  1

  0
LINE
  5
69D16
  8
S-OBRYS
  6
CONTINUOUS
 62
     0
 10
19663.358864291931
 20
402263.33273861231
 30
0.0
 11
19663.358864291931
 21
402037.46518629708
 31
0.0
  0
LINE
  5
69D17
  8
S-OBRYS
  6
CONTINUOUS
 62
     0
 10
19363.358864291949
 20
402263.33273861231
 30
0.0
 11
19363.358864291949
 21
402037.46518629708
 31
0.0
  0
LINE
  5
69D18
  8
S-OBRYS
  6
CONTINUOUS
 62
     0
 10
19563.358864291931
 20
402047.46518629702
 30
0.0
 11
19463.358864291949
 21
402047.46518629702
 31
0.0
  0
INSERT
  5
69D19
  8
S-OBRYS
  6
CONTINUOUS
 62
     0
  2
_OPEN
 10
19663.358864291931
 20
402047.46518629702
 30
0.0
 41
100.0
 42
100.0
 43
100.0
  0
INSERT
  5
69D1A
  8
S-OBRYS
  6
CONTINUOUS
 62
     0
  2
_OPEN
 10
19363.358864291949
 20
402047.46518629702
 30
0.0
 41
100.0
 42
100.0
 43
100.0
 50
180.0
  0
INSERT
  5
69D1B
  8
S-OBRYS
  6
CONTINUOUS
  2
*U144
 10
0.0
 20
0.0
 30
0.0
  0
POINT
  5
69D1C
  8
DEFPOINTS
  6
CONTINUOUS
 62
     0
 10
19663.358864291931
 20
402266.48273861222
 30
0.0
  0
POINT
  5
69D1D
  8
DEFPOINTS
  6
CONTINUOUS
 62
     0
 10
19363.358864291949
 20
402266.48273861222
 30
0.0
  0
POINT
  5
69D1E
  8
DEFPOINTS
  6
CONTINUOUS
 62
     0
 10
19363.358864291949
 20
402047.46518629702
 30
0.0
  0
ENDBLK
  5
6983D
  8
0
  0
BLOCK
  8
0
  2
*D49
 70
     1
 10
0.0
 20
0.0
 30
0.0
  3
*D49
  1

  0
LINE
  5
69D1F
  8
S-OBRYS
  6
CONTINUOUS
 62
     0
 10
19038.358864291949
 20
402776.36364939483
 30
0.0
 11
19038.358864291949
 21
403122.21971568349
 31
0.0
  0
LINE
  5
69D20
  8
S-OBRYS
  6
CONTINUOUS
 62
     0
 10
17729.358864291949
 20
402771.463625515
 30
0.0
 11
17729.358864291949
 21
403122.21971568349
 31
0.0
  0
LINE
  5
69D21
  8
S-OBRYS
  6
CONTINUOUS
 62
     0
 10
18938.358864291949
 20
403112.21971568349
 30
0.0
 11
17829.358864291949
 21
403112.21971568349
 31
0.0
  0
INSERT
  5
69D22
  8
S-OBRYS
  6
CONTINUOUS
 62
     0
  2
_OPEN
 10
19038.358864291949
 20
403112.21971568349
 30
0.0
 41
100.0
 42
100.0
 43
100.0
  0
INSERT
  5
69D23
  8
S-OBRYS
  6
CONTINUOUS
 62
     0
  2
_OPEN
 10
17729.358864291949
 20
403112.21971568349
 30
0.0
 41
100.0
 42
100.0
 43
100.0
 50
180.0
  0
INSERT
  5
69D24
  8
S-OBRYS
  6
CONTINUOUS
  2
*U145
 10
0.0
 20
0.0
 30
0.0
  0
POINT
  5
69D25
  8
DEFPOINTS
  6
CONTINUOUS
 62
     0
 10
19038.358864291949
 20
402773.21364939481
 30
0.0
  0
POINT
  5
69D26
  8
DEFPOINTS
  6
CONTINUOUS
 62
     0
 10
17729.358864291949
 20
402768.31362551491
 30
0.0
  0
POINT
  5
69D27
  8
DEFPOINTS
  6
CONTINUOUS
 62
     0
 10
17729.358864291949
 20
403112.21971568349
 30
0.0
  0
ENDBLK
  5
69849
  8
0
  0
BLOCK
  8
0
  2
*D50
 70
     1
 10
0.0
 20
0.0
 30
0.0
  3
*D50
  1

  0
LINE
  5
69D28
  8
S-OBRYS
  6
CONTINUOUS
 62
     0
 10
18628.358864291949
 20
402392.81087958819
 30
0.0
 11
18628.358864291949
 21
402079.43343422998
 31
0.0
  0
LINE
  5
69D29
  8
S-OBRYS
  6
CONTINUOUS
 62
     0
 10
18378.358864291949
 20
402392.81087958819
 30
0.0
 11
18378.358864291949
 21
402079.43343422998
 31
0.0
  0
LINE
  5
69D2A
  8
S-OBRYS
  6
CONTINUOUS
 62
     0
 10
18528.358864291949
 20
402089.43343422998
 30
0.0
 11
18478.358864291949
 21
402089.43343422998
 31
0.0
  0
INSERT
  5
69D2B
  8
S-OBRYS
  6
CONTINUOUS
 62
     0
  2
_OPEN
 10
18628.358864291949
 20
402089.43343422998
 30
0.0
 41
100.0
 42
100.0
 43
100.0
  0
INSERT
  5
69D2C
  8
S-OBRYS
  6
CONTINUOUS
 62
     0
  2
_OPEN
 10
18378.358864291949
 20
402089.43343422998
 30
0.0
 41
100.0
 42
100.0
 43
100.0
 50
180.0
  0
INSERT
  5
69D2D
  8
S-OBRYS
  6
CONTINUOUS
  2
*U146
 10
0.0
 20
0.0
 30
0.0
  0
POINT
  5
69D2E
  8
DEFPOINTS
  6
CONTINUOUS
 62
     0
 10
18628.358864291949
 20
402395.96087958821
 30
0.0
  0
POINT
  5
69D2F
  8
DEFPOINTS
  6
CONTINUOUS
 62
     0
 10
18378.358864291949
 20
402395.96087958821
 30
0.0
  0
POINT
  5
69D30
  8
DEFPOINTS
  6
CONTINUOUS
 62
     0
 10
18378.358864291949
 20
402089.43343422998
 30
0.0
  0
ENDBLK
  5
69855
  8
0
  0
BLOCK
  8
0
  2
*D51
 70
     1
 10
0.0
 20
0.0
 30
0.0
  3
*D51
  1

  0
LINE
  5
69D31
  8
S-OBRYS
  6
CONTINUOUS
 62
     0
 10
18375.208864291952
 20
402395.96087958821
 30
0.0
 11
18042.137588187521
 21
402395.96087958821
 31
0.0
  0
LINE
  5
69D32
  8
S-OBRYS
  6
CONTINUOUS
 62
     0
 10
18375.208864291952
 20
402645.96087958821
 30
0.0
 11
18042.137588187521
 21
402645.96087958821
 31
0.0
  0
LINE
  5
69D33
  8
S-OBRYS
  6
CONTINUOUS
 62
     0
 10
18052.137588187521
 20
402495.96087958821
 30
0.0
 11
18052.137588187521
 21
402545.96087958821
 31
0.0
  0
LINE
  5
69D34
  8
S-OBRYS
  6
CONTINUOUS
 62
     0
 10
18052.137588187521
 20
402645.96087958821
 30
0.0
 11
18052.137588187521
 21
403001.67516530241
 31
0.0
  0
INSERT
  5
69D35
  8
S-OBRYS
  6
CONTINUOUS
 62
     0
  2
_OPEN
 10
18052.137588187521
 20
402395.96087958821
 30
0.0
 41
100.0
 42
100.0
 43
100.0
 50
270.0
  0
INSERT
  5
69D36
  8
S-OBRYS
  6
CONTINUOUS
 62
     0
  2
_OPEN
 10
18052.137588187521
 20
402645.96087958821
 30
0.0
 41
100.0
 42
100.0
 43
100.0
 50
90.0
  0
INSERT
  5
69D37
  8
S-OBRYS
  6
CONTINUOUS
  2
*U147
 10
0.0
 20
0.0
 30
0.0
  0
POINT
  5
69D38
  8
DEFPOINTS
  6
CONTINUOUS
 62
     0
 10
18378.358864291949
 20
402395.96087958821
 30
0.0
  0
POINT
  5
69D39
  8
DEFPOINTS
  6
CONTINUOUS
 62
     0
 10
18378.358864291949
 20
402645.96087958821
 30
0.0
  0
POINT
  5
69D3A
  8
DEFPOINTS
  6
CONTINUOUS
 62
     0
 10
18052.137588187521
 20
402645.96087958821
 30
0.0
  0
ENDBLK
  5
69862
  8
0
  0
BLOCK
  8
0
  2
*D52
 70
     1
 10
0.0
 20
0.0
 30
0.0
  3
*D52
  1

  0
LINE
  5
69D3B
  8
S-OBRYS
  6
CONTINUOUS
 62
     0
 10
17694.084492004989
 20
402303.21437164478
 30
0.0
 11
17521.877642768912
 21
402303.21437164478
 31
0.0
  0
LINE
  5
69D3C
  8
S-OBRYS
  6
CONTINUOUS
 62
     0
 10
17694.084492004989
 20
402743.21437164478
 30
0.0
 11
17521.877642768912
 21
402743.21437164478
 31
0.0
  0
LINE
  5
69D3D
  8
S-OBRYS
  6
CONTINUOUS
 62
     0
 10
17531.877642768912
 20
402403.21437164478
 30
0.0
 11
17531.877642768912
 21
402643.21437164472
 31
0.0
  0
INSERT
  5
69D3E
  8
S-OBRYS
  6
CONTINUOUS
 62
     0
  2
_OPEN
 10
17531.877642768912
 20
402303.21437164478
 30
0.0
 41
100.0
 42
100.0
 43
100.0
 50
270.0
  0
INSERT
  5
69D3F
  8
S-OBRYS
  6
CONTINUOUS
 62
     0
  2
_OPEN
 10
17531.877642768912
 20
402743.21437164478
 30
0.0
 41
100.0
 42
100.0
 43
100.0
 50
90.0
  0
INSERT
  5
69D40
  8
S-OBRYS
  6
CONTINUOUS
  2
*U148
 10
0.0
 20
0.0
 30
0.0
  0
POINT
  5
69D41
  8
DEFPOINTS
  6
CONTINUOUS
 62
     0
 10
17697.234492004991
 20
402303.21437164478
 30
0.0
  0
POINT
  5
69D42
  8
DEFPOINTS
  6
CONTINUOUS
 62
     0
 10
17697.234492004991
 20
402743.21437164478
 30
0.0
  0
POINT
  5
69D43
  8
DEFPOINTS
  6
CONTINUOUS
 62
     0
 10
17531.877642768912
 20
402743.21437164478
 30
0.0
  0
ENDBLK
  5
6986E
  8
0
  0
BLOCK
  8
0
  2
*D53
 70
     1
 10
0.0
 20
0.0
 30
0.0
  3
*D53
  1

  0
LINE
  5
69D44
  8
S-OBRYS
  6
CONTINUOUS
 62
     0
 10
19543.358864291931
 20
402572.07011893252
 30
0.0
 11
19543.358864291931
 21
402706.19508994068
 31
0.0
  0
LINE
  5
69D45
  8
S-OBRYS
  6
CONTINUOUS
 62
     0
 10
18503.358864291949
 20
402593.76461581793
 30
0.0
 11
18503.358864291949
 21
402706.19508994068
 31
0.0
  0
LINE
  5
69D46
  8
S-OBRYS
  6
CONTINUOUS
 62
     0
 10
19443.358864291931
 20
402696.1950899408
 30
0.0
 11
18603.358864291949
 21
402696.1950899408
 31
0.0
  0
INSERT
  5
69D47
  8
S-OBRYS
  6
CONTINUOUS
 62
     0
  2
_OPEN
 10
19543.358864291931
 20
402696.1950899408
 30
0.0
 41
100.0
 42
100.0
 43
100.0
  0
INSERT
  5
69D48
  8
S-OBRYS
  6
CONTINUOUS
 62
     0
  2
_OPEN
 10
18503.358864291949
 20
402696.1950899408
 30
0.0
 41
100.0
 42
100.0
 43
100.0
 50
180.0
  0
INSERT
  5
69D49
  8
S-OBRYS
  6
CONTINUOUS
  2
*U149
 10
0.0
 20
0.0
 30
0.0
  0
POINT
  5
69D4A
  8
DEFPOINTS
  6
CONTINUOUS
 62
     0
 10
19543.358864291931
 20
402568.92011893238
 30
0.0
  0
POINT
  5
69D4B
  8
DEFPOINTS
  6
CONTINUOUS
 62
     0
 10
18503.358864291949
 20
402590.61461581779
 30
0.0
  0
POINT
  5
69D4C
  8
DEFPOINTS
  6
CONTINUOUS
 62
     0
 10
18503.358864291949
 20
402696.1950899408
 30
0.0
  0
ENDBLK
  5
6987A
  8
0
  0
BLOCK
  8
0
  2
*D54
 70
     1
 10
0.0
 20
0.0
 30
0.0
  3
*D54
  1

  0
LINE
  5
69D4D
  8
S-OBRYS
  6
CONTINUOUS
 62
     0
 10
19038.358864291949
 20
402771.65406291629
 30
0.0
 11
19038.358864291949
 21
402915.73625816492
 31
0.0
  0
LINE
  5
69D4E
  8
S-OBRYS
  6
CONTINUOUS
 62
     0
 10
18503.358864291949
 20
402704.81589644653
 30
0.0
 11
18503.358864291949
 21
402915.73625816492
 31
0.0
  0
LINE
  5
69D4F
  8
S-OBRYS
  6
CONTINUOUS
 62
     0
 10
18938.358864291949
 20
402905.73625816492
 30
0.0
 11
18603.358864291949
 21
402905.73625816492
 31
0.0
  0
INSERT
  5
69D50
  8
S-OBRYS
  6
CONTINUOUS
 62
     0
  2
_OPEN
 10
19038.358864291949
 20
402905.73625816492
 30
0.0
 41
100.0
 42
100.0
 43
100.0
  0
INSERT
  5
69D51
  8
S-OBRYS
  6
CONTINUOUS
 62
     0
  2
_OPEN
 10
18503.358864291949
 20
402905.73625816492
 30
0.0
 41
100.0
 42
100.0
 43
100.0
 50
180.0
  0
INSERT
  5
69D52
  8
S-OBRYS
  6
CONTINUOUS
  2
*U150
 10
0.0
 20
0.0
 30
0.0
  0
POINT
  5
69D53
  8
DEFPOINTS
  6
CONTINUOUS
 62
     0
 10
19038.358864291949
 20
402768.50406291633
 30
0.0
  0
POINT
  5
69D54
  8
DEFPOINTS
  6
CONTINUOUS
 62
     0
 10
18503.358864291949
 20
402701.6658964465
 30
0.0
  0
POINT
  5
69D55
  8
DEFPOINTS
  6
CONTINUOUS
 62
     0
 10
18503.358864291949
 20
402905.73625816492
 30
0.0
  0
ENDBLK
  5
69886
  8
0
  0
BLOCK
  8
0
  2
*D55
 70
     1
 10
0.0
 20
0.0
 30
0.0
  3
*D55
  1

  0
LINE
  5
69D56
  8
S-OBRYS
  6
CONTINUOUS
 62
     0
 10
19666.508864291951
 20
402778.21437164472
 30
0.0
 11
19912.908311061539
 21
402778.21437164472
 31
0.0
  0
LINE
  5
69D57
  8
S-OBRYS
  6
CONTINUOUS
 62
     0
 10
19666.50886429194
 20
402266.48273861222
 30
0.0
 11
19912.908311061539
 21
402266.48273861222
 31
0.0
  0
LINE
  5
69D58
  8
S-OBRYS
  6
CONTINUOUS
 62
     0
 10
19902.908311061539
 20
402678.21437164478
 30
0.0
 11
19902.908311061539
 21
402366.48273861228
 31
0.0
  0
INSERT
  5
69D59
  8
S-OBRYS
  6
CONTINUOUS
 62
     0
  2
_OPEN
 10
19902.908311061539
 20
402778.21437164472
 30
0.0
 41
100.0
 42
100.0
 43
100.0
 50
90.0
  0
INSERT
  5
69D5A
  8
S-OBRYS
  6
CONTINUOUS
 62
     0
  2
_OPEN
 10
19902.908311061539
 20
402266.48273861222
 30
0.0
 41
100.0
 42
100.0
 43
100.0
 50
270.0
  0
INSERT
  5
69D5B
  8
S-OBRYS
  6
CONTINUOUS
  2
*U151
 10
0.0
 20
0.0
 30
0.0
  0
POINT
  5
69D5C
  8
DEFPOINTS
  6
CONTINUOUS
 62
     0
 10
19663.358864291949
 20
402778.21437164472
 30
0.0
  0
POINT
  5
69D5D
  8
DEFPOINTS
  6
CONTINUOUS
 62
     0
 10
19663.358864291931
 20
402266.48273861222
 30
0.0
  0
POINT
  5
69D5E
  8
DEFPOINTS
  6
CONTINUOUS
 62
     0
 10
19902.908311061539
 20
402266.48273861222
 30
0.0
  0
ENDBLK
  5
69892
  8
0
  0
BLOCK
  8
0
  2
*D56
 70
     1
 10
0.0
 20
0.0
 30
0.0
  3
*D56
  1

  0
LINE
  5
699A7
  8
S-OBRYS
  6
CONTINUOUS
 62
     0
 10
14186.836534581729
 20
406304.35752289958
 30
0.0
 11
14186.836534581729
 21
406501.73339119082
 31
0.0
  0
LINE
  5
699A8
  8
S-OBRYS
  6
CONTINUOUS
 62
     0
 10
13870.836534581729
 20
406234.35817089962
 30
0.0
 11
13870.836534581729
 21
406501.73339119082
 31
0.0
  0
LINE
  5
699A9
  8
S-OBRYS
  6
CONTINUOUS
 62
     0
 10
14086.836534581729
 20
406491.73339119082
 30
0.0
 11
13970.836534581729
 21
406491.73339119082
 31
0.0
  0
INSERT
  5
699AA
  8
S-OBRYS
  6
CONTINUOUS
 62
     0
  2
_OPEN
 10
14186.836534581729
 20
406491.73339119082
 30
0.0
 41
100.0
 42
100.0
 43
100.0
  0
INSERT
  5
699AB
  8
S-OBRYS
  6
CONTINUOUS
 62
     0
  2
_OPEN
 10
13870.836534581729
 20
406491.73339119082
 30
0.0
 41
100.0
 42
100.0
 43
100.0
 50
180.0
  0
INSERT
  5
699AC
  8
S-OBRYS
  6
CONTINUOUS
  2
*U108
 10
0.0
 20
0.0
 30
0.0
  0
POINT
  5
699AD
  8
DEFPOINTS
  6
CONTINUOUS
 62
     0
 10
14186.836534581729
 20
406301.20752289949
 30
0.0
  0
POINT
  5
699AE
  8
DEFPOINTS
  6
CONTINUOUS
 62
     0
 10
13870.836534581729
 20
406231.2081708996
 30
0.0
  0
POINT
  5
699AF
  8
DEFPOINTS
  6
CONTINUOUS
 62
     0
 10
13870.836534581729
 20
406491.73339119082
 30
0.0
  0
ENDBLK
  5
6989E
  8
0
  0
BLOCK
  8
0
  2
*D57
 70
     1
 10
0.0
 20
0.0
 30
0.0
  3
*D57
  1

  0
LINE
  5
699B0
  8
S-OBRYS
  6
CONTINUOUS
 62
     0
 10
15259.836534581729
 20
406304.35752289958
 30
0.0
 11
15259.836534581729
 21
406501.73339119082
 31
0.0
  0
LINE
  5
699B1
  8
S-OBRYS
  6
CONTINUOUS
 62
     0
 10
14186.836534581729
 20
406494.88339119079
 30
0.0
 11
14186.836534581729
 21
406501.73339119082
 31
0.0
  0
LINE
  5
699B2
  8
S-OBRYS
  6
CONTINUOUS
 62
     0
 10
15159.836534581729
 20
406491.73339119082
 30
0.0
 11
14286.836534581729
 21
406491.73339119082
 31
0.0
  0
INSERT
  5
699B3
  8
S-OBRYS
  6
CONTINUOUS
 62
     0
  2
_OPEN
 10
15259.836534581729
 20
406491.73339119082
 30
0.0
 41
100.0
 42
100.0
 43
100.0
  0
INSERT
  5
699B4
  8
S-OBRYS
  6
CONTINUOUS
 62
     0
  2
_OPEN
 10
14186.836534581729
 20
406491.73339119082
 30
0.0
 41
100.0
 42
100.0
 43
100.0
 50
180.0
  0
INSERT
  5
699B5
  8
S-OBRYS
  6
CONTINUOUS
  2
*U109
 10
0.0
 20
0.0
 30
0.0
  0
POINT
  5
699B6
  8
DEFPOINTS
  6
CONTINUOUS
 62
     0
 10
15259.836534581729
 20
406301.20752289949
 30
0.0
  0
POINT
  5
699B7
  8
DEFPOINTS
  6
CONTINUOUS
 62
     0
 10
14186.836534581729
 20
406491.73339119082
 30
0.0
  0
POINT
  5
699B8
  8
DEFPOINTS
  6
CONTINUOUS
 62
     0
 10
14186.836534581729
 20
406491.73339119082
 30
0.0
  0
ENDBLK
  5
698AA
  8
0
  0
BLOCK
  8
0
  2
*D58
 70
     1
 10
0.0
 20
0.0
 30
0.0
  3
*D58
  1

  0
LINE
  5
699B9
  8
S-OBRYS
  6
CONTINUOUS
 62
     0
 10
13870.836534581729
 20
406234.35817089962
 30
0.0
 11
13870.836534581729
 21
406689.45456689358
 31
0.0
  0
LINE
  5
699BA
  8
S-OBRYS
  6
CONTINUOUS
 62
     0
 10
15982.836534581729
 20
406304.35752289958
 30
0.0
 11
15982.836534581729
 21
406689.45456689358
 31
0.0
  0
LINE
  5
699BB
  8
S-OBRYS
  6
CONTINUOUS
 62
     0
 10
13970.836534581729
 20
406679.45456689358
 30
0.0
 11
15882.836534581729
 21
406679.45456689358
 31
0.0
  0
INSERT
  5
699BC
  8
S-OBRYS
  6
CONTINUOUS
 62
     0
  2
_OPEN
 10
13870.836534581729
 20
406679.45456689358
 30
0.0
 41
100.0
 42
100.0
 43
100.0
 50
180.0
  0
INSERT
  5
699BD
  8
S-OBRYS
  6
CONTINUOUS
 62
     0
  2
_OPEN
 10
15982.836534581729
 20
406679.45456689358
 30
0.0
 41
100.0
 42
100.0
 43
100.0
  0
INSERT
  5
699BE
  8
S-OBRYS
  6
CONTINUOUS
  2
*U110
 10
0.0
 20
0.0
 30
0.0
  0
POINT
  5
699BF
  8
DEFPOINTS
  6
CONTINUOUS
 62
     0
 10
13870.836534581729
 20
406231.2081708996
 30
0.0
  0
POINT
  5
699C0
  8
DEFPOINTS
  6
CONTINUOUS
 62
     0
 10
15982.836534581729
 20
406301.20752289949
 30
0.0
  0
POINT
  5
699C1
  8
DEFPOINTS
  6
CONTINUOUS
 62
     0
 10
15982.836534581729
 20
406679.45456689358
 30
0.0
  0
ENDBLK
  5
698B6
  8
0
  0
BLOCK
  8
0
  2
*D59
 70
     1
 10
0.0
 20
0.0
 30
0.0
  3
*D59
  1

  0
LINE
  5
699C2
  8
S-OBRYS
  6
CONTINUOUS
 62
     0
 10
13867.68653458174
 20
406231.2081708996
 30
0.0
 11
13642.561048709869
 21
406231.2081708996
 31
0.0
  0
LINE
  5
699C3
  8
S-OBRYS
  6
CONTINUOUS
 62
     0
 10
13867.68653458174
 20
404831.21122489963
 30
0.0
 11
13642.561048709869
 21
404831.21122489963
 31
0.0
  0
LINE
  5
699C4
  8
S-OBRYS
  6
CONTINUOUS
 62
     0
 10
13652.561048709869
 20
406131.2081708996
 30
0.0
 11
13652.561048709869
 21
404931.21122489963
 31
0.0
  0
INSERT
  5
699C5
  8
S-OBRYS
  6
CONTINUOUS
 62
     0
  2
_OPEN
 10
13652.561048709869
 20
406231.2081708996
 30
0.0
 41
100.0
 42
100.0
 43
100.0
 50
90.0
  0
INSERT
  5
699C6
  8
S-OBRYS
  6
CONTINUOUS
 62
     0
  2
_OPEN
 10
13652.561048709869
 20
404831.21122489963
 30
0.0
 41
100.0
 42
100.0
 43
100.0
 50
270.0
  0
INSERT
  5
699C7
  8
S-OBRYS
  6
CONTINUOUS
  2
*U111
 10
0.0
 20
0.0
 30
0.0
  0
POINT
  5
699C8
  8
DEFPOINTS
  6
CONTINUOUS
 62
     0
 10
13870.836534581729
 20
406231.2081708996
 30
0.0
  0
POINT
  5
699C9
  8
DEFPOINTS
  6
CONTINUOUS
 62
     0
 10
13870.836534581729
 20
404831.21122489963
 30
0.0
  0
POINT
  5
699CA
  8
DEFPOINTS
  6
CONTINUOUS
 62
     0
 10
13652.561048709869
 20
404831.21122489963
 30
0.0
  0
ENDBLK
  5
698C2
  8
0
  0
BLOCK
  8
0
  2
*D60
 70
     1
 10
0.0
 20
0.0
 30
0.0
  3
*D60
  1

  0
LINE
  5
699CB
  8
S-OBRYS
  6
CONTINUOUS
 62
     0
 10
15982.836534581729
 20
406304.35752289958
 30
0.0
 11
15982.836534581729
 21
406501.68211518251
 31
0.0
  0
LINE
  5
699CC
  8
S-OBRYS
  6
CONTINUOUS
 62
     0
 10
15702.836534581729
 20
406304.35752289958
 30
0.0
 11
15702.836534581729
 21
406501.68211518251
 31
0.0
  0
LINE
  5
699CD
  8
S-OBRYS
  6
CONTINUOUS
 62
     0
 10
15882.836534581729
 20
406491.6821151824
 30
0.0
 11
15802.836534581729
 21
406491.6821151824
 31
0.0
  0
INSERT
  5
699CE
  8
S-OBRYS
  6
CONTINUOUS
 62
     0
  2
_OPEN
 10
15982.836534581729
 20
406491.6821151824
 30
0.0
 41
100.0
 42
100.0
 43
100.0
  0
INSERT
  5
699CF
  8
S-OBRYS
  6
CONTINUOUS
 62
     0
  2
_OPEN
 10
15702.836534581729
 20
406491.6821151824
 30
0.0
 41
100.0
 42
100.0
 43
100.0
 50
180.0
  0
INSERT
  5
699D0
  8
S-OBRYS
  6
CONTINUOUS
  2
*U112
 10
0.0
 20
0.0
 30
0.0
  0
POINT
  5
699D1
  8
DEFPOINTS
  6
CONTINUOUS
 62
     0
 10
15982.836534581729
 20
406301.20752289949
 30
0.0
  0
POINT
  5
699D2
  8
DEFPOINTS
  6
CONTINUOUS
 62
     0
 10
15702.836534581729
 20
406301.20752289949
 30
0.0
  0
POINT
  5
699D3
  8
DEFPOINTS
  6
CONTINUOUS
 62
     0
 10
15702.836534581729
 20
406491.6821151824
 30
0.0
  0
ENDBLK
  5
698CE
  8
0
  0
BLOCK
  8
0
  2
*D72
 70
     1
 10
0.0
 20
0.0
 30
0.0
  3
*D72
  1

  0
LINE
  5
69E7E
  8
S-OBRYS
  6
CONTINUOUS
 62
     0
 10
15428.11728081937
 20
399697.3428951219
 30
0.0
 11
15428.11728081937
 21
400307.25244045857
 31
0.0
  0
LINE
  5
69E7F
  8
S-OBRYS
  6
CONTINUOUS
 62
     0
 10
17540.117280819359
 20
399697.3428951219
 30
0.0
 11
17540.117280819359
 21
400307.25244045857
 31
0.0
  0
LINE
  5
69E80
  8
S-OBRYS
  6
CONTINUOUS
 62
     0
 10
15528.11728081937
 20
400297.25244045869
 30
0.0
 11
17440.117280819359
 21
400297.25244045869
 31
0.0
  0
INSERT
  5
69E81
  8
S-OBRYS
  6
CONTINUOUS
 62
     0
  2
_OPEN
 10
15428.11728081937
 20
400297.25244045869
 30
0.0
 41
100.0
 42
100.0
 43
100.0
 50
180.0
  0
INSERT
  5
69E82
  8
S-OBRYS
  6
CONTINUOUS
 62
     0
  2
_OPEN
 10
17540.117280819359
 20
400297.25244045869
 30
0.0
 41
100.0
 42
100.0
 43
100.0
  0
INSERT
  5
69E83
  8
S-OBRYS
  6
CONTINUOUS
  2
*U152
 10
0.0
 20
0.0
 30
0.0
  0
POINT
  5
69E84
  8
DEFPOINTS
  6
CONTINUOUS
 62
     0
 10
15428.11728081937
 20
399694.19289512187
 30
0.0
  0
POINT
  5
69E85
  8
DEFPOINTS
  6
CONTINUOUS
 62
     0
 10
17540.117280819359
 20
399694.19289512187
 30
0.0
  0
POINT
  5
69E86
  8
DEFPOINTS
  6
CONTINUOUS
 62
     0
 10
17540.117280819359
 20
400297.25244045869
 30
0.0
  0
ENDBLK
  5
69E00
  8
0
  0
BLOCK
  8
0
  2
*D73
 70
     1
 10
0.0
 20
0.0
 30
0.0
  3
*D73
  1

  0
LINE
  5
69E87
  8
S-OBRYS
  6
CONTINUOUS
 62
     0
 10
17540.117280819359
 20
399584.72762014432
 30
0.0
 11
17540.117280819359
 21
399545.87324283202
 31
0.0
  0
LINE
  5
69E88
  8
S-OBRYS
  6
CONTINUOUS
 62
     0
 10
18040.117280819359
 20
399584.72762014432
 30
0.0
 11
18040.117280819359
 21
399545.87324283202
 31
0.0
  0
LINE
  5
69E89
  8
S-OBRYS
  6
CONTINUOUS
 62
     0
 10
17640.117280819359
 20
399555.87324283202
 30
0.0
 11
17940.117280819359
 21
399555.87324283202
 31
0.0
  0
INSERT
  5
69E8A
  8
S-OBRYS
  6
CONTINUOUS
 62
     0
  2
_OPEN
 10
17540.117280819359
 20
399555.87324283202
 30
0.0
 41
100.0
 42
100.0
 43
100.0
 50
180.0
  0
INSERT
  5
69E8B
  8
S-OBRYS
  6
CONTINUOUS
 62
     0
  2
_OPEN
 10
18040.117280819359
 20
399555.87324283202
 30
0.0
 41
100.0
 42
100.0
 43
100.0
  0
INSERT
  5
69E8C
  8
S-OBRYS
  6
CONTINUOUS
  2
*U153
 10
0.0
 20
0.0
 30
0.0
  0
POINT
  5
69E8D
  8
DEFPOINTS
  6
CONTINUOUS
 62
     0
 10
17540.117280819359
 20
399587.87762014422
 30
0.0
  0
POINT
  5
69E8E
  8
DEFPOINTS
  6
CONTINUOUS
 62
     0
 10
18040.117280819359
 20
399587.87762014422
 30
0.0
  0
POINT
  5
69E8F
  8
DEFPOINTS
  6
CONTINUOUS
 62
     0
 10
18040.117280819359
 20
399555.87324283202
 30
0.0
  0
ENDBLK
  5
69E0C
  8
0
  0
BLOCK
  8
0
  2
*D74
 70
     1
 10
0.0
 20
0.0
 30
0.0
  3
*D74
  1

  0
LINE
  5
69E90
  8
S-OBRYS
  6
CONTINUOUS
 62
     0
 10
15584.61594779784
 20
399194.19433962193
 30
0.0
 11
15248.47032239743
 21
399194.19433962193
 31
0.0
  0
LINE
  5
69E91
  8
S-OBRYS
  6
CONTINUOUS
 62
     0
 10
15584.61594779784
 20
398194.19433962193
 30
0.0
 11
15248.47032239743
 21
398194.19433962193
 31
0.0
  0
LINE
  5
69E92
  8
S-OBRYS
  6
CONTINUOUS
 62
     0
 10
15258.47032239743
 20
399094.19433962193
 30
0.0
 11
15258.47032239743
 21
398294.19433962193
 31
0.0
  0
INSERT
  5
69E93
  8
S-OBRYS
  6
CONTINUOUS
 62
     0
  2
_OPEN
 10
15258.47032239743
 20
399194.19433962193
 30
0.0
 41
100.0
 42
100.0
 43
100.0
 50
90.0
  0
INSERT
  5
69E94
  8
S-OBRYS
  6
CONTINUOUS
 62
     0
  2
_OPEN
 10
15258.47032239743
 20
398194.19433962193
 30
0.0
 41
100.0
 42
100.0
 43
100.0
 50
270.0
  0
INSERT
  5
69E95
  8
S-OBRYS
  6
CONTINUOUS
  2
*U154
 10
0.0
 20
0.0
 30
0.0
  0
POINT
  5
69E96
  8
DEFPOINTS
  6
CONTINUOUS
 62
     0
 10
15587.76594779784
 20
399194.19433962193
 30
0.0
  0
POINT
  5
69E97
  8
DEFPOINTS
  6
CONTINUOUS
 62
     0
 10
15587.76594779784
 20
398194.19433962193
 30
0.0
  0
POINT
  5
69E98
  8
DEFPOINTS
  6
CONTINUOUS
 62
     0
 10
15258.47032239743
 20
398194.19433962193
 30
0.0
  0
ENDBLK
  5
69E18
  8
0
  0
BLOCK
  8
0
  2
*D75
 70
     1
 10
0.0
 20
0.0
 30
0.0
  3
*D75
  1

  0
LINE
  5
69E99
  8
S-OBRYS
  6
CONTINUOUS
 62
     0
 10
15428.11728081937
 20
399807.35331758647
 30
0.0
 11
15428.11728081937
 21
399911.06374005112
 31
0.0
  0
LINE
  5
69E9A
  8
S-OBRYS
  6
CONTINUOUS
 62
     0
 10
13928.11728081937
 20
399697.3428951219
 30
0.0
 11
13928.11728081937
 21
399911.06374005112
 31
0.0
  0
LINE
  5
69E9B
  8
S-OBRYS
  6
CONTINUOUS
 62
     0
 10
15328.11728081937
 20
399901.06374005112
 30
0.0
 11
14028.11728081937
 21
399901.06374005112
 31
0.0
  0
INSERT
  5
69E9C
  8
S-OBRYS
  6
CONTINUOUS
 62
     0
  2
_OPEN
 10
15428.11728081937
 20
399901.06374005112
 30
0.0
 41
100.0
 42
100.0
 43
100.0
  0
INSERT
  5
69E9D
  8
S-OBRYS
  6
CONTINUOUS
 62
     0
  2
_OPEN
 10
13928.11728081937
 20
399901.06374005112
 30
0.0
 41
100.0
 42
100.0
 43
100.0
 50
180.0
  0
INSERT
  5
69E9E
  8
S-OBRYS
  6
CONTINUOUS
  2
*U155
 10
0.0
 20
0.0
 30
0.0
  0
POINT
  5
69E9F
  8
DEFPOINTS
  6
CONTINUOUS
 62
     0
 10
15428.11728081937
 20
399804.20331758651
 30
0.0
  0
POINT
  5
69EA0
  8
DEFPOINTS
  6
CONTINUOUS
 62
     0
 10
13928.11728081937
 20
399694.19289512187
 30
0.0
  0
POINT
  5
69EA1
  8
DEFPOINTS
  6
CONTINUOUS
 62
     0
 10
13928.11728081937
 20
399901.06374005112
 30
0.0
  0
ENDBLK
  5
69E24
  8
0
  0
BLOCK
  8
0
  2
*D76
 70
     1
 10
0.0
 20
0.0
 30
0.0
  3
*D76
  1

  0
LINE
  5
69EA2
  8
S-OBRYS
  6
CONTINUOUS
 62
     0
 10
15251.62032239743
 20
399694.19289512181
 30
0.0
 11
15268.401271997451
 21
399694.19289512181
 31
0.0
  0
LINE
  5
69EA3
  8
S-OBRYS
  6
CONTINUOUS
 62
     0
 10
15424.96728081937
 20
400694.19289512187
 30
0.0
 11
15248.401271997451
 21
400694.19289512187
 31
0.0
  0
LINE
  5
69EA4
  8
S-OBRYS
  6
CONTINUOUS
 62
     0
 10
15258.401271997451
 20
399794.19289512187
 30
0.0
 11
15258.401271997451
 21
400594.19289512187
 31
0.0
  0
INSERT
  5
69EA5
  8
S-OBRYS
  6
CONTINUOUS
 62
     0
  2
_OPEN
 10
15258.401271997451
 20
399694.19289512181
 30
0.0
 41
100.0
 42
100.0
 43
100.0
 50
270.0
  0
INSERT
  5
69EA6
  8
S-OBRYS
  6
CONTINUOUS
 62
     0
  2
_OPEN
 10
15258.401271997451
 20
400694.19289512187
 30
0.0
 41
100.0
 42
100.0
 43
100.0
 50
90.0
  0
INSERT
  5
69EA7
  8
S-OBRYS
  6
CONTINUOUS
  2
*U156
 10
0.0
 20
0.0
 30
0.0
  0
POINT
  5
69EA8
  8
DEFPOINTS
  6
CONTINUOUS
 62
     0
 10
15248.47032239743
 20
399694.19289512181
 30
0.0
  0
POINT
  5
69EA9
  8
DEFPOINTS
  6
CONTINUOUS
 62
     0
 10
15428.11728081937
 20
400694.19289512187
 30
0.0
  0
POINT
  5
69EAA
  8
DEFPOINTS
  6
CONTINUOUS
 62
     0
 10
15258.401271997451
 20
400694.19289512187
 30
0.0
  0
ENDBLK
  5
69E30
  8
0
  0
BLOCK
  8
0
  2
*D77
 70
     1
 10
0.0
 20
0.0
 30
0.0
  3
*D77
  1

  0
LINE
  5
69EAB
  8
S-OBRYS
  6
CONTINUOUS
 62
     0
 10
15693.03143207927
 20
399521.1936173719
 30
0.0
 11
15612.25540322509
 21
399521.1936173719
 31
0.0
  0
LINE
  5
69EAC
  8
S-OBRYS
  6
CONTINUOUS
 62
     0
 10
15693.03143207927
 20
399444.1936173719
 30
0.0
 11
15612.25540322509
 21
399444.1936173719
 31
0.0
  0
LINE
  5
69EAD
  8
S-OBRYS
  6
CONTINUOUS
 62
     0
 10
15622.25540322509
 20
399344.1936173719
 30
0.0
 11
15622.25540322509
 21
399244.1936173719
 31
0.0
  0
LINE
  5
69EAE
  8
S-OBRYS
  6
CONTINUOUS
 62
     0
 10
15622.25540322509
 20
399621.19361737202
 30
0.0
 11
15622.25540322509
 21
400153.56766938983
 31
0.0
  0
LINE
  5
69EAF
  8
S-OBRYS
  6
CONTINUOUS
 62
     0
 10
15622.25540322509
 20
399444.1936173719
 30
0.0
 11
15622.25540322509
 21
399521.1936173719
 31
0.0
  0
INSERT
  5
69EB0
  8
S-OBRYS
  6
CONTINUOUS
 62
     0
  2
_OPEN
 10
15622.25540322509
 20
399444.1936173719
 30
0.0
 41
100.0
 42
100.0
 43
100.0
 50
90.0
  0
INSERT
  5
69EB1
  8
S-OBRYS
  6
CONTINUOUS
 62
     0
  2
_OPEN
 10
15622.25540322509
 20
399521.1936173719
 30
0.0
 41
100.0
 42
100.0
 43
100.0
 50
270.0
  0
INSERT
  5
69EB2
  8
S-OBRYS
  6
CONTINUOUS
  2
*U157
 10
0.0
 20
0.0
 30
0.0
  0
POINT
  5
69EB3
  8
DEFPOINTS
  6
CONTINUOUS
 62
     0
 10
15696.181432079269
 20
399521.1936173719
 30
0.0
  0
POINT
  5
69EB4
  8
DEFPOINTS
  6
CONTINUOUS
 62
     0
 10
15696.181432079269
 20
399444.1936173719
 30
0.0
  0
POINT
  5
69EB5
  8
DEFPOINTS
  6
CONTINUOUS
 62
     0
 10
15622.25540322509
 20
399444.1936173719
 30
0.0
  0
ENDBLK
  5
69E3E
  8
0
  0
BLOCK
  8
0
  2
*D78
 70
     1
 10
0.0
 20
0.0
 30
0.0
  3
*D78
  1

  0
LINE
  5
69EB6
  8
S-OBRYS
  6
CONTINUOUS
 62
     0
 10
17398.124789167541
 20
399745.9350292802
 30
0.0
 11
17398.124789167541
 21
400128.0955146419
 31
0.0
  0
LINE
  5
69EB7
  8
S-OBRYS
  6
CONTINUOUS
 62
     0
 10
17540.117280819359
 20
399697.3428951219
 30
0.0
 11
17540.117280819359
 21
400128.0955146419
 31
0.0
  0
LINE
  5
69EB8
  8
S-OBRYS
  6
CONTINUOUS
 62
     0
 10
17298.124789167541
 20
400118.0955146419
 30
0.0
 11
17198.124789167541
 21
400118.0955146419
 31
0.0
  0
LINE
  5
69EB9
  8
S-OBRYS
  6
CONTINUOUS
 62
     0
 10
17640.117280819359
 20
400118.0955146419
 30
0.0
 11
18081.545852247938
 21
400118.0955146419
 31
0.0
  0
LINE
  5
69EBA
  8
S-OBRYS
  6
CONTINUOUS
 62
     0
 10
17398.124789167541
 20
400118.0955146419
 30
0.0
 11
17540.117280819359
 21
400118.0955146419
 31
0.0
  0
INSERT
  5
69EBB
  8
S-OBRYS
  6
CONTINUOUS
 62
     0
  2
_OPEN
 10
17398.124789167541
 20
400118.0955146419
 30
0.0
 41
100.0
 42
100.0
 43
100.0
  0
INSERT
  5
69EBC
  8
S-OBRYS
  6
CONTINUOUS
 62
     0
  2
_OPEN
 10
17540.117280819359
 20
400118.0955146419
 30
0.0
 41
100.0
 42
100.0
 43
100.0
 50
180.0
  0
INSERT
  5
69EBD
  8
S-OBRYS
  6
CONTINUOUS
  2
*U158
 10
0.0
 20
0.0
 30
0.0
  0
POINT
  5
69EBE
  8
DEFPOINTS
  6
CONTINUOUS
 62
     0
 10
17398.124789167541
 20
399742.78502928012
 30
0.0
  0
POINT
  5
69EBF
  8
DEFPOINTS
  6
CONTINUOUS
 62
     0
 10
17540.117280819359
 20
399694.19289512187
 30
0.0
  0
POINT
  5
69EC0
  8
DEFPOINTS
  6
CONTINUOUS
 62
     0
 10
17540.117280819359
 20
400118.0955146419
 30
0.0
  0
ENDBLK
  5
69E4C
  8
0
  0
BLOCK
  8
0
  2
*D79
 70
     1
 10
0.0
 20
0.0
 30
0.0
  3
*D79
  1

  0
LINE
  5
69EC1
  8
S-OBRYS
  6
CONTINUOUS
 62
     0
 10
17398.124789167541
 20
399749.08502928022
 30
0.0
 11
17398.124789167541
 21
399911.06374005112
 31
0.0
  0
LINE
  5
69EC2
  8
S-OBRYS
  6
CONTINUOUS
 62
     0
 10
16817.11728081937
 20
399509.84361737192
 30
0.0
 11
16817.11728081937
 21
399911.06374005112
 31
0.0
  0
LINE
  5
69EC3
  8
S-OBRYS
  6
CONTINUOUS
 62
     0
 10
17298.124789167541
 20
399901.06374005112
 30
0.0
 11
16917.11728081937
 21
399901.06374005112
 31
0.0
  0
INSERT
  5
69EC4
  8
S-OBRYS
  6
CONTINUOUS
 62
     0
  2
_OPEN
 10
17398.124789167541
 20
399901.06374005112
 30
0.0
 41
100.0
 42
100.0
 43
100.0
  0
INSERT
  5
69EC5
  8
S-OBRYS
  6
CONTINUOUS
 62
     0
  2
_OPEN
 10
16817.11728081937
 20
399901.06374005112
 30
0.0
 41
100.0
 42
100.0
 43
100.0
 50
180.0
  0
INSERT
  5
69EC6
  8
S-OBRYS
  6
CONTINUOUS
  2
*U159
 10
0.0
 20
0.0
 30
0.0
  0
POINT
  5
69EC7
  8
DEFPOINTS
  6
CONTINUOUS
 62
     0
 10
17398.124789167541
 20
399745.9350292802
 30
0.0
  0
POINT
  5
69EC8
  8
DEFPOINTS
  6
CONTINUOUS
 62
     0
 10
16817.11728081937
 20
399506.6936173719
 30
0.0
  0
POINT
  5
69EC9
  8
DEFPOINTS
  6
CONTINUOUS
 62
     0
 10
16817.11728081937
 20
399901.06374005112
 30
0.0
  0
ENDBLK
  5
69E58
  8
0
  0
BLOCK
  8
0
  2
*D80
 70
     1
 10
0.0
 20
0.0
 30
0.0
  3
*D80
  1

  0
LINE
  5
69ECA
  8
S-OBRYS
  6
CONTINUOUS
 62
     0
 10
16817.11728081937
 20
399512.99361737201
 30
0.0
 11
16817.11728081937
 21
399911.06374005112
 31
0.0
  0
LINE
  5
69ECB
  8
S-OBRYS
  6
CONTINUOUS
 62
     0
 10
15744.11728081937
 20
399572.27946611209
 30
0.0
 11
15744.11728081937
 21
399911.06374005112
 31
0.0
  0
LINE
  5
69ECC
  8
S-OBRYS
  6
CONTINUOUS
 62
     0
 10
16717.11728081937
 20
399901.06374005112
 30
0.0
 11
15844.11728081937
 21
399901.06374005112
 31
0.0
  0
INSERT
  5
69ECD
  8
S-OBRYS
  6
CONTINUOUS
 62
     0
  2
_OPEN
 10
16817.11728081937
 20
399901.06374005112
 30
0.0
 41
100.0
 42
100.0
 43
100.0
  0
INSERT
  5
69ECE
  8
S-OBRYS
  6
CONTINUOUS
 62
     0
  2
_OPEN
 10
15744.11728081937
 20
399901.06374005112
 30
0.0
 41
100.0
 42
100.0
 43
100.0
 50
180.0
  0
INSERT
  5
69ECF
  8
S-OBRYS
  6
CONTINUOUS
  2
*U160
 10
0.0
 20
0.0
 30
0.0
  0
POINT
  5
69ED0
  8
DEFPOINTS
  6
CONTINUOUS
 62
     0
 10
16817.11728081937
 20
399509.84361737192
 30
0.0
  0
POINT
  5
69ED1
  8
DEFPOINTS
  6
CONTINUOUS
 62
     0
 10
15744.11728081937
 20
399569.12946611212
 30
0.0
  0
POINT
  5
69ED2
  8
DEFPOINTS
  6
CONTINUOUS
 62
     0
 10
15744.11728081937
 20
399901.06374005112
 30
0.0
  0
ENDBLK
  5
69E64
  8
0
  0
BLOCK
  8
0
  2
*D81
 70
     1
 10
0.0
 20
0.0
 30
0.0
  3
*D81
  1

  0
LINE
  5
69ED3
  8
S-OBRYS
  6
CONTINUOUS
 62
     0
 10
15744.11728081937
 20
399786.03684717102
 30
0.0
 11
15744.11728081937
 21
400181.34998993739
 31
0.0
  0
LINE
  5
69ED4
  8
S-OBRYS
  6
CONTINUOUS
 62
     0
 10
15428.11728081937
 20
399697.3428951219
 30
0.0
 11
15428.11728081937
 21
400181.34998993739
 31
0.0
  0
LINE
  5
69ED5
  8
S-OBRYS
  6
CONTINUOUS
 62
     0
 10
15644.11728081937
 20
400171.34998993739
 30
0.0
 11
15528.11728081937
 21
400171.34998993739
 31
0.0
  0
LINE
  5
69ED6
  8
S-OBRYS
  6
CONTINUOUS
 62
     0
 10
15428.11728081937
 20
400171.34998993739
 30
0.0
 11
14562.30179146228
 21
400171.34998993739
 31
0.0
  0
INSERT
  5
69ED7
  8
S-OBRYS
  6
CONTINUOUS
 62
     0
  2
_OPEN
 10
15744.11728081937
 20
400171.34998993739
 30
0.0
 41
100.0
 42
100.0
 43
100.0
  0
INSERT
  5
69ED8
  8
S-OBRYS
  6
CONTINUOUS
 62
     0
  2
_OPEN
 10
15428.11728081937
 20
400171.34998993739
 30
0.0
 41
100.0
 42
100.0
 43
100.0
 50
180.0
  0
INSERT
  5
69ED9
  8
S-OBRYS
  6
CONTINUOUS
  2
*U161
 10
0.0
 20
0.0
 30
0.0
  0
POINT
  5
69EDA
  8
DEFPOINTS
  6
CONTINUOUS
 62
     0
 10
15744.11728081937
 20
399782.88684717088
 30
0.0
  0
POINT
  5
69EDB
  8
DEFPOINTS
  6
CONTINUOUS
 62
     0
 10
15428.11728081937
 20
399694.19289512187
 30
0.0
  0
POINT
  5
69EDC
  8
DEFPOINTS
  6
CONTINUOUS
 62
     0
 10
15428.11728081937
 20
400171.34998993739
 30
0.0
  0
ENDBLK
  5
69E71
  8
0
  0
BLOCK
  8
0
  2
*D82
 70
     1
 10
0.0
 20
0.0
 30
0.0
  3
*D82
  1

  0
LINE
  5
69EDD
  8
S-OBRYS
  6
CONTINUOUS
 62
     0
 10
15424.967280819361
 20
399194.19433962193
 30
0.0
 11
15248.47032239743
 21
399194.19433962193
 31
0.0
  0
LINE
  5
69EDE
  8
S-OBRYS
  6
CONTINUOUS
 62
     0
 10
15424.967280819361
 20
399694.19289512181
 30
0.0
 11
15248.47032239743
 21
399694.19289512181
 31
0.0
  0
LINE
  5
69EDF
  8
S-OBRYS
  6
CONTINUOUS
 62
     0
 10
15258.47032239743
 20
399294.19433962193
 30
0.0
 11
15258.47032239743
 21
399594.19289512181
 31
0.0
  0
INSERT
  5
69EE0
  8
S-OBRYS
  6
CONTINUOUS
 62
     0
  2
_OPEN
 10
15258.47032239743
 20
399194.19433962193
 30
0.0
 41
100.0
 42
100.0
 43
100.0
 50
270.0
  0
INSERT
  5
69EE1
  8
S-OBRYS
  6
CONTINUOUS
 62
     0
  2
_OPEN
 10
15258.47032239743
 20
399694.19289512181
 30
0.0
 41
100.0
 42
100.0
 43
100.0
 50
90.0
  0
INSERT
  5
69EE2
  8
S-OBRYS
  6
CONTINUOUS
  2
*U162
 10
0.0
 20
0.0
 30
0.0
  0
POINT
  5
69EE3
  8
DEFPOINTS
  6
CONTINUOUS
 62
     0
 10
15428.117280819361
 20
399194.19433962193
 30
0.0
  0
POINT
  5
69EE4
  8
DEFPOINTS
  6
CONTINUOUS
 62
     0
 10
15428.117280819361
 20
399694.19289512181
 30
0.0
  0
POINT
  5
69EE5
  8
DEFPOINTS
  6
CONTINUOUS
 62
     0
 10
15258.47032239743
 20
399694.19289512181
 30
0.0
  0
ENDBLK
  5
69E7D
  8
0
  0
BLOCK
  8
0
  2
*U83
 70
     1
 10
0.0
 20
0.0
 30
0.0
  3
*U83
  1

  0
TEXT
  5
6A0E8
  8
S-OBRYS
  6
CONTINUOUS
 62
     7
 10
31399.88609447136
 20
403059.75252953341
 30
0.0
 40
100.0
  1
143
 41
0.8
  0
ENDBLK
  5
6A0EA
  8
0
  0
BLOCK
  8
0
  2
*U84
 70
     1
 10
0.0
 20
0.0
 30
0.0
  3
*U84
  1

  0
TEXT
  5
6A0EC
  8
S-OBRYS
  6
CONTINUOUS
 62
     7
 10
30650.96127721688
 20
403059.75252953341
 30
0.0
 40
100.0
  1
580
 41
0.8
  0
ENDBLK
  5
6A0EE
  8
0
  0
BLOCK
  8
0
  2
*U85
 70
     1
 10
0.0
 20
0.0
 30
0.0
  3
*U85
  1

  0
TEXT
  5
6A0F0
  8
S-OBRYS
  6
CONTINUOUS
 62
     7
 10
29780.147999233272
 20
403059.75252953341
 30
0.0
 40
100.0
  1
1073
 41
0.8
  0
ENDBLK
  5
6A0F2
  8
0
  0
BLOCK
  8
0
  2
*U86
 70
     1
 10
0.0
 20
0.0
 30
0.0
  3
*U86
  1

  0
TEXT
  5
6A0F4
  8
S-OBRYS
  6
CONTINUOUS
 62
     7
 10
29129.457523042791
 20
403059.75252953341
 30
0.0
 40
100.0
  1
316
 41
0.8
  0
ENDBLK
  5
6A0F6
  8
0
  0
BLOCK
  8
0
  2
*U87
 70
     1
 10
0.0
 20
0.0
 30
0.0
  3
*U87
  1

  0
TEXT
  5
6A0F8
  8
S-OBRYS
  6
CONTINUOUS
 62
     7
 10
28891.096278906502
 20
402463.59669256851
 30
0.0
 40
100.0
  1
500
 50
90.0
 41
0.8
  0
ENDBLK
  5
6A0FA
  8
0
  0
BLOCK
  8
0
  2
*U88
 70
     1
 10
0.0
 20
0.0
 30
0.0
  3
*U88
  1

  0
TEXT
  5
6A0FC
  8
S-OBRYS
  6
CONTINUOUS
 62
     7
 10
29245.832445667689
 20
402868.45383542578
 30
0.0
 40
100.0
  1
77
 50
90.0
 41
0.8
  0
ENDBLK
  5
6A0FE
  8
0
  0
BLOCK
  8
0
  2
*U89
 70
     1
 10
0.0
 20
0.0
 30
0.0
  3
*U89
  1

  0
TEXT
  5
6A100
  8
S-OBRYS
  6
CONTINUOUS
 62
     7
 10
31242.237593553022
 20
400543.74252533889
 30
0.0
 40
100.0
  1
120
 41
0.8
  0
ENDBLK
  5
6A102
  8
0
  0
BLOCK
  8
0
  2
*U90
 70
     1
 10
0.0
 20
0.0
 30
0.0
  3
*U90
  1

  0
TEXT
  5
6A104
  8
S-OBRYS
  6
CONTINUOUS
 62
     7
 10
30710.094736410148
 20
400676.70356877981
 30
0.0
 40
100.0
  1
180
 41
0.8
  0
ENDBLK
  5
6A106
  8
0
  0
BLOCK
  8
0
  2
*U91
 70
     1
 10
0.0
 20
0.0
 30
0.0
  3
*U91
  1

  0
TEXT
  5
6A108
  8
S-OBRYS
  6
CONTINUOUS
 62
     7
 10
30775.809022124438
 20
399719.58065295452
 30
0.0
 40
100.0
  1
300
 41
0.8
  0
ENDBLK
  5
6A10A
  8
0
  0
BLOCK
  8
0
  2
*U92
 70
     1
 10
0.0
 20
0.0
 30
0.0
  3
*U92
  1

  0
TEXT
  5
6A10C
  8
S-OBRYS
  6
CONTINUOUS
 62
     7
 10
29604.404260219679
 20
400784.33518234099
 30
0.0
 40
100.0
  1
1309
 41
0.8
  0
ENDBLK
  5
6A10E
  8
0
  0
BLOCK
  8
0
  2
*U93
 70
     1
 10
0.0
 20
0.0
 30
0.0
  3
*U93
  1

  0
TEXT
  5
6A110
  8
S-OBRYS
  6
CONTINUOUS
 62
     7
 10
29765.809022124449
 20
399761.54890088749
 30
0.0
 40
100.0
  1
275
 41
0.8
  0
ENDBLK
  5
6A112
  8
0
  0
BLOCK
  8
0
  2
*U94
 70
     1
 10
0.0
 20
0.0
 30
0.0
  3
*U94
  1

  0
TEXT
  5
6A114
  8
S-OBRYS
  6
CONTINUOUS
 62
     7
 10
29403.873460305669
 20
400406.64777481707
 30
0.0
 40
100.0
  1
275
 50
90.0
 41
0.8
  0
ENDBLK
  5
6A116
  8
0
  0
BLOCK
  8
0
  2
*U95
 70
     1
 10
0.0
 20
0.0
 30
0.0
  3
*U95
  1

  0
TEXT
  5
6A118
  8
S-OBRYS
  6
CONTINUOUS
 62
     7
 10
28883.61351488706
 20
400056.04412401648
 30
0.0
 40
100.0
  1
440
 50
90.0
 41
0.8
  0
ENDBLK
  5
6A11A
  8
0
  0
BLOCK
  8
0
  2
*U96
 70
     1
 10
0.0
 20
0.0
 30
0.0
  3
*U96
  1

  0
TEXT
  5
6A11C
  8
S-OBRYS
  6
CONTINUOUS
 62
     7
 10
29996.366285618242
 20
400368.3105565983
 30
0.0
 40
100.0
  1
1040
 41
0.8
  0
ENDBLK
  5
6A11E
  8
0
  0
BLOCK
  8
0
  2
*U97
 70
     1
 10
0.0
 20
0.0
 30
0.0
  3
*U97
  1

  0
TEXT
  5
6A120
  8
S-OBRYS
  6
CONTINUOUS
 62
     7
 10
30033.309022124449
 20
400577.85172482242
 30
0.0
 40
100.0
  1
535
 41
0.8
  0
ENDBLK
  5
6A122
  8
0
  0
BLOCK
  8
0
  2
*U98
 70
     1
 10
0.0
 20
0.0
 30
0.0
  3
*U98
  1

  0
TEXT
  5
6A124
  8
S-OBRYS
  6
CONTINUOUS
 62
     7
 10
31254.644183179691
 20
400055.1783075002
 30
0.0
 40
100.0
  1
510
 50
90.0
 41
0.8
  0
ENDBLK
  5
6A126
  8
0
  0
BLOCK
  8
0
  2
*U99
 70
     1
 10
0.0
 20
0.0
 30
0.0
  3
*U99
  1

  0
INSERT
  5
6A13C
  8
S-OBRYS
  6
CONTINUOUS
  2
_OPEN
 10
19042.391099806799
 20
402280.14166944032
 30
0.0
 41
100.0
 42
100.0
 43
100.0
 50
40.31831359565075
  0
POLYLINE
  5
6A13D
  8
S-OBRYS
  6
CONTINUOUS
 66
     1
 10
0.0
 20
0.0
 30
0.0
  0
VERTEX
  5
6A13E
  8
S-OBRYS
  6
CONTINUOUS
 10
18966.144944238909
 20
402215.43831743201
 30
0.0
  0
VERTEX
  5
6A13F
  8
S-OBRYS
  6
CONTINUOUS
 10
18393.217029042349
 20
401729.24519338162
 30
0.0
  0
SEQEND
  5
6A140
  8
S-OBRYS
  6
CONTINUOUS
  0
ENDBLK
  5
6A142
  8
0
  0
BLOCK
  8
0
  2
*U100
 70
     1
 10
0.0
 20
0.0
 30
0.0
  3
*U100
  1

  0
TEXT
  5
6A15D
  8
OBRYS
  6
CONTINUOUS
 10
13738.697251017789
 20
408219.92847213388
 30
0.0
 40
400.0
  1
Odírací stroj OS 3,7,10
  7
R
  0
ENDBLK
  5
6A15F
  8
0
  0
BLOCK
  8
0
  2
*U101
 70
     1
 10
0.0
 20
0.0
 30
0.0
  3
*U101
  1

  0
TEXT
  5
6A161
  8
S-OBRYS
  6
CONTINUOUS
 62
     7
 10
14302.14612384125
 20
404594.16450423462
 30
0.0
 40
100.0
  1
774
 41
0.8
  0
ENDBLK
  5
6A163
  8
0
  0
BLOCK
  8
0
  2
*U102
 70
     1
 10
0.0
 20
0.0
 30
0.0
  3
*U102
  1

  0
TEXT
  5
6A165
  8
S-OBRYS
  6
CONTINUOUS
 62
     7
 10
14958.550885746021
 20
404584.16450423462
 30
0.0
 40
100.0
  1
535
 41
0.8
  0
ENDBLK
  5
6A167
  8
0
  0
BLOCK
  8
0
  2
*U103
 70
     1
 10
0.0
 20
0.0
 30
0.0
  3
*U103
  1

  0
TEXT
  5
6A169
  8
S-OBRYS
  6
CONTINUOUS
 62
     7
 10
14529.64612384125
 20
404318.58694884449
 30
0.0
 40
100.0
  1
1309
 41
0.8
  0
ENDBLK
  5
6A16B
  8
0
  0
BLOCK
  8
0
  2
*U104
 70
     1
 10
0.0
 20
0.0
 30
0.0
  3
*U104
  1

  0
TEXT
  5
6A16D
  8
S-OBRYS
  6
CONTINUOUS
 62
     7
 10
15479.029867721199
 20
404584.16450423462
 30
0.0
 40
100.0
  1
505
 41
0.8
  0
ENDBLK
  5
6A16F
  8
0
  0
BLOCK
  8
0
  2
*U105
 70
     1
 10
0.0
 20
0.0
 30
0.0
  3
*U105
  1

  0
TEXT
  5
6A171
  8
S-OBRYS
  6
CONTINUOUS
 62
     7
 10
18367.092224443531
 20
406515.79384297348
 30
0.0
 40
100.0
  1
500
 41
0.8
  0
ENDBLK
  5
6A173
  8
0
  0
BLOCK
  8
0
  2
*U106
 70
     1
 10
0.0
 20
0.0
 30
0.0
  3
*U106
  1

  0
TEXT
  5
6A175
  8
S-OBRYS
  6
CONTINUOUS
 62
     7
 10
18365.187462538772
 20
406705.52348425478
 30
0.0
 40
100.0
  1
670
 41
0.8
  0
ENDBLK
  5
6A177
  8
0
  0
BLOCK
  8
0
  2
*U107
 70
     1
 10
0.0
 20
0.0
 30
0.0
  3
*U107
  1

  0
TEXT
  5
6A179
  8
S-OBRYS
  6
CONTINUOUS
 62
     7
 10
17978.617021943948
 20
405407.42064834689
 30
0.0
 40
100.0
  1
1470
 50
90.0
 41
0.8
  0
ENDBLK
  5
6A17B
  8
0
  0
BLOCK
  8
0
  2
*U108
 70
     1
 10
0.0
 20
0.0
 30
0.0
  3
*U108
  1

  0
TEXT
  5
6A17D
  8
S-OBRYS
  6
CONTINUOUS
 62
     7
 10
13914.550820296021
 20
406516.7333911907
 30
0.0
 40
100.0
  1
316
 41
0.8
  0
ENDBLK
  5
6A17F
  8
0
  0
BLOCK
  8
0
  2
*U109
 70
     1
 10
0.0
 20
0.0
 30
0.0
  3
*U109
  1

  0
TEXT
  5
6A181
  8
S-OBRYS
  6
CONTINUOUS
 62
     7
 10
14565.2412964865
 20
406516.7333911907
 30
0.0
 40
100.0
  1
1073
 41
0.8
  0
ENDBLK
  5
6A183
  8
0
  0
BLOCK
  8
0
  2
*U110
 70
     1
 10
0.0
 20
0.0
 30
0.0
  3
*U110
  1

  0
TEXT
  5
6A185
  8
S-OBRYS
  6
CONTINUOUS
 62
     7
 10
14774.455582200781
 20
406704.45456689352
 30
0.0
 40
100.0
  1
2112
 41
0.8
  0
ENDBLK
  5
6A187
  8
0
  0
BLOCK
  8
0
  2
*U111
 70
     1
 10
0.0
 20
0.0
 30
0.0
  3
*U111
  1

  0
TEXT
  5
6A189
  8
S-OBRYS
  6
CONTINUOUS
 62
     7
 10
13627.5610487098
 20
405373.11445980432
 30
0.0
 40
100.0
  1
1400
 50
90.0
 41
0.8
  0
ENDBLK
  5
6A18B
  8
0
  0
BLOCK
  8
0
  2
*U112
 70
     1
 10
0.0
 20
0.0
 30
0.0
  3
*U112
  1

  0
TEXT
  5
6A18D
  8
S-OBRYS
  6
CONTINUOUS
 62
     7
 10
15692.360344105549
 20
406516.68211518257
 30
0.0
 40
100.0
  1
\U+2205280
 41
0.8
  0
ENDBLK
  5
6A18F
  8
0
  0
BLOCK
  8
0
  2
*U113
 70
     1
 10
0.0
 20
0.0
 30
0.0
  3
*U113
  1

  0
TEXT
  5
6A191
  8
S-OBRYS
  6
CONTINUOUS
 62
     7
 10
27154.063235576501
 20
406768.30365179252
 30
0.0
 40
100.0
  1
316
 41
0.8
  0
ENDBLK
  5
6A193
  8
0
  0
BLOCK
  8
0
  2
*U114
 70
     1
 10
0.0
 20
0.0
 30
0.0
  3
*U114
  1

  0
TEXT
  5
6A195
  8
S-OBRYS
  6
CONTINUOUS
 62
     7
 10
27804.753711766982
 20
406768.30365179252
 30
0.0
 40
100.0
  1
1073
 41
0.8
  0
ENDBLK
  5
6A197
  8
0
  0
BLOCK
  8
0
  2
*U115
 70
     1
 10
0.0
 20
0.0
 30
0.0
  3
*U115
  1

  0
TEXT
  5
6A199
  8
S-OBRYS
  6
CONTINUOUS
 62
     7
 10
28013.967997481261
 20
406956.02482749522
 30
0.0
 40
100.0
  1
2112
 41
0.8
  0
ENDBLK
  5
6A19B
  8
0
  0
BLOCK
  8
0
  2
*U116
 70
     1
 10
0.0
 20
0.0
 30
0.0
  3
*U116
  1

  0
TEXT
  5
6A19D
  8
S-OBRYS
  6
CONTINUOUS
 62
     7
 10
26867.07346399028
 20
405624.68472040602
 30
0.0
 40
100.0
  1
1400
 50
90.0
 41
0.8
  0
ENDBLK
  5
6A19F
  8
0
  0
BLOCK
  8
0
  2
*U117
 70
     1
 10
0.0
 20
0.0
 30
0.0
  3
*U117
  1

  0
TEXT
  5
6A1A1
  8
S-OBRYS
  6
CONTINUOUS
 62
     7
 10
28931.87275938602
 20
406768.25237578421
 30
0.0
 40
100.0
  1
\U+2205280
 41
0.8
  0
ENDBLK
  5
6A1A3
  8
0
  0
BLOCK
  8
0
  2
*U118
 70
     1
 10
0.0
 20
0.0
 30
0.0
  3
*U118
  1

  0
TEXT
  5
6A1A5
  8
S-OBRYS
  6
CONTINUOUS
 62
     7
 10
31606.60463972401
 20
406767.36410357518
 30
0.0
 40
100.0
  1
500
 41
0.8
  0
ENDBLK
  5
6A1A7
  8
0
  0
BLOCK
  8
0
  2
*U119
 70
     1
 10
0.0
 20
0.0
 30
0.0
  3
*U119
  1

  0
TEXT
  5
6A1A9
  8
S-OBRYS
  6
CONTINUOUS
 62
     7
 10
31604.69987781925
 20
406957.0937448566
 30
0.0
 40
100.0
  1
670
 41
0.8
  0
ENDBLK
  5
6A1AB
  8
0
  0
BLOCK
  8
0
  2
*U120
 70
     1
 10
0.0
 20
0.0
 30
0.0
  3
*U120
  1

  0
TEXT
  5
6A1AD
  8
S-OBRYS
  6
CONTINUOUS
 62
     7
 10
31218.12943722443
 20
405658.9909089487
 30
0.0
 40
100.0
  1
1470
 50
90.0
 41
0.8
  0
ENDBLK
  5
6A1AF
  8
0
  0
BLOCK
  8
0
  2
*U121
 70
     1
 10
0.0
 20
0.0
 30
0.0
  3
*U121
  1

  0
TEXT
  5
6A1B1
  8
S-OBRYS
  6
CONTINUOUS
 62
     7
 10
27541.65853912173
 20
404845.73476483632
 30
0.0
 40
100.0
  1
774
 41
0.8
  0
ENDBLK
  5
6A1B3
  8
0
  0
BLOCK
  8
0
  2
*U122
 70
     1
 10
0.0
 20
0.0
 30
0.0
  3
*U122
  1

  0
TEXT
  5
6A1B5
  8
S-OBRYS
  6
CONTINUOUS
 62
     7
 10
28198.063301026501
 20
404835.73476483632
 30
0.0
 40
100.0
  1
535
 41
0.8
  0
ENDBLK
  5
6A1B7
  8
0
  0
BLOCK
  8
0
  2
*U123
 70
     1
 10
0.0
 20
0.0
 30
0.0
  3
*U123
  1

  0
TEXT
  5
6A1B9
  8
S-OBRYS
  6
CONTINUOUS
 62
     7
 10
27769.158539121741
 20
404570.15720944607
 30
0.0
 40
100.0
  1
1309
 41
0.8
  0
ENDBLK
  5
6A1BB
  8
0
  0
BLOCK
  8
0
  2
*U124
 70
     1
 10
0.0
 20
0.0
 30
0.0
  3
*U124
  1

  0
TEXT
  5
6A1BD
  8
S-OBRYS
  6
CONTINUOUS
 62
     7
 10
28718.54228300168
 20
404835.73476483632
 30
0.0
 40
100.0
  1
505
 41
0.8
  0
ENDBLK
  5
6A1BF
  8
0
  0
BLOCK
  8
0
  2
*U125
 70
     1
 10
0.0
 20
0.0
 30
0.0
  3
*U125
  1

  0
TEXT
  5
6A1C1
  8
S-OBRYS
  6
CONTINUOUS
 62
     7
 10
42396.420440337599
 20
403059.75252953341
 30
0.0
 40
150.0
  1
1073
 41
0.8
  0
ENDBLK
  5
6A1C3
  8
0
  0
BLOCK
  8
0
  2
*U126
 70
     1
 10
0.0
 20
0.0
 30
0.0
  3
*U126
  1

  0
TEXT
  5
6A1C5
  8
S-OBRYS
  6
CONTINUOUS
 62
     7
 10
41586.416339058473
 20
402406.45383542572
 30
0.0
 40
150.0
  1
500
 50
90.0
 41
0.8
  0
ENDBLK
  5
6A1C7
  8
0
  0
BLOCK
  8
0
  2
*U127
 70
     1
 10
0.0
 20
0.0
 30
0.0
  3
*U127
  1

  0
TEXT
  5
6A1C9
  8
S-OBRYS
  6
CONTINUOUS
 62
     7
 10
43289.138480225971
 20
403059.75252953341
 30
0.0
 40
150.0
  1
580
 41
0.8
  0
ENDBLK
  5
6A1CB
  8
0
  0
BLOCK
  8
0
  2
*U128
 70
     1
 10
0.0
 20
0.0
 30
0.0
  3
*U128
  1

  0
TEXT
  5
6A1CD
  8
S-OBRYS
  6
CONTINUOUS
 62
     7
 10
41950.201419886122
 20
403050.82788744359
 30
0.0
 40
150.0
  1
77
 50
90.0
 41
0.8
  0
ENDBLK
  5
6A1CF
  8
0
  0
BLOCK
  8
0
  2
*U129
 70
     1
 10
0.0
 20
0.0
 30
0.0
  3
*U129
  1

  0
TEXT
  5
6A1D1
  8
S-OBRYS
  6
CONTINUOUS
 62
     7
 10
44083.777583194737
 20
403276.78430412419
 30
0.0
 40
150.0
  1
143
 41
0.8
  0
ENDBLK
  5
6A1D3
  8
0
  0
BLOCK
  8
0
  2
*U130
 70
     1
 10
0.0
 20
0.0
 30
0.0
  3
*U130
  1

  0
TEXT
  5
6A1D5
  8
S-OBRYS
  6
CONTINUOUS
 62
     7
 10
40793.920440337599
 20
403059.75252953341
 30
0.0
 40
150.0
  1
1500
 41
0.8
  0
ENDBLK
  5
6A1D7
  8
0
  0
BLOCK
  8
0
  2
*U131
 70
     1
 10
0.0
 20
0.0
 30
0.0
  3
*U131
  1

  0
TEXT
  5
6A1D9
  8
S-OBRYS
  6
CONTINUOUS
 62
     7
 10
41586.416339058473
 20
401590.74027196137
 30
0.0
 40
150.0
  1
1000
 50
90.0
 41
0.8
  0
ENDBLK
  5
6A1DB
  8
0
  0
BLOCK
  8
0
  2
*U132
 70
     1
 10
0.0
 20
0.0
 30
0.0
  3
*U132
  1

  0
TEXT
  5
6A1DD
  8
S-OBRYS
  6
CONTINUOUS
 62
     7
 10
43971.634726051881
 20
402714.56203231431
 30
0.0
 40
150.0
  1
500
 41
0.8
  0
ENDBLK
  5
6A1DF
  8
0
  0
BLOCK
  8
0
  2
*U133
 70
     1
 10
0.0
 20
0.0
 30
0.0
  3
*U133
  1

  0
TEXT
  5
6A1E1
  8
S-OBRYS
  6
CONTINUOUS
 62
     7
 10
42608.491868909026
 20
403455.94122994109
 30
0.0
 40
150.0
  1
2112
 41
0.8
  0
ENDBLK
  5
6A1E3
  8
0
  0
BLOCK
  8
0
  2
*U134
 70
     1
 10
0.0
 20
0.0
 30
0.0
  3
*U134
  1

  0
TEXT
  5
6A1E5
  8
S-OBRYS
  6
CONTINUOUS
 62
     7
 10
40923.104950980509
 20
403330.03877941979
 30
0.0
 40
150.0
  1
316
 41
0.8
  0
ENDBLK
  5
6A1E7
  8
0
  0
BLOCK
  8
0
  2
*U135
 70
     1
 10
0.0
 20
0.0
 30
0.0
  3
*U135
  1

  0
TEXT
  5
6A1E9
  8
S-OBRYS
  6
CONTINUOUS
 62
     7
 10
41586.347288658479
 20
403300.24423316069
 30
0.0
 40
150.0
  1
1000
 50
90.0
 41
0.8
  0
ENDBLK
  5
6A1EB
  8
0
  0
BLOCK
  8
0
  2
*U136
 70
     1
 10
0.0
 20
0.0
 30
0.0
  3
*U136
  1

  0
TEXT
  5
6A1ED
  8
S-OBRYS
  6
CONTINUOUS
 62
     7
 10
13434.16961835949
 20
402868.45383542578
 30
0.0
 40
100.0
  1
77
 50
90.0
 41
0.8
  0
ENDBLK
  5
6A1EF
  8
0
  0
BLOCK
  8
0
  2
*U137
 70
     1
 10
0.0
 20
0.0
 30
0.0
  3
*U137
  1

  0
TEXT
  5
6A1F1
  8
S-OBRYS
  6
CONTINUOUS
 62
     7
 10
15588.22326716315
 20
403059.75252953341
 30
0.0
 40
100.0
  1
143
 41
0.8
  0
ENDBLK
  5
6A1F3
  8
0
  0
BLOCK
  8
0
  2
*U138
 70
     1
 10
0.0
 20
0.0
 30
0.0
  3
*U138
  1

  0
TEXT
  5
6A1F5
  8
S-OBRYS
  6
CONTINUOUS
 62
     7
 10
14839.298449908671
 20
403059.75252953341
 30
0.0
 40
100.0
  1
580
 41
0.8
  0
ENDBLK
  5
6A1F7
  8
0
  0
BLOCK
  8
0
  2
*U139
 70
     1
 10
0.0
 20
0.0
 30
0.0
  3
*U139
  1

  0
TEXT
  5
6A1F9
  8
S-OBRYS
  6
CONTINUOUS
 62
     7
 10
13968.48517192506
 20
403059.75252953341
 30
0.0
 40
100.0
  1
1073
 41
0.8
  0
ENDBLK
  5
6A1FB
  8
0
  0
BLOCK
  8
0
  2
*U140
 70
     1
 10
0.0
 20
0.0
 30
0.0
  3
*U140
  1

  0
TEXT
  5
6A1FD
  8
S-OBRYS
  6
CONTINUOUS
 62
     7
 10
13317.79469573459
 20
403059.75252953341
 30
0.0
 40
100.0
  1
316
 41
0.8
  0
ENDBLK
  5
6A1FF
  8
0
  0
BLOCK
  8
0
  2
*U141
 70
     1
 10
0.0
 20
0.0
 30
0.0
  3
*U141
  1

  0
TEXT
  5
6A201
  8
S-OBRYS
  6
CONTINUOUS
 62
     7
 10
13079.433451598299
 20
402463.59669256851
 30
0.0
 40
100.0
  1
500
 50
90.0
 41
0.8
  0
ENDBLK
  5
6A203
  8
0
  0
BLOCK
  8
0
  2
*U142
 70
     1
 10
0.0
 20
0.0
 30
0.0
  3
*U142
  1

  0
TEXT
  5
6A205
  8
S-OBRYS
  6
CONTINUOUS
 62
     7
 10
19865.501721434812
 20
402896.62705868139
 30
0.0
 40
100.0
  1
120
 41
0.8
  0
ENDBLK
  5
6A207
  8
0
  0
BLOCK
  8
0
  2
*U143
 70
     1
 10
0.0
 20
0.0
 30
0.0
  3
*U143
  1

  0
TEXT
  5
6A209
  8
S-OBRYS
  6
CONTINUOUS
 62
     7
 10
19333.358864291939
 20
403029.5881021223
 30
0.0
 40
100.0
  1
180
 41
0.8
  0
ENDBLK
  5
6A20B
  8
0
  0
BLOCK
  8
0
  2
*U144
 70
     1
 10
0.0
 20
0.0
 30
0.0
  3
*U144
  1

  0
TEXT
  5
6A20D
  8
S-OBRYS
  6
CONTINUOUS
 62
     7
 10
19399.073150006228
 20
402072.46518629702
 30
0.0
 40
100.0
  1
300
 41
0.8
  0
ENDBLK
  5
6A20F
  8
0
  0
BLOCK
  8
0
  2
*U145
 70
     1
 10
0.0
 20
0.0
 30
0.0
  3
*U145
  1

  0
TEXT
  5
6A211
  8
S-OBRYS
  6
CONTINUOUS
 62
     7
 10
18227.668388101469
 20
403137.21971568349
 30
0.0
 40
100.0
  1
1309
 41
0.8
  0
ENDBLK
  5
6A213
  8
0
  0
BLOCK
  8
0
  2
*U146
 70
     1
 10
0.0
 20
0.0
 30
0.0
  3
*U146
  1

  0
TEXT
  5
6A215
  8
S-OBRYS
  6
CONTINUOUS
 62
     7
 10
18389.073150006228
 20
402114.43343422998
 30
0.0
 40
100.0
  1
275
 41
0.8
  0
ENDBLK
  5
6A217
  8
0
  0
BLOCK
  8
0
  2
*U147
 70
     1
 10
0.0
 20
0.0
 30
0.0
  3
*U147
  1

  0
TEXT
  5
6A219
  8
S-OBRYS
  6
CONTINUOUS
 62
     7
 10
18027.137588187448
 20
402759.53230815963
 30
0.0
 40
100.0
  1
275
 50
90.0
 41
0.8
  0
ENDBLK
  5
6A21B
  8
0
  0
BLOCK
  8
0
  2
*U148
 70
     1
 10
0.0
 20
0.0
 30
0.0
  3
*U148
  1

  0
TEXT
  5
6A21D
  8
S-OBRYS
  6
CONTINUOUS
 62
     7
 10
17506.877642768839
 20
402408.92865735898
 30
0.0
 40
100.0
  1
440
 50
90.0
 41
0.8
  0
ENDBLK
  5
6A21F
  8
0
  0
BLOCK
  8
0
  2
*U149
 70
     1
 10
0.0
 20
0.0
 30
0.0
  3
*U149
  1

  0
TEXT
  5
6A221
  8
S-OBRYS
  6
CONTINUOUS
 62
     7
 10
18619.630413500028
 20
402721.1950899408
 30
0.0
 40
100.0
  1
1040
 41
0.8
  0
ENDBLK
  5
6A223
  8
0
  0
BLOCK
  8
0
  2
*U150
 70
     1
 10
0.0
 20
0.0
 30
0.0
  3
*U150
  1

  0
TEXT
  5
6A225
  8
S-OBRYS
  6
CONTINUOUS
 62
     7
 10
18656.573150006228
 20
402930.73625816498
 30
0.0
 40
100.0
  1
535
 41
0.8
  0
ENDBLK
  5
6A227
  8
0
  0
BLOCK
  8
0
  2
*U151
 70
     1
 10
0.0
 20
0.0
 30
0.0
  3
*U151
  1

  0
TEXT
  5
6A229
  8
S-OBRYS
  6
CONTINUOUS
 62
     7
 10
19877.90831106147
 20
402408.06284084282
 30
0.0
 40
100.0
  1
510
 50
90.0
 41
0.8
  0
ENDBLK
  5
6A22B
  8
0
  0
BLOCK
  8
0
  2
*U152
 70
     1
 10
0.0
 20
0.0
 30
0.0
  3
*U152
  1

  0
TEXT
  5
6A241
  8
S-OBRYS
  6
CONTINUOUS
 62
     7
 10
16255.54585224794
 20
400322.25244045869
 30
0.0
 40
150.0
  1
2112
 41
0.8
  0
ENDBLK
  5
6A243
  8
0
  0
BLOCK
  8
0
  2
*U153
 70
     1
 10
0.0
 20
0.0
 30
0.0
  3
*U153
  1

  0
TEXT
  5
6A245
  8
S-OBRYS
  6
CONTINUOUS
 62
     7
 10
17618.68870939079
 20
399580.87324283191
 30
0.0
 40
150.0
  1
500
 41
0.8
  0
ENDBLK
  5
6A247
  8
0
  0
BLOCK
  8
0
  2
*U154
 70
     1
 10
0.0
 20
0.0
 30
0.0
  3
*U154
  1

  0
TEXT
  5
6A249
  8
S-OBRYS
  6
CONTINUOUS
 62
     7
 10
15233.47032239737
 20
398457.05148247897
 30
0.0
 40
150.0
  1
1000
 50
90.0
 41
0.8
  0
ENDBLK
  5
6A24B
  8
0
  0
BLOCK
  8
0
  2
*U155
 70
     1
 10
0.0
 20
0.0
 30
0.0
  3
*U155
  1

  0
TEXT
  5
6A24D
  8
S-OBRYS
  6
CONTINUOUS
 62
     7
 10
14440.97442367652
 20
399926.063740051
 30
0.0
 40
150.0
  1
1500
 41
0.8
  0
ENDBLK
  5
6A24F
  8
0
  0
BLOCK
  8
0
  2
*U156
 70
     1
 10
0.0
 20
0.0
 30
0.0
  3
*U156
  1

  0
TEXT
  5
6A251
  8
S-OBRYS
  6
CONTINUOUS
 62
     7
 10
15233.401271997391
 20
400166.55544367828
 30
0.0
 40
150.0
  1
1000
 50
90.0
 41
0.8
  0
ENDBLK
  5
6A253
  8
0
  0
BLOCK
  8
0
  2
*U157
 70
     1
 10
0.0
 20
0.0
 30
0.0
  3
*U157
  1

  0
TEXT
  5
6A255
  8
S-OBRYS
  6
CONTINUOUS
 62
     7
 10
15597.255403225019
 20
399917.13909796131
 30
0.0
 40
150.0
  1
77
 50
90.0
 41
0.8
  0
ENDBLK
  5
6A257
  8
0
  0
BLOCK
  8
0
  2
*U158
 70
     1
 10
0.0
 20
0.0
 30
0.0
  3
*U158
  1

  0
TEXT
  5
6A259
  8
S-OBRYS
  6
CONTINUOUS
 62
     7
 10
17730.831566533649
 20
400143.09551464178
 30
0.0
 40
150.0
  1
143
 41
0.8
  0
ENDBLK
  5
6A25B
  8
0
  0
BLOCK
  8
0
  2
*U159
 70
     1
 10
0.0
 20
0.0
 30
0.0
  3
*U159
  1

  0
TEXT
  5
6A25D
  8
S-OBRYS
  6
CONTINUOUS
 62
     7
 10
16936.192463564879
 20
399926.063740051
 30
0.0
 40
150.0
  1
580
 41
0.8
  0
ENDBLK
  5
6A25F
  8
0
  0
BLOCK
  8
0
  2
*U160
 70
     1
 10
0.0
 20
0.0
 30
0.0
  3
*U160
  1

  0
TEXT
  5
6A261
  8
S-OBRYS
  6
CONTINUOUS
 62
     7
 10
16043.47442367652
 20
399926.063740051
 30
0.0
 40
150.0
  1
1073
 41
0.8
  0
ENDBLK
  5
6A263
  8
0
  0
BLOCK
  8
0
  2
*U161
 70
     1
 10
0.0
 20
0.0
 30
0.0
  3
*U161
  1

  0
TEXT
  5
6A265
  8
S-OBRYS
  6
CONTINUOUS
 62
     7
 10
14570.158934319419
 20
400196.34998993739
 30
0.0
 40
150.0
  1
316
 41
0.8
  0
ENDBLK
  5
6A267
  8
0
  0
BLOCK
  8
0
  2
*U162
 70
     1
 10
0.0
 20
0.0
 30
0.0
  3
*U162
  1

  0
TEXT
  5
6A269
  8
S-OBRYS
  6
CONTINUOUS
 62
     7
 10
15233.47032239737
 20
399272.76504594332
 30
0.0
 40
150.0
  1
500
 50
90.0
 41
0.8
  0
ENDBLK
  5
6A26B
  8
0
  0
ENDSEC
  0
SECTION
  2
ENTITIES
  0
TEXT
  5
2F7A5
  8
KOTY
 10
-393803.77638965531
 20
-299016.15321175661
 30
0.0
 40
150.0
  1

 41
0.7
  7
ROMANT
  0
TEXT
  5
3AD8B
  8
KOTY
 10
-14797.18019204357
 20
454294.55370899959
 30
0.0
 40
150.0
  1

 41
0.7
  7
ROMANT
  0
TEXT
  5
404AD
  8
KOTY
 10
44010.2314385153
 20
465617.23741859582
 30
0.0
 40
92.0
  1

 41
0.7
  7
CYRILLIC
  0
TEXT
  5
404B4
  8
KOTY
 10
39575.071591094718
 20
465613.29777162091
 30
0.0
 40
92.0
  1

 41
0.7
  7
CYRILLIC
  0
TEXT
  5
40B14
  8
KOTY
 10
5856.0590664841584
 20
486921.1132385282
 30
0.0
 40
150.0
  1

 41
0.7
  7
ROMANT
  0
TEXT
  5
40BFC
  8
KOTY
 10
8767.7265956277752
 20
466337.2608060218
 30
0.0
 40
150.0
  1

 41
0.7
  7
ROMANS
  0
TEXT
  5
51A7C
  8
KOTY
 10
-47677.341387967608
 20
395133.71812193602
 30
0.0
 40
150.0
  1

 41
0.7
  7
ROMANS
  0
TEXT
  5
51A94
  8
KOTY
 10
-45176.819295693742
 20
395133.7181219359
 30
0.0
 40
150.0
  1

 41
0.7
  7
ROMANS
  0
TEXT
  5
51A9B
  8
KOTY
 10
-48084.423320344351
 20
397411.27855615731
 30
0.0
 40
150.0
  1

 41
0.7
  7
ROMANT
  0
TEXT
  5
51B05
  8
RAZ
 62
     6
 10
-47365.887544580757
 20
392999.37567832542
 30
0.0
 40
193.54103193599991
  1

 41
0.8
  7
R08
  0
TEXT
  5
51B06
  8
RAZ
 62
     1
 10
-47245.037660778231
 20
393401.77274166199
 30
0.0
 40
125.41458869452801
  1

  7
ROMANS
  0
TEXT
  5
58307
  8
KOTY
 10
22966.528519463162
 20
383405.87475258159
 30
0.0
 40
150.0
  1

 41
0.7
  7
ROMANS
  0
TEXT
  5
58308
  8
KOTY
 10
22966.528519463169
 20
383855.87475258159
 30
0.0
 40
150.0
  1

 41
0.7
  7
ROMANS
  0
TEXT
  5
58315
  8
KOTY
 10
25467.050611737021
 20
383855.87475258141
 30
0.0
 40
150.0
  1

 41
0.7
  7
ROMANS
  0
TEXT
  5
58316
  8
KOTY
 10
25467.050611737021
 20
383405.87475258141
 30
0.0
 40
150.0
  1

 41
0.7
  7
ROMANS
  0
TEXT
  5
5833F
  8
KOTY
 10
22966.528519463162
 20
385205.87475258153
 30
0.0
 40
150.0
  1

 41
0.7
  7
ROMANS
  0
TEXT
  5
58340
  8
KOTY
 10
22966.528519463169
 20
385655.87475258159
 30
0.0
 40
150.0
  1

 41
0.7
  7
ROMANS
  0
TEXT
  5
58354
  8
KOTY
 10
25467.050611737021
 20
385655.87475258141
 30
0.0
 40
150.0
  1

 41
0.7
  7
ROMANS
  0
TEXT
  5
58355
  8
KOTY
 10
25467.050611737021
 20
385205.87475258141
 30
0.0
 40
150.0
  1

 41
0.7
  7
ROMANS
  0
TEXT
  5
58397
  8
KOTY
 10
25467.050611737039
 20
390605.87475258129
 30
0.0
 40
150.0
  1

 41
0.7
  7
ROMANS
  0
TEXT
  5
58398
  8
KOTY
 10
25467.050611737039
 20
391055.87475258141
 30
0.0
 40
150.0
  1

 41
0.7
  7
ROMANS
  0
TEXT
  5
583C1
  8
KOTY
 10
25467.050611737031
 20
389255.87475258141
 30
0.0
 40
150.0
  1

 41
0.7
  7
ROMANS
  0
TEXT
  5
58C84
  8
KOTY
 10
22966.52851946322
 20
387905.87475258153
 30
0.0
 40
150.0
  1

 41
0.7
  7
ROMANS
  0
LINE
  5
666C6
  8
S-OBRYS
  6
CONTINUOUS
 10
11314.672356200281
 20
394711.161749786
 30
0.0
 11
21814.672356200292
 21
394711.161749786
 31
0.0
  0
LINE
  5
666C7
  8
S-OBRYS
  6
CONTINUOUS
 10
21814.672356200292
 20
394711.161749786
 30
0.0
 11
21814.672356200292
 21
409561.16174978612
 31
0.0
  0
LINE
  5
666C8
  8
S-OBRYS
  6
CONTINUOUS
 10
21814.672356200292
 20
409561.16174978612
 30
0.0
 11
11314.67235620029
 21
409561.16174978612
 31
0.0
  0
LINE
  5
666C9
  8
S-OBRYS
  6
CONTINUOUS
 10
11314.67235620029
 20
409561.16174978612
 30
0.0
 11
11314.672356200281
 21
394711.161749786
 31
0.0
  0
LINE
  5
695FE
  8
S-OBRYS
  6
CONTINUOUS
 10
13274.0804100203
 20
402827.88168460422
 30
0.0
 11
15386.0804100203
 21
402827.88168460422
 31
0.0
  0
LINE
  5
695FF
  8
S-OBRYS
  6
CONTINUOUS
 10
13274.0804100203
 20
402327.88312910427
 30
0.0
 11
15386.0804100203
 21
402327.88312910427
 31
0.0
  0
LINE
  5
69600
  8
S-OBRYS
  6
CONTINUOUS
 10
13259.687364036259
 20
402577.8824068543
 30
0.0
 11
15404.497418967219
 21
402577.8824068543
 31
0.0
  0
LINE
  5
69601
  8
S-OBRYS
  6
CONTINUOUS
 10
13484.91154160109
 20
402864.29099494597
 30
0.0
 11
14777.974976740081
 21
402864.29099494597
 31
0.0
  0
LINE
  5
69602
  8
S-OBRYS
  6
CONTINUOUS
 10
13486.311505453939
 20
402291.47381876252
 30
0.0
 11
14778.656255672629
 21
402291.47381876252
 31
0.0
  0
LINE
  5
69603
  8
S-OBRYS
  6
CONTINUOUS
 10
13274.0804100203
 20
402327.88312910427
 30
0.0
 11
13274.0804100203
 21
402827.88168460422
 31
0.0
  0
LINE
  5
69604
  8
S-OBRYS
  6
CONTINUOUS
 10
13374.0803624203
 20
402327.88312910427
 30
0.0
 11
13374.0803624203
 21
402827.88168460422
 31
0.0
  0
LINE
  5
69605
  8
S-OBRYS
  6
CONTINUOUS
 10
13486.311505453939
 20
402327.88312910427
 30
0.0
 11
13486.311505453939
 21
402291.47381876252
 31
0.0
  0
LINE
  5
69606
  8
S-OBRYS
  6
CONTINUOUS
 10
13837.07994279247
 20
402270.45878969668
 30
0.0
 11
13797.07995929247
 21
402270.45878969668
 31
0.0
  0
LINE
  5
69607
  8
S-OBRYS
  6
CONTINUOUS
 10
13717.079992292471
 20
402242.8824068543
 30
0.0
 11
13837.07994279247
 21
402242.8824068543
 31
0.0
  0
LINE
  5
69608
  8
S-OBRYS
  6
CONTINUOUS
 10
13757.079975792471
 20
402270.45878969668
 30
0.0
 11
13717.079992292471
 21
402270.45878969668
 31
0.0
  0
LINE
  5
69609
  8
S-OBRYS
  6
CONTINUOUS
 10
13717.079992292471
 20
402270.45878969668
 30
0.0
 11
13717.079992292471
 21
402242.8824068543
 31
0.0
  0
LINE
  5
6960A
  8
S-OBRYS
  6
CONTINUOUS
 10
13757.079975792471
 20
402291.47381876252
 30
0.0
 11
13757.079975792471
 21
402270.45878969668
 31
0.0
  0
LINE
  5
6960B
  8
S-OBRYS
  6
CONTINUOUS
 10
13797.07995929247
 20
402270.45878969668
 30
0.0
 11
13797.07995929247
 21
402291.47381876252
 31
0.0
  0
LINE
  5
6960C
  8
S-OBRYS
  6
CONTINUOUS
 10
13837.07994279247
 20
402242.8824068543
 30
0.0
 11
13837.07994279247
 21
402270.45878969668
 31
0.0
  0
LINE
  5
6960D
  8
S-OBRYS
  6
CONTINUOUS
 10
13590.0804100203
 20
402702.81825559441
 30
0.0
 11
13590.0804100203
 21
402606.9465581142
 31
0.0
  0
LINE
  5
6960E
  8
S-OBRYS
  6
CONTINUOUS
 10
13542.1445612802
 20
402654.88240685442
 30
0.0
 11
13638.016258760401
 21
402654.88240685442
 31
0.0
  0
CIRCLE
  5
6960F
  8
S-OBRYS
  6
CONTINUOUS
 10
13590.0804100203
 20
402654.88240685442
 30
0.0
 40
39.999919365000011
  0
LINE
  5
69610
  8
S-OBRYS
  6
CONTINUOUS
 10
13484.91154160109
 20
402827.88168460422
 30
0.0
 11
13484.91154160109
 21
402864.29099494597
 31
0.0
  0
LINE
  5
69611
  8
S-OBRYS
  6
CONTINUOUS
 10
13837.07994279247
 20
402885.30602401181
 30
0.0
 11
13797.07995929247
 21
402885.30602401181
 31
0.0
  0
LINE
  5
69612
  8
S-OBRYS
  6
CONTINUOUS
 10
13717.079992292471
 20
402912.8824068543
 30
0.0
 11
13837.07994279247
 21
402912.8824068543
 31
0.0
  0
LINE
  5
69613
  8
S-OBRYS
  6
CONTINUOUS
 10
13717.079992292471
 20
402885.30602401181
 30
0.0
 11
13717.079992292471
 21
402912.8824068543
 31
0.0
  0
LINE
  5
69614
  8
S-OBRYS
  6
CONTINUOUS
 10
13757.079975792471
 20
402885.30602401181
 30
0.0
 11
13717.079992292471
 21
402885.30602401181
 31
0.0
  0
LINE
  5
69615
  8
S-OBRYS
  6
CONTINUOUS
 10
13757.079975792471
 20
402864.29099494597
 30
0.0
 11
13757.079975792471
 21
402885.30602401181
 31
0.0
  0
LINE
  5
69616
  8
S-OBRYS
  6
CONTINUOUS
 10
13797.07995929247
 20
402885.30602401181
 30
0.0
 11
13797.07995929247
 21
402864.29099494597
 31
0.0
  0
LINE
  5
69617
  8
S-OBRYS
  6
CONTINUOUS
 10
13837.07994279247
 20
402912.8824068543
 30
0.0
 11
13837.07994279247
 21
402885.30602401181
 31
0.0
  0
LINE
  5
69618
  8
S-OBRYS
  6
CONTINUOUS
 10
14773.078059720299
 20
402327.88312910427
 30
0.0
 11
14773.078059720299
 21
402827.88168460422
 31
0.0
  0
LINE
  5
69619
  8
S-OBRYS
  6
CONTINUOUS
 10
14476.668726504069
 20
402270.45878969668
 30
0.0
 11
14436.668743004069
 21
402270.45878969668
 31
0.0
  0
LINE
  5
6961A
  8
S-OBRYS
  6
CONTINUOUS
 10
14436.668743004069
 20
402242.8824068543
 30
0.0
 11
14556.66869350408
 21
402242.8824068543
 31
0.0
  0
LINE
  5
6961B
  8
S-OBRYS
  6
CONTINUOUS
 10
14436.668743004069
 20
402270.45878969668
 30
0.0
 11
14436.668743004069
 21
402242.8824068543
 31
0.0
  0
LINE
  5
6961C
  8
S-OBRYS
  6
CONTINUOUS
 10
14556.66869350408
 20
402270.45878969668
 30
0.0
 11
14516.668710004071
 21
402270.45878969668
 31
0.0
  0
LINE
  5
6961D
  8
S-OBRYS
  6
CONTINUOUS
 10
14516.668710004071
 20
402270.45878969668
 30
0.0
 11
14516.668710004071
 21
402291.47381876252
 31
0.0
  0
LINE
  5
6961E
  8
S-OBRYS
  6
CONTINUOUS
 10
14476.668726504069
 20
402291.47381876252
 30
0.0
 11
14476.668726504069
 21
402270.45878969668
 31
0.0
  0
LINE
  5
6961F
  8
S-OBRYS
  6
CONTINUOUS
 10
14556.66869350408
 20
402242.8824068543
 30
0.0
 11
14556.66869350408
 21
402270.45878969668
 31
0.0
  0
LINE
  5
69620
  8
S-OBRYS
  6
CONTINUOUS
 10
14778.656255672629
 20
402291.47381876252
 30
0.0
 11
14778.656255672629
 21
402327.88312910427
 31
0.0
  0
LINE
  5
69621
  8
S-OBRYS
  6
CONTINUOUS
 10
14663.0804100203
 20
402660.4058739281
 30
0.0
 11
14663.0804100203
 21
402495.35893978062
 31
0.0
  0
LINE
  5
69622
  8
S-OBRYS
  6
CONTINUOUS
 10
14436.668743004069
 20
402912.8824068543
 30
0.0
 11
14556.66869350408
 21
402912.8824068543
 31
0.0
  0
LINE
  5
69623
  8
S-OBRYS
  6
CONTINUOUS
 10
14476.668726504069
 20
402885.30602401181
 30
0.0
 11
14436.668743004069
 21
402885.30602401181
 31
0.0
  0
LINE
  5
69624
  8
S-OBRYS
  6
CONTINUOUS
 10
14436.668743004069
 20
402885.30602401181
 30
0.0
 11
14436.668743004069
 21
402912.8824068543
 31
0.0
  0
LINE
  5
69625
  8
S-OBRYS
  6
CONTINUOUS
 10
14556.66869350408
 20
402912.8824068543
 30
0.0
 11
14556.66869350408
 21
402885.30602401181
 31
0.0
  0
LINE
  5
69626
  8
S-OBRYS
  6
CONTINUOUS
 10
14556.66869350408
 20
402885.30602401181
 30
0.0
 11
14516.668710004071
 21
402885.30602401181
 31
0.0
  0
LINE
  5
69627
  8
S-OBRYS
  6
CONTINUOUS
 10
14476.668726504069
 20
402864.29099494597
 30
0.0
 11
14476.668726504069
 21
402885.30602401181
 31
0.0
  0
LINE
  5
69628
  8
S-OBRYS
  6
CONTINUOUS
 10
14516.668710004071
 20
402885.30602401181
 30
0.0
 11
14516.668710004071
 21
402864.29099494597
 31
0.0
  0
LINE
  5
69629
  8
S-OBRYS
  6
CONTINUOUS
 10
14777.974976740081
 20
402864.29099494597
 30
0.0
 11
14777.974976740081
 21
402827.88168460422
 31
0.0
  0
LINE
  5
6962A
  8
S-OBRYS
  6
CONTINUOUS
 10
18231.377938729242
 20
404830.51773744222
 30
0.0
 11
18231.377938729242
 21
406230.51468344219
 31
0.0
  0
LINE
  5
6962B
  8
S-OBRYS
  6
CONTINUOUS
 10
18731.377938729242
 20
404830.51773744222
 30
0.0
 11
18731.377938729242
 21
406230.51468344219
 31
0.0
  0
LINE
  5
6962C
  8
S-OBRYS
  6
CONTINUOUS
 10
18481.377938729242
 20
404730.65270958759
 30
0.0
 11
18481.377938729242
 21
406300.5140354422
 31
0.0
  0
LINE
  5
6962D
  8
S-OBRYS
  6
CONTINUOUS
 10
15100.1430977203
 20
402327.88312910427
 30
0.0
 11
15100.142792920289
 21
402827.88168460422
 31
0.0
  0
LINE
  5
6962E
  8
S-OBRYS
  6
CONTINUOUS
 10
15386.0804100203
 20
402327.88312910427
 30
0.0
 11
15386.0804100203
 21
402827.88168460422
 31
0.0
  0
LINE
  5
6962F
  8
S-OBRYS
  6
CONTINUOUS
 10
15304.087893618471
 20
402306.86737778853
 30
0.0
 11
15264.087910118469
 21
402306.86737778853
 31
0.0
  0
LINE
  5
69630
  8
S-OBRYS
  6
CONTINUOUS
 10
15184.087943118469
 20
402279.29099494597
 30
0.0
 11
15304.087893618471
 21
402279.29099494597
 31
0.0
  0
LINE
  5
69631
  8
S-OBRYS
  6
CONTINUOUS
 10
15224.087926618469
 20
402306.86737778853
 30
0.0
 11
15184.087943118469
 21
402306.86737778853
 31
0.0
  0
LINE
  5
69632
  8
S-OBRYS
  6
CONTINUOUS
 10
15184.087943118469
 20
402306.86737778853
 30
0.0
 11
15184.087943118469
 21
402279.29099494597
 31
0.0
  0
LINE
  5
69633
  8
S-OBRYS
  6
CONTINUOUS
 10
15224.087926618469
 20
402327.8824068543
 30
0.0
 11
15224.087926618469
 21
402306.86737778853
 31
0.0
  0
LINE
  5
69634
  8
S-OBRYS
  6
CONTINUOUS
 10
15264.087910118469
 20
402306.86737778853
 30
0.0
 11
15264.087910118469
 21
402327.8824068543
 31
0.0
  0
LINE
  5
69635
  8
S-OBRYS
  6
CONTINUOUS
 10
15304.087893618471
 20
402279.29099494597
 30
0.0
 11
15304.087893618471
 21
402306.86737778853
 31
0.0
  0
CIRCLE
  5
69636
  8
S-OBRYS
  6
CONTINUOUS
 10
15243.0804100203
 20
402577.88240050431
 30
0.0
 40
139.99999940000001
  0
LINE
  5
69637
  8
S-OBRYS
  6
CONTINUOUS
 10
15243.0804100203
 20
402734.19871121377
 30
0.0
 11
15243.0804100203
 21
402421.56610249472
 31
0.0
  0
LINE
  5
69638
  8
S-OBRYS
  6
CONTINUOUS
 10
15386.0804100203
 20
402638.59930365899
 30
0.0
 11
15386.0804100203
 21
402380.70848770218
 31
0.0
  0
LINE
  5
69639
  8
S-OBRYS
  6
CONTINUOUS
 10
15304.087893618471
 20
402848.89743592008
 30
0.0
 11
15264.087910118469
 21
402848.89743592008
 31
0.0
  0
LINE
  5
6963A
  8
S-OBRYS
  6
CONTINUOUS
 10
15184.087943118469
 20
402876.47381876252
 30
0.0
 11
15304.087893618471
 21
402876.47381876252
 31
0.0
  0
LINE
  5
6963B
  8
S-OBRYS
  6
CONTINUOUS
 10
15224.087926618469
 20
402827.8824068543
 30
0.0
 11
15224.087926618469
 21
402848.89743592008
 31
0.0
  0
LINE
  5
6963C
  8
S-OBRYS
  6
CONTINUOUS
 10
15224.087926618469
 20
402848.89743592008
 30
0.0
 11
15184.087943118469
 21
402848.89743592008
 31
0.0
  0
LINE
  5
6963D
  8
S-OBRYS
  6
CONTINUOUS
 10
15184.087943118469
 20
402848.89743592008
 30
0.0
 11
15184.087943118469
 21
402876.47381876252
 31
0.0
  0
LINE
  5
6963E
  8
S-OBRYS
  6
CONTINUOUS
 10
15264.087910118469
 20
402848.89743592008
 30
0.0
 11
15264.087910118469
 21
402827.8824068543
 31
0.0
  0
LINE
  5
6963F
  8
S-OBRYS
  6
CONTINUOUS
 10
15304.087893618471
 20
402876.47381876252
 30
0.0
 11
15304.087893618471
 21
402848.89743592008
 31
0.0
  0
LINE
  5
69640
  8
S-OBRYS
  6
CONTINUOUS
 10
18731.377938729242
 20
404830.51773744222
 30
0.0
 11
18231.377938729242
 21
404830.51773744222
 31
0.0
  0
LINE
  5
69641
  8
S-OBRYS
  6
CONTINUOUS
 10
18231.377938729242
 20
404865.51680384221
 30
0.0
 11
18731.377938729242
 21
404865.51680384221
 31
0.0
  0
LINE
  5
69642
  8
S-OBRYS
  6
CONTINUOUS
 10
18146.377938729242
 20
406145.51625044219
 30
0.0
 11
18173.95432157172
 21
406145.51625044219
 31
0.0
  0
LINE
  5
69643
  8
S-OBRYS
  6
CONTINUOUS
 10
18173.95432157172
 20
406025.51629994222
 30
0.0
 11
18146.377938729242
 21
406025.51629994222
 31
0.0
  0
LINE
  5
69644
  8
S-OBRYS
  6
CONTINUOUS
 10
18146.377938729242
 20
406025.51629994222
 30
0.0
 11
18146.377938729242
 21
406145.51625044219
 31
0.0
  0
LINE
  5
69645
  8
S-OBRYS
  6
CONTINUOUS
 10
18194.96935063749
 20
405730.51606444223
 30
0.0
 11
18194.96935063749
 21
406180.51402144221
 31
0.0
  0
LINE
  5
69646
  8
S-OBRYS
  6
CONTINUOUS
 10
18767.78652682099
 20
405730.51606444223
 30
0.0
 11
18767.78652682099
 21
406180.51402144221
 31
0.0
  0
LINE
  5
69647
  8
S-OBRYS
  6
CONTINUOUS
 10
18182.78652682099
 20
404990.5224974422
 30
0.0
 11
18182.78652682099
 21
405110.52244794217
 31
0.0
  0
LINE
  5
69648
  8
S-OBRYS
  6
CONTINUOUS
 10
18210.362909663469
 20
405110.52244794217
 30
0.0
 11
18210.362909663469
 21
405070.52246444218
 31
0.0
  0
LINE
  5
69649
  8
S-OBRYS
  6
CONTINUOUS
 10
18231.377938729242
 20
405030.52248094231
 30
0.0
 11
18210.362909663469
 21
405030.52248094231
 31
0.0
  0
LINE
  5
6964A
  8
S-OBRYS
  6
CONTINUOUS
 10
18210.362909663469
 20
405070.52246444218
 30
0.0
 11
18231.377938729242
 21
405070.52246444218
 31
0.0
  0
LINE
  5
6964B
  8
S-OBRYS
  6
CONTINUOUS
 10
18210.362909663469
 20
404990.5224974422
 30
0.0
 11
18182.78652682099
 21
404990.5224974422
 31
0.0
  0
LINE
  5
6964C
  8
S-OBRYS
  6
CONTINUOUS
 10
18210.362909663469
 20
405030.52248094231
 30
0.0
 11
18210.362909663469
 21
404990.5224974422
 31
0.0
  0
LINE
  5
6964D
  8
S-OBRYS
  6
CONTINUOUS
 10
18182.78652682099
 20
405110.52244794217
 30
0.0
 11
18210.362909663469
 21
405110.52244794217
 31
0.0
  0
LINE
  5
6964E
  8
S-OBRYS
  6
CONTINUOUS
 10
18182.78652682099
 20
405437.23336424219
 30
0.0
 11
18182.78652682099
 21
405557.23331474228
 31
0.0
  0
LINE
  5
6964F
  8
S-OBRYS
  6
CONTINUOUS
 10
18210.362909663469
 20
405557.23331474228
 30
0.0
 11
18210.362909663469
 21
405517.23333124223
 31
0.0
  0
LINE
  5
69650
  8
S-OBRYS
  6
CONTINUOUS
 10
18231.377938729242
 20
405477.23334774218
 30
0.0
 11
18210.362909663469
 21
405477.23334774218
 31
0.0
  0
LINE
  5
69651
  8
S-OBRYS
  6
CONTINUOUS
 10
18210.362909663469
 20
405517.23333124223
 30
0.0
 11
18231.377938729242
 21
405517.23333124223
 31
0.0
  0
LINE
  5
69652
  8
S-OBRYS
  6
CONTINUOUS
 10
18210.362909663469
 20
405437.23336424219
 30
0.0
 11
18182.78652682099
 21
405437.23336424219
 31
0.0
  0
LINE
  5
69653
  8
S-OBRYS
  6
CONTINUOUS
 10
18210.362909663469
 20
405477.23334774218
 30
0.0
 11
18210.362909663469
 21
405437.23336424219
 31
0.0
  0
LINE
  5
69654
  8
S-OBRYS
  6
CONTINUOUS
 10
18182.78652682099
 20
405557.23331474228
 30
0.0
 11
18210.362909663469
 21
405557.23331474228
 31
0.0
  0
LINE
  5
69655
  8
S-OBRYS
  6
CONTINUOUS
 10
18194.96935063749
 20
405730.51606444223
 30
0.0
 11
18231.377938729242
 21
405730.51606444223
 31
0.0
  0
LINE
  5
69656
  8
S-OBRYS
  6
CONTINUOUS
 10
18779.969350637501
 20
404990.5224974422
 30
0.0
 11
18779.969350637501
 21
405110.52244794217
 31
0.0
  0
LINE
  5
69657
  8
S-OBRYS
  6
CONTINUOUS
 10
18752.392967795018
 20
405110.52244794217
 30
0.0
 11
18752.392967795018
 21
405070.52246444218
 31
0.0
  0
LINE
  5
69658
  8
S-OBRYS
  6
CONTINUOUS
 10
18752.392967795018
 20
404990.5224974422
 30
0.0
 11
18779.969350637501
 21
404990.5224974422
 31
0.0
  0
LINE
  5
69659
  8
S-OBRYS
  6
CONTINUOUS
 10
18731.377938729242
 20
405030.52248094231
 30
0.0
 11
18752.392967795018
 21
405030.52248094231
 31
0.0
  0
LINE
  5
6965A
  8
S-OBRYS
  6
CONTINUOUS
 10
18752.392967795018
 20
405030.52248094231
 30
0.0
 11
18752.392967795018
 21
404990.5224974422
 31
0.0
  0
LINE
  5
6965B
  8
S-OBRYS
  6
CONTINUOUS
 10
18752.392967795018
 20
405070.52246444218
 30
0.0
 11
18731.377938729242
 21
405070.52246444218
 31
0.0
  0
LINE
  5
6965C
  8
S-OBRYS
  6
CONTINUOUS
 10
18779.969350637501
 20
405110.52244794217
 30
0.0
 11
18752.392967795018
 21
405110.52244794217
 31
0.0
  0
LINE
  5
6965D
  8
S-OBRYS
  6
CONTINUOUS
 10
18752.392967795018
 20
405557.23331474228
 30
0.0
 11
18752.392967795018
 21
405517.23333124223
 31
0.0
  0
LINE
  5
6965E
  8
S-OBRYS
  6
CONTINUOUS
 10
18779.969350637501
 20
405437.23336424219
 30
0.0
 11
18779.969350637501
 21
405557.23331474228
 31
0.0
  0
LINE
  5
6965F
  8
S-OBRYS
  6
CONTINUOUS
 10
18752.392967795018
 20
405437.23336424219
 30
0.0
 11
18779.969350637501
 21
405437.23336424219
 31
0.0
  0
LINE
  5
69660
  8
S-OBRYS
  6
CONTINUOUS
 10
18731.377938729242
 20
405477.23334774218
 30
0.0
 11
18752.392967795018
 21
405477.23334774218
 31
0.0
  0
LINE
  5
69661
  8
S-OBRYS
  6
CONTINUOUS
 10
18752.392967795018
 20
405477.23334774218
 30
0.0
 11
18752.392967795018
 21
405437.23336424219
 31
0.0
  0
LINE
  5
69662
  8
S-OBRYS
  6
CONTINUOUS
 10
18752.392967795018
 20
405517.23333124223
 30
0.0
 11
18731.377938729242
 21
405517.23333124223
 31
0.0
  0
LINE
  5
69663
  8
S-OBRYS
  6
CONTINUOUS
 10
18779.969350637501
 20
405557.23331474228
 30
0.0
 11
18752.392967795018
 21
405557.23331474228
 31
0.0
  0
LINE
  5
69664
  8
S-OBRYS
  6
CONTINUOUS
 10
18767.78652682099
 20
405730.51606444223
 30
0.0
 11
18731.377938729242
 21
405730.51606444223
 31
0.0
  0
LINE
  5
69665
  8
S-OBRYS
  6
CONTINUOUS
 10
18231.377938729242
 20
406230.51468344219
 30
0.0
 11
18731.377938729242
 21
406230.51468344219
 31
0.0
  0
LINE
  5
69666
  8
S-OBRYS
  6
CONTINUOUS
 10
18173.95432157172
 20
406065.51628344221
 30
0.0
 11
18173.95432157172
 21
406025.51629994222
 31
0.0
  0
LINE
  5
69667
  8
S-OBRYS
  6
CONTINUOUS
 10
18194.96935063749
 20
406065.51628344221
 30
0.0
 11
18173.95432157172
 21
406065.51628344221
 31
0.0
  0
LINE
  5
69668
  8
S-OBRYS
  6
CONTINUOUS
 10
18194.96935063749
 20
406180.51402144221
 30
0.0
 11
18231.377938729242
 21
406180.51402144221
 31
0.0
  0
LINE
  5
69669
  8
S-OBRYS
  6
CONTINUOUS
 10
18173.95432157172
 20
406105.5162669422
 30
0.0
 11
18194.96935063749
 21
406105.5162669422
 31
0.0
  0
LINE
  5
6966A
  8
S-OBRYS
  6
CONTINUOUS
 10
18173.95432157172
 20
406145.51625044219
 30
0.0
 11
18173.95432157172
 21
406105.5162669422
 31
0.0
  0
LINE
  5
6966B
  8
S-OBRYS
  6
CONTINUOUS
 10
18574.545399079248
 20
406300.5140354422
 30
0.0
 11
18349.545810979242
 21
406300.5140354422
 31
0.0
  0
LINE
  5
6966C
  8
S-OBRYS
  6
CONTINUOUS
 10
18349.545810979242
 20
406230.51468344219
 30
0.0
 11
18349.545810979242
 21
406300.5140354422
 31
0.0
  0
LINE
  5
6966D
  8
S-OBRYS
  6
CONTINUOUS
 10
18455.79538257925
 20
406230.51468344219
 30
0.0
 11
18455.79538257925
 21
406300.5140354422
 31
0.0
  0
LINE
  5
6966E
  8
S-OBRYS
  6
CONTINUOUS
 10
18543.877938729242
 20
406230.51468344219
 30
0.0
 11
18543.877938729242
 21
406300.5140354422
 31
0.0
  0
LINE
  5
6966F
  8
S-OBRYS
  6
CONTINUOUS
 10
18816.377938729242
 20
406025.51629994222
 30
0.0
 11
18816.377938729242
 21
406145.51625044219
 31
0.0
  0
LINE
  5
69670
  8
S-OBRYS
  6
CONTINUOUS
 10
18767.78652682099
 20
406065.51628344221
 30
0.0
 11
18788.80155588677
 21
406065.51628344221
 31
0.0
  0
LINE
  5
69671
  8
S-OBRYS
  6
CONTINUOUS
 10
18788.80155588677
 20
406065.51628344221
 30
0.0
 11
18788.80155588677
 21
406025.51629994222
 31
0.0
  0
LINE
  5
69672
  8
S-OBRYS
  6
CONTINUOUS
 10
18788.80155588677
 20
406025.51629994222
 30
0.0
 11
18816.377938729242
 21
406025.51629994222
 31
0.0
  0
LINE
  5
69673
  8
S-OBRYS
  6
CONTINUOUS
 10
18788.80155588677
 20
406105.5162669422
 30
0.0
 11
18767.78652682099
 21
406105.5162669422
 31
0.0
  0
LINE
  5
69674
  8
S-OBRYS
  6
CONTINUOUS
 10
18767.78652682099
 20
406180.51402144221
 30
0.0
 11
18731.377938729242
 21
406180.51402144221
 31
0.0
  0
LINE
  5
69675
  8
S-OBRYS
  6
CONTINUOUS
 10
18816.377938729242
 20
406145.51625044219
 30
0.0
 11
18788.80155588677
 21
406145.51625044219
 31
0.0
  0
LINE
  5
69676
  8
S-OBRYS
  6
CONTINUOUS
 10
18788.80155588677
 20
406145.51625044219
 30
0.0
 11
18788.80155588677
 21
406105.5162669422
 31
0.0
  0
LINE
  5
69677
  8
S-OBRYS
  6
CONTINUOUS
 10
15702.836534581729
 20
405775.41710889962
 30
0.0
 11
15390.336576231741
 21
405775.41710889962
 31
0.0
  0
LINE
  5
69678
  8
S-OBRYS
  6
CONTINUOUS
 10
15390.336576231741
 20
405533.43943689961
 30
0.0
 11
15707.83666548174
 21
405231.21103449952
 31
0.0
  0
LINE
  5
69679
  8
S-OBRYS
  6
CONTINUOUS
 10
14082.93784614293
 20
405731.20955189952
 30
0.0
 11
15375.96920205407
 21
405731.20955189952
 31
0.0
  0
LINE
  5
6967A
  8
S-OBRYS
  6
CONTINUOUS
 10
13870.836534581729
 20
406231.2081708996
 30
0.0
 11
15981.33953478173
 21
406231.2081708996
 31
0.0
  0
LINE
  5
6967B
  8
S-OBRYS
  6
CONTINUOUS
 10
15290.33662383173
 20
404831.21122489963
 30
0.0
 11
15290.33662383173
 21
405641.20896989963
 31
0.0
  0
LINE
  5
6967C
  8
S-OBRYS
  6
CONTINUOUS
 10
15390.336576231741
 20
404831.21122489963
 30
0.0
 11
15390.336576231741
 21
406231.2081708996
 31
0.0
  0
LINE
  5
6967D
  8
S-OBRYS
  6
CONTINUOUS
 10
14805.336600031729
 20
404721.21122489951
 30
0.0
 11
14805.336600031729
 21
405040.57239152963
 31
0.0
  0
LINE
  5
6967E
  8
S-OBRYS
  6
CONTINUOUS
 10
14081.33657623173
 20
404831.21122489963
 30
0.0
 11
14081.33657623173
 21
405641.20896989963
 31
0.0
  0
LINE
  5
6967F
  8
S-OBRYS
  6
CONTINUOUS
 10
13870.836534581729
 20
404831.21122489963
 30
0.0
 11
13870.836534581729
 21
406231.2081708996
 31
0.0
  0
LINE
  5
69680
  8
S-OBRYS
  6
CONTINUOUS
 10
13981.33662383173
 20
404831.21122489963
 30
0.0
 11
13981.33662383173
 21
406231.2081708996
 31
0.0
  0
LINE
  5
69681
  8
S-OBRYS
  6
CONTINUOUS
 10
15340.336600031729
 20
404775.67748068582
 30
0.0
 11
15340.336600031729
 21
404906.92740869388
 31
0.0
  0
LINE
  5
69682
  8
S-OBRYS
  6
CONTINUOUS
 10
13870.836534581729
 20
404866.2102912995
 30
0.0
 11
14081.33657623173
 21
404866.2102912995
 31
0.0
  0
LINE
  5
69683
  8
S-OBRYS
  6
CONTINUOUS
 10
13870.836534581729
 20
404831.21122489963
 30
0.0
 11
14081.33657623173
 21
404831.21122489963
 31
0.0
  0
LINE
  5
69684
  8
S-OBRYS
  6
CONTINUOUS
 10
15290.33662383173
 20
404831.21122489963
 30
0.0
 11
15390.336576231741
 21
404831.21122489963
 31
0.0
  0
LINE
  5
69685
  8
S-OBRYS
  6
CONTINUOUS
 10
15290.33662383173
 20
404866.2102912995
 30
0.0
 11
15390.336576231741
 21
404866.2102912995
 31
0.0
  0
LINE
  5
69686
  8
S-OBRYS
  6
CONTINUOUS
 10
14082.93784614293
 20
406181.20750889962
 30
0.0
 11
15375.96920205407
 21
406181.20750889962
 31
0.0
  0
LINE
  5
69687
  8
S-OBRYS
  6
CONTINUOUS
 10
14241.336497531731
 20
405641.20896989963
 30
0.0
 11
14695.836600031729
 21
404931.21181069949
 31
0.0
  0
LINE
  5
69688
  8
S-OBRYS
  6
CONTINUOUS
 10
14081.33657623173
 20
405641.20896989963
 30
0.0
 11
15290.33662383173
 21
405641.20896989963
 31
0.0
  0
LINE
  5
69689
  8
S-OBRYS
  6
CONTINUOUS
 10
14082.93784614293
 20
406181.20750889962
 30
0.0
 11
14082.93784614293
 21
405731.20955189952
 31
0.0
  0
LINE
  5
6968A
  8
S-OBRYS
  6
CONTINUOUS
 10
14106.157804526179
 20
404951.2111626995
 30
0.0
 11
14331.33586033173
 21
404951.2111626995
 31
0.0
  0
LINE
  5
6968B
  8
S-OBRYS
  6
CONTINUOUS
 10
14331.33586033173
 20
404971.2111607996
 30
0.0
 11
14106.157804526179
 21
404971.2111607996
 31
0.0
  0
LINE
  5
6968C
  8
S-OBRYS
  6
CONTINUOUS
 10
14331.33586033173
 20
405011.20992509963
 30
0.0
 11
14106.157804526179
 21
405011.20992509963
 31
0.0
  0
LINE
  5
6968D
  8
S-OBRYS
  6
CONTINUOUS
 10
14331.33586033173
 20
405101.21048169961
 30
0.0
 11
14106.157804526179
 21
405101.21048169961
 31
0.0
  0
LINE
  5
6968E
  8
S-OBRYS
  6
CONTINUOUS
 10
14331.33586033173
 20
405141.21046519961
 30
0.0
 11
14106.157804526179
 21
405141.21046519961
 31
0.0
  0
LINE
  5
6968F
  8
S-OBRYS
  6
CONTINUOUS
 10
14106.157804526179
 20
405161.21046329959
 30
0.0
 11
14331.33586033173
 21
405161.21046329959
 31
0.0
  0
LINE
  5
69690
  8
S-OBRYS
  6
CONTINUOUS
 10
14081.33657623173
 20
405181.2104486996
 30
0.0
 11
14441.33640233173
 21
405181.2104486996
 31
0.0
  0
LINE
  5
69691
  8
S-OBRYS
  6
CONTINUOUS
 10
14081.33657623173
 20
404931.21117729961
 30
0.0
 11
14441.33640233173
 21
404931.21117729961
 31
0.0
  0
LINE
  5
69692
  8
S-OBRYS
  6
CONTINUOUS
 10
14331.33586033173
 20
404931.21117729961
 30
0.0
 11
14331.33586033173
 21
405181.2104486996
 31
0.0
  0
LINE
  5
69693
  8
S-OBRYS
  6
CONTINUOUS
 10
14441.33640233173
 20
404931.21117729961
 30
0.0
 11
14441.33640233173
 21
405181.2104486996
 31
0.0
  0
CIRCLE
  5
69694
  8
S-OBRYS
  6
CONTINUOUS
 10
14371.33583113173
 20
406103.08371289959
 30
0.0
 40
59.999881524000003
  0
LINE
  5
69695
  8
S-OBRYS
  6
CONTINUOUS
 10
14146.83655108174
 20
406301.20752289949
 30
0.0
 11
14226.836518081731
 21
406301.20752289949
 31
0.0
  0
LINE
  5
69696
  8
S-OBRYS
  6
CONTINUOUS
 10
14146.83655108174
 20
406301.20752289949
 30
0.0
 11
14146.83655108174
 21
406231.2081708996
 31
0.0
  0
LINE
  5
69697
  8
S-OBRYS
  6
CONTINUOUS
 10
14226.836518081731
 20
406301.20752289949
 30
0.0
 11
14226.836518081731
 21
406231.2081708996
 31
0.0
  0
LINE
  5
69698
  8
S-OBRYS
  6
CONTINUOUS
 10
15375.96920205407
 20
406181.20750889962
 30
0.0
 11
15375.96920205407
 21
405731.20955189952
 31
0.0
  0
LINE
  5
69699
  8
S-OBRYS
  6
CONTINUOUS
 10
15290.33662383173
 20
405641.20896989963
 30
0.0
 11
14914.836600031729
 21
404931.21181069949
 31
0.0
  0
CIRCLE
  5
6969A
  8
S-OBRYS
  6
CONTINUOUS
 10
14782.838629781731
 20
405351.20976579952
 30
0.0
 40
69.999857840999994
  0
CIRCLE
  5
6969B
  8
S-OBRYS
  6
CONTINUOUS
 10
14782.838629781731
 20
405351.20976579952
 30
0.0
 40
99.999800889000014
  0
LINE
  5
6969C
  8
S-OBRYS
  6
CONTINUOUS
 10
14725.39179268173
 20
405311.20978229953
 30
0.0
 11
14840.28304118173
 21
405311.20978229953
 31
0.0
  0
LINE
  5
6969D
  8
S-OBRYS
  6
CONTINUOUS
 10
14695.836600031729
 20
404931.21181069949
 30
0.0
 11
14914.836600031729
 21
404931.21181069949
 31
0.0
  0
LINE
  5
6969E
  8
S-OBRYS
  6
CONTINUOUS
 10
14670.836600031729
 20
404881.21122489951
 30
0.0
 11
14939.836600031729
 21
404881.21122489951
 31
0.0
  0
LINE
  5
6969F
  8
S-OBRYS
  6
CONTINUOUS
 10
14725.39179268173
 20
405391.20974929963
 30
0.0
 11
14840.28304118173
 21
405391.20974929963
 31
0.0
  0
CIRCLE
  5
696A0
  8
S-OBRYS
  6
CONTINUOUS
 10
15087.336530031729
 20
406103.08371289959
 30
0.0
 40
59.999881524000003
  0
LINE
  5
696A1
  8
S-OBRYS
  6
CONTINUOUS
 10
15189.83716988173
 20
406301.20752289949
 30
0.0
 11
15329.83589928173
 21
406301.20752289949
 31
0.0
  0
LINE
  5
696A2
  8
S-OBRYS
  6
CONTINUOUS
 10
15189.83716988173
 20
406301.20752289949
 30
0.0
 11
15189.83716988173
 21
406231.2081708996
 31
0.0
  0
LINE
  5
696A3
  8
S-OBRYS
  6
CONTINUOUS
 10
15329.83589928173
 20
406301.20752289949
 30
0.0
 11
15329.83589928173
 21
406231.2081708996
 31
0.0
  0
LINE
  5
696A4
  8
S-OBRYS
  6
CONTINUOUS
 10
15982.836534581729
 20
404831.21122489963
 30
0.0
 11
15982.836534581729
 21
406301.20752289949
 31
0.0
  0
LINE
  5
696A5
  8
S-OBRYS
  6
CONTINUOUS
 10
15707.83666548174
 20
404831.21122489963
 30
0.0
 11
15707.83666548174
 21
405231.21103449952
 31
0.0
  0
LINE
  5
696A6
  8
S-OBRYS
  6
CONTINUOUS
 10
15845.336600031729
 20
404701.21122489951
 30
0.0
 11
15845.336600031729
 21
404881.21122489951
 31
0.0
  0
LINE
  5
696A7
  8
S-OBRYS
  6
CONTINUOUS
 10
15707.83666548174
 20
404866.2102912995
 30
0.0
 11
15982.836534581729
 21
404866.2102912995
 31
0.0
  0
LINE
  5
696A8
  8
S-OBRYS
  6
CONTINUOUS
 10
15707.83666548174
 20
404831.21122489963
 30
0.0
 11
15982.836534581729
 21
404831.21122489963
 31
0.0
  0
LINE
  5
696A9
  8
S-OBRYS
  6
CONTINUOUS
 10
15702.836534581729
 20
405731.20955189952
 30
0.0
 11
15702.836534581729
 21
406231.2081708996
 31
0.0
  0
CIRCLE
  5
696AA
  8
S-OBRYS
  6
CONTINUOUS
 10
15792.74367118173
 20
405053.08357769961
 30
0.0
 40
59.999881524000003
  0
CIRCLE
  5
696AB
  8
S-OBRYS
  6
CONTINUOUS
 10
15836.493418581729
 20
405499.17675459961
 30
0.0
 40
59.999881524000003
  0
LINE
  5
696AC
  8
S-OBRYS
  6
CONTINUOUS
 10
15904.777165681729
 20
405721.99747989961
 30
0.0
 11
15842.27704938173
 21
405721.99747989961
 31
0.0
  0
LINE
  5
696AD
  8
S-OBRYS
  6
CONTINUOUS
 10
15842.27704938173
 20
405611.8406008996
 30
0.0
 11
15904.777165681729
 21
405611.8406008996
 31
0.0
  0
LINE
  5
696AE
  8
S-OBRYS
  6
CONTINUOUS
 10
15936.02707778173
 20
405696.99651389947
 30
0.0
 11
15804.77721328173
 21
405696.99651389947
 31
0.0
  0
LINE
  5
696AF
  8
S-OBRYS
  6
CONTINUOUS
 10
15842.27704938173
 20
405721.99747989961
 30
0.0
 11
15842.27704938173
 21
405611.8406008996
 31
0.0
  0
LINE
  5
696B0
  8
S-OBRYS
  6
CONTINUOUS
 10
15904.777165681729
 20
405611.8406008996
 30
0.0
 11
15904.777165681729
 21
405721.99747989961
 31
0.0
  0
LINE
  5
696B1
  8
S-OBRYS
  6
CONTINUOUS
 10
15702.836534581729
 20
406231.2081708996
 30
0.0
 11
15702.836534581729
 21
405775.41710889962
 31
0.0
  0
CIRCLE
  5
696B2
  8
S-OBRYS
  6
CONTINUOUS
 10
15883.36829308173
 20
406055.42670889961
 30
0.0
 40
59.999881524000003
  0
LINE
  5
696B3
  8
S-OBRYS
  6
CONTINUOUS
 10
15702.836534581729
 20
406301.20752289949
 30
0.0
 11
15982.836534581729
 21
406301.20752289949
 31
0.0
  0
LINE
  5
696B4
  8
S-OBRYS
  6
CONTINUOUS
 10
15702.836534581729
 20
406301.20752289949
 30
0.0
 11
15702.836534581729
 21
406231.2081708996
 31
0.0
  0
LINE
  5
696B5
  8
S-OBRYS
  6
CONTINUOUS
 10
14441.33640233173
 20
405056.21081299952
 30
0.0
 11
14081.33657623173
 21
405056.21081299952
 31
0.0
  0
LINE
  5
696B6
  8
S-OBRYS
  6
CONTINUOUS
 10
15543.33431263172
 20
405817.28735578462
 30
0.0
 11
15543.33431263172
 21
406095.12970501458
 31
0.0
  0
LINE
  5
696B7
  8
S-OBRYS
  6
CONTINUOUS
 10
15620.833648131729
 20
405847.28678778448
 30
0.0
 11
15620.833648131729
 21
406065.12900301459
 31
0.0
  0
LINE
  5
696B8
  8
S-OBRYS
  6
CONTINUOUS
 10
15583.33428343173
 20
405817.28735578462
 30
0.0
 11
15583.33428343173
 21
406095.12970501458
 31
0.0
  0
LINE
  5
696B9
  8
S-OBRYS
  6
CONTINUOUS
 10
15670.83423393173
 20
405847.28678778448
 30
0.0
 11
15670.83423393173
 21
406065.12900301459
 31
0.0
  0
LINE
  5
696BA
  8
S-OBRYS
  6
CONTINUOUS
 10
15583.33428343173
 20
405817.28735578462
 30
0.0
 11
15390.336576231741
 21
405817.28735578462
 31
0.0
  0
LINE
  5
696BB
  8
S-OBRYS
  6
CONTINUOUS
 10
15458.004219601529
 20
405757.2874757846
 30
0.0
 11
15592.665674861921
 21
405757.2874757846
 31
0.0
  0
LINE
  5
696BC
  8
S-OBRYS
  6
CONTINUOUS
 10
15670.83423393173
 20
405847.28678778448
 30
0.0
 11
15583.33428343173
 21
405847.28678778448
 31
0.0
  0
LINE
  5
696BD
  8
S-OBRYS
  6
CONTINUOUS
 10
15583.33428343173
 20
406095.12970501458
 30
0.0
 11
15390.336576231741
 21
406095.12970501458
 31
0.0
  0
LINE
  5
696BE
  8
S-OBRYS
  6
CONTINUOUS
 10
15670.83423393173
 20
406065.12900301459
 30
0.0
 11
15583.33428343173
 21
406065.12900301459
 31
0.0
  0
LINE
  5
696BF
  8
S-OBRYS
  6
CONTINUOUS
 10
15572.665689461919
 20
405817.28735578462
 30
0.0
 11
15572.665689461919
 21
405731.20955189952
 31
0.0
  0
LINE
  5
696C0
  8
S-OBRYS
  6
CONTINUOUS
 10
15472.665689461919
 20
405817.28735578462
 30
0.0
 11
15472.665689461919
 21
405731.20955189952
 31
0.0
  0
LINE
  5
696C1
  8
S-OBRYS
  6
CONTINUOUS
 10
15525.33494723172
 20
405817.28735578462
 30
0.0
 11
15525.33494723172
 21
405731.20955189952
 31
0.0
  0
LINE
  5
696C2
  8
S-OBRYS
  6
CONTINUOUS
 10
14031.336600031729
 20
404799.83695903397
 30
0.0
 11
14031.336600031729
 21
404921.19371868699
 31
0.0
  0
LINE
  5
696C3
  8
S-OBRYS
  6
CONTINUOUS
 10
14695.836600031729
 20
404881.21122489951
 30
0.0
 11
14695.836600031729
 21
404931.21181069949
 31
0.0
  0
LINE
  5
696C4
  8
S-OBRYS
  6
CONTINUOUS
 10
14914.836600031729
 20
404881.21122489951
 30
0.0
 11
14914.836600031729
 21
404931.21181069949
 31
0.0
  0
LINE
  5
696C5
  8
S-OBRYS
  6
CONTINUOUS
 10
14106.157804526179
 20
404931.21117729961
 30
0.0
 11
14106.157804526179
 21
405181.2104486996
 31
0.0
  0
LINE
  5
696C6
  8
S-OBRYS
  6
CONTINUOUS
 10
15340.336600031729
 20
404799.83695903397
 30
0.0
 11
15340.336600031729
 21
404921.19371868699
 31
0.0
  0
LINE
  5
696C7
  8
S-OBRYS
  6
CONTINUOUS
 10
15845.336600031729
 20
404775.67748068582
 30
0.0
 11
15845.336600031729
 21
404881.21122489951
 31
0.0
  0
LINE
  5
696C8
  8
S-OBRYS
  6
CONTINUOUS
 10
15390.336576231741
 20
405956.2085303996
 30
0.0
 11
15670.83423393173
 21
405956.2085303996
 31
0.0
  0
LINE
  5
696C9
  8
S-OBRYS
  6
CONTINUOUS
 10
15843.50752003173
 20
406301.20752289949
 30
0.0
 11
15843.50752003173
 21
406165.85482050298
 31
0.0
  0
LINE
  5
696CA
  8
S-OBRYS
  6
CONTINUOUS
 10
14186.836534581729
 20
406301.20752289949
 30
0.0
 11
14186.836534581729
 21
406165.85482050298
 31
0.0
  0
LINE
  5
696CB
  8
S-OBRYS
  6
CONTINUOUS
 10
15259.836534581729
 20
406301.20752289949
 30
0.0
 11
15259.836534581729
 21
406165.85482050298
 31
0.0
  0
LINE
  5
696CC
  8
S-OBRYS
  6
CONTINUOUS
 10
15390.336576231741
 20
405731.20955189952
 30
0.0
 11
15702.836534581729
 21
405731.20955189952
 31
0.0
  0
DIMENSION
  5
696CD
  8
S-OBRYS
  6
CONTINUOUS
  2
*D56
 10
13870.836534581729
 20
406491.73339119082
 30
0.0
 11
14028.836534581729
 21
406566.73339119082
 31
0.0
 70
     0
 13
14186.836534581729
 23
406301.20752289949
 33
0.0
 14
13870.836534581729
 24
406231.2081708996
 34
0.0
  0
DIMENSION
  5
696CE
  8
S-OBRYS
  6
CONTINUOUS
  2
*D57
 10
14186.836534581729
 20
406491.73339119082
 30
0.0
 11
14723.336534581729
 21
406566.73339119082
 31
0.0
 70
     0
 13
15259.836534581729
 23
406301.20752289949
 33
0.0
 14
14186.836534581729
 24
406491.73339119082
 34
0.0
  0
DIMENSION
  5
696CF
  8
S-OBRYS
  6
CONTINUOUS
  2
*D58
 10
15982.836534581729
 20
406679.45456689358
 30
0.0
 11
14926.83653458174
 21
406754.45456689358
 31
0.0
 70
     0
 13
13870.836534581729
 23
406231.2081708996
 33
0.0
 14
15982.836534581729
 24
406301.20752289949
 34
0.0
  0
DIMENSION
  5
696D0
  8
S-OBRYS
  6
CONTINUOUS
  2
*D59
 10
13652.561048709869
 20
404831.21122489963
 30
0.0
 11
13577.5610487098
 21
405531.20969789958
 31
0.0
 70
     0
 13
13870.836534581729
 23
406231.2081708996
 33
0.0
 14
13870.836534581729
 24
404831.21122489963
 34
0.0
 50
90.0
  0
DIMENSION
  5
696D1
  8
S-OBRYS
  6
CONTINUOUS
  2
*D60
 10
15702.836534581729
 20
406491.6821151824
 30
0.0
 11
15842.836534581729
 21
406491.6821151824
 31
0.0
 70
   128
  1
%%c<>
 13
15982.836534581729
 23
406301.20752289949
 33
0.0
 14
15702.836534581729
 24
406301.20752289949
 34
0.0
  0
LINE
  5
696D2
  8
S-OBRYS
  6
CONTINUOUS
 10
15842.836534581729
 20
406301.20752289949
 30
0.0
 11
15702.836534581729
 21
406231.2081708996
 31
0.0
  0
LINE
  5
696D3
  8
S-OBRYS
  6
CONTINUOUS
 10
15843.50752003173
 20
406301.20752289949
 30
0.0
 11
15981.33953478173
 21
406231.2081708996
 31
0.0
  0
LINE
  5
696D4
  8
S-OBRYS
  6
CONTINUOUS
 10
18306.377938729242
 20
404881.21122489951
 30
0.0
 11
18656.377938729242
 21
404881.21122489951
 31
0.0
  0
LINE
  5
696D5
  8
S-OBRYS
  6
CONTINUOUS
 10
18371.877938729242
 20
404931.21181069949
 30
0.0
 11
18590.877938729242
 21
404931.21181069949
 31
0.0
  0
LINE
  5
696D6
  8
S-OBRYS
  6
CONTINUOUS
 10
18590.877938729242
 20
404881.21122489951
 30
0.0
 11
18590.877938729242
 21
404931.21181069949
 31
0.0
  0
LINE
  5
696D7
  8
S-OBRYS
  6
CONTINUOUS
 10
18371.877938729242
 20
404881.21122489951
 30
0.0
 11
18371.877938729242
 21
404931.21181069949
 31
0.0
  0
LINE
  5
696D8
  8
S-OBRYS
  6
CONTINUOUS
 10
18281.896156178522
 20
405642.02407245321
 30
0.0
 11
18371.877938729242
 21
404931.21181069949
 31
0.0
  0
LINE
  5
696D9
  8
S-OBRYS
  6
CONTINUOUS
 10
18680.859721279969
 20
405642.02407245321
 30
0.0
 11
18590.877938729242
 21
404931.21181069949
 31
0.0
  0
LINE
  5
696DA
  8
S-OBRYS
  6
CONTINUOUS
 10
18231.377938729242
 20
405730.51606444223
 30
0.0
 11
18281.896156178522
 21
405642.02407245321
 31
0.0
  0
LINE
  5
696DB
  8
S-OBRYS
  6
CONTINUOUS
 10
18731.377938729242
 20
405730.51606444223
 30
0.0
 11
18680.859721279969
 21
405642.02407245321
 31
0.0
  0
LINE
  5
696DC
  8
S-OBRYS
  6
CONTINUOUS
 10
18231.377938729242
 20
405641.20896989963
 30
0.0
 11
18731.377938729242
 21
405641.20896989963
 31
0.0
  0
LINE
  5
696DD
  8
S-OBRYS
  6
CONTINUOUS
 10
18304.57295901778
 20
405956.2085303996
 30
0.0
 11
18658.182918440711
 21
405956.2085303996
 31
0.0
  0
CIRCLE
  5
696DE
  8
S-OBRYS
  6
CONTINUOUS
 10
18481.377938729242
 20
405956.2085303996
 30
0.0
 40
176.80497971146499
  0
LINE
  5
696DF
  8
S-OBRYS
  6
CONTINUOUS
 10
18341.377938729242
 20
406300.5140354422
 30
0.0
 11
18621.377938729242
 21
406300.5140354422
 31
0.0
  0
LINE
  5
696E0
  8
S-OBRYS
  6
CONTINUOUS
 10
18341.377938729242
 20
406300.5140354422
 30
0.0
 11
18341.377938729242
 21
406230.51468344219
 31
0.0
  0
LINE
  5
696E1
  8
S-OBRYS
  6
CONTINUOUS
 10
18621.377938729242
 20
406300.5140354422
 30
0.0
 11
18621.377938729242
 21
406230.51468344219
 31
0.0
  0
LINE
  5
696E2
  8
S-OBRYS
  6
CONTINUOUS
 10
18404.377938729242
 20
406230.51468344219
 30
0.0
 11
18404.377938729242
 21
406300.5140354422
 31
0.0
  0
LINE
  5
696E3
  8
S-OBRYS
  6
CONTINUOUS
 10
18418.877938729242
 20
406230.51468344219
 30
0.0
 11
18418.877938729242
 21
406300.5140354422
 31
0.0
  0
LINE
  5
696E4
  8
S-OBRYS
  6
CONTINUOUS
 10
14966.075766920299
 20
402716.80358146928
 30
0.0
 11
14773.078059720299
 21
402716.80358146928
 31
0.0
  0
LINE
  5
696E5
  8
S-OBRYS
  6
CONTINUOUS
 10
14926.075796120291
 20
402438.96123223932
 30
0.0
 11
14926.075796120291
 21
402716.80358146928
 31
0.0
  0
LINE
  5
696E6
  8
S-OBRYS
  6
CONTINUOUS
 10
14966.075766920299
 20
402438.96123223932
 30
0.0
 11
14966.075766920299
 21
402716.80358146928
 31
0.0
  0
LINE
  5
696E7
  8
S-OBRYS
  6
CONTINUOUS
 10
15053.575717420301
 20
402686.80287946929
 30
0.0
 11
14966.075766920299
 21
402686.80287946929
 31
0.0
  0
LINE
  5
696E8
  8
S-OBRYS
  6
CONTINUOUS
 10
15003.57513162029
 20
402468.96066423919
 30
0.0
 11
15003.57513162029
 21
402686.80287946929
 31
0.0
  0
LINE
  5
696E9
  8
S-OBRYS
  6
CONTINUOUS
 10
15053.575717420301
 20
402468.96066423919
 30
0.0
 11
15053.575717420301
 21
402686.80287946929
 31
0.0
  0
LINE
  5
696EA
  8
S-OBRYS
  6
CONTINUOUS
 10
15053.575717420301
 20
402468.96066423919
 30
0.0
 11
14966.075766920299
 21
402468.96066423919
 31
0.0
  0
LINE
  5
696EB
  8
S-OBRYS
  6
CONTINUOUS
 10
14966.075766920299
 20
402438.96123223932
 30
0.0
 11
14773.078059720299
 21
402438.96123223932
 31
0.0
  0
LINE
  5
696EC
  8
S-OBRYS
  6
CONTINUOUS
 10
14927.72742419876
 20
402603.18122320721
 30
0.0
 11
14927.72742419876
 21
402513.18251920718
 31
0.0
  0
CIRCLE
  5
696ED
  8
S-OBRYS
  6
CONTINUOUS
 10
14927.72742419876
 20
402577.90306599671
 30
0.0
 40
50.0
  0
CIRCLE
  5
696EE
  8
S-OBRYS
  6
CONTINUOUS
 10
14663.0804100203
 20
402577.8824068543
 30
0.0
 40
62.5
  0
LINE
  5
696EF
  8
S-OBRYS
  6
CONTINUOUS
 10
14098.22907699877
 20
402468.3824068543
 30
0.0
 11
14098.22907699877
 21
402687.3824068543
 31
0.0
  0
LINE
  5
696F0
  8
S-OBRYS
  6
CONTINUOUS
 10
14317.22907699877
 20
402468.3824068543
 30
0.0
 11
14317.22907699877
 21
402687.3824068543
 31
0.0
  0
LINE
  5
696F1
  8
S-OBRYS
  6
CONTINUOUS
 10
14098.22907699877
 20
402687.3824068543
 30
0.0
 11
14317.22907699877
 21
402687.3824068543
 31
0.0
  0
LINE
  5
696F2
  8
S-OBRYS
  6
CONTINUOUS
 10
14098.22907699877
 20
402468.3824068543
 30
0.0
 11
14317.22907699877
 21
402468.3824068543
 31
0.0
  0
LINE
  5
696F3
  8
S-OBRYS
  6
CONTINUOUS
 10
14207.72907699877
 20
402468.3824068543
 30
0.0
 11
14207.72907699877
 21
402687.3824068543
 31
0.0
  0
LINE
  5
696F4
  8
S-OBRYS
  6
CONTINUOUS
 10
13643.72897449877
 20
402774.8824068543
 30
0.0
 11
13643.72897449877
 21
402380.8824068543
 31
0.0
  0
LINE
  5
696F5
  8
S-OBRYS
  6
CONTINUOUS
 10
14692.72910079877
 20
402380.8824068543
 30
0.0
 11
14692.72910079877
 21
402774.8824068543
 31
0.0
  0
LINE
  5
696F6
  8
S-OBRYS
  6
CONTINUOUS
 10
13643.72897449877
 20
402774.8824068543
 30
0.0
 11
14692.72910079877
 21
402774.8824068543
 31
0.0
  0
LINE
  5
696F7
  8
S-OBRYS
  6
CONTINUOUS
 10
13643.72897449877
 20
402380.8824068543
 30
0.0
 11
14692.72910079877
 21
402380.8824068543
 31
0.0
  0
LINE
  5
696F8
  8
S-OBRYS
  6
CONTINUOUS
 10
13643.72897449877
 20
402774.8824068543
 30
0.0
 11
14098.22907699877
 21
402687.3824068543
 31
0.0
  0
LINE
  5
696F9
  8
S-OBRYS
  6
CONTINUOUS
 10
14317.22907699877
 20
402687.3824068543
 30
0.0
 11
14692.72910079877
 21
402774.8824068543
 31
0.0
  0
LINE
  5
696FA
  8
S-OBRYS
  6
CONTINUOUS
 10
14098.22907699877
 20
402468.3824068543
 30
0.0
 11
13643.72897449877
 21
402380.8824068543
 31
0.0
  0
LINE
  5
696FB
  8
S-OBRYS
  6
CONTINUOUS
 10
14317.22907699877
 20
402468.3824068543
 30
0.0
 11
14692.72910079877
 21
402380.8824068543
 31
0.0
  0
POLYLINE
  5
696FC
  8
S-OBRYS
  6
CONTINUOUS
 66
     1
 10
0.0
 20
0.0
 30
0.0
 70
     1
  0
VERTEX
  5
6A127
  8
S-OBRYS
  6
CONTINUOUS
 10
14692.72907699871
 20
402822.8824068543
 30
0.0
  0
VERTEX
  5
6A128
  8
S-OBRYS
  6
CONTINUOUS
 10
14692.72907699871
 20
402772.88240685419
 30
0.0
  0
VERTEX
  5
6A129
  8
S-OBRYS
  6
CONTINUOUS
 10
14792.72907699871
 20
402772.88240685419
 30
0.0
  0
VERTEX
  5
6A12A
  8
S-OBRYS
  6
CONTINUOUS
 10
14792.72907699871
 20
402822.8824068543
 30
0.0
  0
SEQEND
  5
6A12B
  8
S-OBRYS
  6
CONTINUOUS
  0
LINE
  5
696FD
  8
S-OBRYS
  6
CONTINUOUS
 10
14742.72907699877
 20
402766.06944863632
 30
0.0
 11
14742.72907699877
 21
402827.88168460422
 31
0.0
  0
LINE
  5
696FE
  8
S-OBRYS
  6
CONTINUOUS
 10
14715.216475192459
 20
402797.8824068543
 30
0.0
 11
14777.8016398903
 21
402797.8824068543
 31
0.0
  0
POLYLINE
  5
696FF
  8
S-OBRYS
  6
CONTINUOUS
 66
     1
 10
0.0
 20
0.0
 30
0.0
 70
     1
  0
VERTEX
  5
6A12C
  8
S-OBRYS
  6
CONTINUOUS
 10
14692.72907699871
 20
402382.59271558281
 30
0.0
  0
VERTEX
  5
6A12D
  8
S-OBRYS
  6
CONTINUOUS
 10
14692.72907699871
 20
402332.59271558269
 30
0.0
  0
VERTEX
  5
6A12E
  8
S-OBRYS
  6
CONTINUOUS
 10
14792.72907699871
 20
402332.59271558269
 30
0.0
  0
VERTEX
  5
6A12F
  8
S-OBRYS
  6
CONTINUOUS
 10
14792.72907699871
 20
402382.59271558281
 30
0.0
  0
SEQEND
  5
6A130
  8
S-OBRYS
  6
CONTINUOUS
  0
LINE
  5
69700
  8
S-OBRYS
  6
CONTINUOUS
 10
14742.72907699877
 20
402327.88312910427
 30
0.0
 11
14742.72907699877
 21
402387.30230206129
 31
0.0
  0
LINE
  5
69701
  8
S-OBRYS
  6
CONTINUOUS
 10
14708.24580320669
 20
402357.88240685419
 30
0.0
 11
14774.621336114131
 21
402357.88240685419
 31
0.0
  0
POLYLINE
  5
69702
  8
S-OBRYS
  6
CONTINUOUS
 66
     1
 10
0.0
 20
0.0
 30
0.0
 70
     1
  0
VERTEX
  5
6A131
  8
S-OBRYS
  6
CONTINUOUS
 10
13383.72907699871
 20
402382.78315298422
 30
0.0
  0
VERTEX
  5
6A132
  8
S-OBRYS
  6
CONTINUOUS
 10
13383.72907699871
 20
402332.78315298422
 30
0.0
  0
VERTEX
  5
6A133
  8
S-OBRYS
  6
CONTINUOUS
 10
13483.72907699871
 20
402332.78315298422
 30
0.0
  0
VERTEX
  5
6A134
  8
S-OBRYS
  6
CONTINUOUS
 10
13483.72907699871
 20
402382.78315298422
 30
0.0
  0
SEQEND
  5
6A135
  8
S-OBRYS
  6
CONTINUOUS
  0
LINE
  5
69703
  8
S-OBRYS
  6
CONTINUOUS
 10
13433.72907699877
 20
402327.88312910427
 30
0.0
 11
13433.72907699877
 21
402387.68317686411
 31
0.0
  0
LINE
  5
69704
  8
S-OBRYS
  6
CONTINUOUS
 10
13398.937142456411
 20
402357.88240685419
 30
0.0
 11
13464.57720153942
 21
402357.88240685419
 31
0.0
  0
POLYLINE
  5
69705
  8
S-OBRYS
  6
CONTINUOUS
 66
     1
 10
0.0
 20
0.0
 30
0.0
 70
     1
  0
VERTEX
  5
6A136
  8
S-OBRYS
  6
CONTINUOUS
 10
13383.72907699871
 20
402822.8824068543
 30
0.0
  0
VERTEX
  5
6A137
  8
S-OBRYS
  6
CONTINUOUS
 10
13383.72907699871
 20
402772.88240685419
 30
0.0
  0
VERTEX
  5
6A138
  8
S-OBRYS
  6
CONTINUOUS
 10
13483.72907699871
 20
402772.88240685419
 30
0.0
  0
VERTEX
  5
6A139
  8
S-OBRYS
  6
CONTINUOUS
 10
13483.72907699871
 20
402822.8824068543
 30
0.0
  0
SEQEND
  5
6A13A
  8
S-OBRYS
  6
CONTINUOUS
  0
LINE
  5
69706
  8
S-OBRYS
  6
CONTINUOUS
 10
13433.72907699877
 20
402759.8648752367
 30
0.0
 11
13433.72907699877
 21
402827.88168460422
 31
0.0
  0
LINE
  5
69707
  8
S-OBRYS
  6
CONTINUOUS
 10
13401.604704711821
 20
402797.8824068543
 30
0.0
 11
13461.76267515379
 21
402797.8824068543
 31
0.0
  0
DIMENSION
  5
69708
  8
S-OBRYS
  6
CONTINUOUS
  2
*D42
 10
18731.377938729242
 20
406490.7938429736
 30
0.0
 11
18481.377938729242
 21
406565.7938429736
 31
0.0
 70
     0
 13
18231.377938729242
 23
406230.51468344219
 33
0.0
 14
18731.377938729242
 24
406230.51468344219
 34
0.0
  0
DIMENSION
  5
69709
  8
S-OBRYS
  6
CONTINUOUS
  2
*D43
 10
18816.377938729242
 20
406680.5234842549
 30
0.0
 11
18481.377938729242
 21
406755.5234842549
 31
0.0
 70
     0
 13
18146.377938729242
 23
406145.51625044219
 33
0.0
 14
18816.377938729242
 24
406145.51625044219
 34
0.0
  0
DIMENSION
  5
6970A
  8
S-OBRYS
  6
CONTINUOUS
  2
*D44
 10
18003.61702194401
 20
404830.51773744222
 30
0.0
 11
17928.617021943948
 21
405565.51588644221
 31
0.0
 70
     0
 13
18341.377938729242
 23
406300.5140354422
 33
0.0
 14
18231.377938729242
 24
404830.51773744222
 34
0.0
 50
90.0
  0
DIMENSION
  5
6970B
  8
S-OBRYS
  6
CONTINUOUS
  2
*D45
 10
13459.16961835955
 20
402577.8824068543
 30
0.0
 11
13459.16961835949
 21
402944.6443116162
 31
0.0
 70
   128
 13
13542.1445612802
 23
402654.88240685442
 33
0.0
 14
13542.1445612802
 24
402577.8824068543
 34
0.0
 50
90.0
  0
LINE
  5
6970C
  8
S-OBRYS
  6
CONTINUOUS
 10
15796.294563982099
 20
404701.21122489951
 30
0.0
 11
15896.294563982099
 21
404701.21122489951
 31
0.0
  0
LINE
  5
6970D
  8
S-OBRYS
  6
CONTINUOUS
 10
15796.294563982099
 20
404721.21122489951
 30
0.0
 11
15896.294563982099
 21
404721.21122489951
 31
0.0
  0
LINE
  5
6970E
  8
S-OBRYS
  6
CONTINUOUS
 10
15796.294563982099
 20
404721.21122489951
 30
0.0
 11
15796.294563982099
 21
404701.21122489951
 31
0.0
  0
LINE
  5
6970F
  8
S-OBRYS
  6
CONTINUOUS
 10
15896.294563982099
 20
404721.21122489951
 30
0.0
 11
15896.294563982099
 21
404701.21122489951
 31
0.0
  0
LINE
  5
69710
  8
S-OBRYS
  6
CONTINUOUS
 10
15780.336600031729
 20
404881.21122489951
 30
0.0
 11
15910.336600031729
 21
404881.21122489951
 31
0.0
  0
LINE
  5
69711
  8
S-OBRYS
  6
CONTINUOUS
 10
15780.336600031729
 20
404974.83985144499
 30
0.0
 11
15707.83666548174
 21
405031.2111296996
 31
0.0
  0
LINE
  5
69712
  8
S-OBRYS
  6
CONTINUOUS
 10
15780.336600031729
 20
404974.83985144499
 30
0.0
 11
15780.356916840319
 21
404881.21122489951
 31
0.0
  0
LINE
  5
69713
  8
S-OBRYS
  6
CONTINUOUS
 10
15910.336600031729
 20
404881.21122489951
 30
0.0
 11
15982.836534581729
 21
404970.05671733548
 31
0.0
  0
LINE
  5
69714
  8
S-OBRYS
  6
CONTINUOUS
 10
15796.294563982099
 20
404721.21122489951
 30
0.0
 11
15785.24817528544
 21
404831.96609293693
 31
0.0
  0
LINE
  5
69715
  8
S-OBRYS
  6
CONTINUOUS
 10
15896.294563982099
 20
404721.21122489951
 30
0.0
 11
15906.03087641849
 21
404832.15026424662
 31
0.0
  0
LINE
  5
69716
  8
S-OBRYS
  6
CONTINUOUS
 10
15780.336600031729
 20
404881.21122489951
 30
0.0
 11
15800.34385376594
 21
404831.95433241711
 31
0.0
  0
LINE
  5
69717
  8
S-OBRYS
  6
CONTINUOUS
 10
15910.336600031729
 20
404881.21122489951
 30
0.0
 11
15890.40526194495
 21
404832.15770337859
 31
0.0
  0
LINE
  5
69718
  8
S-OBRYS
  6
CONTINUOUS
 10
15785.24817528544
 20
404831.96609293693
 30
0.0
 11
15780.336600031729
 21
404881.21122489951
 31
0.0
  0
LINE
  5
69719
  8
S-OBRYS
  6
CONTINUOUS
 10
15800.34385376594
 20
404831.95433241711
 30
0.0
 11
15845.32568960149
 21
404721.21122489951
 31
0.0
  0
LINE
  5
6971A
  8
S-OBRYS
  6
CONTINUOUS
 10
15906.03087641849
 20
404832.15026424662
 30
0.0
 11
15910.336600031729
 21
404881.21122489951
 31
0.0
  0
LINE
  5
6971B
  8
S-OBRYS
  6
CONTINUOUS
 10
15890.40526194495
 20
404832.15770337859
 30
0.0
 11
15845.32568960149
 21
404721.21122489951
 31
0.0
  0
LINE
  5
6971C
  8
S-OBRYS
  6
CONTINUOUS
 10
18656.377938729242
 20
404881.21122489951
 30
0.0
 11
18601.540490685871
 21
404831.07725516381
 31
0.0
  0
LINE
  5
6971D
  8
S-OBRYS
  6
CONTINUOUS
 10
18532.33590267961
 20
404721.21122489951
 30
0.0
 11
18617.789108861991
 21
404831.43606016203
 31
0.0
  0
LINE
  5
6971E
  8
S-OBRYS
  6
CONTINUOUS
 10
18432.33590267961
 20
404721.21122489951
 30
0.0
 11
18344.116550803548
 21
404833.2731847589
 31
0.0
  0
LINE
  5
6971F
  8
S-OBRYS
  6
CONTINUOUS
 10
18306.377938729242
 20
404881.21122489951
 30
0.0
 11
18359.675782785289
 21
404832.47872923402
 31
0.0
  0
LINE
  5
69720
  8
S-OBRYS
  6
CONTINUOUS
 10
18432.33590267961
 20
404721.21122489951
 30
0.0
 11
18432.33590267961
 21
404701.21122489951
 31
0.0
  0
LINE
  5
69721
  8
S-OBRYS
  6
CONTINUOUS
 10
18532.33590267961
 20
404721.21122489951
 30
0.0
 11
18532.33590267961
 21
404701.21122489951
 31
0.0
  0
LINE
  5
69722
  8
S-OBRYS
  6
CONTINUOUS
 10
18432.33590267961
 20
404721.21122489951
 30
0.0
 11
18532.33590267961
 21
404721.21122489951
 31
0.0
  0
LINE
  5
69723
  8
S-OBRYS
  6
CONTINUOUS
 10
18432.33590267961
 20
404701.21122489951
 30
0.0
 11
18532.33590267961
 21
404701.21122489951
 31
0.0
  0
LINE
  5
69724
  8
S-OBRYS
  6
CONTINUOUS
 10
18306.377938729242
 20
404881.21122489951
 30
0.0
 11
18231.377938729242
 21
404968.44625324389
 31
0.0
  0
LINE
  5
69725
  8
S-OBRYS
  6
CONTINUOUS
 10
18359.675782785289
 20
404832.47872923402
 30
0.0
 11
18481.367028298999
 21
404721.21122489951
 31
0.0
  0
LINE
  5
69726
  8
S-OBRYS
  6
CONTINUOUS
 10
18344.116550803548
 20
404833.2731847589
 30
0.0
 11
18306.377938729242
 21
404881.21122489951
 31
0.0
  0
LINE
  5
69727
  8
S-OBRYS
  6
CONTINUOUS
 10
18656.377938729242
 20
404881.21122489951
 30
0.0
 11
18731.377938729242
 21
404968.44625324389
 31
0.0
  0
LINE
  5
69728
  8
S-OBRYS
  6
CONTINUOUS
 10
18601.540490685871
 20
404831.07725516381
 30
0.0
 11
18481.367028298999
 21
404721.21122489951
 31
0.0
  0
LINE
  5
69729
  8
S-OBRYS
  6
CONTINUOUS
 10
18617.789108861991
 20
404831.43606016203
 30
0.0
 11
18656.377938729242
 21
404881.21122489951
 31
0.0
  0
LINE
  5
6972A
  8
S-OBRYS
  6
CONTINUOUS
 10
15780.336600031729
 20
404881.21122489951
 30
0.0
 11
15750.336600031729
 21
404881.21122489951
 31
0.0
  0
LINE
  5
6972B
  8
S-OBRYS
  6
CONTINUOUS
 10
15910.336600031729
 20
404881.21122489951
 30
0.0
 11
15940.336600031729
 21
404881.21122489951
 31
0.0
  0
LINE
  5
6972C
  8
S-OBRYS
  6
CONTINUOUS
 10
18306.377938729242
 20
404881.21122489951
 30
0.0
 11
18276.377938729242
 21
404881.21122489951
 31
0.0
  0
LINE
  5
6972D
  8
S-OBRYS
  6
CONTINUOUS
 10
18656.377938729242
 20
404881.21122489951
 30
0.0
 11
18686.377938729242
 21
404881.21122489951
 31
0.0
  0
LINE
  5
6972E
  8
S-OBRYS
  6
CONTINUOUS
 10
14756.294563982099
 20
404741.21122489963
 30
0.0
 11
14756.294563982099
 21
404721.21122489951
 31
0.0
  0
LINE
  5
6972F
  8
S-OBRYS
  6
CONTINUOUS
 10
14856.294563982099
 20
404741.21122489963
 30
0.0
 11
14856.294563982099
 21
404721.21122489951
 31
0.0
  0
LINE
  5
69730
  8
S-OBRYS
  6
CONTINUOUS
 10
14756.294563982099
 20
404741.21122489963
 30
0.0
 11
14856.294563982099
 21
404741.21122489963
 31
0.0
  0
LINE
  5
69731
  8
S-OBRYS
  6
CONTINUOUS
 10
14756.294563982099
 20
404721.21122489951
 30
0.0
 11
14856.294563982099
 21
404721.21122489951
 31
0.0
  0
LINE
  5
69732
  8
S-OBRYS
  6
CONTINUOUS
 10
14756.294563982099
 20
404741.21122489963
 30
0.0
 11
14695.836600031729
 21
404881.21122489951
 31
0.0
  0
LINE
  5
69733
  8
S-OBRYS
  6
CONTINUOUS
 10
14695.836600031729
 20
404881.21122489951
 30
0.0
 11
14805.336600031729
 21
404741.21122489963
 31
0.0
  0
LINE
  5
69734
  8
S-OBRYS
  6
CONTINUOUS
 10
14805.336600031729
 20
404741.21122489963
 30
0.0
 11
14914.836600031729
 21
404881.21122489951
 31
0.0
  0
LINE
  5
69735
  8
S-OBRYS
  6
CONTINUOUS
 10
14914.836600031729
 20
404881.21122489951
 30
0.0
 11
14856.294563982099
 21
404741.21122489963
 31
0.0
  0
LINE
  5
69736
  8
S-OBRYS
  6
CONTINUOUS
 10
18432.33590267961
 20
404741.21122489963
 30
0.0
 11
18532.33590267961
 21
404741.21122489963
 31
0.0
  0
LINE
  5
69737
  8
S-OBRYS
  6
CONTINUOUS
 10
18432.33590267961
 20
404721.21122489951
 30
0.0
 11
18532.33590267961
 21
404721.21122489951
 31
0.0
  0
LINE
  5
69738
  8
S-OBRYS
  6
CONTINUOUS
 10
18481.377938729242
 20
404741.21122489963
 30
0.0
 11
18551.998757931098
 21
404831.50268323987
 31
0.0
  0
LINE
  5
69739
  8
S-OBRYS
  6
CONTINUOUS
 10
18432.33590267961
 20
404741.21122489963
 30
0.0
 11
18393.237589451499
 21
404831.7495674814
 31
0.0
  0
LINE
  5
6973A
  8
S-OBRYS
  6
CONTINUOUS
 10
18371.877938729242
 20
404881.21122489951
 30
0.0
 11
18410.809140660411
 21
404831.43617220217
 31
0.0
  0
LINE
  5
6973B
  8
S-OBRYS
  6
CONTINUOUS
 10
18432.33590267961
 20
404741.21122489963
 30
0.0
 11
18432.33590267961
 21
404721.21122489951
 31
0.0
  0
LINE
  5
6973C
  8
S-OBRYS
  6
CONTINUOUS
 10
18590.877938729242
 20
404881.21122489951
 30
0.0
 11
18570.125900625571
 21
404831.58388819318
 31
0.0
  0
LINE
  5
6973D
  8
S-OBRYS
  6
CONTINUOUS
 10
18532.33590267961
 20
404741.21122489963
 30
0.0
 11
18532.33590267961
 21
404721.21122489951
 31
0.0
  0
LINE
  5
6973E
  8
S-OBRYS
  6
CONTINUOUS
 10
18410.809140660411
 20
404831.43617220217
 30
0.0
 11
18481.377938729242
 21
404741.21122489963
 31
0.0
  0
LINE
  5
6973F
  8
S-OBRYS
  6
CONTINUOUS
 10
18393.237589451499
 20
404831.7495674814
 30
0.0
 11
18371.877938729242
 21
404881.21122489951
 31
0.0
  0
LINE
  5
69740
  8
S-OBRYS
  6
CONTINUOUS
 10
18551.998757931098
 20
404831.50268323987
 30
0.0
 11
18590.877938729242
 21
404881.21122489951
 31
0.0
  0
LINE
  5
69741
  8
S-OBRYS
  6
CONTINUOUS
 10
18570.125900625571
 20
404831.58388819318
 30
0.0
 11
18532.33590267961
 21
404741.21122489963
 31
0.0
  0
SOLID
  5
69742
  8
S-OBRYS
  6
CONTINUOUS
 10
19663.358864291949
 20
402778.21437164472
 30
0.0
 11
19399.950520222279
 21
402745.18059391592
 31
0.0
 12
19363.358864291931
 22
402778.21437164472
 32
0.0
 13
19363.35886429196
 23
402268.21437164489
 33
0.0
  0
DIMENSION
  5
69743
  8
S-OBRYS
  6
CONTINUOUS
  2
*D46
 10
19543.358864291949
 20
402871.62705868151
 30
0.0
 11
19985.501721434812
 21
402871.62705868151
 31
0.0
 70
   128
 13
19663.358864291949
 23
402778.21437164472
 33
0.0
 14
19543.358864291949
 24
402778.21437164472
 34
0.0
  0
DIMENSION
  5
69744
  8
S-OBRYS
  6
CONTINUOUS
  2
*D47
 10
19363.358864291931
 20
403004.5881021223
 30
0.0
 11
19453.358864291939
 21
403004.5881021223
 31
0.0
 70
   128
 13
19543.358864291949
 23
402778.83937164478
 33
0.0
 14
19363.358864291931
 24
402778.83937164478
 34
0.0
  0
LINE
  5
69745
  8
S-OBRYS
  6
CONTINUOUS
 10
19363.358864291931
 20
402778.21437164472
 30
0.0
 11
19663.358864291949
 21
402778.21437164472
 31
0.0
  0
LINE
  5
69746
  8
S-OBRYS
  6
CONTINUOUS
 10
19363.35886429196
 20
402268.21437164489
 30
0.0
 11
19663.35886429192
 21
402268.21437164478
 31
0.0
  0
DIMENSION
  5
69747
  8
S-OBRYS
  6
CONTINUOUS
  2
*D48
 10
19363.358864291949
 20
402047.46518629702
 30
0.0
 11
19513.358864291949
 21
402047.46518629702
 31
0.0
 70
   128
 13
19663.358864291931
 23
402266.48273861222
 33
0.0
 14
19363.358864291949
 24
402266.48273861222
 34
0.0
  0
LINE
  5
69748
  8
S-OBRYS
  6
CONTINUOUS
 10
17600.299532195029
 20
402523.21437164478
 30
0.0
 11
19663.358864291949
 21
402523.21437164478
 31
0.0
  0
DIMENSION
  5
69749
  8
S-OBRYS
  6
CONTINUOUS
  2
*D49
 10
17729.358864291949
 20
403112.21971568349
 30
0.0
 11
18383.858864291949
 21
403187.21971568349
 31
0.0
 70
     0
 13
19038.358864291949
 23
402773.21364939481
 33
0.0
 14
17729.358864291949
 24
402768.31362551491
 34
0.0
  0
LINE
  5
6974A
  8
S-OBRYS
  6
CONTINUOUS
 10
16251.56465850789
 20
401509.86029166769
 30
0.0
 11
18393.217029042349
 21
401509.86029166769
 31
0.0
  0
INSERT
  5
6974B
  8
S-OBRYS
  6
CONTINUOUS
  2
*U99
 10
0.0
 20
0.0
 30
0.0
  0
SOLID
  5
6974C
  8
S-OBRYS
  6
CONTINUOUS
 10
18628.358864291949
 20
402645.96087958821
 30
0.0
 11
18408.479744389981
 21
402617.64447891578
 31
0.0
 12
18378.358864291949
 22
402645.96087958821
 32
0.0
 13
18378.358864291949
 23
402395.96087958821
 33
0.0
  0
LINE
  5
6974D
  8
S-OBRYS
  6
CONTINUOUS
 10
18687.358828796921
 20
402523.21437164478
 30
0.0
 11
18319.358899786981
 21
402523.21437164478
 31
0.0
  0
POLYLINE
  5
6974E
  8
S-OBRYS
  6
CONTINUOUS
 66
     1
 10
0.0
 20
0.0
 30
0.0
 70
     1
  0
VERTEX
  5
6A143
  8
S-OBRYS
  6
CONTINUOUS
 10
18378.358864291949
 20
402645.96087958821
 30
0.0
  0
VERTEX
  5
6A144
  8
S-OBRYS
  6
CONTINUOUS
 10
18628.358864291949
 20
402645.96087958821
 30
0.0
  0
VERTEX
  5
6A145
  8
S-OBRYS
  6
CONTINUOUS
 10
18628.358864291949
 20
402395.96087958821
 30
0.0
  0
VERTEX
  5
6A146
  8
S-OBRYS
  6
CONTINUOUS
 10
18378.358864291949
 20
402395.96087958821
 30
0.0
  0
SEQEND
  5
6A147
  8
S-OBRYS
  6
CONTINUOUS
  0
DIMENSION
  5
6974F
  8
S-OBRYS
  6
CONTINUOUS
  2
*D50
 10
18378.358864291949
 20
402089.43343422998
 30
0.0
 11
18503.358864291949
 21
402089.43343422998
 31
0.0
 70
   128
  1
275
 13
18628.358864291949
 23
402395.96087958821
 33
0.0
 14
18378.358864291949
 24
402395.96087958821
 34
0.0
 50
180.0
  0
DIMENSION
  5
69750
  8
S-OBRYS
  6
CONTINUOUS
  2
*D51
 10
18052.137588187521
 20
402645.96087958821
 30
0.0
 11
18052.137588187448
 21
402873.81802244531
 31
0.0
 70
   128
  1
275
 13
18378.358864291949
 23
402395.96087958821
 33
0.0
 14
18378.358864291949
 24
402645.96087958821
 34
0.0
 50
270.0
  0
DIMENSION
  5
69751
  8
S-OBRYS
  6
CONTINUOUS
  2
*D52
 10
17531.877642768912
 20
402743.21437164478
 30
0.0
 11
17531.877642768839
 21
402523.21437164478
 31
0.0
 70
   128
 13
17697.234492004991
 23
402303.21437164478
 33
0.0
 14
17697.234492004991
 24
402743.21437164478
 34
0.0
 50
270.0
  0
LINE
  5
69752
  8
S-OBRYS
  6
CONTINUOUS
 10
17697.234492004991
 20
402303.21437164478
 30
0.0
 11
17757.392462446958
 21
402303.21437164478
 31
0.0
  0
LINE
  5
69753
  8
S-OBRYS
  6
CONTINUOUS
 10
17729.358864291949
 20
402341.23190326232
 30
0.0
 11
17729.358864291949
 21
402273.2150938948
 31
0.0
  0
POLYLINE
  5
69754
  8
S-OBRYS
  6
CONTINUOUS
 66
     1
 10
0.0
 20
0.0
 30
0.0
 70
     1
  0
VERTEX
  5
6A148
  8
S-OBRYS
  6
CONTINUOUS
 10
17679.358864291891
 20
402278.21437164472
 30
0.0
  0
VERTEX
  5
6A149
  8
S-OBRYS
  6
CONTINUOUS
 10
17679.358864291891
 20
402328.21437164478
 30
0.0
  0
VERTEX
  5
6A14A
  8
S-OBRYS
  6
CONTINUOUS
 10
17779.358864291891
 20
402328.21437164478
 30
0.0
  0
VERTEX
  5
6A14B
  8
S-OBRYS
  6
CONTINUOUS
 10
17779.358864291891
 20
402278.21437164472
 30
0.0
  0
SEQEND
  5
6A14C
  8
S-OBRYS
  6
CONTINUOUS
  0
LINE
  5
69755
  8
S-OBRYS
  6
CONTINUOUS
 10
17729.358864291949
 20
402773.21364939481
 30
0.0
 11
17729.358864291949
 21
402713.41360163491
 31
0.0
  0
POLYLINE
  5
69756
  8
S-OBRYS
  6
CONTINUOUS
 66
     1
 10
0.0
 20
0.0
 30
0.0
 70
     1
  0
VERTEX
  5
6A14D
  8
S-OBRYS
  6
CONTINUOUS
 10
17679.358864291891
 20
402718.31362551491
 30
0.0
  0
VERTEX
  5
6A14E
  8
S-OBRYS
  6
CONTINUOUS
 10
17679.358864291891
 20
402768.31362551491
 30
0.0
  0
VERTEX
  5
6A14F
  8
S-OBRYS
  6
CONTINUOUS
 10
17779.358864291891
 20
402768.31362551491
 30
0.0
  0
VERTEX
  5
6A150
  8
S-OBRYS
  6
CONTINUOUS
 10
17779.358864291891
 20
402718.31362551491
 30
0.0
  0
SEQEND
  5
6A151
  8
S-OBRYS
  6
CONTINUOUS
  0
LINE
  5
69757
  8
S-OBRYS
  6
CONTINUOUS
 10
17694.566929749592
 20
402743.21437164478
 30
0.0
 11
17760.20698883259
 21
402743.21437164478
 31
0.0
  0
LINE
  5
69758
  8
S-OBRYS
  6
CONTINUOUS
 10
18503.358864291949
 20
402344.7628214432
 30
0.0
 11
18503.358864291949
 21
402701.6658964465
 31
0.0
  0
LINE
  5
69759
  8
S-OBRYS
  6
CONTINUOUS
 10
18503.358864291949
 20
402339.21440713981
 30
0.0
 11
18503.358864291949
 21
402707.2143361498
 31
0.0
  0
LINE
  5
6975A
  8
S-OBRYS
  6
CONTINUOUS
 10
18503.358864291949
 20
402368.97424999939
 30
0.0
 11
18503.358864291949
 21
402677.4544932901
 31
0.0
  0
LINE
  5
6975B
  8
S-OBRYS
  6
CONTINUOUS
 10
19543.35886429192
 20
402268.21437164472
 30
0.0
 11
19543.358864291949
 21
402778.21437164472
 31
0.0
  0
LINE
  5
6975C
  8
S-OBRYS
  6
CONTINUOUS
 10
19363.358864291949
 20
402268.21437164472
 30
0.0
 11
19363.358864291931
 21
402778.21437164472
 31
0.0
  0
LINE
  5
6975D
  8
S-OBRYS
  6
CONTINUOUS
 10
19010.846262485629
 20
402303.21437164478
 30
0.0
 11
19073.43142718347
 21
402303.21437164478
 31
0.0
  0
POLYLINE
  5
6975E
  8
S-OBRYS
  6
CONTINUOUS
 66
     1
 10
0.0
 20
0.0
 30
0.0
 70
     1
  0
VERTEX
  5
6A152
  8
S-OBRYS
  6
CONTINUOUS
 10
18988.358864291891
 20
402278.21437164472
 30
0.0
  0
VERTEX
  5
6A153
  8
S-OBRYS
  6
CONTINUOUS
 10
18988.358864291891
 20
402328.21437164478
 30
0.0
  0
VERTEX
  5
6A154
  8
S-OBRYS
  6
CONTINUOUS
 10
19088.358864291891
 20
402328.21437164478
 30
0.0
  0
VERTEX
  5
6A155
  8
S-OBRYS
  6
CONTINUOUS
 10
19088.358864291891
 20
402278.21437164472
 30
0.0
  0
SEQEND
  5
6A156
  8
S-OBRYS
  6
CONTINUOUS
  0
LINE
  5
6975F
  8
S-OBRYS
  6
CONTINUOUS
 10
19038.358864291949
 20
402335.0273298627
 30
0.0
 11
19038.358864291949
 21
402273.2150938948
 31
0.0
  0
DIMENSION
  5
69760
  8
S-OBRYS
  6
CONTINUOUS
  2
*D53
 10
18503.358864291949
 20
402696.1950899408
 30
0.0
 11
18777.725651595269
 21
402696.1950899408
 31
0.0
 70
   128
 13
19543.358864291931
 23
402568.92011893238
 33
0.0
 14
18503.358864291949
 24
402590.61461581779
 34
0.0
  0
LINE
  5
69761
  8
S-OBRYS
  6
CONTINUOUS
 10
19003.875590499869
 20
402743.21437164478
 30
0.0
 11
19070.251123407299
 21
402743.21437164478
 31
0.0
  0
POLYLINE
  5
69762
  8
S-OBRYS
  6
CONTINUOUS
 66
     1
 10
0.0
 20
0.0
 30
0.0
 70
     1
  0
VERTEX
  5
6A157
  8
S-OBRYS
  6
CONTINUOUS
 10
18988.358864291891
 20
402718.50406291633
 30
0.0
  0
VERTEX
  5
6A158
  8
S-OBRYS
  6
CONTINUOUS
 10
18988.358864291891
 20
402768.50406291633
 30
0.0
  0
VERTEX
  5
6A159
  8
S-OBRYS
  6
CONTINUOUS
 10
19088.358864291891
 20
402768.50406291633
 30
0.0
  0
VERTEX
  5
6A15A
  8
S-OBRYS
  6
CONTINUOUS
 10
19088.358864291891
 20
402718.50406291633
 30
0.0
  0
SEQEND
  5
6A15B
  8
S-OBRYS
  6
CONTINUOUS
  0
DIMENSION
  5
69763
  8
S-OBRYS
  6
CONTINUOUS
  2
*D54
 10
18503.358864291949
 20
402905.73625816492
 30
0.0
 11
18770.858864291949
 21
402980.73625816492
 31
0.0
 70
     0
 13
19038.358864291949
 23
402768.50406291633
 33
0.0
 14
18503.358864291949
 24
402701.6658964465
 34
0.0
  0
LINE
  5
69764
  8
S-OBRYS
  6
CONTINUOUS
 10
19038.358864291949
 20
402773.21364939481
 30
0.0
 11
19038.358864291949
 21
402713.79447643779
 31
0.0
  0
LINE
  5
69765
  8
S-OBRYS
  6
CONTINUOUS
 10
18503.358864291949
 20
402646.58587958821
 30
0.0
 11
18503.358864291949
 21
402679.635864307
 31
0.0
  0
DIMENSION
  5
69766
  8
S-OBRYS
  6
CONTINUOUS
  2
*D55
 10
19902.908311061539
 20
402266.48273861222
 30
0.0
 11
19827.90831106147
 21
402522.3485551285
 31
0.0
 70
     0
  1
510
 13
19663.358864291949
 23
402778.21437164472
 33
0.0
 14
19663.358864291931
 24
402266.48273861222
 34
0.0
 50
90.0
  0
LINE
  5
69767
  8
S-OBRYS
  6
CONTINUOUS
 10
19663.358864291931
 20
402268.21437164472
 30
0.0
 11
19663.358864291949
 21
402778.21437164472
 31
0.0
  0
TEXT
  5
69768
  8
S-OBRYS
  6
CONTINUOUS
 10
16333.20387210282
 20
401761.12539270922
 30
0.0
 40
150.0
  1
ZATÍŽENÍ NA 4ks PATEK
 41
0.7
  7
PROKOP
  0
TEXT
  5
69769
  8
S-OBRYS
  6
CONTINUOUS
 10
16342.074221958221
 20
401531.71424562851
 30
0.0
 40
150.0
  1
650 kg-DS 1,3
 41
0.7
  7
PROKOP
  0
LINE
  5
6976A
  8
S-OBRYS
  6
CONTINUOUS
 10
16248.93548091979
 20
401729.24519338162
 30
0.0
 11
18393.217029042349
 21
401729.24519338162
 31
0.0
  0
LINE
  5
6976B
  8
S-OBRYS
  6
CONTINUOUS
 10
18393.217029042349
 20
401729.24519338162
 30
0.0
 11
18393.217029042349
 21
401509.86029166769
 31
0.0
  0
INSERT
  5
6976C
  8
S-OBRYS
  6
CONTINUOUS
  2
*U100
 10
0.0
 20
0.0
 30
0.0
  0
DIMENSION
  5
6976D
  8
S-OBRYS
  6
CONTINUOUS
  2
*D33
 10
15386.0804100203
 20
403034.75252953352
 30
0.0
 11
15708.22326716315
 21
403109.75252953352
 31
0.0
 70
     0
  1
143
 13
15244.08791836847
 23
402876.47381876252
 33
0.0
 14
15386.0804100203
 24
402827.88168460422
 34
0.0
  0
DIMENSION
  5
6976E
  8
S-OBRYS
  6
CONTINUOUS
  2
*D34
 10
14663.0804100203
 20
403034.75252953352
 30
0.0
 11
14953.58416419439
 21
403109.75252953352
 31
0.0
 70
     0
  1
580
 13
15244.08791836847
 23
402879.62381876248
 33
0.0
 14
14663.0804100203
 24
402640.3824068543
 34
0.0
  0
DIMENSION
  5
6976F
  8
S-OBRYS
  6
CONTINUOUS
  2
*D35
 10
13590.0804100203
 20
403034.75252953352
 30
0.0
 11
14126.5804100203
 21
403109.75252953352
 31
0.0
 70
     0
 13
14663.0804100203
 23
402643.53240685433
 33
0.0
 14
13590.0804100203
 24
402702.81825559441
 34
0.0
  0
DIMENSION
  5
69770
  8
S-OBRYS
  6
CONTINUOUS
  2
*D36
 10
13274.0804100203
 20
403034.75252953352
 30
0.0
 11
13432.0804100203
 21
403109.75252953352
 31
0.0
 70
     0
 13
13590.0804100203
 23
402916.57563665329
 33
0.0
 14
13274.0804100203
 24
402827.88168460422
 34
0.0
  0
DIMENSION
  5
69771
  8
S-OBRYS
  6
CONTINUOUS
  2
*D37
 10
13104.433451598359
 20
402827.88168460422
 30
0.0
 11
13029.433451598299
 21
402577.8824068543
 31
0.0
 70
     0
 13
13274.0804100203
 23
402327.88312910427
 33
0.0
 14
13274.0804100203
 24
402827.88168460422
 34
0.0
 50
90.0
  0
DIMENSION
  5
69772
  8
S-OBRYS
  6
CONTINUOUS
  2
*D38
 10
14805.336600031729
 20
404569.16450423462
 30
0.0
 11
14418.336600031729
 21
404644.16450423462
 31
0.0
 70
     0
 13
14031.336600031729
 23
404799.83695903397
 33
0.0
 14
14805.336600031729
 24
404799.83695903409
 34
0.0
  0
DIMENSION
  5
69773
  8
S-OBRYS
  6
CONTINUOUS
  2
*D39
 10
15340.336600031729
 20
404559.16450423462
 30
0.0
 11
15072.836600031729
 21
404634.16450423462
 31
0.0
 70
     0
 13
14805.336600031729
 23
404569.16450423462
 33
0.0
 14
15340.336600031729
 24
404775.67748068582
 34
0.0
  0
DIMENSION
  5
69774
  8
S-OBRYS
  6
CONTINUOUS
  2
*D40
 10
15340.336600031729
 20
404293.58694884437
 30
0.0
 11
14685.836600031729
 21
404368.58694884437
 31
0.0
 70
     0
 13
14031.336600031729
 23
404559.16450423462
 33
0.0
 14
15340.336600031729
 24
404549.1645042345
 34
0.0
  0
DIMENSION
  5
69775
  8
S-OBRYS
  6
CONTINUOUS
  2
*D41
 10
15846.294563982099
 20
404559.16450423462
 30
0.0
 11
15593.315582006921
 21
404634.16450423462
 31
0.0
 70
     0
  1
505
 13
15340.336600031729
 23
404660.84599246021
 33
0.0
 14
15846.294563982099
 24
404701.21122489951
 34
0.0
  0
LINE
  5
69D5F
  8
S-OBRYS
  6
CONTINUOUS
 10
15428.11728081937
 20
399694.19289512187
 30
0.0
 11
17540.117280819359
 21
399694.19289512187
 31
0.0
  0
LINE
  5
69D60
  8
S-OBRYS
  6
CONTINUOUS
 10
15428.11728081937
 20
399194.19433962193
 30
0.0
 11
17540.117280819359
 21
399194.19433962193
 31
0.0
  0
LINE
  5
69D61
  8
S-OBRYS
  6
CONTINUOUS
 10
15413.72423483533
 20
399444.1936173719
 30
0.0
 11
17558.534289766289
 21
399444.1936173719
 31
0.0
  0
LINE
  5
69D62
  8
S-OBRYS
  6
CONTINUOUS
 10
15638.948412400159
 20
399730.60220546369
 30
0.0
 11
16932.01184753915
 21
399730.60220546369
 31
0.0
  0
LINE
  5
69D63
  8
S-OBRYS
  6
CONTINUOUS
 10
15640.34837625301
 20
399157.78502928012
 30
0.0
 11
16932.693126471699
 21
399157.78502928012
 31
0.0
  0
LINE
  5
69D64
  8
S-OBRYS
  6
CONTINUOUS
 10
15428.11728081937
 20
399194.19433962193
 30
0.0
 11
15428.11728081937
 21
399694.19289512187
 31
0.0
  0
LINE
  5
69D65
  8
S-OBRYS
  6
CONTINUOUS
 10
15528.11723321936
 20
399194.19433962193
 30
0.0
 11
15528.11723321936
 21
399694.19289512187
 31
0.0
  0
LINE
  5
69D66
  8
S-OBRYS
  6
CONTINUOUS
 10
15640.34837625301
 20
399194.19433962193
 30
0.0
 11
15640.34837625301
 21
399157.78502928012
 31
0.0
  0
LINE
  5
69D67
  8
S-OBRYS
  6
CONTINUOUS
 10
15991.11681359155
 20
399136.7700002144
 30
0.0
 11
15951.11683009154
 21
399136.7700002144
 31
0.0
  0
LINE
  5
69D68
  8
S-OBRYS
  6
CONTINUOUS
 10
15871.116863091551
 20
399109.1936173719
 30
0.0
 11
15991.11681359155
 21
399109.1936173719
 31
0.0
  0
LINE
  5
69D69
  8
S-OBRYS
  6
CONTINUOUS
 10
15911.116846591551
 20
399136.7700002144
 30
0.0
 11
15871.116863091551
 21
399136.7700002144
 31
0.0
  0
LINE
  5
69D6A
  8
S-OBRYS
  6
CONTINUOUS
 10
15871.116863091551
 20
399136.7700002144
 30
0.0
 11
15871.116863091551
 21
399109.1936173719
 31
0.0
  0
LINE
  5
69D6B
  8
S-OBRYS
  6
CONTINUOUS
 10
15911.116846591551
 20
399157.78502928012
 30
0.0
 11
15911.116846591551
 21
399136.7700002144
 31
0.0
  0
LINE
  5
69D6C
  8
S-OBRYS
  6
CONTINUOUS
 10
15951.11683009154
 20
399136.7700002144
 30
0.0
 11
15951.11683009154
 21
399157.78502928012
 31
0.0
  0
LINE
  5
69D6D
  8
S-OBRYS
  6
CONTINUOUS
 10
15991.11681359155
 20
399109.1936173719
 30
0.0
 11
15991.11681359155
 21
399136.7700002144
 31
0.0
  0
LINE
  5
69D6E
  8
S-OBRYS
  6
CONTINUOUS
 10
15744.11728081937
 20
399569.12946611212
 30
0.0
 11
15744.11728081937
 21
399473.2577686318
 31
0.0
  0
LINE
  5
69D6F
  8
S-OBRYS
  6
CONTINUOUS
 10
15696.181432079269
 20
399521.1936173719
 30
0.0
 11
15792.05312955947
 21
399521.1936173719
 31
0.0
  0
CIRCLE
  5
69D70
  8
S-OBRYS
  6
CONTINUOUS
 10
15744.11728081937
 20
399521.1936173719
 30
0.0
 40
39.999919365000011
  0
LINE
  5
69D71
  8
S-OBRYS
  6
CONTINUOUS
 10
15638.948412400159
 20
399694.19289512187
 30
0.0
 11
15638.948412400159
 21
399730.60220546369
 31
0.0
  0
LINE
  5
69D72
  8
S-OBRYS
  6
CONTINUOUS
 10
15991.11681359155
 20
399751.6172345294
 30
0.0
 11
15951.11683009154
 21
399751.6172345294
 31
0.0
  0
LINE
  5
69D73
  8
S-OBRYS
  6
CONTINUOUS
 10
15871.116863091551
 20
399779.1936173719
 30
0.0
 11
15991.11681359155
 21
399779.1936173719
 31
0.0
  0
LINE
  5
69D74
  8
S-OBRYS
  6
CONTINUOUS
 10
15871.116863091551
 20
399751.6172345294
 30
0.0
 11
15871.116863091551
 21
399779.1936173719
 31
0.0
  0
LINE
  5
69D75
  8
S-OBRYS
  6
CONTINUOUS
 10
15911.116846591551
 20
399751.6172345294
 30
0.0
 11
15871.116863091551
 21
399751.6172345294
 31
0.0
  0
LINE
  5
69D76
  8
S-OBRYS
  6
CONTINUOUS
 10
15911.116846591551
 20
399730.60220546369
 30
0.0
 11
15911.116846591551
 21
399751.6172345294
 31
0.0
  0
LINE
  5
69D77
  8
S-OBRYS
  6
CONTINUOUS
 10
15951.11683009154
 20
399751.6172345294
 30
0.0
 11
15951.11683009154
 21
399730.60220546369
 31
0.0
  0
LINE
  5
69D78
  8
S-OBRYS
  6
CONTINUOUS
 10
15991.11681359155
 20
399779.1936173719
 30
0.0
 11
15991.11681359155
 21
399751.6172345294
 31
0.0
  0
LINE
  5
69D79
  8
S-OBRYS
  6
CONTINUOUS
 10
16927.114930519368
 20
399194.19433962193
 30
0.0
 11
16927.114930519368
 21
399694.19289512187
 31
0.0
  0
LINE
  5
69D7A
  8
S-OBRYS
  6
CONTINUOUS
 10
16630.705597303138
 20
399136.7700002144
 30
0.0
 11
16590.705613803151
 21
399136.7700002144
 31
0.0
  0
LINE
  5
69D7B
  8
S-OBRYS
  6
CONTINUOUS
 10
16590.705613803151
 20
399109.1936173719
 30
0.0
 11
16710.705564303149
 21
399109.1936173719
 31
0.0
  0
LINE
  5
69D7C
  8
S-OBRYS
  6
CONTINUOUS
 10
16590.705613803151
 20
399136.7700002144
 30
0.0
 11
16590.705613803151
 21
399109.1936173719
 31
0.0
  0
LINE
  5
69D7D
  8
S-OBRYS
  6
CONTINUOUS
 10
16710.705564303149
 20
399136.7700002144
 30
0.0
 11
16670.70558080314
 21
399136.7700002144
 31
0.0
  0
LINE
  5
69D7E
  8
S-OBRYS
  6
CONTINUOUS
 10
16670.70558080314
 20
399136.7700002144
 30
0.0
 11
16670.70558080314
 21
399157.78502928012
 31
0.0
  0
LINE
  5
69D7F
  8
S-OBRYS
  6
CONTINUOUS
 10
16630.705597303138
 20
399157.78502928012
 30
0.0
 11
16630.705597303138
 21
399136.7700002144
 31
0.0
  0
LINE
  5
69D80
  8
S-OBRYS
  6
CONTINUOUS
 10
16710.705564303149
 20
399109.1936173719
 30
0.0
 11
16710.705564303149
 21
399136.7700002144
 31
0.0
  0
LINE
  5
69D81
  8
S-OBRYS
  6
CONTINUOUS
 10
16932.693126471699
 20
399157.78502928012
 30
0.0
 11
16932.693126471699
 21
399194.19433962193
 31
0.0
  0
LINE
  5
69D82
  8
S-OBRYS
  6
CONTINUOUS
 10
16817.11728081937
 20
399526.7170844457
 30
0.0
 11
16817.11728081937
 21
399361.6701502981
 31
0.0
  0
LINE
  5
69D83
  8
S-OBRYS
  6
CONTINUOUS
 10
16590.705613803151
 20
399779.1936173719
 30
0.0
 11
16710.705564303149
 21
399779.1936173719
 31
0.0
  0
LINE
  5
69D84
  8
S-OBRYS
  6
CONTINUOUS
 10
16630.705597303138
 20
399751.6172345294
 30
0.0
 11
16590.705613803151
 21
399751.6172345294
 31
0.0
  0
LINE
  5
69D85
  8
S-OBRYS
  6
CONTINUOUS
 10
16590.705613803151
 20
399751.6172345294
 30
0.0
 11
16590.705613803151
 21
399779.1936173719
 31
0.0
  0
LINE
  5
69D86
  8
S-OBRYS
  6
CONTINUOUS
 10
16710.705564303149
 20
399779.1936173719
 30
0.0
 11
16710.705564303149
 21
399751.6172345294
 31
0.0
  0
LINE
  5
69D87
  8
S-OBRYS
  6
CONTINUOUS
 10
16710.705564303149
 20
399751.6172345294
 30
0.0
 11
16670.70558080314
 21
399751.6172345294
 31
0.0
  0
LINE
  5
69D88
  8
S-OBRYS
  6
CONTINUOUS
 10
16630.705597303138
 20
399730.60220546369
 30
0.0
 11
16630.705597303138
 21
399751.6172345294
 31
0.0
  0
LINE
  5
69D89
  8
S-OBRYS
  6
CONTINUOUS
 10
16670.70558080314
 20
399751.6172345294
 30
0.0
 11
16670.70558080314
 21
399730.60220546369
 31
0.0
  0
LINE
  5
69D8A
  8
S-OBRYS
  6
CONTINUOUS
 10
16932.01184753915
 20
399730.60220546369
 30
0.0
 11
16932.01184753915
 21
399694.19289512187
 31
0.0
  0
LINE
  5
69D8B
  8
S-OBRYS
  6
CONTINUOUS
 10
17254.179968519369
 20
399194.19433962193
 30
0.0
 11
17254.179663719358
 21
399694.19289512187
 31
0.0
  0
LINE
  5
69D8C
  8
S-OBRYS
  6
CONTINUOUS
 10
17540.117280819359
 20
399194.19433962193
 30
0.0
 11
17540.117280819359
 21
399694.19289512187
 31
0.0
  0
LINE
  5
69D8D
  8
S-OBRYS
  6
CONTINUOUS
 10
17458.124764417538
 20
399173.17858830612
 30
0.0
 11
17418.12478091754
 21
399173.17858830612
 31
0.0
  0
LINE
  5
69D8E
  8
S-OBRYS
  6
CONTINUOUS
 10
17338.12481391754
 20
399145.60220546369
 30
0.0
 11
17458.124764417538
 21
399145.60220546369
 31
0.0
  0
LINE
  5
69D8F
  8
S-OBRYS
  6
CONTINUOUS
 10
17378.124797417539
 20
399173.17858830612
 30
0.0
 11
17338.12481391754
 21
399173.17858830612
 31
0.0
  0
LINE
  5
69D90
  8
S-OBRYS
  6
CONTINUOUS
 10
17338.12481391754
 20
399173.17858830612
 30
0.0
 11
17338.12481391754
 21
399145.60220546369
 31
0.0
  0
LINE
  5
69D91
  8
S-OBRYS
  6
CONTINUOUS
 10
17378.124797417539
 20
399194.1936173719
 30
0.0
 11
17378.124797417539
 21
399173.17858830612
 31
0.0
  0
LINE
  5
69D92
  8
S-OBRYS
  6
CONTINUOUS
 10
17418.12478091754
 20
399173.17858830612
 30
0.0
 11
17418.12478091754
 21
399194.1936173719
 31
0.0
  0
LINE
  5
69D93
  8
S-OBRYS
  6
CONTINUOUS
 10
17458.124764417538
 20
399145.60220546369
 30
0.0
 11
17458.124764417538
 21
399173.17858830612
 31
0.0
  0
CIRCLE
  5
69D94
  8
S-OBRYS
  6
CONTINUOUS
 10
17397.117280819359
 20
399444.19361102191
 30
0.0
 40
139.99999940000001
  0
LINE
  5
69D95
  8
S-OBRYS
  6
CONTINUOUS
 10
17397.117280819359
 20
399600.50992173149
 30
0.0
 11
17397.117280819359
 21
399287.87731301237
 31
0.0
  0
LINE
  5
69D96
  8
S-OBRYS
  6
CONTINUOUS
 10
17540.117280819359
 20
399504.91051417671
 30
0.0
 11
17540.117280819359
 21
399247.01969821978
 31
0.0
  0
LINE
  5
69D97
  8
S-OBRYS
  6
CONTINUOUS
 10
17458.124764417538
 20
399715.20864643768
 30
0.0
 11
17418.12478091754
 21
399715.20864643768
 31
0.0
  0
LINE
  5
69D98
  8
S-OBRYS
  6
CONTINUOUS
 10
17338.12481391754
 20
399742.78502928012
 30
0.0
 11
17458.124764417538
 21
399742.78502928012
 31
0.0
  0
LINE
  5
69D99
  8
S-OBRYS
  6
CONTINUOUS
 10
17378.124797417539
 20
399694.1936173719
 30
0.0
 11
17378.124797417539
 21
399715.20864643768
 31
0.0
  0
LINE
  5
69D9A
  8
S-OBRYS
  6
CONTINUOUS
 10
17378.124797417539
 20
399715.20864643768
 30
0.0
 11
17338.12481391754
 21
399715.20864643768
 31
0.0
  0
LINE
  5
69D9B
  8
S-OBRYS
  6
CONTINUOUS
 10
17338.12481391754
 20
399715.20864643768
 30
0.0
 11
17338.12481391754
 21
399742.78502928012
 31
0.0
  0
LINE
  5
69D9C
  8
S-OBRYS
  6
CONTINUOUS
 10
17418.12478091754
 20
399715.20864643768
 30
0.0
 11
17418.12478091754
 21
399694.1936173719
 31
0.0
  0
LINE
  5
69D9D
  8
S-OBRYS
  6
CONTINUOUS
 10
17458.124764417538
 20
399742.78502928012
 30
0.0
 11
17458.124764417538
 21
399715.20864643768
 31
0.0
  0
LINE
  5
69D9E
  8
S-OBRYS
  6
CONTINUOUS
 10
17120.112637719369
 20
399583.11479198688
 30
0.0
 11
16927.114930519368
 21
399583.11479198688
 31
0.0
  0
LINE
  5
69D9F
  8
S-OBRYS
  6
CONTINUOUS
 10
17080.112666919362
 20
399305.27244275692
 30
0.0
 11
17080.112666919362
 21
399583.11479198688
 31
0.0
  0
LINE
  5
69DA0
  8
S-OBRYS
  6
CONTINUOUS
 10
17120.112637719369
 20
399305.27244275692
 30
0.0
 11
17120.112637719369
 21
399583.11479198688
 31
0.0
  0
LINE
  5
69DA1
  8
S-OBRYS
  6
CONTINUOUS
 10
17207.61258821937
 20
399553.11408998689
 30
0.0
 11
17120.112637719369
 21
399553.11408998689
 31
0.0
  0
LINE
  5
69DA2
  8
S-OBRYS
  6
CONTINUOUS
 10
17157.612002419359
 20
399335.27187475679
 30
0.0
 11
17157.612002419359
 21
399553.11408998689
 31
0.0
  0
LINE
  5
69DA3
  8
S-OBRYS
  6
CONTINUOUS
 10
17207.61258821937
 20
399335.27187475679
 30
0.0
 11
17207.61258821937
 21
399553.11408998689
 31
0.0
  0
LINE
  5
69DA4
  8
S-OBRYS
  6
CONTINUOUS
 10
17207.61258821937
 20
399335.27187475679
 30
0.0
 11
17120.112637719369
 21
399335.27187475679
 31
0.0
  0
LINE
  5
69DA5
  8
S-OBRYS
  6
CONTINUOUS
 10
17120.112637719369
 20
399305.27244275692
 30
0.0
 11
16927.114930519368
 21
399305.27244275692
 31
0.0
  0
LINE
  5
69DA6
  8
S-OBRYS
  6
CONTINUOUS
 10
17081.764294997829
 20
399469.49243372481
 30
0.0
 11
17081.764294997829
 21
399379.49372972478
 31
0.0
  0
CIRCLE
  5
69DA7
  8
S-OBRYS
  6
CONTINUOUS
 10
17081.764294997829
 20
399444.21427651442
 30
0.0
 40
50.0
  0
CIRCLE
  5
69DA8
  8
S-OBRYS
  6
CONTINUOUS
 10
16817.11728081937
 20
399444.1936173719
 30
0.0
 40
62.5
  0
LINE
  5
69DA9
  8
S-OBRYS
  6
CONTINUOUS
 10
16252.26594779784
 20
399334.69361737202
 30
0.0
 11
16252.26594779784
 21
399553.6936173719
 31
0.0
  0
LINE
  5
69DAA
  8
S-OBRYS
  6
CONTINUOUS
 10
16471.265947797841
 20
399334.69361737202
 30
0.0
 11
16471.265947797841
 21
399553.6936173719
 31
0.0
  0
LINE
  5
69DAB
  8
S-OBRYS
  6
CONTINUOUS
 10
16252.26594779784
 20
399553.6936173719
 30
0.0
 11
16471.265947797841
 21
399553.6936173719
 31
0.0
  0
LINE
  5
69DAC
  8
S-OBRYS
  6
CONTINUOUS
 10
16252.26594779784
 20
399334.69361737202
 30
0.0
 11
16471.265947797841
 21
399334.69361737202
 31
0.0
  0
LINE
  5
69DAD
  8
S-OBRYS
  6
CONTINUOUS
 10
16361.76594779784
 20
399334.69361737202
 30
0.0
 11
16361.76594779784
 21
399553.6936173719
 31
0.0
  0
LINE
  5
69DAE
  8
S-OBRYS
  6
CONTINUOUS
 10
15797.765845297839
 20
399641.1936173719
 30
0.0
 11
15797.765845297839
 21
399247.1936173719
 31
0.0
  0
LINE
  5
69DAF
  8
S-OBRYS
  6
CONTINUOUS
 10
16846.765971597841
 20
399247.1936173719
 30
0.0
 11
16846.765971597841
 21
399641.1936173719
 31
0.0
  0
LINE
  5
69DB0
  8
S-OBRYS
  6
CONTINUOUS
 10
15797.765845297839
 20
399641.1936173719
 30
0.0
 11
16846.765971597841
 21
399641.1936173719
 31
0.0
  0
LINE
  5
69DB1
  8
S-OBRYS
  6
CONTINUOUS
 10
15797.765845297839
 20
399247.1936173719
 30
0.0
 11
16846.765971597841
 21
399247.1936173719
 31
0.0
  0
LINE
  5
69DB2
  8
S-OBRYS
  6
CONTINUOUS
 10
15797.765845297839
 20
399641.1936173719
 30
0.0
 11
16252.26594779784
 21
399553.6936173719
 31
0.0
  0
LINE
  5
69DB3
  8
S-OBRYS
  6
CONTINUOUS
 10
16471.265947797841
 20
399553.6936173719
 30
0.0
 11
16846.765971597841
 21
399641.1936173719
 31
0.0
  0
LINE
  5
69DB4
  8
S-OBRYS
  6
CONTINUOUS
 10
16252.26594779784
 20
399334.69361737202
 30
0.0
 11
15797.765845297839
 21
399247.1936173719
 31
0.0
  0
LINE
  5
69DB5
  8
S-OBRYS
  6
CONTINUOUS
 10
16471.265947797841
 20
399334.69361737202
 30
0.0
 11
16846.765971597841
 21
399247.1936173719
 31
0.0
  0
POLYLINE
  5
69DB6
  8
S-OBRYS
  6
CONTINUOUS
 66
     1
 10
0.0
 20
0.0
 30
0.0
 70
     1
  0
VERTEX
  5
6A22C
  8
S-OBRYS
  6
CONTINUOUS
 10
16846.76594779779
 20
399689.1936173719
 30
0.0
  0
VERTEX
  5
6A22D
  8
S-OBRYS
  6
CONTINUOUS
 10
16846.76594779779
 20
399639.1936173719
 30
0.0
  0
VERTEX
  5
6A22E
  8
S-OBRYS
  6
CONTINUOUS
 10
16946.76594779779
 20
399639.1936173719
 30
0.0
  0
VERTEX
  5
6A22F
  8
S-OBRYS
  6
CONTINUOUS
 10
16946.76594779779
 20
399689.1936173719
 30
0.0
  0
SEQEND
  5
6A230
  8
S-OBRYS
  6
CONTINUOUS
  0
LINE
  5
69DB7
  8
S-OBRYS
  6
CONTINUOUS
 10
16896.765947797841
 20
399632.38065915392
 30
0.0
 11
16896.765947797841
 21
399694.19289512187
 31
0.0
  0
LINE
  5
69DB8
  8
S-OBRYS
  6
CONTINUOUS
 10
16869.253345991528
 20
399664.1936173719
 30
0.0
 11
16931.838510689369
 21
399664.1936173719
 31
0.0
  0
POLYLINE
  5
69DB9
  8
S-OBRYS
  6
CONTINUOUS
 66
     1
 10
0.0
 20
0.0
 30
0.0
 70
     1
  0
VERTEX
  5
6A231
  8
S-OBRYS
  6
CONTINUOUS
 10
16846.76594779779
 20
399248.90392610041
 30
0.0
  0
VERTEX
  5
6A232
  8
S-OBRYS
  6
CONTINUOUS
 10
16846.76594779779
 20
399198.90392610029
 30
0.0
  0
VERTEX
  5
6A233
  8
S-OBRYS
  6
CONTINUOUS
 10
16946.76594779779
 20
399198.90392610029
 30
0.0
  0
VERTEX
  5
6A234
  8
S-OBRYS
  6
CONTINUOUS
 10
16946.76594779779
 20
399248.90392610041
 30
0.0
  0
SEQEND
  5
6A235
  8
S-OBRYS
  6
CONTINUOUS
  0
LINE
  5
69DBA
  8
S-OBRYS
  6
CONTINUOUS
 10
16896.765947797841
 20
399194.19433962193
 30
0.0
 11
16896.765947797841
 21
399253.61351257889
 31
0.0
  0
LINE
  5
69DBB
  8
S-OBRYS
  6
CONTINUOUS
 10
16862.282674005761
 20
399224.1936173719
 30
0.0
 11
16928.658206913198
 21
399224.1936173719
 31
0.0
  0
POLYLINE
  5
69DBC
  8
S-OBRYS
  6
CONTINUOUS
 66
     1
 10
0.0
 20
0.0
 30
0.0
 70
     1
  0
VERTEX
  5
6A236
  8
S-OBRYS
  6
CONTINUOUS
 10
15537.76594779779
 20
399249.09436350182
 30
0.0
  0
VERTEX
  5
6A237
  8
S-OBRYS
  6
CONTINUOUS
 10
15537.76594779779
 20
399199.09436350182
 30
0.0
  0
VERTEX
  5
6A238
  8
S-OBRYS
  6
CONTINUOUS
 10
15637.76594779779
 20
399199.09436350182
 30
0.0
  0
VERTEX
  5
6A239
  8
S-OBRYS
  6
CONTINUOUS
 10
15637.76594779779
 20
399249.09436350182
 30
0.0
  0
SEQEND
  5
6A23A
  8
S-OBRYS
  6
CONTINUOUS
  0
LINE
  5
69DBD
  8
S-OBRYS
  6
CONTINUOUS
 10
15587.76594779784
 20
399194.19433962193
 30
0.0
 11
15587.76594779784
 21
399253.99438738183
 31
0.0
  0
LINE
  5
69DBE
  8
S-OBRYS
  6
CONTINUOUS
 10
15552.97401325548
 20
399224.1936173719
 30
0.0
 11
15618.614072338491
 21
399224.1936173719
 31
0.0
  0
POLYLINE
  5
69DBF
  8
S-OBRYS
  6
CONTINUOUS
 66
     1
 10
0.0
 20
0.0
 30
0.0
 70
     1
  0
VERTEX
  5
6A23B
  8
S-OBRYS
  6
CONTINUOUS
 10
15537.76594779779
 20
399689.1936173719
 30
0.0
  0
VERTEX
  5
6A23C
  8
S-OBRYS
  6
CONTINUOUS
 10
15537.76594779779
 20
399639.1936173719
 30
0.0
  0
VERTEX
  5
6A23D
  8
S-OBRYS
  6
CONTINUOUS
 10
15637.76594779779
 20
399639.1936173719
 30
0.0
  0
VERTEX
  5
6A23E
  8
S-OBRYS
  6
CONTINUOUS
 10
15637.76594779779
 20
399689.1936173719
 30
0.0
  0
SEQEND
  5
6A23F
  8
S-OBRYS
  6
CONTINUOUS
  0
LINE
  5
69DC0
  8
S-OBRYS
  6
CONTINUOUS
 10
15587.76594779784
 20
399626.17608575441
 30
0.0
 11
15587.76594779784
 21
399694.19289512187
 31
0.0
  0
LINE
  5
69DC1
  8
S-OBRYS
  6
CONTINUOUS
 10
15555.64157551089
 20
399664.19361737202
 30
0.0
 11
15615.799545952859
 21
399664.1936173719
 31
0.0
  0
DIMENSION
  5
69DC2
  8
S-OBRYS
  6
CONTINUOUS
  2
*D77
 10
15622.25540322509
 20
399444.1936173719
 30
0.0
 11
15622.255403225019
 21
400031.42481224693
 31
0.0
 70
   128
 13
15696.181432079269
 23
399521.1936173719
 33
0.0
 14
15696.181432079269
 24
399444.1936173719
 34
0.0
 50
90.0
1001
ACAD
1000
DSTYLE
1002
{
1070
   140
1040
3.0
1002
}
  0
DIMENSION
  5
69DC3
  8
S-OBRYS
  6
CONTINUOUS
  2
*D78
 10
17540.117280819359
 20
400118.0955146419
 30
0.0
 11
17910.831566533649
 21
400118.0955146419
 31
0.0
 70
   128
  1
143
 13
17398.124789167541
 23
399742.78502928012
 33
0.0
 14
17540.117280819359
 24
399694.19289512187
 34
0.0
1001
ACAD
1000
DSTYLE
1002
{
1070
   140
1040
3.0
1002
}
  0
DIMENSION
  5
69DC4
  8
S-OBRYS
  6
CONTINUOUS
  2
*D79
 10
16817.11728081937
 20
399901.06374005112
 30
0.0
 11
17107.621034993459
 21
400001.063740051
 31
0.0
 70
     0
  1
580
 13
17398.124789167541
 23
399745.9350292802
 33
0.0
 14
16817.11728081937
 24
399506.6936173719
 34
0.0
1001
ACAD
1000
DSTYLE
1002
{
1070
   140
1040
3.0
1002
}
  0
DIMENSION
  5
69DC5
  8
S-OBRYS
  6
CONTINUOUS
  2
*D80
 10
15744.11728081937
 20
399901.06374005112
 30
0.0
 11
16280.61728081937
 21
400001.063740051
 31
0.0
 70
     0
 13
16817.11728081937
 23
399509.84361737192
 33
0.0
 14
15744.11728081937
 24
399569.12946611212
 34
0.0
1001
ACAD
1000
DSTYLE
1002
{
1070
   140
1040
3.0
1002
}
  0
DIMENSION
  5
69DC6
  8
S-OBRYS
  6
CONTINUOUS
  2
*D81
 10
15428.11728081937
 20
400171.34998993739
 30
0.0
 11
14741.58750574799
 21
400171.34998993739
 31
0.0
 70
   128
 13
15744.11728081937
 23
399782.88684717088
 33
0.0
 14
15428.11728081937
 24
399694.19289512187
 34
0.0
1001
ACAD
1000
DSTYLE
1002
{
1070
   140
1040
3.0
1002
}
  0
DIMENSION
  5
69DC7
  8
S-OBRYS
  6
CONTINUOUS
  2
*D82
 10
15258.47032239743
 20
399694.19289512181
 30
0.0
 11
15158.47032239737
 21
399444.1936173719
 31
0.0
 70
     0
 13
15428.117280819361
 23
399194.19433962193
 33
0.0
 14
15428.117280819361
 24
399694.19289512181
 34
0.0
 50
90.0
1001
ACAD
1000
DSTYLE
1002
{
1070
   140
1040
3.0
1002
}
  0
DIMENSION
  5
69DC8
  8
S-OBRYS
  6
CONTINUOUS
  2
*D72
 10
17540.117280819359
 20
400297.25244045869
 30
0.0
 11
16484.11728081937
 21
400397.25244045869
 31
0.0
 70
     0
 13
15428.11728081937
 23
399694.19289512187
 33
0.0
 14
17540.117280819359
 24
399694.19289512187
 34
0.0
1001
ACAD
1000
DSTYLE
1002
{
1070
   140
1040
3.0
1002
}
  0
LINE
  5
69DC9
  8
S-OBRYS
  6
CONTINUOUS
 10
18040.117280819359
 20
399194.19433962193
 30
0.0
 11
18040.117280819359
 21
399859.1203223007
 31
0.0
  0
LINE
  5
69DCA
  8
S-OBRYS
  6
CONTINUOUS
 10
18040.117280819359
 20
399194.19433962193
 30
0.0
 11
18132.02407450289
 21
399272.81031698338
 31
0.0
  0
LINE
  5
69DCB
  8
S-OBRYS
  6
CONTINUOUS
 10
18040.117280819359
 20
399266.29489469208
 30
0.0
 11
18132.02407450289
 21
399344.91087205359
 31
0.0
  0
LINE
  5
69DCC
  8
S-OBRYS
  6
CONTINUOUS
 10
18040.117280819359
 20
399345.37295299489
 30
0.0
 11
18132.02407450289
 21
399423.9889303564
 31
0.0
  0
LINE
  5
69DCD
  8
S-OBRYS
  6
CONTINUOUS
 10
18040.117280819359
 20
399433.75430441729
 30
0.0
 11
18132.02407450289
 21
399512.3702817788
 31
0.0
  0
LINE
  5
69DCE
  8
S-OBRYS
  6
CONTINUOUS
 10
18040.117280819359
 20
399517.4840315418
 30
0.0
 11
18132.02407450289
 21
399596.1000089033
 31
0.0
  0
LINE
  5
69DCF
  8
S-OBRYS
  6
CONTINUOUS
 10
18040.117280819359
 20
399598.8878797316
 30
0.0
 11
18132.02407450289
 21
399677.50385709322
 31
0.0
  0
LINE
  5
69DD0
  8
S-OBRYS
  6
CONTINUOUS
 10
18040.117280819359
 20
399684.94344126701
 30
0.0
 11
18132.02407450289
 21
399763.55941862857
 31
0.0
  0
LINE
  5
69DD1
  8
S-OBRYS
  6
CONTINUOUS
 10
18040.117280819359
 20
399770.99895827862
 30
0.0
 11
18132.02407450289
 21
399849.61493564007
 31
0.0
  0
LINE
  5
69DD2
  8
S-OBRYS
  6
CONTINUOUS
 10
18040.117280819359
 20
399857.05447529012
 30
0.0
 11
18132.02407450289
 21
399935.67045265168
 31
0.0
  0
DIMENSION
  5
69DD3
  8
S-OBRYS
  6
CONTINUOUS
  2
*D73
 10
18040.117280819359
 20
399555.87324283202
 30
0.0
 11
17790.117280819359
 21
399655.87324283191
 31
0.0
 70
     0
 13
17540.117280819359
 23
399587.87762014422
 33
0.0
 14
18040.117280819359
 24
399587.87762014422
 34
0.0
1001
ACAD
1000
DSTYLE
1002
{
1070
   140
1040
3.0
1002
}
  0
LINE
  5
69DD4
  8
S-OBRYS
  6
CONTINUOUS
 10
13928.11728081937
 20
399977.4304878487
 30
0.0
 11
13928.11728081937
 21
399312.50450516993
 31
0.0
  0
LINE
  5
69DD5
  8
S-OBRYS
  6
CONTINUOUS
 10
13928.11728081937
 20
399977.4304878487
 30
0.0
 11
13836.210487135841
 21
399898.81451048719
 31
0.0
  0
LINE
  5
69DD6
  8
S-OBRYS
  6
CONTINUOUS
 10
13928.11728081937
 20
399905.32993277849
 30
0.0
 11
13836.210487135841
 21
399826.71395541693
 31
0.0
  0
LINE
  5
69DD7
  8
S-OBRYS
  6
CONTINUOUS
 10
13928.11728081937
 20
399826.2518744758
 30
0.0
 11
13836.210487135841
 21
399747.63589711417
 31
0.0
  0
LINE
  5
69DD8
  8
S-OBRYS
  6
CONTINUOUS
 10
13928.11728081937
 20
399737.87052305328
 30
0.0
 11
13836.210487135841
 21
399659.25454569177
 31
0.0
  0
LINE
  5
69DD9
  8
S-OBRYS
  6
CONTINUOUS
 10
13928.11728081937
 20
399654.14079592878
 30
0.0
 11
13836.210487135841
 21
399575.52481856733
 31
0.0
  0
LINE
  5
69DDA
  8
S-OBRYS
  6
CONTINUOUS
 10
13928.11728081937
 20
399572.73694773891
 30
0.0
 11
13836.210487135841
 21
399494.12097037752
 31
0.0
  0
LINE
  5
69DDB
  8
S-OBRYS
  6
CONTINUOUS
 10
13928.11728081937
 20
399486.68138620362
 30
0.0
 11
13836.210487135841
 21
399408.06540884211
 31
0.0
  0
LINE
  5
69DDC
  8
S-OBRYS
  6
CONTINUOUS
 10
13928.11728081937
 20
399400.62586919212
 30
0.0
 11
13836.210487135841
 21
399322.0098918305
 31
0.0
  0
LINE
  5
69DDD
  8
S-OBRYS
  6
CONTINUOUS
 10
13928.11728081937
 20
399314.57035218051
 30
0.0
 11
13836.210487135841
 21
399235.954374819
 31
0.0
  0
LINE
  5
69DDE
  8
S-OBRYS
  6
CONTINUOUS
 10
15831.214340994769
 20
398194.19433962193
 30
0.0
 11
15166.288358315989
 21
398194.19433962193
 31
0.0
  0
LINE
  5
69DDF
  8
S-OBRYS
  6
CONTINUOUS
 10
15831.214340994769
 20
398194.19433962193
 30
0.0
 11
15752.5983636332
 21
398102.28754593839
 31
0.0
  0
LINE
  5
69DE0
  8
S-OBRYS
  6
CONTINUOUS
 10
15759.113785924559
 20
398194.19433962193
 30
0.0
 11
15680.49780856299
 21
398102.28754593839
 31
0.0
  0
LINE
  5
69DE1
  8
S-OBRYS
  6
CONTINUOUS
 10
15680.0357276218
 20
398194.19433962193
 30
0.0
 11
15601.41975026024
 21
398102.28754593839
 31
0.0
  0
LINE
  5
69DE2
  8
S-OBRYS
  6
CONTINUOUS
 10
15591.6543761994
 20
398194.19433962193
 30
0.0
 11
15513.03839883784
 21
398102.28754593839
 31
0.0
  0
LINE
  5
69DE3
  8
S-OBRYS
  6
CONTINUOUS
 10
15507.924649074899
 20
398194.19433962193
 30
0.0
 11
15429.30867171333
 21
398102.28754593839
 31
0.0
  0
LINE
  5
69DE4
  8
S-OBRYS
  6
CONTINUOUS
 10
15426.52080088504
 20
398194.19433962193
 30
0.0
 11
15347.90482352347
 21
398102.28754593839
 31
0.0
  0
LINE
  5
69DE5
  8
S-OBRYS
  6
CONTINUOUS
 10
15340.465239349691
 20
398194.19433962193
 30
0.0
 11
15261.84926198812
 21
398102.28754593839
 31
0.0
  0
LINE
  5
69DE6
  8
S-OBRYS
  6
CONTINUOUS
 10
15254.40972233813
 20
398194.19433962193
 30
0.0
 11
15175.79374497656
 21
398102.28754593839
 31
0.0
  0
LINE
  5
69DE7
  8
S-OBRYS
  6
CONTINUOUS
 10
15168.35420532657
 20
398194.19433962193
 30
0.0
 11
15089.73822796501
 21
398102.28754593839
 31
0.0
  0
DIMENSION
  5
69DE8
  8
S-OBRYS
  6
CONTINUOUS
  2
*D74
 10
15258.47032239743
 20
398194.19433962193
 30
0.0
 11
15158.47032239737
 21
398694.19433962193
 31
0.0
 70
     0
 13
15587.76594779784
 23
399194.19433962193
 33
0.0
 14
15587.76594779784
 24
398194.19433962193
 34
0.0
 50
90.0
1001
ACAD
1000
DSTYLE
1002
{
1070
   140
1040
3.0
1002
}
  0
DIMENSION
  5
69DE9
  8
S-OBRYS
  6
CONTINUOUS
  2
*D75
 10
13928.11728081937
 20
399901.06374005112
 30
0.0
 11
14678.11728081937
 21
400001.063740051
 31
0.0
 70
     0
 13
15428.11728081937
 23
399804.20331758651
 33
0.0
 14
13928.11728081937
 24
399694.19289512187
 34
0.0
1001
ACAD
1000
DSTYLE
1002
{
1070
   140
1040
3.0
1002
}
  0
LINE
  5
69DEA
  8
S-OBRYS
  6
CONTINUOUS
 10
15181.61491853848
 20
400694.19289512187
 30
0.0
 11
15846.540901217249
 21
400694.19289512187
 31
0.0
  0
LINE
  5
69DEB
  8
S-OBRYS
  6
CONTINUOUS
 10
15181.61491853848
 20
400694.19289512187
 30
0.0
 11
15260.23089590004
 21
400786.09968880541
 31
0.0
  0
LINE
  5
69DEC
  8
S-OBRYS
  6
CONTINUOUS
 10
15253.71547360869
 20
400694.19289512187
 30
0.0
 11
15332.33145097025
 21
400786.09968880541
 31
0.0
  0
LINE
  5
69DED
  8
S-OBRYS
  6
CONTINUOUS
 10
15332.79353191144
 20
400694.19289512187
 30
0.0
 11
15411.409509273
 21
400786.09968880541
 31
0.0
  0
LINE
  5
69DEE
  8
S-OBRYS
  6
CONTINUOUS
 10
15421.174883333841
 20
400694.19289512187
 30
0.0
 11
15499.79086069541
 21
400786.09968880541
 31
0.0
  0
LINE
  5
69DEF
  8
S-OBRYS
  6
CONTINUOUS
 10
15504.90461045835
 20
400694.19289512187
 30
0.0
 11
15583.52058781991
 21
400786.09968880541
 31
0.0
  0
LINE
  5
69DF0
  8
S-OBRYS
  6
CONTINUOUS
 10
15586.3084586482
 20
400694.19289512187
 30
0.0
 11
15664.924436009769
 21
400786.09968880541
 31
0.0
  0
LINE
  5
69DF1
  8
S-OBRYS
  6
CONTINUOUS
 10
15672.364020183561
 20
400694.19289512187
 30
0.0
 11
15750.979997545121
 21
400786.09968880541
 31
0.0
  0
LINE
  5
69DF2
  8
S-OBRYS
  6
CONTINUOUS
 10
15758.41953719511
 20
400694.19289512187
 30
0.0
 11
15837.035514556679
 21
400786.09968880541
 31
0.0
  0
LINE
  5
69DF3
  8
S-OBRYS
  6
CONTINUOUS
 10
15844.47505420667
 20
400694.19289512187
 30
0.0
 11
15923.09103156823
 21
400786.09968880541
 31
0.0
  0
DIMENSION
  5
69DF4
  8
S-OBRYS
  6
CONTINUOUS
  2
*D76
 10
15258.401271997451
 20
400694.19289512187
 30
0.0
 11
15258.401271997391
 21
400403.69830082118
 31
0.0
 70
   128
 13
15248.47032239743
 23
399694.19289512181
 33
0.0
 14
15428.11728081937
 24
400694.19289512187
 34
0.0
 50
90.0
1001
ACAD
1000
DSTYLE
1002
{
1070
   140
1040
3.0
1002
}
  0
VIEWPORT
  5
1FAB5
 67
     1
  8
0
  6
ČERCHOVANÁ
 10
12.669026204836801
 20
9.4585013259736659
 30
0.0
 40
41.707206501782828
 41
24.2248555085413
 68
     1
 69
     1
1001
ACAD
1000
MVIEW
1002
{
1070
    16
1010
0.0
1020
0.0
1030
0.0
1010
0.0
1020
0.0
1030
1.0
1040
0.0
1040
24.2248555085413
1040
12.669026204836801
1040
9.4585013259736659
1040
50.0
1040
0.0
1040
0.0
1070
     0
1070
   100
1070
     1
1070
     1
1070
     0
1070
     0
1070
     0
1070
     0
1040
0.0
1040
0.0
1040
0.0
1040
10.0
1040
10.0
1040
10.0
1040
10.0
1070
     0
1002
{
1002
}
1002
}
  0
VIEWPORT
  5
1FAB7
 67
     1
  8
2-VZT
  6
ČERCHOVANÁ
 10
5.24999976158142
 20
3.99999976158142
 30
0.0
 40
8.3999996185302717
 41
6.3999996185302717
 68
     2
 69
     2
1001
ACAD
1000
MVIEW
1002
{
1070
    16
1010
0.0
1020
0.0
1030
0.0
1010
0.0
1020
0.0
1030
1.0
1040
0.0
1040
517776.44812413253
1040
-335493.7046016907
1040
-205251.99203018961
1040
50.0
1040
0.0
1040
0.0
1070
     0
1070
   100
1070
     1
1070
     0
1070
     0
1070
     0
1070
     0
1070
     0
1040
0.0
1040
0.0
1040
0.0
1040
1.0
1040
1.0
1040
1.0
1040
1.0
1070
     0
1002
{
1002
}
1002
}
  0
ENDSEC
  0
EOF
