  0
SECTION
  2
HEADER
  9
$ACADVER
  1
AC1009
  9
$INSBASE
 10
0.0
 20
0.0
 30
0.0
  9
$EXTMIN
 10
-9317.3245871225408
 20
393402.81400089961
 30
0.0
  9
$EXTMAX
 10
26855.751979152661
 20
799643.3234279257
 30
0.0
  9
$LIMMIN
 10
-127022.6804658414
 20
-67144.462473645661
  9
$LIMMAX
 10
-873.19720690528334
 20
6755.1563308572058
  9
$ORTHOMODE
 70
     0
  9
$REGENMODE
 70
     1
  9
$FILLMODE
 70
     1
  9
$QTEXTMODE
 70
     0
  9
$MIRRTEXT
 70
     0
  9
$DRAGMODE
 70
     2
  9
$LTSCALE
 40
50.0
  9
$OSMODE
 70
   679
  9
$ATTMODE
 70
     1
  9
$TEXTSIZE
 40
200.0
  9
$TRACEWID
 40
10.0
  9
$TEXTSTYLE
  7
R
  9
$CLAYER
  8
HLADINA1
  9
$CELTYPE
  6
CONTINUOUS
  9
$CECOLOR
 62
   256
  9
$DIMSCALE
 40
50.0
  9
$DIMASZ
 40
2.0
  9
$DIMEXO
 40
0.063
  9
$DIMDLI
 40
5.0
  9
$DIMRND
 40
0.0
  9
$DIMDLE
 40
0.0
  9
$DIMEXE
 40
0.2
  9
$DIMTP
 40
0.0
  9
$DIMTM
 40
0.0
  9
$DIMTXT
 40
2.0
  9
$DIMCEN
 40
2.0
  9
$DIMTSZ
 40
0.0
  9
$DIMTOL
 70
     0
  9
$DIMLIM
 70
     0
  9
$DIMTIH
 70
     0
  9
$DIMTOH
 70
     0
  9
$DIMSE1
 70
     0
  9
$DIMSE2
 70
     0
  9
$DIMTAD
 70
     1
  9
$DIMZIN
 70
    12
  9
$DIMBLK
  1

  9
$DIMASO
 70
     1
  9
$DIMSHO
 70
     0
  9
$DIMPOST
  1

  9
$DIMAPOST
  1

  9
$DIMALT
 70
     0
  9
$DIMALTD
 70
     2
  9
$DIMALTF
 40
25.399999999999999
  9
$DIMLFAC
 40
1.0
  9
$DIMTOFL
 70
     1
  9
$DIMTVP
 40
0.0
  9
$DIMTIX
 70
     0
  9
$DIMSOXD
 70
     0
  9
$DIMSAH
 70
     1
  9
$DIMBLK1
  1
OPEN
  9
$DIMBLK2
  1
OPEN
  9
$DIMSTYLE
  2
EMBABA
  9
$DIMCLRD
 70
     0
  9
$DIMCLRE
 70
     0
  9
$DIMCLRT
 70
     7
  9
$DIMTFAC
 40
1.0
  9
$DIMGAP
 40
0.5
  9
$LUNITS
 70
     2
  9
$LUPREC
 70
     0
  9
$SKETCHINC
 40
10.0
  9
$FILLETRAD
 40
400.0
  9
$AUNITS
 70
     0
  9
$AUPREC
 70
     4
  9
$MENU
  1
ACAD
  9
$ELEVATION
 40
0.0
  9
$PELEVATION
 40
0.0
  9
$THICKNESS
 40
0.0
  9
$LIMCHECK
 70
     0
  9
$BLIPMODE
 70
     0
  9
$CHAMFERA
 40
0.0
  9
$CHAMFERB
 40
0.0
  9
$SKPOLY
 70
     0
  9
$TDCREATE
 40
2450205.720229167
  9
$TDUPDATE
 40
2453528.4909349652
  9
$TDINDWG
 40
42.312539502299998
  9
$TDUSRTIMER
 40
42.312539502299998
  9
$USRTIMER
 70
     1
  9
$ANGBASE
 50
0.0
  9
$ANGDIR
 70
     0
  9
$PDMODE
 70
     2
  9
$PDSIZE
 40
-5.0
  9
$PLINEWID
 40
0.0
  9
$COORDS
 70
     0
  9
$SPLFRAME
 70
     0
  9
$SPLINETYPE
 70
     6
  9
$SPLINESEGS
 70
     8
  9
$ATTDIA
 70
     0
  9
$ATTREQ
 70
     1
  9
$HANDLING
 70
     1
  9
$HANDSEED
  5
6529A
  9
$SURFTAB1
 70
    18
  9
$SURFTAB2
 70
    18
  9
$SURFTYPE
 70
     6
  9
$SURFU
 70
    18
  9
$SURFV
 70
    18
  9
$UCSNAME
  2

  9
$UCSORG
 10
0.0
 20
0.0
 30
0.0
  9
$UCSXDIR
 10
1.0
 20
0.0
 30
0.0
  9
$UCSYDIR
 10
0.0
 20
1.0
 30
0.0
  9
$PUCSNAME
  2

  9
$PUCSORG
 10
0.0
 20
0.0
 30
0.0
  9
$PUCSXDIR
 10
1.0
 20
0.0
 30
0.0
  9
$PUCSYDIR
 10
0.0
 20
1.0
 30
0.0
  9
$USERI1
 70
     0
  9
$USERI2
 70
     0
  9
$USERI3
 70
     0
  9
$USERI4
 70
     0
  9
$USERI5
 70
     0
  9
$USERR1
 40
0.0
  9
$USERR2
 40
50.0
  9
$USERR3
 40
0.0
  9
$USERR4
 40
0.0
  9
$USERR5
 40
0.0
  9
$WORLDVIEW
 70
     1
  9
$SHADEDGE
 70
     3
  9
$SHADEDIF
 70
    70
  9
$TILEMODE
 70
     1
  9
$MAXACTVP
 70
    16
  9
$PLIMCHECK
 70
     0
  9
$PEXTMIN
 10
1.049999952316284
 20
0.7999999523162842
 30
0.0
  9
$PEXTMAX
 10
9.4499995708465558
 20
7.1999995708465558
 30
0.0
  9
$PLIMMIN
 10
-0.2500002402958907
 20
-0.2499999962453767
  9
$PLIMMAX
 10
10.74999951940821
 20
8.2499997634587316
  9
$UNITMODE
 70
     0
  9
$VISRETAIN
 70
     0
  9
$PLINEGEN
 70
     0
  9
$PSLTSCALE
 70
     1
  0
ENDSEC
  0
SECTION
  2
TABLES
  0
TABLE
  2
VPORT
 70
     4
  0
VPORT
  2
*ACTIVE
 70
     0
 10
0.0
 20
0.0
 11
1.0
 21
1.0
 12
-61.271155401122087
 22
401152.2228692479
 13
0.0
 23
0.0
 14
1.0
 24
1.0
 15
1.0
 25
1.0
 16
0.0
 26
0.0
 36
1.0
 17
0.0
 27
0.0
 37
0.0
 40
39170.351656090003
 41
1.6116303219106951
 42
50.0
 43
0.0
 44
0.0
 50
0.0
 51
0.0
 71
     0
 72
   100
 73
     1
 74
     0
 75
     0
 76
     1
 77
     0
 78
     0
  0
ENDTAB
  0
TABLE
  2
LTYPE
 70
    13
  0
LTYPE
  2
CONTINUOUS
 70
     0
  3
Solid line
 72
    65
 73
     0
 40
0.0
  0
LTYPE
  2
ČERCHOVANÁ
 70
     0
  3
Čerchovaná __ . __ . __ . __ . __ . __ . __ . _
 72
    65
 73
     4
 40
1.0
 49
0.5
 49
-0.25
 49
0.0
 49
-0.25
  0
ENDTAB
  0
TABLE
  2
LAYER
 70
    37
  0
LAYER
  2
0
 70
     0
 62
     7
  6
CONTINUOUS
  0
LAYER
  2
RAZ
 70
     0
 62
     7
  6
CONTINUOUS
  0
LAYER
  2
KOTY
 70
     0
 62
     2
  6
CONTINUOUS
  0
LAYER
  2
DEFPOINTS
 70
     0
 62
     7
  6
CONTINUOUS
  0
LAYER
  2
2-VZT
 70
     0
 62
     4
  6
CONTINUOUS
  0
LAYER
  2
SILNA
 70
     0
 62
     7
  6
CONTINUOUS
  0
LAYER
  2
OBRYS
 70
     0
 62
     7
  6
CONTINUOUS
  0
LAYER
  2
S-OBRYS
 70
     0
 62
     7
  6
CONTINUOUS
  0
LAYER
  2
HLADINA1
 70
     0
 62
   160
  6
CONTINUOUS
  0
ENDTAB
  0
TABLE
  2
STYLE
 70
    11
  0
STYLE
  2
STANDARD
 70
     0
 40
0.0
 41
0.8
 50
0.0
 71
     0
 42
200.0
  3
ROMANS.SHX
  4

  0
STYLE
  2
R
 70
     0
 40
0.0
 41
1.0
 50
0.0
 71
     0
 42
200.0
  3
romans.shx
  4

  0
STYLE
  2
ROMANS
 70
     0
 40
0.0
 41
0.8
 50
0.0
 71
     0
 42
300.0
  3
ROMANS.shx
  4

  0
STYLE
  2
R08
 70
     0
 40
0.0
 41
0.8
 50
0.0
 71
     0
 42
800.0
  3
ROMANS.shx
  4

  0
STYLE
  2
ROMANT
 70
     0
 40
0.0
 41
0.7
 50
0.0
 71
     0
 42
3.0
  3
romant
  4

  0
STYLE
  2
CYRILLIC
 70
     0
 40
2.2999999999999989
 41
0.7
 50
0.0
 71
     0
 42
2.2999999999999989
  3
cyrillic
  4

  0
ENDTAB
  0
TABLE
  2
VIEW
 70
     0
  0
ENDTAB
  0
TABLE
  2
UCS
 70
     0
  0
ENDTAB
  0
TABLE
  2
APPID
 70
     6
  0
APPID
  2
ACAD
 70
     0
  0
APPID
  2
PHOENIX7010
 70
     0
  0
APPID
  2
CONTENTBLOCKICON
 70
     0
  0
APPID
  2
CONTENTLONGBLOCKNAME
 70
     0
  0
APPID
  2
ACAD_DSTYLE_DIMTEXT_FILL
 70
     0
  0
APPID
  2
DCO15
 70
     0
  0
ENDTAB
  0
TABLE
  2
DIMSTYLE
 70
     9
  0
DIMSTYLE
  2
STANDARD
 70
     0
  3

  4

  5

  6
OPEN
  7
OPEN
 40
1.0
 41
80.0
 42
1.0
 43
0.0
 44
1.0
 45
0.0
 46
0.8
 47
0.0
 48
0.0
140
70.0
141
-3.0
142
0.0
143
0.0394
144
1.0
145
1.0
146
0.5
147
1.0
 71
     0
 72
     0
 73
     0
 74
     0
 75
     0
 76
     0
 77
     0
 78
     8
170
     0
171
     2
172
     1
173
     1
174
     0
175
     0
176
     7
177
     7
178
     2
  0
DIMSTYLE
  2
EMBABA
 70
     0
  3

  4

  5

  6
OPEN
  7
OPEN
 40
50.0
 41
2.0
 42
0.063
 43
5.0
 44
0.2
 45
0.0
 46
0.0
 47
0.0
 48
0.0
140
2.0
141
2.0
142
0.0
143
25.399999999999999
144
1.0
145
0.0
146
1.0
147
0.5
 71
     0
 72
     0
 73
     0
 74
     0
 75
     0
 76
     0
 77
     1
 78
    12
170
     0
171
     2
172
     1
173
     1
174
     0
175
     0
176
     0
177
     0
178
     7
  0
ENDTAB
  0
ENDSEC
  0
SECTION
  2
BLOCKS
  0
BLOCK
  8
0
  2
$MODEL_SPACE
 70
     0
 10
0.0
 20
0.0
 30
0.0
  3
$MODEL_SPACE
  1

  0
ENDBLK
  5
9
  8
0
  0
BLOCK
 67
     1
  8
0
  2
$PAPER_SPACE
 70
     0
 10
0.0
 20
0.0
 30
0.0
  3
$PAPER_SPACE
  1

  0
ENDBLK
  5
E
 67
     1
  8
0
  0
BLOCK
  8
0
  2
_OPEN
 70
     0
 10
0.0
 20
0.0
 30
0.0
  3
_OPEN
  1

  0
LINE
  5
28
  8
0
  6
BYBLOCK
 62
     0
 10
-1.0
 20
0.1666666666666666
 30
0.0
 11
0.0
 21
0.0
 31
0.0
  0
LINE
  5
29
  8
0
  6
BYBLOCK
 62
     0
 10
0.0
 20
0.0
 30
0.0
 11
-1.0
 21
-0.1666666666666666
 31
0.0
  0
LINE
  5
2A
  8
0
  6
BYBLOCK
 62
     0
 10
0.0
 20
0.0
 30
0.0
 11
-1.0
 21
0.0
 31
0.0
  0
ENDBLK
  5
2C
  8
0
  0
BLOCK
  8
0
  2
A$C5B1234F8
 70
     0
 10
0.0
 20
0.0
 30
0.0
  3
A$C5B1234F8
  1

  0
POLYLINE
  5
5A113
  8
SILNA
  6
CONTINUOUS
 66
     1
 10
0.0
 20
0.0
 30
0.0
  0
VERTEX
  5
64DCF
  8
SILNA
  6
CONTINUOUS
 10
899.99999542257865
 20
900.0
 30
0.0
  0
VERTEX
  5
64DD0
  8
SILNA
  6
CONTINUOUS
 10
527.20778928679283
 20
900.0
 30
0.0
  0
VERTEX
  5
64DD1
  8
SILNA
  6
CONTINUOUS
 10
-0.0000045774213504
 20
372.79220613581128
 30
0.0
  0
VERTEX
  5
64DD2
  8
SILNA
  6
CONTINUOUS
 10
-0.0000045774213504
 20
0.0
 30
0.0
  0
SEQEND
  5
64DD3
  8
SILNA
  6
CONTINUOUS
  0
LINE
  5
5A114
  8
SILNA
  6
CONTINUOUS
 10
-0.0000045774213504
 20
0.0
 30
0.0
 11
159.99999542257859
 21
0.0
 31
0.0
  0
ARC
  5
5A115
  8
SILNA
  6
CONTINUOUS
 10
899.99999542257865
 20
0.0
 30
0.0
 40
740.0
 50
90.0
 51
180.0
  0
LINE
  5
5A116
  8
SILNA
  6
CONTINUOUS
 10
899.99999542257865
 20
900.0
 30
0.0
 11
899.99999542257865
 21
740.0
 31
0.0
  0
ENDBLK
  5
5A11A
  8
0
  0
BLOCK
  8
0
  2
*D67
 70
     1
 10
0.0
 20
0.0
 30
0.0
  3
*D67
  1

  0
LINE
  5
64507
  8
S-OBRYS
  6
CONTINUOUS
 62
     0
 10
-5017.3253786861605
 20
403529.19858085329
 30
0.0
 11
-5017.3253786861605
 21
402949.36394259077
 31
0.0
  0
LINE
  5
64508
  8
S-OBRYS
  6
CONTINUOUS
 62
     0
 10
-3169.2385548878092
 20
403575.90586955211
 30
0.0
 11
-3169.2385548878092
 21
402949.36394259077
 31
0.0
  0
LINE
  5
64509
  8
S-OBRYS
  6
CONTINUOUS
 62
     0
 10
-4917.3253786861605
 20
402959.36394259072
 30
0.0
 11
-3269.2385548878092
 21
402959.36394259072
 31
0.0
  0
INSERT
  5
6450A
  8
S-OBRYS
  6
CONTINUOUS
 62
     0
  2
_OPEN
 10
-5017.3253786861605
 20
402959.36394259072
 30
0.0
 41
100.0
 42
100.0
 43
100.0
 50
180.0
  0
INSERT
  5
6450B
  8
S-OBRYS
  6
CONTINUOUS
 62
     0
  2
_OPEN
 10
-3169.2385548878092
 20
402959.36394259072
 30
0.0
 41
100.0
 42
100.0
 43
100.0
  0
INSERT
  5
6450C
  8
HLADINA1
  6
CONTINUOUS
  2
*U179
 10
0.0
 20
0.0
 30
0.0
  0
POINT
  5
6450D
  8
DEFPOINTS
  6
CONTINUOUS
 62
     0
 10
-5017.3253786861605
 20
403532.34858085332
 30
0.0
  0
POINT
  5
6450E
  8
DEFPOINTS
  6
CONTINUOUS
 62
     0
 10
-3169.2385548878092
 20
403579.05586955219
 30
0.0
  0
POINT
  5
6450F
  8
DEFPOINTS
  6
CONTINUOUS
 62
     0
 10
-3169.2385548878092
 20
402959.36394259072
 30
0.0
  0
ENDBLK
  5
63F11
  8
0
  0
BLOCK
  8
0
  2
*D68
 70
     1
 10
0.0
 20
0.0
 30
0.0
  3
*D68
  1

  0
LINE
  5
64510
  8
S-OBRYS
  6
CONTINUOUS
 62
     0
 10
-5295.7802764175276
 20
403754.79792792478
 30
0.0
 11
-4975.436487125291
 21
403067.81845479121
 31
0.0
  0
LINE
  5
64511
  8
S-OBRYS
  6
CONTINUOUS
 62
     0
 10
-2509.6233660336879
 20
404878.46990143869
 30
0.0
 11
-2256.5131259726481
 21
404335.67323993298
 31
0.0
  0
LINE
  5
64512
  8
S-OBRYS
  6
CONTINUOUS
 62
     0
 10
-4889.0318910374772
 20
403119.14335883298
 30
0.0
 11
-2351.3700872947229
 21
404302.47449163231
 31
0.0
  0
INSERT
  5
64513
  8
S-OBRYS
  6
CONTINUOUS
 62
     0
  2
_OPEN
 10
-4979.6626697424208
 20
403076.88153266168
 30
0.0
 41
100.0
 42
100.0
 43
100.0
 50
204.99999999826829
  0
INSERT
  5
64514
  8
S-OBRYS
  6
CONTINUOUS
 62
     0
  2
_OPEN
 10
-2260.7393085897779
 20
404344.73631780362
 30
0.0
 41
100.0
 42
100.0
 43
100.0
 50
24.999999998268251
  0
INSERT
  5
64515
  8
HLADINA1
  6
CONTINUOUS
  2
*U180
 10
0.0
 20
0.0
 30
0.0
  0
POINT
  5
64516
  8
DEFPOINTS
  6
CONTINUOUS
 62
     0
 10
-5297.1115239419451
 20
403757.65279745409
 30
0.0
  0
POINT
  5
64517
  8
DEFPOINTS
  6
CONTINUOUS
 62
     0
 10
-2510.954613558104
 20
404881.32477096788
 30
0.0
  0
POINT
  5
64518
  8
DEFPOINTS
  6
CONTINUOUS
 62
     0
 10
-2260.7393085897779
 20
404344.73631780362
 30
0.0
  0
ENDBLK
  5
63F1D
  8
0
  0
BLOCK
  8
0
  2
*D69
 70
     1
 10
0.0
 20
0.0
 30
0.0
  3
*D69
  1

  0
LINE
  5
64519
  8
S-OBRYS
  6
CONTINUOUS
 62
     0
 10
-4979.7550735442492
 20
403715.9541207588
 30
0.0
 11
-4834.6915916135194
 21
403404.86447982059
 31
0.0
  0
LINE
  5
6451A
  8
S-OBRYS
  6
CONTINUOUS
 62
     0
 10
-2709.0575595050468
 20
404761.93154539907
 30
0.0
 11
-2568.9221239896442
 21
404461.41013410402
 31
0.0
  0
LINE
  5
6451B
  8
S-OBRYS
  6
CONTINUOUS
 62
     0
 10
-4748.2869955257047
 20
403456.18938386242
 30
0.0
 11
-2663.7790853117181
 21
404428.21138580318
 31
0.0
  0
INSERT
  5
6451C
  8
S-OBRYS
  6
CONTINUOUS
 62
     0
  2
_OPEN
 10
-4838.9177742306492
 20
403413.92755769112
 30
0.0
 41
100.0
 42
100.0
 43
100.0
 50
204.99999999826829
  0
INSERT
  5
6451D
  8
S-OBRYS
  6
CONTINUOUS
 62
     0
  2
_OPEN
 10
-2573.148306606774
 20
404470.4732119746
 30
0.0
 41
100.0
 42
100.0
 43
100.0
 50
24.999999998268251
  0
INSERT
  5
6451E
  8
HLADINA1
  6
CONTINUOUS
  2
*U181
 10
0.0
 20
0.0
 30
0.0
  0
POINT
  5
6451F
  8
DEFPOINTS
  6
CONTINUOUS
 62
     0
 10
-4981.0863210686657
 20
403718.80899028812
 30
0.0
  0
POINT
  5
64520
  8
DEFPOINTS
  6
CONTINUOUS
 62
     0
 10
-2710.3888070294638
 20
404764.78641492839
 30
0.0
  0
POINT
  5
64521
  8
DEFPOINTS
  6
CONTINUOUS
 62
     0
 10
-2573.148306606774
 20
404470.4732119746
 30
0.0
  0
ENDBLK
  5
63F29
  8
0
  0
BLOCK
  8
0
  2
*D70
 70
     1
 10
0.0
 20
0.0
 30
0.0
  3
*D70
  1

  0
LINE
  5
64522
  8
S-OBRYS
  6
CONTINUOUS
 62
     0
 10
-5069.348002979531
 20
403579.05586955219
 30
0.0
 11
-5440.9107962075141
 21
403579.05586955219
 31
0.0
  0
LINE
  5
64523
  8
S-OBRYS
  6
CONTINUOUS
 62
     0
 10
-5132.3278055807514
 20
404403.05586955219
 30
0.0
 11
-5440.9107962075141
 21
404403.05586955219
 31
0.0
  0
LINE
  5
64524
  8
S-OBRYS
  6
CONTINUOUS
 62
     0
 10
-5430.9107962075141
 20
403679.05586955219
 30
0.0
 11
-5430.9107962075141
 21
404303.05586955219
 31
0.0
  0
INSERT
  5
64525
  8
S-OBRYS
  6
CONTINUOUS
 62
     0
  2
_OPEN
 10
-5430.9107962075141
 20
403579.05586955219
 30
0.0
 41
100.0
 42
100.0
 43
100.0
 50
270.0
  0
INSERT
  5
64526
  8
S-OBRYS
  6
CONTINUOUS
 62
     0
  2
_OPEN
 10
-5430.9107962075141
 20
404403.05586955219
 30
0.0
 41
100.0
 42
100.0
 43
100.0
 50
90.0
  0
INSERT
  5
64527
  8
HLADINA1
  6
CONTINUOUS
  2
*U182
 10
0.0
 20
0.0
 30
0.0
  0
POINT
  5
64528
  8
DEFPOINTS
  6
CONTINUOUS
 62
     0
 10
-5066.1980029795304
 20
403579.05586955219
 30
0.0
  0
POINT
  5
64529
  8
DEFPOINTS
  6
CONTINUOUS
 62
     0
 10
-5129.1778055807517
 20
404403.05586955219
 30
0.0
  0
POINT
  5
6452A
  8
DEFPOINTS
  6
CONTINUOUS
 62
     0
 10
-5430.9107962075141
 20
404403.05586955219
 30
0.0
  0
ENDBLK
  5
63F35
  8
0
  0
BLOCK
  8
0
  2
*D71
 70
     1
 10
0.0
 20
0.0
 30
0.0
  3
*D71
  1

  0
LINE
  5
6452B
  8
S-OBRYS
  6
CONTINUOUS
 62
     0
 10
-4992.3253786861596
 20
404406.20586955221
 30
0.0
 11
-4992.3253786861596
 21
404637.41964862461
 31
0.0
  0
LINE
  5
6452C
  8
S-OBRYS
  6
CONTINUOUS
 62
     0
 10
-5112.3253786861596
 20
404406.20586955221
 30
0.0
 11
-5112.3253786861596
 21
404637.41964862461
 31
0.0
  0
LINE
  5
6452D
  8
S-OBRYS
  6
CONTINUOUS
 62
     0
 10
-4892.3253786861605
 20
404627.41964862472
 30
0.0
 11
-4792.3253786861596
 21
404627.41964862472
 31
0.0
  0
LINE
  5
6452E
  8
S-OBRYS
  6
CONTINUOUS
 62
     0
 10
-5212.3253786861596
 20
404627.41964862472
 30
0.0
 11
-5312.3253786861605
 21
404627.41964862472
 31
0.0
  0
LINE
  5
6452F
  8
S-OBRYS
  6
CONTINUOUS
 62
     0
 10
-4992.3253786861596
 20
404627.41964862472
 30
0.0
 11
-5112.3253786861596
 21
404627.41964862472
 31
0.0
  0
INSERT
  5
64530
  8
S-OBRYS
  6
CONTINUOUS
 62
     0
  2
_OPEN
 10
-4992.3253786861596
 20
404627.41964862472
 30
0.0
 41
100.0
 42
100.0
 43
100.0
 50
180.0
  0
INSERT
  5
64531
  8
S-OBRYS
  6
CONTINUOUS
 62
     0
  2
_OPEN
 10
-5112.3253786861596
 20
404627.41964862472
 30
0.0
 41
100.0
 42
100.0
 43
100.0
  0
INSERT
  5
64532
  8
HLADINA1
  6
CONTINUOUS
  2
*U183
 10
0.0
 20
0.0
 30
0.0
  0
POINT
  5
64533
  8
DEFPOINTS
  6
CONTINUOUS
 62
     0
 10
-4992.3253786861596
 20
404403.05586955219
 30
0.0
  0
POINT
  5
64534
  8
DEFPOINTS
  6
CONTINUOUS
 62
     0
 10
-5112.3253786861596
 20
404403.05586955219
 30
0.0
  0
POINT
  5
64535
  8
DEFPOINTS
  6
CONTINUOUS
 62
     0
 10
-5112.3253786861596
 20
404627.41964862472
 30
0.0
  0
ENDBLK
  5
63F43
  8
0
  0
BLOCK
  8
0
  2
*D72
 70
     1
 10
0.0
 20
0.0
 30
0.0
  3
*D72
  1

  0
LINE
  5
645A6
  8
S-OBRYS
  6
CONTINUOUS
 62
     0
 10
-5301.9008439874451
 20
401221.17436195939
 30
0.0
 11
-5301.9008439874451
 21
401359.16343325138
 31
0.0
  0
LINE
  5
645A7
  8
S-OBRYS
  6
CONTINUOUS
 62
     0
 10
-2491.9008439874451
 20
400968.30268537952
 30
0.0
 11
-2491.9008439874451
 21
401359.16343325138
 31
0.0
  0
LINE
  5
645A8
  8
S-OBRYS
  6
CONTINUOUS
 62
     0
 10
-5201.9008439874451
 20
401349.16343325138
 30
0.0
 11
-2591.900843987446
 21
401349.16343325138
 31
0.0
  0
INSERT
  5
645A9
  8
S-OBRYS
  6
CONTINUOUS
 62
     0
  2
_OPEN
 10
-5301.9008439874451
 20
401349.16343325138
 30
0.0
 41
100.0
 42
100.0
 43
100.0
 50
180.0
  0
INSERT
  5
645AA
  8
S-OBRYS
  6
CONTINUOUS
 62
     0
  2
_OPEN
 10
-2491.9008439874451
 20
401349.16343325138
 30
0.0
 41
100.0
 42
100.0
 43
100.0
  0
INSERT
  5
645AB
  8
HLADINA1
  6
CONTINUOUS
  2
*U186
 10
0.0
 20
0.0
 30
0.0
  0
POINT
  5
645AC
  8
DEFPOINTS
  6
CONTINUOUS
 62
     0
 10
-5301.9008439874451
 20
401218.02436195943
 30
0.0
  0
POINT
  5
645AD
  8
DEFPOINTS
  6
CONTINUOUS
 62
     0
 10
-2491.9008439874451
 20
400965.15268537938
 30
0.0
  0
POINT
  5
645AE
  8
DEFPOINTS
  6
CONTINUOUS
 62
     0
 10
-2491.9008439874451
 20
401349.16343325138
 30
0.0
  0
ENDBLK
  5
63F4F
  8
0
  0
BLOCK
  8
0
  2
*D73
 70
     1
 10
0.0
 20
0.0
 30
0.0
  3
*D73
  1

  0
LINE
  5
645AF
  8
S-OBRYS
  6
CONTINUOUS
 62
     0
 10
-5001.900843987446
 20
401149.63336991117
 30
0.0
 11
-5001.900843987446
 21
401167.48334890878
 31
0.0
  0
LINE
  5
645B0
  8
S-OBRYS
  6
CONTINUOUS
 62
     0
 10
-3151.9008439874451
 20
400956.94119813159
 30
0.0
 11
-3151.9008439874451
 21
401167.48334890878
 31
0.0
  0
LINE
  5
645B1
  8
S-OBRYS
  6
CONTINUOUS
 62
     0
 10
-4901.9008439874451
 20
401157.48334890878
 30
0.0
 11
-3251.900843987446
 21
401157.48334890878
 31
0.0
  0
INSERT
  5
645B2
  8
S-OBRYS
  6
CONTINUOUS
 62
     0
  2
_OPEN
 10
-5001.900843987446
 20
401157.48334890878
 30
0.0
 41
100.0
 42
100.0
 43
100.0
 50
180.0
  0
INSERT
  5
645B3
  8
S-OBRYS
  6
CONTINUOUS
 62
     0
  2
_OPEN
 10
-3151.9008439874451
 20
401157.48334890878
 30
0.0
 41
100.0
 42
100.0
 43
100.0
  0
INSERT
  5
645B4
  8
HLADINA1
  6
CONTINUOUS
  2
*U187
 10
0.0
 20
0.0
 30
0.0
  0
POINT
  5
645B5
  8
DEFPOINTS
  6
CONTINUOUS
 62
     0
 10
-5001.900843987446
 20
401146.48336991132
 30
0.0
  0
POINT
  5
645B6
  8
DEFPOINTS
  6
CONTINUOUS
 62
     0
 10
-3151.9008439874451
 20
400953.79119813169
 30
0.0
  0
POINT
  5
645B7
  8
DEFPOINTS
  6
CONTINUOUS
 62
     0
 10
-3151.9008439874451
 20
401157.48334890878
 30
0.0
  0
ENDBLK
  5
63F5B
  8
0
  0
BLOCK
  8
0
  2
*D74
 70
     1
 10
0.0
 20
0.0
 30
0.0
  3
*D74
  1

  0
LINE
  5
645B8
  8
S-OBRYS
  6
CONTINUOUS
 62
     0
 10
-5006.3066849428897
 20
400968.30268537952
 30
0.0
 11
-5006.3066849428897
 21
401165.82826828992
 31
0.0
  0
LINE
  5
645B9
  8
S-OBRYS
  6
CONTINUOUS
 62
     0
 10
-5301.9008439874451
 20
400968.30268537952
 30
0.0
 11
-5301.9008439874451
 21
401165.82826828992
 31
0.0
  0
LINE
  5
645BA
  8
S-OBRYS
  6
CONTINUOUS
 62
     0
 10
-5106.3066849428888
 20
401155.82826828992
 30
0.0
 11
-5201.9008439874451
 21
401155.82826828992
 31
0.0
  0
INSERT
  5
645BB
  8
S-OBRYS
  6
CONTINUOUS
 62
     0
  2
_OPEN
 10
-5006.3066849428897
 20
401155.82826828992
 30
0.0
 41
100.0
 42
100.0
 43
100.0
  0
INSERT
  5
645BC
  8
S-OBRYS
  6
CONTINUOUS
 62
     0
  2
_OPEN
 10
-5301.9008439874451
 20
401155.82826828992
 30
0.0
 41
100.0
 42
100.0
 43
100.0
 50
180.0
  0
INSERT
  5
645BD
  8
HLADINA1
  6
CONTINUOUS
  2
*U188
 10
0.0
 20
0.0
 30
0.0
  0
POINT
  5
645BE
  8
DEFPOINTS
  6
CONTINUOUS
 62
     0
 10
-5006.3066849428897
 20
400965.15268537938
 30
0.0
  0
POINT
  5
645BF
  8
DEFPOINTS
  6
CONTINUOUS
 62
     0
 10
-5301.9008439874451
 20
400965.15268537938
 30
0.0
  0
POINT
  5
645C0
  8
DEFPOINTS
  6
CONTINUOUS
 62
     0
 10
-5301.9008439874451
 20
401155.82826828992
 30
0.0
  0
ENDBLK
  5
63F67
  8
0
  0
BLOCK
  8
0
  2
*D75
 70
     1
 10
0.0
 20
0.0
 30
0.0
  3
*D75
  1

  0
LINE
  5
645C1
  8
S-OBRYS
  6
CONTINUOUS
 62
     0
 10
-5305.0508439874438
 20
400445.15268537938
 30
0.0
 11
-5536.4840459138804
 21
400445.15268537938
 31
0.0
  0
LINE
  5
645C2
  8
S-OBRYS
  6
CONTINUOUS
 62
     0
 10
-5305.0508439874438
 20
400965.15268537938
 30
0.0
 11
-5536.4840459138804
 21
400965.15268537938
 31
0.0
  0
LINE
  5
645C3
  8
S-OBRYS
  6
CONTINUOUS
 62
     0
 10
-5526.4840459138786
 20
400545.15268537949
 30
0.0
 11
-5526.4840459138786
 21
400865.15268537938
 31
0.0
  0
INSERT
  5
645C4
  8
S-OBRYS
  6
CONTINUOUS
 62
     0
  2
_OPEN
 10
-5526.4840459138786
 20
400445.15268537938
 30
0.0
 41
100.0
 42
100.0
 43
100.0
 50
270.0
  0
INSERT
  5
645C5
  8
S-OBRYS
  6
CONTINUOUS
 62
     0
  2
_OPEN
 10
-5526.4840459138786
 20
400965.15268537938
 30
0.0
 41
100.0
 42
100.0
 43
100.0
 50
90.0
  0
INSERT
  5
645C6
  8
HLADINA1
  6
CONTINUOUS
  2
*U189
 10
0.0
 20
0.0
 30
0.0
  0
POINT
  5
645C7
  8
DEFPOINTS
  6
CONTINUOUS
 62
     0
 10
-5301.9008439874451
 20
400445.15268537938
 30
0.0
  0
POINT
  5
645C8
  8
DEFPOINTS
  6
CONTINUOUS
 62
     0
 10
-5301.9008439874451
 20
400965.15268537938
 30
0.0
  0
POINT
  5
645C9
  8
DEFPOINTS
  6
CONTINUOUS
 62
     0
 10
-5526.4840459138786
 20
400965.15268537938
 30
0.0
  0
ENDBLK
  5
63F73
  8
0
  0
BLOCK
  8
0
  2
*D76
 70
     1
 10
0.0
 20
0.0
 30
0.0
  3
*D76
  1

  0
LINE
  5
645CA
  8
S-OBRYS
  6
CONTINUOUS
 62
     0
 10
-3194.3086428798988
 20
400480.15268537938
 30
0.0
 11
-3407.394236203219
 21
400480.15268537938
 31
0.0
  0
LINE
  5
645CB
  8
S-OBRYS
  6
CONTINUOUS
 62
     0
 10
-3194.3086428798988
 20
400930.15268537949
 30
0.0
 11
-3407.394236203219
 21
400930.15268537949
 31
0.0
  0
LINE
  5
645CC
  8
S-OBRYS
  6
CONTINUOUS
 62
     0
 10
-3397.394236203219
 20
400830.15268537938
 30
0.0
 11
-3397.394236203219
 21
400580.15268537938
 31
0.0
  0
LINE
  5
645CD
  8
S-OBRYS
  6
CONTINUOUS
 62
     0
 10
-3397.394236203219
 20
400480.15268537938
 30
0.0
 11
-3397.394236203219
 21
400085.72940284503
 31
0.0
  0
INSERT
  5
645CE
  8
S-OBRYS
  6
CONTINUOUS
 62
     0
  2
_OPEN
 10
-3397.394236203219
 20
400930.15268537949
 30
0.0
 41
100.0
 42
100.0
 43
100.0
 50
90.0
  0
INSERT
  5
645CF
  8
S-OBRYS
  6
CONTINUOUS
 62
     0
  2
_OPEN
 10
-3397.394236203219
 20
400480.15268537938
 30
0.0
 41
100.0
 42
100.0
 43
100.0
 50
270.0
  0
INSERT
  5
645D0
  8
HLADINA1
  6
CONTINUOUS
  2
*U190
 10
0.0
 20
0.0
 30
0.0
  0
POINT
  5
645D1
  8
DEFPOINTS
  6
CONTINUOUS
 62
     0
 10
-3191.1586428798978
 20
400480.15268537938
 30
0.0
  0
POINT
  5
645D2
  8
DEFPOINTS
  6
CONTINUOUS
 62
     0
 10
-3191.1586428798978
 20
400930.15268537949
 30
0.0
  0
POINT
  5
645D3
  8
DEFPOINTS
  6
CONTINUOUS
 62
     0
 10
-3397.394236203219
 20
400930.15268537949
 30
0.0
  0
ENDBLK
  5
63F80
  8
0
  0
BLOCK
  8
0
  2
*D77
 70
     1
 10
0.0
 20
0.0
 30
0.0
  3
*D77
  1

  0
ARC
  5
6518C
  8
S-OBRYS
  6
CONTINUOUS
 62
     0
 10
-5925.1990989927881
 20
403579.05586955207
 30
0.0
 40
1219.860513624574
 50
4.6982285446382761
 51
20.30177145536268
  0
INSERT
  5
6518D
  8
S-OBRYS
  6
CONTINUOUS
 62
     0
  2
_OPEN
 10
-4705.3385853682121
 20
403579.05586955219
 30
0.0
 41
100.0
 42
100.0
 43
100.0
 50
272.34911427231953
  0
INSERT
  5
6518E
  8
S-OBRYS
  6
CONTINUOUS
 62
     0
  2
_OPEN
 10
-4819.6300163963169
 20
404094.5911993864
 30
0.0
 41
100.0
 42
100.0
 43
100.0
 50
112.6508857276814
  0
TEXT
  8
S-OBRYS
  40
100
  5
65298
  62
7
  72
0
  71
0
 10
-4861.03
 20
403682.
 30
0.000000
  1
25%%d
  0
POINT
  5
65190
  8
DEFPOINTS
  6
CONTINUOUS
 62
     0
 10
-4718.2183135519008
 20
403755.85252188722
 30
0.0
  0
POINT
  5
65191
  8
DEFPOINTS
  6
CONTINUOUS
 62
     0
 10
-5336.3207098762941
 20
403853.65437211923
 30
0.0
  0
POINT
  5
65192
  8
DEFPOINTS
  6
CONTINUOUS
 62
     0
 10
-4903.6291170053437
 20
403579.05586955207
 30
0.0
  0
POINT
  5
65193
  8
DEFPOINTS
  6
CONTINUOUS
 62
     0
 10
-4607.1981778016188
 20
403579.05586955219
 30
0.0
  0
POINT
  5
65194
  8
DEFPOINTS
  6
CONTINUOUS
 62
     0
 10
-2782.7739906014472
 20
405044.3927627735
 30
0.0
  0
ENDBLK
  5
63F8C
  8
0
  0
BLOCK
  8
0
  2
*D78
 70
     1
 10
0.0
 20
0.0
 30
0.0
  3
*D78
  1

  0
LINE
  5
6456D
  8
S-OBRYS
  6
CONTINUOUS
 62
     0
 10
-3460.369266160299
 20
405739.11828612391
 30
0.0
 11
-2719.3916344471222
 21
406084.64183031331
 31
0.0
  0
LINE
  5
6456E
  8
S-OBRYS
  6
CONTINUOUS
 62
     0
 10
-2953.2273520715239
 20
404651.54894168
 30
0.0
 11
-2212.249720358348
 21
404997.0724858694
 31
0.0
  0
LINE
  5
6456F
  8
S-OBRYS
  6
CONTINUOUS
 62
     0
 10
-2686.192886143428
 20
405989.78486899228
 30
0.0
 11
-2263.5746244027978
 21
405083.47708195553
 31
0.0
  0
INSERT
  5
64570
  8
S-OBRYS
  6
CONTINUOUS
 62
     0
  2
_OPEN
 10
-2728.4547123174998
 20
406080.41564769589
 30
0.0
 41
100.0
 42
100.0
 43
100.0
 50
114.9999999999971
  0
INSERT
  5
64571
  8
S-OBRYS
  6
CONTINUOUS
 62
     0
  2
_OPEN
 10
-2221.312798228726
 20
404992.84630325192
 30
0.0
 41
100.0
 42
100.0
 43
100.0
 50
294.9999999999971
  0
INSERT
  5
64572
  8
HLADINA1
  6
CONTINUOUS
  2
*U184
 10
0.0
 20
0.0
 30
0.0
  0
POINT
  5
64573
  8
DEFPOINTS
  6
CONTINUOUS
 62
     0
 10
-3463.2241356894669
 20
405737.78703859949
 30
0.0
  0
POINT
  5
64574
  8
DEFPOINTS
  6
CONTINUOUS
 62
     0
 10
-2956.0822216006932
 20
404650.21769415552
 30
0.0
  0
POINT
  5
64575
  8
DEFPOINTS
  6
CONTINUOUS
 62
     0
 10
-2221.312798228726
 20
404992.84630325192
 30
0.0
  0
ENDBLK
  5
63F98
  8
0
  0
BLOCK
  8
0
  2
*D79
 70
     1
 10
0.0
 20
0.0
 30
0.0
  3
*D79
  1

  0
LINE
  5
645D4
  8
S-OBRYS
  6
CONTINUOUS
 62
     0
 10
-2818.3747857684211
 20
401215.67532945552
 30
0.0
 11
-3068.3384584683231
 21
401001.68818514241
 31
0.0
  0
LINE
  5
645D5
  8
S-OBRYS
  6
CONTINUOUS
 62
     0
 10
-3235.463229506568
 20
400858.61718561611
 30
0.0
 11
-3311.4290345238992
 21
400793.58491310402
 31
0.0
  0
INSERT
  5
645D6
  8
HLADINA1
  6
CONTINUOUS
  2
*U191
 10
0.0
 20
0.0
 30
0.0
  0
LINE
  5
645D7
  8
S-OBRYS
  6
CONTINUOUS
 62
     0
 10
-3159.4974244892369
 20
400923.64945812791
 30
0.0
 11
-3144.3042634856538
 21
400936.65591263049
 31
0.0
  0
INSERT
  5
645D8
  8
S-OBRYS
  6
CONTINUOUS
 62
     0
  2
_OPEN
 10
-3159.4974244892369
 20
400923.64945812791
 30
0.0
 41
100.0
 42
100.0
 43
100.0
 50
40.565938384720532
  0
INSERT
  5
645D9
  8
S-OBRYS
  6
CONTINUOUS
 62
     0
  2
_OPEN
 10
-3144.3042634856538
 20
400936.65591263049
 30
0.0
 41
100.0
 42
100.0
 43
100.0
 50
220.56593838472051
  0
POINT
  5
645DA
  8
DEFPOINTS
  6
CONTINUOUS
 62
     0
 10
-3144.3042634856538
 20
400936.65591263049
 30
0.0
  0
POINT
  5
645DB
  8
DEFPOINTS
  6
CONTINUOUS
 62
     0
 10
-3159.4974244892369
 20
400923.64945812791
 30
0.0
  0
ENDBLK
  5
63FA3
  8
0
  0
BLOCK
  8
0
  2
*D80
 70
     1
 10
0.0
 20
0.0
 30
0.0
  3
*D80
  1

  0
LINE
  5
645DC
  8
S-OBRYS
  6
CONTINUOUS
 62
     0
 10
-5305.0508439874438
 20
400705.15268537938
 30
0.0
 11
-5362.6197734498419
 21
400705.15268537938
 31
0.0
  0
LINE
  5
645DD
  8
S-OBRYS
  6
CONTINUOUS
 62
     0
 10
-5105.0508439874448
 20
400605.15268537938
 30
0.0
 11
-5362.6197734498419
 21
400605.15268537938
 31
0.0
  0
LINE
  5
645DE
  8
S-OBRYS
  6
CONTINUOUS
 62
     0
 10
-5352.619773449841
 20
400805.15268537938
 30
0.0
 11
-5352.619773449841
 21
400905.15268537938
 31
0.0
  0
LINE
  5
645DF
  8
S-OBRYS
  6
CONTINUOUS
 62
     0
 10
-5352.619773449841
 20
400505.15268537938
 30
0.0
 11
-5352.619773449841
 21
400160.8669710937
 31
0.0
  0
LINE
  5
645E0
  8
S-OBRYS
  6
CONTINUOUS
 62
     0
 10
-5352.619773449841
 20
400705.15268537938
 30
0.0
 11
-5352.619773449841
 21
400605.15268537938
 31
0.0
  0
INSERT
  5
645E1
  8
S-OBRYS
  6
CONTINUOUS
 62
     0
  2
_OPEN
 10
-5352.619773449841
 20
400705.15268537938
 30
0.0
 41
100.0
 42
100.0
 43
100.0
 50
270.0
  0
INSERT
  5
645E2
  8
S-OBRYS
  6
CONTINUOUS
 62
     0
  2
_OPEN
 10
-5352.619773449841
 20
400605.15268537938
 30
0.0
 41
100.0
 42
100.0
 43
100.0
 50
90.0
  0
INSERT
  5
645E3
  8
HLADINA1
  6
CONTINUOUS
  2
*U192
 10
0.0
 20
0.0
 30
0.0
  0
POINT
  5
645E4
  8
DEFPOINTS
  6
CONTINUOUS
 62
     0
 10
-5301.9008439874451
 20
400705.15268537938
 30
0.0
  0
POINT
  5
645E5
  8
DEFPOINTS
  6
CONTINUOUS
 62
     0
 10
-5101.9008439874451
 20
400605.15268537938
 30
0.0
  0
POINT
  5
645E6
  8
DEFPOINTS
  6
CONTINUOUS
 62
     0
 10
-5352.619773449841
 20
400605.15268537938
 30
0.0
  0
ENDBLK
  5
63FB1
  8
0
  0
BLOCK
  8
0
  2
*D81
 70
     1
 10
0.0
 20
0.0
 30
0.0
  3
*D81
  1

  0
LINE
  5
645E7
  8
S-OBRYS
  6
CONTINUOUS
 62
     0
 10
-4375.9008439874442
 20
400591.50268537941
 30
0.0
 11
-4375.9008439874442
 21
400159.90190379682
 31
0.0
  0
LINE
  5
645E8
  8
S-OBRYS
  6
CONTINUOUS
 62
     0
 10
-4783.9008439874442
 20
400591.50268537941
 30
0.0
 11
-4783.9008439874442
 21
400159.90190379682
 31
0.0
  0
LINE
  5
645E9
  8
S-OBRYS
  6
CONTINUOUS
 62
     0
 10
-4475.9008439874433
 20
400169.90190379682
 30
0.0
 11
-4683.9008439874433
 21
400169.90190379682
 31
0.0
  0
INSERT
  5
645EA
  8
S-OBRYS
  6
CONTINUOUS
 62
     0
  2
_OPEN
 10
-4375.9008439874442
 20
400169.90190379682
 30
0.0
 41
100.0
 42
100.0
 43
100.0
  0
INSERT
  5
645EB
  8
S-OBRYS
  6
CONTINUOUS
 62
     0
  2
_OPEN
 10
-4783.9008439874442
 20
400169.90190379682
 30
0.0
 41
100.0
 42
100.0
 43
100.0
 50
180.0
  0
INSERT
  5
645EC
  8
HLADINA1
  6
CONTINUOUS
  2
*U193
 10
0.0
 20
0.0
 30
0.0
  0
POINT
  5
645ED
  8
DEFPOINTS
  6
CONTINUOUS
 62
     0
 10
-4375.9008439874442
 20
400594.65268537949
 30
0.0
  0
POINT
  5
645EE
  8
DEFPOINTS
  6
CONTINUOUS
 62
     0
 10
-4783.9008439874442
 20
400594.65268537949
 30
0.0
  0
POINT
  5
645EF
  8
DEFPOINTS
  6
CONTINUOUS
 62
     0
 10
-4783.9008439874442
 20
400169.90190379682
 30
0.0
  0
ENDBLK
  5
63FBD
  8
0
  0
BLOCK
  8
0
  2
*D82
 70
     1
 10
0.0
 20
0.0
 30
0.0
  3
*D82
  1

  0
LINE
  5
645F0
  8
S-OBRYS
  6
CONTINUOUS
 62
     0
 10
-4783.9008439874442
 20
400582.00268537941
 30
0.0
 11
-4783.9008439874442
 21
400159.90190379682
 31
0.0
  0
LINE
  5
645F1
  8
S-OBRYS
  6
CONTINUOUS
 62
     0
 10
-5001.9008439874442
 20
400582.00268537941
 30
0.0
 11
-5001.9008439874442
 21
400159.90190379682
 31
0.0
  0
LINE
  5
645F2
  8
S-OBRYS
  6
CONTINUOUS
 62
     0
 10
-4683.9008439874433
 20
400169.90190379682
 30
0.0
 11
-4583.9008439874442
 21
400169.90190379682
 31
0.0
  0
LINE
  5
645F3
  8
S-OBRYS
  6
CONTINUOUS
 62
     0
 10
-5101.9008439874442
 20
400169.90190379682
 30
0.0
 11
-5201.9008439874442
 21
400169.90190379682
 31
0.0
  0
LINE
  5
645F4
  8
S-OBRYS
  6
CONTINUOUS
 62
     0
 10
-4783.9008439874442
 20
400169.90190379682
 30
0.0
 11
-5001.9008439874442
 21
400169.90190379682
 31
0.0
  0
INSERT
  5
645F5
  8
S-OBRYS
  6
CONTINUOUS
 62
     0
  2
_OPEN
 10
-4783.9008439874442
 20
400169.90190379682
 30
0.0
 41
100.0
 42
100.0
 43
100.0
 50
180.0
  0
INSERT
  5
645F6
  8
S-OBRYS
  6
CONTINUOUS
 62
     0
  2
_OPEN
 10
-5001.9008439874442
 20
400169.90190379682
 30
0.0
 41
100.0
 42
100.0
 43
100.0
  0
INSERT
  5
645F7
  8
HLADINA1
  6
CONTINUOUS
  2
*U194
 10
0.0
 20
0.0
 30
0.0
  0
POINT
  5
645F8
  8
DEFPOINTS
  6
CONTINUOUS
 62
     0
 10
-4783.9008439874442
 20
400585.15268537949
 30
0.0
  0
POINT
  5
645F9
  8
DEFPOINTS
  6
CONTINUOUS
 62
     0
 10
-5001.9008439874442
 20
400585.15268537949
 30
0.0
  0
POINT
  5
645FA
  8
DEFPOINTS
  6
CONTINUOUS
 62
     0
 10
-5001.9008439874442
 20
400169.90190379682
 30
0.0
  0
ENDBLK
  5
63FCB
  8
0
  0
BLOCK
  8
0
  2
*D83
 70
     1
 10
0.0
 20
0.0
 30
0.0
  3
*D83
  1

  0
LINE
  5
6459D
  8
S-OBRYS
  6
CONTINUOUS
 62
     0
 10
-5052.3253786861605
 20
404300.11109374312
 30
0.0
 11
-5052.3253786861605
 21
402726.35982992622
 31
0.0
  0
LINE
  5
6459E
  8
S-OBRYS
  6
CONTINUOUS
 62
     0
 10
-2894.2385548877828
 20
404675.90586955211
 30
0.0
 11
-2894.2385548877828
 21
402726.35982992622
 31
0.0
  0
LINE
  5
6459F
  8
S-OBRYS
  6
CONTINUOUS
 62
     0
 10
-4952.3253786861605
 20
402736.35982992611
 30
0.0
 11
-2994.2385548877828
 21
402736.35982992611
 31
0.0
  0
INSERT
  5
645A0
  8
S-OBRYS
  6
CONTINUOUS
 62
     0
  2
_OPEN
 10
-5052.3253786861605
 20
402736.35982992611
 30
0.0
 41
100.0
 42
100.0
 43
100.0
 50
180.0
  0
INSERT
  5
645A1
  8
S-OBRYS
  6
CONTINUOUS
 62
     0
  2
_OPEN
 10
-2894.2385548877828
 20
402736.35982992611
 30
0.0
 41
100.0
 42
100.0
 43
100.0
  0
INSERT
  5
645A2
  8
HLADINA1
  6
CONTINUOUS
  2
*U185
 10
0.0
 20
0.0
 30
0.0
  0
POINT
  5
645A3
  8
DEFPOINTS
  6
CONTINUOUS
 62
     0
 10
-5052.3253786861605
 20
404303.2610937432
 30
0.0
  0
POINT
  5
645A4
  8
DEFPOINTS
  6
CONTINUOUS
 62
     0
 10
-2894.2385548877828
 20
404679.05586955219
 30
0.0
  0
POINT
  5
645A5
  8
DEFPOINTS
  6
CONTINUOUS
 62
     0
 10
-2894.2385548877828
 20
402736.35982992611
 30
0.0
  0
ENDBLK
  5
63FD7
  8
0
  0
BLOCK
  8
0
  2
*D94
 70
     1
 10
0.0
 20
0.0
 30
0.0
  3
*D94
  1

  0
ARC
  5
6526B
  8
S-OBRYS
  6
CONTINUOUS
 62
     0
 10
-6017.8002369620954
 20
397114.07066657842
 30
0.0
 40
1219.8605136246761
 50
4.698228544636609
 51
20.301771455362569
  0
INSERT
  5
6526C
  8
S-OBRYS
  6
CONTINUOUS
 62
     0
  2
_OPEN
 10
-4797.9397233374184
 20
397114.07066657848
 30
0.0
 41
100.0
 42
100.0
 43
100.0
 50
272.3491142723181
  0
INSERT
  5
6526D
  8
S-OBRYS
  6
CONTINUOUS
 62
     0
  2
_OPEN
 10
-4912.2311543655242
 20
397629.60599641269
 30
0.0
 41
100.0
 42
100.0
 43
100.0
 50
112.6508857276811
  0
TEXT
  8
S-OBRYS
  40
100
  5
65299
  62
7
  72
0
  71
0
 10
-4953.63
 20
397217.
 30
0.000000
  1
25%%d
  0
POINT
  5
6526F
  8
DEFPOINTS
  6
CONTINUOUS
 62
     0
 10
-4810.8194515210917
 20
397290.86731891357
 30
0.0
  0
POINT
  5
65270
  8
DEFPOINTS
  6
CONTINUOUS
 62
     0
 10
-5428.9218478454713
 20
397388.6691691454
 30
0.0
  0
POINT
  5
65271
  8
DEFPOINTS
  6
CONTINUOUS
 62
     0
 10
-4996.2302549745073
 20
397114.07066657842
 30
0.0
  0
POINT
  5
65272
  8
DEFPOINTS
  6
CONTINUOUS
 62
     0
 10
-4699.7993157707824
 20
397114.07066657842
 30
0.0
  0
POINT
  5
65273
  8
DEFPOINTS
  6
CONTINUOUS
 62
     0
 10
-2875.375128570638
 20
398579.4075597999
 30
0.0
  0
ENDBLK
  5
646ED
  8
0
  0
BLOCK
  8
0
  2
*D95
 70
     1
 10
0.0
 20
0.0
 30
0.0
  3
*D95
  1

  0
LINE
  5
64768
  8
S-OBRYS
  6
CONTINUOUS
 62
     0
 10
-3552.9704041294758
 20
399274.13308315037
 30
0.0
 11
-2811.992772416299
 21
399619.65662733978
 31
0.0
  0
LINE
  5
64769
  8
S-OBRYS
  6
CONTINUOUS
 62
     0
 10
-3045.8284900407011
 20
398186.56373870641
 30
0.0
 11
-2304.8508583275261
 21
398532.08728289581
 31
0.0
  0
LINE
  5
6476A
  8
S-OBRYS
  6
CONTINUOUS
 62
     0
 10
-2778.7940241125762
 20
399524.79966601869
 30
0.0
 11
-2356.1757623719168
 21
398618.49187898199
 31
0.0
  0
INSERT
  5
6476B
  8
S-OBRYS
  6
CONTINUOUS
 62
     0
  2
_OPEN
 10
-2821.0558502866479
 20
399615.4304447223
 30
0.0
 41
100.0
 42
100.0
 43
100.0
 50
114.9999999999971
  0
INSERT
  5
6476C
  8
S-OBRYS
  6
CONTINUOUS
 62
     0
  2
_OPEN
 10
-2313.9139361978741
 20
398527.86110027827
 30
0.0
 41
100.0
 42
100.0
 43
100.0
 50
294.9999999999971
  0
INSERT
  5
6476D
  8
HLADINA1
  6
CONTINUOUS
  2
*U195
 10
0.0
 20
0.0
 30
0.0
  0
POINT
  5
6476E
  8
DEFPOINTS
  6
CONTINUOUS
 62
     0
 10
-3555.8252736586442
 20
399272.80183562601
 30
0.0
  0
POINT
  5
6476F
  8
DEFPOINTS
  6
CONTINUOUS
 62
     0
 10
-3048.6833595698699
 20
398185.23249118187
 30
0.0
  0
POINT
  5
64770
  8
DEFPOINTS
  6
CONTINUOUS
 62
     0
 10
-2313.9139361978741
 20
398527.86110027827
 30
0.0
  0
ENDBLK
  5
646F9
  8
0
  0
BLOCK
  8
0
  2
*D96
 70
     1
 10
0.0
 20
0.0
 30
0.0
  3
*D96
  1

  0
LINE
  5
64771
  8
S-OBRYS
  6
CONTINUOUS
 62
     0
 10
-5144.9265166553378
 20
397835.12589076947
 30
0.0
 11
-5144.9265166553378
 21
396261.37462695251
 31
0.0
  0
LINE
  5
64772
  8
S-OBRYS
  6
CONTINUOUS
 62
     0
 10
-2986.83969285696
 20
398210.9206665784
 30
0.0
 11
-2986.83969285696
 21
396261.37462695251
 31
0.0
  0
LINE
  5
64773
  8
S-OBRYS
  6
CONTINUOUS
 62
     0
 10
-5044.9265166553378
 20
396271.37462695251
 30
0.0
 11
-3086.8396928569609
 21
396271.37462695251
 31
0.0
  0
INSERT
  5
64774
  8
S-OBRYS
  6
CONTINUOUS
 62
     0
  2
_OPEN
 10
-5144.9265166553378
 20
396271.37462695251
 30
0.0
 41
100.0
 42
100.0
 43
100.0
 50
180.0
  0
INSERT
  5
64775
  8
S-OBRYS
  6
CONTINUOUS
 62
     0
  2
_OPEN
 10
-2986.83969285696
 20
396271.37462695251
 30
0.0
 41
100.0
 42
100.0
 43
100.0
  0
INSERT
  5
64776
  8
HLADINA1
  6
CONTINUOUS
  2
*U196
 10
0.0
 20
0.0
 30
0.0
  0
POINT
  5
64777
  8
DEFPOINTS
  6
CONTINUOUS
 62
     0
 10
-5144.9265166553378
 20
397838.2758907695
 30
0.0
  0
POINT
  5
64778
  8
DEFPOINTS
  6
CONTINUOUS
 62
     0
 10
-2986.83969285696
 20
398214.07066657842
 30
0.0
  0
POINT
  5
64779
  8
DEFPOINTS
  6
CONTINUOUS
 62
     0
 10
-2986.83969285696
 20
396271.37462695251
 30
0.0
  0
ENDBLK
  5
64705
  8
0
  0
BLOCK
  8
0
  2
*D97
 70
     1
 10
0.0
 20
0.0
 30
0.0
  3
*D97
  1

  0
LINE
  5
6477A
  8
S-OBRYS
  6
CONTINUOUS
 62
     0
 10
-5444.926515546882
 20
397441.4920408678
 30
0.0
 11
-5444.926515546882
 21
398080.04661478283
 31
0.0
  0
LINE
  5
6477B
  8
S-OBRYS
  6
CONTINUOUS
 62
     0
 10
-5644.926515546882
 20
397441.4920408678
 30
0.0
 11
-5644.926515546882
 21
398080.04661478283
 31
0.0
  0
LINE
  5
6477C
  8
S-OBRYS
  6
CONTINUOUS
 62
     0
 10
-5344.926515546882
 20
398070.04661478283
 30
0.0
 11
-5244.926515546882
 21
398070.04661478283
 31
0.0
  0
LINE
  5
6477D
  8
S-OBRYS
  6
CONTINUOUS
 62
     0
 10
-5744.926515546882
 20
398070.04661478283
 30
0.0
 11
-6340.6408012611682
 21
398070.04661478283
 31
0.0
  0
LINE
  5
6477E
  8
S-OBRYS
  6
CONTINUOUS
 62
     0
 10
-5444.926515546882
 20
398070.04661478283
 30
0.0
 11
-5644.926515546882
 21
398070.04661478283
 31
0.0
  0
INSERT
  5
6477F
  8
S-OBRYS
  6
CONTINUOUS
 62
     0
  2
_OPEN
 10
-5444.926515546882
 20
398070.04661478283
 30
0.0
 41
100.0
 42
100.0
 43
100.0
 50
180.0
  0
INSERT
  5
64780
  8
S-OBRYS
  6
CONTINUOUS
 62
     0
  2
_OPEN
 10
-5644.926515546882
 20
398070.04661478283
 30
0.0
 41
100.0
 42
100.0
 43
100.0
  0
INSERT
  5
64781
  8
HLADINA1
  6
CONTINUOUS
  2
*U197
 10
0.0
 20
0.0
 30
0.0
  0
POINT
  5
64782
  8
DEFPOINTS
  6
CONTINUOUS
 62
     0
 10
-5444.926515546882
 20
397438.34204086778
 30
0.0
  0
POINT
  5
64783
  8
DEFPOINTS
  6
CONTINUOUS
 62
     0
 10
-5644.926515546882
 20
397438.34204086778
 30
0.0
  0
POINT
  5
64784
  8
DEFPOINTS
  6
CONTINUOUS
 62
     0
 10
-5644.926515546882
 20
398070.04661478283
 30
0.0
  0
ENDBLK
  5
64713
  8
0
  0
BLOCK
  8
0
  2
*D98
 70
     1
 10
0.0
 20
0.0
 30
0.0
  3
*D98
  1

  0
LINE
  5
64785
  8
S-OBRYS
  6
CONTINUOUS
 62
     0
 10
-2603.5557515272121
 20
398416.33956799429
 30
0.0
 11
-2603.5557515272121
 21
398815.16276035731
 31
0.0
  0
LINE
  5
64786
  8
S-OBRYS
  6
CONTINUOUS
 62
     0
 10
-2203.5557515272121
 20
398416.33956799429
 30
0.0
 11
-2203.5557515272121
 21
398815.16276035731
 31
0.0
  0
LINE
  5
64787
  8
S-OBRYS
  6
CONTINUOUS
 62
     0
 10
-2503.5557515272121
 20
398805.16276035731
 30
0.0
 11
-2303.5557515272121
 21
398805.16276035731
 31
0.0
  0
LINE
  5
64788
  8
S-OBRYS
  6
CONTINUOUS
 62
     0
 10
-2203.5557515272121
 20
398805.16276035731
 30
0.0
 11
-1552.1271800986419
 21
398805.16276035731
 31
0.0
  0
INSERT
  5
64789
  8
S-OBRYS
  6
CONTINUOUS
 62
     0
  2
_OPEN
 10
-2603.5557515272121
 20
398805.16276035731
 30
0.0
 41
100.0
 42
100.0
 43
100.0
 50
180.0
  0
INSERT
  5
6478A
  8
S-OBRYS
  6
CONTINUOUS
 62
     0
  2
_OPEN
 10
-2203.5557515272121
 20
398805.16276035731
 30
0.0
 41
100.0
 42
100.0
 43
100.0
  0
INSERT
  5
6478B
  8
HLADINA1
  6
CONTINUOUS
  2
*U198
 10
0.0
 20
0.0
 30
0.0
  0
POINT
  5
6478C
  8
DEFPOINTS
  6
CONTINUOUS
 62
     0
 10
-2603.5557515272121
 20
398413.18956799421
 30
0.0
  0
POINT
  5
6478D
  8
DEFPOINTS
  6
CONTINUOUS
 62
     0
 10
-2203.5557515272121
 20
398413.18956799421
 30
0.0
  0
POINT
  5
6478E
  8
DEFPOINTS
  6
CONTINUOUS
 62
     0
 10
-2203.5557515272121
 20
398805.16276035731
 30
0.0
  0
ENDBLK
  5
64720
  8
0
  0
BLOCK
  8
0
  2
*D99
 70
     1
 10
0.0
 20
0.0
 30
0.0
  3
*D99
  1

  0
LINE
  5
6478F
  8
S-OBRYS
  6
CONTINUOUS
 62
     0
 10
-5109.9265166553378
 20
397064.21337787958
 30
0.0
 11
-5109.9265166553378
 21
396484.37873961712
 31
0.0
  0
LINE
  5
64790
  8
S-OBRYS
  6
CONTINUOUS
 62
     0
 10
-3261.8396928569859
 20
397110.92066657852
 30
0.0
 11
-3261.8396928569859
 21
396484.37873961712
 31
0.0
  0
LINE
  5
64791
  8
S-OBRYS
  6
CONTINUOUS
 62
     0
 10
-5009.9265166553378
 20
396494.37873961712
 30
0.0
 11
-3361.8396928569859
 21
396494.37873961712
 31
0.0
  0
INSERT
  5
64792
  8
S-OBRYS
  6
CONTINUOUS
 62
     0
  2
_OPEN
 10
-5109.9265166553378
 20
396494.37873961712
 30
0.0
 41
100.0
 42
100.0
 43
100.0
 50
180.0
  0
INSERT
  5
64793
  8
S-OBRYS
  6
CONTINUOUS
 62
     0
  2
_OPEN
 10
-3261.8396928569859
 20
396494.37873961712
 30
0.0
 41
100.0
 42
100.0
 43
100.0
  0
INSERT
  5
64794
  8
HLADINA1
  6
CONTINUOUS
  2
*U199
 10
0.0
 20
0.0
 30
0.0
  0
POINT
  5
64795
  8
DEFPOINTS
  6
CONTINUOUS
 62
     0
 10
-5109.9265166553378
 20
397067.36337787972
 30
0.0
  0
POINT
  5
64796
  8
DEFPOINTS
  6
CONTINUOUS
 62
     0
 10
-3261.8396928569859
 20
397114.07066657848
 30
0.0
  0
POINT
  5
64797
  8
DEFPOINTS
  6
CONTINUOUS
 62
     0
 10
-3261.8396928569859
 20
396494.37873961712
 30
0.0
  0
ENDBLK
  5
6472C
  8
0
  0
BLOCK
  8
0
  2
*D100
 70
     1
 10
0.0
 20
0.0
 30
0.0
  3
*D100
  1

  0
LINE
  5
64798
  8
S-OBRYS
  6
CONTINUOUS
 62
     0
 10
-5388.3814143867348
 20
397289.81272495107
 30
0.0
 11
-5068.0376250934496
 21
396602.83325181622
 31
0.0
  0
LINE
  5
64799
  8
S-OBRYS
  6
CONTINUOUS
 62
     0
 10
-2602.2245040028652
 20
398413.48469846498
 30
0.0
 11
-2349.1142639415052
 21
397870.6880369595
 31
0.0
  0
LINE
  5
6479A
  8
S-OBRYS
  6
CONTINUOUS
 62
     0
 10
-4981.633029005694
 20
396654.15815585811
 30
0.0
 11
-2443.97122526358
 21
397837.4892886586
 31
0.0
  0
INSERT
  5
6479B
  8
S-OBRYS
  6
CONTINUOUS
 62
     0
  2
_OPEN
 10
-5072.2638077106094
 20
396611.89632968669
 30
0.0
 41
100.0
 42
100.0
 43
100.0
 50
204.9999999982966
  0
INSERT
  5
6479C
  8
S-OBRYS
  6
CONTINUOUS
 62
     0
  2
_OPEN
 10
-2353.3404465586641
 20
397879.75111483003
 30
0.0
 41
100.0
 42
100.0
 43
100.0
 50
24.999999998296619
  0
INSERT
  5
6479D
  8
HLADINA1
  6
CONTINUOUS
  2
*U200
 10
0.0
 20
0.0
 30
0.0
  0
POINT
  5
6479E
  8
DEFPOINTS
  6
CONTINUOUS
 62
     0
 10
-5389.7126619111223
 20
397292.66759448039
 30
0.0
  0
POINT
  5
6479F
  8
DEFPOINTS
  6
CONTINUOUS
 62
     0
 10
-2603.5557515272808
 20
398416.33956799429
 30
0.0
  0
POINT
  5
647A0
  8
DEFPOINTS
  6
CONTINUOUS
 62
     0
 10
-2353.3404465586641
 20
397879.75111483003
 30
0.0
  0
ENDBLK
  5
64738
  8
0
  0
BLOCK
  8
0
  2
*D101
 70
     1
 10
0.0
 20
0.0
 30
0.0
  3
*D101
  1

  0
LINE
  5
647A1
  8
S-OBRYS
  6
CONTINUOUS
 62
     0
 10
-5072.3562115133973
 20
397250.9689177851
 30
0.0
 11
-4927.2927295819391
 21
396939.87927684572
 31
0.0
  0
LINE
  5
647A2
  8
S-OBRYS
  6
CONTINUOUS
 62
     0
 10
-2801.6586974742531
 20
398296.94634242548
 30
0.0
 11
-2661.5232619586168
 21
397996.42493113031
 31
0.0
  0
LINE
  5
647A3
  8
S-OBRYS
  6
CONTINUOUS
 62
     0
 10
-4840.8881334941543
 20
396991.20418088761
 30
0.0
 11
-2756.3802232806629
 21
397963.22618282941
 31
0.0
  0
INSERT
  5
647A4
  8
S-OBRYS
  6
CONTINUOUS
 62
     0
  2
_OPEN
 10
-4931.5189121990697
 20
396948.9423547163
 30
0.0
 41
100.0
 42
100.0
 43
100.0
 50
204.9999999982966
  0
INSERT
  5
647A5
  8
S-OBRYS
  6
CONTINUOUS
 62
     0
  2
_OPEN
 10
-2665.7494445757479
 20
398005.48800900078
 30
0.0
 41
100.0
 42
100.0
 43
100.0
 50
24.999999998296619
  0
INSERT
  5
647A6
  8
HLADINA1
  6
CONTINUOUS
  2
*U201
 10
0.0
 20
0.0
 30
0.0
  0
POINT
  5
647A7
  8
DEFPOINTS
  6
CONTINUOUS
 62
     0
 10
-5073.6874590378129
 20
397253.82378731441
 30
0.0
  0
POINT
  5
647A8
  8
DEFPOINTS
  6
CONTINUOUS
 62
     0
 10
-2802.989944998641
 20
398299.80121195479
 30
0.0
  0
POINT
  5
647A9
  8
DEFPOINTS
  6
CONTINUOUS
 62
     0
 10
-2665.7494445757479
 20
398005.48800900078
 30
0.0
  0
ENDBLK
  5
64744
  8
0
  0
BLOCK
  8
0
  2
*D102
 70
     1
 10
0.0
 20
0.0
 30
0.0
  3
*D102
  1

  0
LINE
  5
647AA
  8
S-OBRYS
  6
CONTINUOUS
 62
     0
 10
-5161.9491409487073
 20
397114.07066657848
 30
0.0
 11
-5501.2642933218103
 21
397114.07066657848
 31
0.0
  0
LINE
  5
647AB
  8
S-OBRYS
  6
CONTINUOUS
 62
     0
 10
-5224.9289435499286
 20
397938.07066657848
 30
0.0
 11
-5501.2642933218103
 21
397938.07066657848
 31
0.0
  0
LINE
  5
647AC
  8
S-OBRYS
  6
CONTINUOUS
 62
     0
 10
-5491.2642933218103
 20
397214.07066657848
 30
0.0
 11
-5491.2642933218103
 21
397838.07066657848
 31
0.0
  0
INSERT
  5
647AD
  8
S-OBRYS
  6
CONTINUOUS
 62
     0
  2
_OPEN
 10
-5491.2642933218103
 20
397114.07066657848
 30
0.0
 41
100.0
 42
100.0
 43
100.0
 50
270.0
  0
INSERT
  5
647AE
  8
S-OBRYS
  6
CONTINUOUS
 62
     0
  2
_OPEN
 10
-5491.2642933218103
 20
397938.07066657848
 30
0.0
 41
100.0
 42
100.0
 43
100.0
 50
90.0
  0
INSERT
  5
647AF
  8
HLADINA1
  6
CONTINUOUS
  2
*U202
 10
0.0
 20
0.0
 30
0.0
  0
POINT
  5
647B0
  8
DEFPOINTS
  6
CONTINUOUS
 62
     0
 10
-5158.7991409487067
 20
397114.07066657848
 30
0.0
  0
POINT
  5
647B1
  8
DEFPOINTS
  6
CONTINUOUS
 62
     0
 10
-5221.778943549929
 20
397938.07066657848
 30
0.0
  0
POINT
  5
647B2
  8
DEFPOINTS
  6
CONTINUOUS
 62
     0
 10
-5491.2642933218103
 20
397938.07066657848
 30
0.0
  0
ENDBLK
  5
64750
  8
0
  0
BLOCK
  8
0
  2
*D103
 70
     1
 10
0.0
 20
0.0
 30
0.0
  3
*D103
  1

  0
LINE
  5
647B3
  8
S-OBRYS
  6
CONTINUOUS
 62
     0
 10
-5084.9265166553378
 20
397941.22066657862
 30
0.0
 11
-5084.9265166553378
 21
398172.43444565102
 31
0.0
  0
LINE
  5
647B4
  8
S-OBRYS
  6
CONTINUOUS
 62
     0
 10
-5204.9265166553369
 20
397941.22066657862
 30
0.0
 11
-5204.9265166553369
 21
398172.43444565102
 31
0.0
  0
LINE
  5
647B5
  8
S-OBRYS
  6
CONTINUOUS
 62
     0
 10
-4984.9265166553378
 20
398162.43444565107
 30
0.0
 11
-4884.9265166553378
 21
398162.43444565107
 31
0.0
  0
LINE
  5
647B6
  8
S-OBRYS
  6
CONTINUOUS
 62
     0
 10
-5304.9265166553378
 20
398162.43444565107
 30
0.0
 11
-5404.9265166553369
 21
398162.43444565107
 31
0.0
  0
LINE
  5
647B7
  8
S-OBRYS
  6
CONTINUOUS
 62
     0
 10
-5084.9265166553378
 20
398162.43444565107
 30
0.0
 11
-5204.9265166553369
 21
398162.43444565107
 31
0.0
  0
INSERT
  5
647B8
  8
S-OBRYS
  6
CONTINUOUS
 62
     0
  2
_OPEN
 10
-5084.9265166553378
 20
398162.43444565107
 30
0.0
 41
100.0
 42
100.0
 43
100.0
 50
180.0
  0
INSERT
  5
647B9
  8
S-OBRYS
  6
CONTINUOUS
 62
     0
  2
_OPEN
 10
-5204.9265166553369
 20
398162.43444565107
 30
0.0
 41
100.0
 42
100.0
 43
100.0
  0
INSERT
  5
647BA
  8
HLADINA1
  6
CONTINUOUS
  2
*U203
 10
0.0
 20
0.0
 30
0.0
  0
POINT
  5
647BB
  8
DEFPOINTS
  6
CONTINUOUS
 62
     0
 10
-5084.9265166553378
 20
397938.07066657848
 30
0.0
  0
POINT
  5
647BC
  8
DEFPOINTS
  6
CONTINUOUS
 62
     0
 10
-5204.9265166553369
 20
397938.07066657848
 30
0.0
  0
POINT
  5
647BD
  8
DEFPOINTS
  6
CONTINUOUS
 62
     0
 10
-5204.9265166553369
 20
398162.43444565107
 30
0.0
  0
ENDBLK
  5
6475E
  8
0
  0
BLOCK
  8
0
  2
*U104
 70
     1
 10
0.0
 20
0.0
 30
0.0
  3
*U104
  1

  0
TEXT
  5
64DC1
  8
SILNA
  6
CONTINUOUS
 10
-16.449777305735289
 20
47.447339193138752
 30
0.0
 40
80.0
  1
1b
  7
R
  0
ENDBLK
  5
64DC3
  8
0
  0
BLOCK
  8
0
  2
*U105
 70
     1
 10
0.0
 20
0.0
 30
0.0
  3
*U105
  1

  0
TEXT
  5
64DC5
  8
SILNA
  6
CONTINUOUS
 10
23.348488544496441
 20
49.591841048852068
 30
0.0
 40
20.0
  1
1a
  7
R
  0
ENDBLK
  5
64DC7
  8
0
  0
BLOCK
  8
0
  2
*U106
 70
     1
 10
0.0
 20
0.0
 30
0.0
  3
*U106
  1

  0
TEXT
  5
64DC9
  8
SILNA
  6
CONTINUOUS
 10
-3.9222036020662499
 20
557.31871110200882
 30
0.0
 40
100.0
  1
příruba prosévačka
  7
R
  0
ENDBLK
  5
64DCB
  8
0
  0
BLOCK
  8
0
  2
*U107
 70
     1
 10
0.0
 20
0.0
 30
0.0
  3
*U107
  1

  0
SOLID
  5
64FA3
  8
HLADINA1
  6
CONTINUOUS
 10
0.0000000000009095
 20
139.99744886101851
 30
0.0
 11
-18.32564214838867
 21
132.40671934395951
 31
0.0
 12
0.0000000000008972
 22
132.40671934395951
 32
0.0
 13
0.0000000000008972
 23
132.40671934395951
 33
0.0
210
0.0
220
0.0
230
1.0
  0
SOLID
  5
64FA4
  8
HLADINA1
  6
CONTINUOUS
 10
0.0000000000009332
 20
139.99744886101851
 30
0.0
 11
0.0000000000009263
 21
132.40671934395951
 31
0.0
 12
45.472905011396342
 22
132.40671934395951
 32
0.0
 13
45.472905011396342
 23
132.40671934395951
 33
0.0
210
0.0
220
0.0
230
1.0
  0
SOLID
  5
64FA5
  8
HLADINA1
  6
CONTINUOUS
 10
-18.32564214838867
 20
132.40671934395951
 30
0.0
 11
-51.120036686711217
 21
118.82283635637209
 31
0.0
 12
0.0000000000008752
 22
118.82283635637209
 32
0.0
 13
0.0000000000008752
 23
118.82283635637209
 33
0.0
  0
SOLID
  5
64FA6
  8
HLADINA1
  6
CONTINUOUS
 10
18.32564214838867
 20
132.40671934395951
 30
0.0
 11
-0.0000000000008972
 21
132.40671934395951
 31
0.0
 12
-0.0000000000008752
 22
118.82283635637209
 32
0.0
 13
-0.0000000000008752
 23
118.82283635637209
 33
0.0
210
0.0
220
0.0
230
-1.0
  0
SOLID
  5
64FA7
  8
HLADINA1
  6
CONTINUOUS
 10
0.0000000000009263
 20
132.40671934395951
 30
0.0
 11
0.0000000000009141
 21
118.82283635637209
 31
0.0
 12
70.563549776822697
 22
118.82283635637209
 32
0.0
 13
70.563549776822697
 23
118.82283635637209
 33
0.0
  0
SOLID
  5
64FA8
  8
HLADINA1
  6
CONTINUOUS
 10
-0.0000000000009263
 20
132.40671934395951
 30
0.0
 11
-45.472905011396342
 21
132.40671934395951
 31
0.0
 12
-70.563549776822697
 22
118.82283635637209
 32
0.0
 13
-70.563549776822697
 23
118.82283635637209
 33
0.0
210
0.0
220
0.0
230
-1.0
  0
SOLID
  5
64FA9
  8
HLADINA1
  6
CONTINUOUS
 10
-51.120036686711217
 20
118.82283635637209
 30
0.0
 11
-63.634272730830311
 21
113.6392700641597
 31
0.0
 12
0.0000000000008669
 22
113.6392700641597
 32
0.0
 13
0.0000000000008669
 23
113.6392700641597
 33
0.0
210
0.0
220
0.0
230
1.0
  0
SOLID
  5
64FAA
  8
HLADINA1
  6
CONTINUOUS
 10
51.120036686711217
 20
118.82283635637209
 30
0.0
 11
-0.0000000000008752
 21
118.82283635637209
 31
0.0
 12
-0.0000000000008669
 22
113.6392700641597
 32
0.0
 13
-0.0000000000008669
 23
113.6392700641597
 33
0.0
210
0.0
220
0.0
230
-1.0
  0
SOLID
  5
64FAB
  8
HLADINA1
  6
CONTINUOUS
 10
-0.0000000000009141
 20
118.82283635637209
 30
0.0
 11
-43.257964790378153
 21
118.82283635637209
 31
0.0
 12
-0.0000000000008669
 22
113.6392700641597
 32
0.0
 13
-0.0000000000008669
 23
113.6392700641597
 33
0.0
210
0.0
220
0.0
230
-1.0
  0
SOLID
  5
64FAC
  8
HLADINA1
  6
CONTINUOUS
 10
43.257964790378153
 20
118.82283635637209
 30
0.0
 11
69.752660745180563
 21
113.6392700641597
 31
0.0
 12
80.138059552472512
 22
113.6392700641597
 32
0.0
 13
80.138059552472512
 23
113.6392700641597
 33
0.0
210
0.0
220
0.0
230
1.0
  0
SOLID
  5
64FAD
  8
HLADINA1
  6
CONTINUOUS
 10
-43.257964790378153
 20
118.82283635637209
 30
0.0
 11
-70.563549776822697
 21
118.82283635637209
 31
0.0
 12
-80.138059552472512
 22
113.6392700641597
 32
0.0
 13
-80.138059552472512
 23
113.6392700641597
 33
0.0
210
0.0
220
0.0
230
-1.0
  0
SOLID
  5
64FAE
  8
HLADINA1
  6
CONTINUOUS
 10
-63.634272730830311
 20
113.6392700641597
 30
0.0
 11
-71.315354411059985
 21
110.45766185851311
 31
0.0
 12
-5.0574841518304217
 22
110.45766185851311
 32
0.0
 13
-5.0574841518304217
 23
110.45766185851311
 33
0.0
210
0.0
220
0.0
230
1.0
  0
SOLID
  5
64FAF
  8
HLADINA1
  6
CONTINUOUS
 10
63.634272730830311
 20
113.6392700641597
 30
0.0
 11
-0.0000000000009095
 21
113.6392700641597
 31
0.0
 12
5.0574841518304217
 22
110.45766185851311
 32
0.0
 13
5.0574841518304217
 23
110.45766185851311
 33
0.0
210
0.0
220
0.0
230
-1.0
  0
SOLID
  5
64FB0
  8
HLADINA1
  6
CONTINUOUS
 10
-69.752660745180563
 20
113.6392700641597
 30
0.0
 11
-80.138059552472512
 21
113.6392700641597
 31
0.0
 12
-86.014773989985784
 22
110.45766185851311
 32
0.0
 13
-86.014773989985784
 23
110.45766185851311
 33
0.0
210
0.0
220
0.0
230
-1.0
  0
SOLID
  5
64FB1
  8
HLADINA1
  6
CONTINUOUS
 10
-71.315354411059985
 20
110.45766185851311
 30
0.0
 11
-98.994949366115677
 21
98.992398227135112
 31
0.0
 12
-23.282666312648029
 22
98.992398227135112
 32
0.0
 13
-23.282666312648029
 23
98.992398227135112
 33
0.0
210
0.0
220
0.0
230
1.0
  0
SOLID
  5
64FB2
  8
HLADINA1
  6
CONTINUOUS
 10
71.315354411059985
 20
110.45766185851311
 30
0.0
 11
5.0574841518304217
 21
110.45766185851311
 31
0.0
 12
23.282666312648029
 22
98.992398227135112
 32
0.0
 13
23.282666312648029
 23
98.992398227135112
 33
0.0
210
0.0
220
0.0
230
-1.0
  0
SOLID
  5
64FB3
  8
HLADINA1
  6
CONTINUOUS
 10
-98.994949366115677
 20
98.992398227135112
 30
0.0
 11
-110.3533115346694
 21
71.570886233467292
 31
0.0
 12
-66.871899607022399
 22
71.570886233467292
 32
0.0
 13
-66.871899607022399
 23
71.570886233467292
 33
0.0
210
0.0
220
0.0
230
1.0
  0
SOLID
  5
64FB4
  8
HLADINA1
  6
CONTINUOUS
 10
98.994949366115677
 20
98.992398227135112
 30
0.0
 11
23.282666312648029
 21
98.992398227135112
 31
0.0
 12
66.871899607022399
 22
71.570886233467292
 32
0.0
 13
66.871899607022399
 23
71.570886233467292
 33
0.0
210
0.0
220
0.0
230
-1.0
  0
SOLID
  5
64FB5
  8
HLADINA1
  6
CONTINUOUS
 10
-110.3533115346694
 20
71.570886233467292
 30
0.0
 11
-139.99999999999909
 21
-0.0025511389815165
 31
0.0
 12
-100.3210092793351
 22
-0.0025511389815165
 32
0.0
 13
-100.3210092793351
 23
-0.0025511389815165
 33
0.0
210
0.0
220
0.0
230
1.0
  0
SOLID
  5
64FB6
  8
HLADINA1
  6
CONTINUOUS
 10
110.3533115346694
 20
71.570886233467292
 30
0.0
 11
66.871899607022399
 21
71.570886233467292
 31
0.0
 12
100.3210092793351
 22
-0.0025511389815165
 32
0.0
 13
100.3210092793351
 23
-0.0025511389815165
 33
0.0
210
0.0
220
0.0
230
-1.0
  0
SOLID
  5
64FB7
  8
HLADINA1
  6
CONTINUOUS
 10
-139.99999999999909
 20
-0.0025511389815165
 30
0.0
 11
-139.99999999999909
 21
-0.0025511389815165
 31
0.0
 12
-100.3210092793351
 22
-0.0025511389815165
 32
0.0
 13
-100.3210092793351
 23
-0.0025511389815165
 33
0.0
210
0.0
220
0.0
230
1.0
  0
SOLID
  5
64FB8
  8
HLADINA1
  6
CONTINUOUS
 10
-139.99999999999909
 20
-0.0025511389815165
 30
0.0
 11
-139.99999999999909
 21
-0.0025511389815165
 31
0.0
 12
-100.3210092793351
 22
-0.0025511389815165
 32
0.0
 13
-100.3210092793351
 23
-0.0025511389815165
 33
0.0
210
0.0
220
0.0
230
1.0
  0
SOLID
  5
64FB9
  8
HLADINA1
  6
CONTINUOUS
 10
-139.99999999999909
 20
-0.0025511389815165
 30
0.0
 11
-117.02828563153059
 21
-72.883147809960434
 31
0.0
 12
-91.980753483793407
 22
-72.883147809960434
 32
0.0
 13
-91.980753483793407
 23
-72.883147809960434
 33
0.0
210
0.0
220
0.0
230
1.0
  0
SOLID
  5
64FBA
  8
HLADINA1
  6
CONTINUOUS
 10
139.99999999999909
 20
-0.0025511389815165
 30
0.0
 11
100.3210092793351
 21
-0.0025511389815165
 31
0.0
 12
91.980753483793407
 22
-72.883147809960434
 32
0.0
 13
91.980753483793407
 23
-72.883147809960434
 33
0.0
210
0.0
220
0.0
230
-1.0
  0
SOLID
  5
64FBB
  8
HLADINA1
  6
CONTINUOUS
 10
-117.02828563153059
 20
-72.883147809960434
 30
0.0
 11
-114.69621614817829
 21
-80.281925833171329
 31
0.0
 12
-86.424720604643284
 22
-80.281925833171329
 32
0.0
 13
-86.424720604643284
 23
-80.281925833171329
 33
0.0
  0
SOLID
  5
64FBC
  8
HLADINA1
  6
CONTINUOUS
 10
117.02828563153059
 20
-72.883147809960434
 30
0.0
 11
91.980753483793407
 21
-72.883147809960434
 31
0.0
 12
86.424720604643284
 22
-80.281925833171329
 32
0.0
 13
86.424720604643284
 23
-80.281925833171329
 33
0.0
210
0.0
220
0.0
230
-1.0
  0
SOLID
  5
64FBD
  8
HLADINA1
  6
CONTINUOUS
 10
114.69621614817829
 20
-80.281925833171329
 30
0.0
 11
86.424720604643284
 21
-80.281925833171329
 31
0.0
 12
47.931742838711259
 22
-131.54170131277371
 32
0.0
 13
47.931742838711259
 23
-131.54170131277371
 33
0.0
210
0.0
220
0.0
230
-1.0
  0
LINE
  5
64FBE
  8
HLADINA1
  6
CONTINUOUS
 10
0.0000000000008972
 20
132.40671934395951
 30
0.0
 11
0.0000000000009095
 21
139.99744886101851
 31
0.0
  0
LINE
  5
64FBF
  8
HLADINA1
  6
CONTINUOUS
 10
0.0000000000009332
 20
139.99744886101851
 30
0.0
 11
0.0000000000009263
 21
132.40671934395951
 31
0.0
  0
LINE
  5
64FC0
  8
HLADINA1
  6
CONTINUOUS
 10
-18.32564214838867
 20
132.40671934395951
 30
0.0
 11
-51.120036686711217
 21
118.82283635637209
 31
0.0
  0
LINE
  5
64FC1
  8
HLADINA1
  6
CONTINUOUS
 10
0.0000000000008972
 20
132.40671934395951
 30
0.0
 11
0.0000000000008752
 21
118.82283635637209
 31
0.0
  0
LINE
  5
64FC2
  8
HLADINA1
  6
CONTINUOUS
 10
0.0000000000009263
 20
132.40671934395951
 30
0.0
 11
0.0000000000009141
 21
118.82283635637209
 31
0.0
  0
LINE
  5
64FC3
  8
HLADINA1
  6
CONTINUOUS
 10
45.472905011396342
 20
132.40671934395951
 30
0.0
 11
70.563549776822697
 21
118.82283635637209
 31
0.0
  0
LINE
  5
64FC4
  8
HLADINA1
  6
CONTINUOUS
 10
-51.120036686711217
 20
118.82283635637209
 30
0.0
 11
-63.634272730830311
 21
113.6392700641597
 31
0.0
  0
LINE
  5
64FC5
  8
HLADINA1
  6
CONTINUOUS
 10
43.257964790378153
 20
118.82283635637209
 30
0.0
 11
0.0000000000008669
 21
113.6392700641597
 31
0.0
  0
LINE
  5
64FC6
  8
HLADINA1
  6
CONTINUOUS
 10
0.0000000000008669
 20
113.6392700641597
 30
0.0
 11
0.0000000000009141
 21
118.82283635637209
 31
0.0
  0
LINE
  5
64FC7
  8
HLADINA1
  6
CONTINUOUS
 10
70.563549776822697
 20
118.82283635637209
 30
0.0
 11
80.138059552472512
 21
113.6392700641597
 31
0.0
  0
LINE
  5
64FC8
  8
HLADINA1
  6
CONTINUOUS
 10
-63.634272730830311
 20
113.6392700641597
 30
0.0
 11
-71.315354411059985
 21
110.45766185851311
 31
0.0
  0
LINE
  5
64FC9
  8
HLADINA1
  6
CONTINUOUS
 10
0.0000000000009095
 20
113.6392700641597
 30
0.0
 11
-5.0574841518304217
 21
110.45766185851311
 31
0.0
  0
LINE
  5
64FCA
  8
HLADINA1
  6
CONTINUOUS
 10
80.138059552472512
 20
113.6392700641597
 30
0.0
 11
86.014773989985784
 21
110.45766185851311
 31
0.0
  0
LINE
  5
64FCB
  8
HLADINA1
  6
CONTINUOUS
 10
86.014773989985784
 20
110.45766185851311
 30
0.0
 11
69.752660745180563
 21
113.6392700641597
 31
0.0
  0
LINE
  5
64FCC
  8
HLADINA1
  6
CONTINUOUS
 10
-71.315354411059985
 20
110.45766185851311
 30
0.0
 11
-98.994949366115677
 21
98.992398227135112
 31
0.0
  0
LINE
  5
64FCD
  8
HLADINA1
  6
CONTINUOUS
 10
-5.0574841518304217
 20
110.45766185851311
 30
0.0
 11
-23.282666312648029
 21
98.992398227135112
 31
0.0
  0
LINE
  5
64FCE
  8
HLADINA1
  6
CONTINUOUS
 10
-98.994949366115677
 20
98.992398227135112
 30
0.0
 11
-110.3533115346694
 21
71.570886233467292
 31
0.0
  0
LINE
  5
64FCF
  8
HLADINA1
  6
CONTINUOUS
 10
-23.282666312648029
 20
98.992398227135112
 30
0.0
 11
-66.871899607022399
 21
71.570886233467292
 31
0.0
  0
LINE
  5
64FD0
  8
HLADINA1
  6
CONTINUOUS
 10
-110.3533115346694
 20
71.570886233467292
 30
0.0
 11
-139.99999999999909
 21
-0.0025511389815165
 31
0.0
  0
LINE
  5
64FD1
  8
HLADINA1
  6
CONTINUOUS
 10
-66.871899607022399
 20
71.570886233467292
 30
0.0
 11
-100.3210092793351
 21
-0.0025511389815165
 31
0.0
  0
LINE
  5
64FD2
  8
HLADINA1
  6
CONTINUOUS
 10
-139.99999999999909
 20
-0.0025511389815165
 30
0.0
 11
-100.3210092793351
 21
-0.0025511389815165
 31
0.0
  0
LINE
  5
64FD3
  8
HLADINA1
  6
CONTINUOUS
 10
-139.99999999999909
 20
-0.0025511389815165
 30
0.0
 11
-100.3210092793351
 21
-0.0025511389815165
 31
0.0
  0
LINE
  5
64FD4
  8
HLADINA1
  6
CONTINUOUS
 10
-139.99999999999909
 20
-0.0025511389815165
 30
0.0
 11
-117.02828563153059
 21
-72.883147809960434
 31
0.0
  0
LINE
  5
64FD5
  8
HLADINA1
  6
CONTINUOUS
 10
-100.3210092793351
 20
-0.0025511389815165
 30
0.0
 11
-91.980753483793407
 21
-72.883147809960434
 31
0.0
  0
LINE
  5
64FD6
  8
HLADINA1
  6
CONTINUOUS
 10
-117.02828563153059
 20
-72.883147809960434
 30
0.0
 11
-114.69621614817829
 21
-80.281925833171329
 31
0.0
  0
LINE
  5
64FD7
  8
HLADINA1
  6
CONTINUOUS
 10
-91.980753483793407
 20
-72.883147809960434
 30
0.0
 11
-86.424720604643284
 21
-80.281925833171329
 31
0.0
  0
LINE
  5
64FD8
  8
HLADINA1
  6
CONTINUOUS
 10
-86.424720604643284
 20
-80.281925833171329
 30
0.0
 11
-47.931742838711259
 21
-131.54170131277371
 31
0.0
  0
LINE
  5
64FD9
  8
HLADINA1
  6
CONTINUOUS
 10
-47.931742838711259
 20
-131.54170131277371
 30
0.0
 11
-114.69621614817829
 21
-80.281925833171329
 31
0.0
  0
ENDBLK
  5
64FDB
  8
0
  0
BLOCK
  8
0
  2
*U108
 70
     1
 10
0.0
 20
0.0
 30
0.0
  3
*U108
  1

  0
SOLID
  5
64FE6
  8
HLADINA1
  6
CONTINUOUS
 10
2000.0000000000421
 20
549.9974488602569
 30
0.0
 11
2000.0000000000421
 21
-0.0025511389934536
 31
0.0
 12
2012.2676761359601
 22
-0.0025511389934536
 32
0.0
 13
2012.2676761359601
 23
-0.0025511389934536
 33
0.0
210
0.0
220
0.0
230
1.0
  0
SOLID
  5
64FE7
  8
HLADINA1
  6
CONTINUOUS
 10
2000.0000000000421
 20
-0.0025511389934536
 30
0.0
 11
2000.0000000000421
 21
-0.0025511389934536
 31
0.0
 12
2012.2676761359601
 22
-0.0025511389934536
 32
0.0
 13
2012.2676761359601
 23
-0.0025511389934536
 33
0.0
210
0.0
220
0.0
230
1.0
  0
SOLID
  5
64FE8
  8
HLADINA1
  6
CONTINUOUS
 10
2000.0000000000421
 20
-0.0025511389934536
 30
0.0
 11
2000.0000000000421
 21
-0.0025511389934536
 31
0.0
 12
2012.2676761359601
 22
-0.0025511389934536
 32
0.0
 13
2012.2676761359601
 23
-0.0025511389934536
 33
0.0
210
0.0
220
0.0
230
1.0
  0
SOLID
  5
64FE9
  8
HLADINA1
  6
CONTINUOUS
 10
2000.0000000000421
 20
-0.0025511389934536
 30
0.0
 11
2000.0000000000421
 21
-526.00255113898993
 31
0.0
 12
2024.0000354950589
 22
-526.00255113898993
 32
0.0
 13
2024.0000354950589
 23
-526.00255113898993
 33
0.0
210
0.0
220
0.0
230
1.0
  0
SOLID
  5
64FEA
  8
HLADINA1
  6
CONTINUOUS
 10
-2000.0000000000421
 20
-0.0025511389934536
 30
0.0
 11
-2012.2676761359601
 21
-0.0025511389934536
 31
0.0
 12
-2024.0000354950589
 22
-526.00255113898993
 32
0.0
 13
-2024.0000354950589
 23
-526.00255113898993
 33
0.0
210
0.0
220
0.0
230
-1.0
  0
SOLID
  5
64FEB
  8
HLADINA1
  6
CONTINUOUS
 10
2000.0000000000421
 20
-526.00255113898993
 30
0.0
 11
2000.0000000000421
 21
-545.98193239837519
 31
0.0
 12
2670.0000000000268
 22
-545.98193239837519
 32
0.0
 13
2670.0000000000268
 23
-545.98193239837519
 33
0.0
  0
SOLID
  5
64FEC
  8
HLADINA1
  6
CONTINUOUS
 10
-2000.0000000000421
 20
-526.00255113898993
 30
0.0
 11
-2024.0000354950589
 21
-526.00255113898993
 31
0.0
 12
-2670.0000000000268
 22
-545.98193239837519
 32
0.0
 13
-2670.0000000000268
 23
-545.98193239837519
 33
0.0
210
0.0
220
0.0
230
-1.0
  0
SOLID
  5
64FED
  8
HLADINA1
  6
CONTINUOUS
 10
2000.0000000000421
 20
-545.98193239837519
 30
0.0
 11
2000.0000000000421
 21
-550.00255113897902
 31
0.0
 12
2670.0000000000268
 22
-550.00255113897902
 32
0.0
 13
2670.0000000000268
 23
-550.00255113897902
 33
0.0
  0
SOLID
  5
64FEE
  8
HLADINA1
  6
CONTINUOUS
 10
-2000.0000000000421
 20
-545.98193239837519
 30
0.0
 11
-2669.9999999999241
 21
-545.98193239837519
 31
0.0
 12
-2670.0000000000268
 22
-550.00255113897902
 32
0.0
 13
-2670.0000000000268
 23
-550.00255113897902
 33
0.0
210
0.0
220
0.0
230
-1.0
  0
SOLID
  5
64FEF
  8
HLADINA1
  6
CONTINUOUS
 10
2670.0000000000268
 20
-545.98193239837519
 30
0.0
 11
2670.0000000000418
 21
-550.00255113897902
 31
0.0
 12
2800.0000000000568
 22
-550.00255113897902
 32
0.0
 13
2800.0000000000568
 23
-550.00255113897902
 33
0.0
  0
SOLID
  5
64FF0
  8
HLADINA1
  6
CONTINUOUS
 10
2000.0000000000421
 20
-550.00255113897902
 30
0.0
 11
2000.0000000000421
 21
-550.00255113897902
 31
0.0
 12
2670.0000000000268
 22
-550.00255113897902
 32
0.0
 13
2670.0000000000268
 23
-550.00255113897902
 33
0.0
210
0.0
220
0.0
230
1.0
  0
SOLID
  5
64FF1
  8
HLADINA1
  6
CONTINUOUS
 10
2670.0000000000418
 20
-550.00255113897902
 30
0.0
 11
2670.0000000000418
 21
-550.00255113897902
 31
0.0
 12
2800.0000000000568
 22
-550.00255113897902
 32
0.0
 13
2800.0000000000568
 23
-550.00255113897902
 33
0.0
210
0.0
220
0.0
230
1.0
  0
LINE
  5
64FF2
  8
HLADINA1
  6
CONTINUOUS
 10
2000.0000000000421
 20
549.9974488602569
 30
0.0
 11
2000.0000000000421
 21
-0.0025511389934536
 31
0.0
  0
LINE
  5
64FF3
  8
HLADINA1
  6
CONTINUOUS
 10
2012.2676761359601
 20
-0.0025511389934536
 30
0.0
 11
2000.0000000000421
 21
549.9974488602569
 31
0.0
  0
LINE
  5
64FF4
  8
HLADINA1
  6
CONTINUOUS
 10
2000.0000000000421
 20
-0.0025511389934536
 30
0.0
 11
2012.2676761359601
 21
-0.0025511389934536
 31
0.0
  0
LINE
  5
64FF5
  8
HLADINA1
  6
CONTINUOUS
 10
2000.0000000000421
 20
-0.0025511389934536
 30
0.0
 11
2012.2676761359601
 21
-0.0025511389934536
 31
0.0
  0
LINE
  5
64FF6
  8
HLADINA1
  6
CONTINUOUS
 10
2000.0000000000421
 20
-0.0025511389934536
 30
0.0
 11
2000.0000000000421
 21
-526.00255113898993
 31
0.0
  0
LINE
  5
64FF7
  8
HLADINA1
  6
CONTINUOUS
 10
2012.2676761359601
 20
-0.0025511389934536
 30
0.0
 11
2024.0000354950589
 21
-526.00255113898993
 31
0.0
  0
LINE
  5
64FF8
  8
HLADINA1
  6
CONTINUOUS
 10
2000.0000000000421
 20
-526.00255113898993
 30
0.0
 11
2000.0000000000421
 21
-545.98193239837519
 31
0.0
  0
LINE
  5
64FF9
  8
HLADINA1
  6
CONTINUOUS
 10
2024.0000354950589
 20
-526.00255113898993
 30
0.0
 11
2670.0000000000268
 21
-545.98193239837519
 31
0.0
  0
LINE
  5
64FFA
  8
HLADINA1
  6
CONTINUOUS
 10
2000.0000000000421
 20
-545.98193239837519
 30
0.0
 11
2000.0000000000421
 21
-550.00255113897902
 31
0.0
  0
LINE
  5
64FFB
  8
HLADINA1
  6
CONTINUOUS
 10
2670.0000000000268
 20
-545.98193239837519
 30
0.0
 11
2670.0000000000418
 21
-550.00255113897902
 31
0.0
  0
LINE
  5
64FFC
  8
HLADINA1
  6
CONTINUOUS
 10
2000.0000000000421
 20
-550.00255113897902
 30
0.0
 11
2670.0000000000268
 21
-550.00255113897902
 31
0.0
  0
LINE
  5
64FFD
  8
HLADINA1
  6
CONTINUOUS
 10
2670.0000000000418
 20
-550.00255113897902
 30
0.0
 11
2800.0000000000568
 21
-550.00255113897902
 31
0.0
  0
ENDBLK
  5
64FFF
  8
0
  0
BLOCK
  8
0
  2
*X109
 70
     1
 10
0.0
 20
0.0
 30
0.0
  3
*X109
  1

  0
LINE
  5
65006
  8
0
  6
CONTINUOUS
 62
     0
 10
2800.00000000004
 20
654.33382523685566
 30
0.0
 11
2754.3363763758612
 21
699.99744886103508
 31
0.0
  0
LINE
  5
65007
  8
0
  6
CONTINUOUS
 62
     0
 10
2740.0000000000368
 20
624.53126402616181
 30
0.0
 11
2670.00000000004
 21
694.53126402615806
 31
0.0
  0
LINE
  5
65008
  8
0
  6
CONTINUOUS
 62
     0
 10
2670.00000000004
 20
694.53126402615806
 30
0.0
 11
2664.5338151651781
 21
699.99744886102053
 31
0.0
  0
LINE
  5
65009
  8
0
  6
CONTINUOUS
 62
     0
 10
2741.5338151651699
 20
622.99744886102405
 30
0.0
 11
2740.0000000000368
 21
624.53126402616181
 31
0.0
  0
LINE
  5
6500A
  8
0
  6
CONTINUOUS
 62
     0
 10
2603.2868620971822
 20
671.44184071832569
 30
0.0
 11
2600.0000000000332
 21
674.72870281547512
 31
0.0
  0
LINE
  5
6500B
  8
0
  6
CONTINUOUS
 62
     0
 10
2600.0000000000332
 20
674.72870281547512
 30
0.0
 11
2574.7312539544769
 21
699.99744886103144
 31
0.0
  0
LINE
  5
6500C
  8
0
  6
CONTINUOUS
 62
     0
 10
2651.7312539544769
 20
622.99744886103144
 30
0.0
 11
2609.4443918573311
 21
665.28431095817723
 31
0.0
  0
LINE
  5
6500D
  8
0
  6
CONTINUOUS
 62
     0
 10
2561.9286927437902
 20
622.99744886103497
 30
0.0
 11
2540.0000000000359
 21
644.92614160478468
 31
0.0
  0
LINE
  5
6500E
  8
0
  6
CONTINUOUS
 62
     0
 10
2740.00000000004
 20
-632.70459292351734
 30
0.0
 11
2730.2979582154881
 21
-623.00255113896492
 31
0.0
  0
LINE
  5
6500F
  8
0
  6
CONTINUOUS
 62
     0
 10
2800.0000000000441
 20
-692.70459292352098
 30
0.0
 11
2740.00000000004
 21
-632.70459292351734
 31
0.0
  0
LINE
  5
65010
  8
0
  6
CONTINUOUS
 62
     0
 10
2670.00000000004
 20
-652.50715413421494
 30
0.0
 11
2640.495397004805
 21
-623.00255113897936
 31
0.0
  0
LINE
  5
65011
  8
0
  6
CONTINUOUS
 62
     0
 10
2717.4953970047859
 20
-700.00255113896492
 30
0.0
 11
2670.00000000004
 21
-652.50715413421494
 31
0.0
  0
LINE
  5
65012
  8
0
  6
CONTINUOUS
 62
     0
 10
2600.00000000004
 20
-672.30971534490516
 30
0.0
 11
2598.593417944765
 21
-670.9031332896302
 31
0.0
  0
LINE
  5
65013
  8
0
  6
CONTINUOUS
 62
     0
 10
2590.0994178493752
 20
-662.40913319423987
 30
0.0
 11
2550.6928357941042
 21
-623.00255113896856
 31
0.0
  0
LINE
  5
65014
  8
0
  6
CONTINUOUS
 62
     0
 10
2627.6928357941042
 20
-700.00255113896856
 30
0.0
 11
2600.00000000004
 21
-672.30971534490516
 31
0.0
  0
ENDBLK
  5
65016
  8
0
  0
BLOCK
  8
0
  2
*X110
 70
     1
 10
0.0
 20
0.0
 30
0.0
  3
*X110
  1

  0
LINE
  5
65018
  8
0
  6
CONTINUOUS
 62
     0
 10
450.00000000003268
 20
-657.76862319080817
 30
0.0
 11
414.23392794820018
 21
-622.00255113897583
 31
0.0
  0
LINE
  5
65019
  8
0
  6
CONTINUOUS
 62
     0
 10
388.00000000003638
 20
-685.57118440149861
 30
0.0
 11
324.43136673751718
 21
-622.00255113897947
 31
0.0
  0
LINE
  5
6501A
  8
0
  6
CONTINUOUS
 62
     0
 10
402.43136673751718
 20
-700.00255113897583
 30
0.0
 11
388.00000000003638
 21
-685.57118440149861
 31
0.0
  0
LINE
  5
6501B
  8
0
  6
CONTINUOUS
 62
     0
 10
312.62880552682691
 20
-700.00255113897583
 30
0.0
 11
234.62880552682691
 21
-622.00255113897583
 31
0.0
  0
LINE
  5
6501C
  8
0
  6
CONTINUOUS
 62
     0
 10
222.82624431612561
 20
-700.00255113897583
 30
0.0
 11
144.82624431612561
 21
-622.00255113897583
 31
0.0
  0
LINE
  5
6501D
  8
0
  6
CONTINUOUS
 62
     0
 10
88.000000000032742
 20
-654.97886803356948
 30
0.0
 11
55.023683105442622
 21
-622.00255113897947
 31
0.0
  0
LINE
  5
6501E
  8
0
  6
CONTINUOUS
 62
     0
 10
133.02368310544259
 20
-700.00255113897583
 30
0.0
 11
88.000000000032742
 21
-654.97886803356948
 31
0.0
  0
LINE
  5
6501F
  8
0
  6
CONTINUOUS
 62
     0
 10
43.221121894745011
 20
-700.00255113896856
 30
0.0
 11
0.0000000000400178
 21
-656.78142924426345
 31
0.0
  0
ENDBLK
  5
65021
  8
0
  0
BLOCK
  8
0
  2
*X111
 70
     1
 10
0.0
 20
0.0
 30
0.0
  3
*X111
  1

  0
LINE
  5
65023
  8
0
  6
CONTINUOUS
 62
     0
 10
450.00000000003268
 20
664.2313768091916
 30
0.0
 11
414.23392794820018
 21
699.99744886102405
 31
0.0
  0
LINE
  5
65024
  8
0
  6
CONTINUOUS
 62
     0
 10
388.00000000003638
 20
636.42881559850139
 30
0.0
 11
324.43136673751718
 21
699.99744886102053
 31
0.0
  0
LINE
  5
65025
  8
0
  6
CONTINUOUS
 62
     0
 10
402.43136673751718
 20
621.99744886102405
 30
0.0
 11
388.00000000003638
 21
636.42881559850139
 31
0.0
  0
LINE
  5
65026
  8
0
  6
CONTINUOUS
 62
     0
 10
312.62880552682691
 20
621.99744886102405
 30
0.0
 11
234.62880552682691
 21
699.99744886102405
 31
0.0
  0
LINE
  5
65027
  8
0
  6
CONTINUOUS
 62
     0
 10
222.82624431612561
 20
621.99744886102405
 30
0.0
 11
144.82624431612561
 21
699.99744886102405
 31
0.0
  0
LINE
  5
65028
  8
0
  6
CONTINUOUS
 62
     0
 10
88.000000000032742
 20
667.0211319664304
 30
0.0
 11
55.023683105442622
 21
699.99744886102053
 31
0.0
  0
LINE
  5
65029
  8
0
  6
CONTINUOUS
 62
     0
 10
133.02368310544259
 20
621.99744886102405
 30
0.0
 11
88.000000000032742
 21
667.0211319664304
 31
0.0
  0
LINE
  5
6502A
  8
0
  6
CONTINUOUS
 62
     0
 10
43.221121894745011
 20
621.99744886103144
 30
0.0
 11
0.0000000000400178
 21
665.21857075573644
 31
0.0
  0
ENDBLK
  5
6502C
  8
0
  0
BLOCK
  8
0
  2
*U112
 70
     1
 10
0.0
 20
0.0
 30
0.0
  3
*U112
  1

  0
SOLID
  5
65056
  8
HLADINA1
  6
CONTINUOUS
 10
-7.4303002125019191
 20
199.86193804923201
 30
0.0
 11
-106.0799013385006
 21
154.63598606144831
 31
0.0
 12
114.36798504699919
 22
154.63598606144831
 32
0.0
 13
114.36798504699919
 23
154.63598606144831
 33
0.0
210
0.0
220
0.0
230
1.0
  0
SOLID
  5
65057
  8
HLADINA1
  6
CONTINUOUS
 10
-106.0799013385006
 20
154.63598606144831
 30
0.0
 11
-123.65704524996811
 21
146.5777368891373
 31
0.0
 12
-7.9187739383873028
 22
146.5777368891373
 32
0.0
 13
-7.9187739383873028
 23
146.5777368891373
 33
0.0
210
0.0
220
0.0
230
1.0
  0
SOLID
  5
65058
  8
HLADINA1
  6
CONTINUOUS
 10
106.0799013385006
 20
154.63598606144831
 30
0.0
 11
-6.5672195654881156
 21
154.63598606144831
 31
0.0
 12
7.9187739383873028
 22
146.5777368891373
 32
0.0
 13
7.9187739383873028
 23
146.5777368891373
 33
0.0
210
0.0
220
0.0
230
-1.0
  0
SOLID
  5
65059
  8
HLADINA1
  6
CONTINUOUS
 10
6.5672195654881156
 20
154.63598606144831
 30
0.0
 11
72.201549540798865
 21
146.5777368891373
 31
0.0
 12
136.06970470668469
 22
146.5777368891373
 32
0.0
 13
136.06970470668469
 23
146.5777368891373
 33
0.0
210
0.0
220
0.0
230
1.0
  0
SOLID
  5
6505A
  8
HLADINA1
  6
CONTINUOUS
 10
-6.5672195654881156
 20
154.63598606144831
 30
0.0
 11
-114.36798504699919
 21
154.63598606144831
 31
0.0
 12
-136.06970470668469
 22
146.5777368891373
 32
0.0
 13
-136.06970470668469
 23
146.5777368891373
 33
0.0
210
0.0
220
0.0
230
-1.0
  0
SOLID
  5
6505B
  8
HLADINA1
  6
CONTINUOUS
 10
-123.65704524996811
 20
146.5777368891373
 30
0.0
 11
-139.0112327472724
 21
139.5386030392437
 31
0.0
 12
-20.572744427763961
 22
139.5386030392437
 32
0.0
 13
-20.572744427763961
 23
139.5386030392437
 33
0.0
210
0.0
220
0.0
230
1.0
  0
SOLID
  5
6505C
  8
HLADINA1
  6
CONTINUOUS
 10
123.65704524996811
 20
146.5777368891373
 30
0.0
 11
7.9187739383873028
 21
146.5777368891373
 31
0.0
 12
20.572744427763961
 22
139.5386030392437
 32
0.0
 13
20.572744427763961
 23
139.5386030392437
 33
0.0
210
0.0
220
0.0
230
-1.0
  0
SOLID
  5
6505D
  8
HLADINA1
  6
CONTINUOUS
 10
-72.201549540798865
 20
146.5777368891373
 30
0.0
 11
-136.0697047066846
 21
146.5777368891373
 31
0.0
 12
-129.53519906752251
 22
139.5386030392437
 32
0.0
 13
-129.53519906752251
 23
139.5386030392437
 33
0.0
210
0.0
220
0.0
230
-1.0
  0
SOLID
  5
6505E
  8
HLADINA1
  6
CONTINUOUS
 10
136.0697047066846
 20
146.5777368891373
 30
0.0
 11
129.5351990675228
 21
139.5386030392437
 31
0.0
 12
143.09108860080289
 22
139.5386030392437
 32
0.0
 13
143.09108860080289
 23
139.5386030392437
 33
0.0
210
0.0
220
0.0
230
1.0
  0
SOLID
  5
6505F
  8
HLADINA1
  6
CONTINUOUS
 10
-139.0112327472724
 20
139.5386030392437
 30
0.0
 11
-146.577746761573
 21
136.06973144098379
 31
0.0
 12
-26.808596703322301
 22
136.06973144098379
 32
0.0
 13
-26.808596703322301
 23
136.06973144098379
 33
0.0
210
0.0
220
0.0
230
1.0
  0
SOLID
  5
65060
  8
HLADINA1
  6
CONTINUOUS
 10
139.0112327472724
 20
139.5386030392437
 30
0.0
 11
20.572744427763961
 21
139.5386030392437
 31
0.0
 12
26.808596703322301
 22
136.06973144098379
 32
0.0
 13
26.808596703322301
 23
136.06973144098379
 33
0.0
210
0.0
220
0.0
230
-1.0
  0
SOLID
  5
65061
  8
HLADINA1
  6
CONTINUOUS
 10
129.53519906752311
 20
139.5386030392437
 30
0.0
 11
136.25658556636
 21
136.06973144098379
 31
0.0
 12
146.55121305505739
 22
136.06973144098379
 32
0.0
 13
146.55121305505739
 23
136.06973144098379
 33
0.0
210
0.0
220
0.0
230
1.0
  0
SOLID
  5
65062
  8
HLADINA1
  6
CONTINUOUS
 10
-129.53519906752311
 20
139.5386030392437
 30
0.0
 11
-143.09108860080289
 21
139.5386030392437
 31
0.0
 12
-146.55121305505739
 22
136.06973144098379
 32
0.0
 13
-146.55121305505739
 23
136.06973144098379
 33
0.0
210
0.0
220
0.0
230
-1.0
  0
SOLID
  5
65063
  8
HLADINA1
  6
CONTINUOUS
 10
-146.577746761573
 20
136.06973144098379
 30
0.0
 11
-146.71532458895959
 21
135.69921976065609
 31
0.0
 12
-146.17862225930841
 22
135.69921976065609
 32
0.0
 13
-146.17862225930841
 23
135.69921976065609
 33
0.0
  0
SOLID
  5
65064
  8
HLADINA1
  6
CONTINUOUS
 10
-146.577746761573
 20
136.06973144098379
 30
0.0
 11
-146.1786222593083
 21
135.69921976065609
 31
0.0
 12
-27.47465079020499
 22
135.69921976065609
 32
0.0
 13
-27.47465079020499
 23
135.69921976065609
 33
0.0
210
0.0
220
0.0
230
1.0
  0
SOLID
  5
65065
  8
HLADINA1
  6
CONTINUOUS
 10
146.577746761573
 20
136.06973144098379
 30
0.0
 11
26.808596703322301
 21
136.06973144098379
 31
0.0
 12
27.47465079020499
 22
135.69921976065609
 32
0.0
 13
27.47465079020499
 23
135.69921976065609
 33
0.0
210
0.0
220
0.0
230
-1.0
  0
SOLID
  5
65066
  8
HLADINA1
  6
CONTINUOUS
 10
136.25658556636
 20
136.06973144098379
 30
0.0
 11
136.9744997742728
 21
135.69921976065609
 31
0.0
 12
146.92079044913899
 22
135.69921976065609
 32
0.0
 13
146.92079044913899
 23
135.69921976065609
 33
0.0
  0
SOLID
  5
65067
  8
HLADINA1
  6
CONTINUOUS
 10
-136.25658556636
 20
136.06973144098379
 30
0.0
 11
-146.55121305505739
 21
136.06973144098379
 31
0.0
 12
-146.92079044913899
 22
135.69921976065609
 32
0.0
 13
-146.92079044913899
 23
135.69921976065609
 33
0.0
210
0.0
220
0.0
230
-1.0
  0
SOLID
  5
65068
  8
HLADINA1
  6
CONTINUOUS
 10
-146.71532458895959
 20
135.69921976065609
 30
0.0
 11
-147.97074803455669
 21
132.3182312744525
 31
0.0
 12
-142.53653641325681
 22
132.3182312744525
 32
0.0
 13
-142.53653641325681
 23
132.3182312744525
 33
0.0
  0
SOLID
  5
65069
  8
HLADINA1
  6
CONTINUOUS
 10
146.71532458895959
 20
135.69921976065609
 30
0.0
 11
146.17862225930841
 21
135.69921976065609
 31
0.0
 12
142.53653641325681
 22
132.3182312744525
 32
0.0
 13
142.53653641325681
 23
132.3182312744525
 33
0.0
210
0.0
220
0.0
230
-1.0
  0
SOLID
  5
6506A
  8
HLADINA1
  6
CONTINUOUS
 10
-146.1786222593083
 20
135.69921976065609
 30
0.0
 11
-142.5365364132567
 21
132.3182312744525
 31
0.0
 12
-33.552519096401468
 22
132.3182312744525
 32
0.0
 13
-33.552519096401468
 23
132.3182312744525
 33
0.0
  0
SOLID
  5
6506B
  8
HLADINA1
  6
CONTINUOUS
 10
146.1786222593083
 20
135.69921976065609
 30
0.0
 11
27.47465079020499
 21
135.69921976065609
 31
0.0
 12
33.552519096401468
 22
132.3182312744525
 32
0.0
 13
33.552519096401468
 23
132.3182312744525
 33
0.0
210
0.0
220
0.0
230
-1.0
  0
SOLID
  5
6506C
  8
HLADINA1
  6
CONTINUOUS
 10
136.9744997742728
 20
135.69921976065609
 30
0.0
 11
143.5256013991617
 21
132.3182312744525
 31
0.0
 12
149.81095848922959
 22
132.3182312744525
 32
0.0
 13
149.81095848922959
 23
132.3182312744525
 33
0.0
210
0.0
220
0.0
230
1.0
  0
SOLID
  5
6506D
  8
HLADINA1
  6
CONTINUOUS
 10
-136.9744997742728
 20
135.69921976065609
 30
0.0
 11
-146.92079044913899
 21
135.69921976065609
 31
0.0
 12
-149.81095848922959
 22
132.3182312744525
 32
0.0
 13
-149.81095848922959
 23
132.3182312744525
 33
0.0
210
0.0
220
0.0
230
-1.0
  0
SOLID
  5
6506E
  8
HLADINA1
  6
CONTINUOUS
 10
-147.97074803455669
 20
132.3182312744525
 30
0.0
 11
-151.0521169139048
 21
124.0197780797475
 31
0.0
 12
-133.5972338844588
 22
124.0197780797475
 32
0.0
 13
-133.5972338844588
 23
124.0197780797475
 33
0.0
210
0.0
220
0.0
230
1.0
  0
SOLID
  5
6506F
  8
HLADINA1
  6
CONTINUOUS
 10
147.97074803455669
 20
132.3182312744525
 30
0.0
 11
142.53653641325681
 21
132.3182312744525
 31
0.0
 12
133.5972338844588
 22
124.0197780797475
 32
0.0
 13
133.5972338844588
 23
124.0197780797475
 33
0.0
210
0.0
220
0.0
230
-1.0
  0
SOLID
  5
65070
  8
HLADINA1
  6
CONTINUOUS
 10
-142.5365364132567
 20
132.3182312744525
 30
0.0
 11
-133.59723388445869
 21
124.0197780797475
 31
0.0
 12
-48.470317801828479
 22
124.0197780797475
 32
0.0
 13
-48.470317801828479
 23
124.0197780797475
 33
0.0
210
0.0
220
0.0
230
1.0
  0
SOLID
  5
65071
  8
HLADINA1
  6
CONTINUOUS
 10
142.5365364132567
 20
132.3182312744525
 30
0.0
 11
33.552519096401468
 21
132.3182312744525
 31
0.0
 12
48.470317801828479
 22
124.0197780797475
 32
0.0
 13
48.470317801828479
 23
124.0197780797475
 33
0.0
210
0.0
220
0.0
230
-1.0
  0
SOLID
  5
65072
  8
HLADINA1
  6
CONTINUOUS
 10
-143.5256013991617
 20
132.3182312744525
 30
0.0
 11
-149.81095848922959
 21
132.3182312744525
 31
0.0
 12
-156.90471947167379
 22
124.0197780797475
 32
0.0
 13
-156.90471947167379
 23
124.0197780797475
 33
0.0
210
0.0
220
0.0
230
-1.0
  0
SOLID
  5
65073
  8
HLADINA1
  6
CONTINUOUS
 10
-151.0521169139048
 20
124.0197780797475
 30
0.0
 11
-162.0470583125522
 21
94.409234795978335
 31
0.0
 12
-101.7000118064241
 22
94.409234795978335
 32
0.0
 13
-101.7000118064241
 23
94.409234795978335
 33
0.0
210
0.0
220
0.0
230
1.0
  0
SOLID
  5
65074
  8
HLADINA1
  6
CONTINUOUS
 10
151.0521169139048
 20
124.0197780797475
 30
0.0
 11
133.5972338844588
 21
124.0197780797475
 31
0.0
 12
101.7000118064241
 22
94.409234795978335
 32
0.0
 13
101.7000118064241
 23
94.409234795978335
 33
0.0
210
0.0
220
0.0
230
-1.0
  0
SOLID
  5
65075
  8
HLADINA1
  6
CONTINUOUS
 10
133.59723388445869
 20
124.0197780797475
 30
0.0
 11
48.470317801828479
 21
124.0197780797475
 31
0.0
 12
101.7000118064241
 22
94.409234795978335
 32
0.0
 13
101.7000118064241
 23
94.409234795978335
 33
0.0
210
0.0
220
0.0
230
-1.0
  0
SOLID
  5
65076
  8
HLADINA1
  6
CONTINUOUS
 10
-162.0470583125522
 20
94.409234795978335
 30
0.0
 11
-199.8619479216687
 21
-7.4302734782037438
 31
0.0
 12
-148.81695672466711
 22
-7.4302734782037438
 32
0.0
 13
-148.81695672466711
 23
-7.4302734782037438
 33
0.0
210
0.0
220
0.0
230
1.0
  0
SOLID
  5
65077
  8
HLADINA1
  6
CONTINUOUS
 10
162.0470583125522
 20
94.409234795978335
 30
0.0
 11
101.7000118064241
 21
94.409234795978335
 31
0.0
 12
148.81695672466711
 22
-7.4302734782037438
 32
0.0
 13
148.81695672466711
 23
-7.4302734782037438
 33
0.0
210
0.0
220
0.0
230
-1.0
  0
SOLID
  5
65078
  8
HLADINA1
  6
CONTINUOUS
 10
-199.8619479216687
 20
-7.4302734782037438
 30
0.0
 11
-195.00201376120179
 21
-18.031057880888518
 31
0.0
 12
-153.72150293915519
 22
-18.031057880888518
 32
0.0
 13
-153.72150293915519
 23
-18.031057880888518
 33
0.0
210
0.0
220
0.0
230
1.0
  0
SOLID
  5
65079
  8
HLADINA1
  6
CONTINUOUS
 10
199.8619479216687
 20
-7.4302734782037438
 30
0.0
 11
148.81695672466711
 21
-7.4302734782037438
 31
0.0
 12
153.72150293915519
 22
-18.031057880888518
 32
0.0
 13
153.72150293915519
 23
-18.031057880888518
 33
0.0
210
0.0
220
0.0
230
-1.0
  0
SOLID
  5
6507A
  8
HLADINA1
  6
CONTINUOUS
 10
-195.00201376120179
 20
-18.031057880888518
 30
0.0
 11
-139.29683524889569
 21
-139.53858617738231
 31
0.0
 12
-129.53523567425751
 22
-139.53858617738231
 32
0.0
 13
-129.53523567425751
 23
-139.53858617738231
 33
0.0
210
0.0
220
0.0
230
1.0
  0
SOLID
  5
6507B
  8
HLADINA1
  6
CONTINUOUS
 10
195.00201376120179
 20
-18.031057880888518
 30
0.0
 11
153.72150293915519
 21
-18.031057880888518
 31
0.0
 12
129.53523567425751
 22
-139.53858617738231
 32
0.0
 13
129.53523567425751
 23
-139.53858617738231
 33
0.0
210
0.0
220
0.0
230
-1.0
  0
SOLID
  5
6507C
  8
HLADINA1
  6
CONTINUOUS
 10
139.29683524889569
 20
-139.53858617738231
 30
0.0
 11
129.53523567425759
 21
-139.53858617738231
 31
0.0
 12
136.0697413134194
 22
-146.57772002727569
 32
0.0
 13
136.0697413134194
 23
-146.57772002727569
 33
0.0
210
0.0
220
0.0
230
-1.0
  0
SOLID
  5
6507D
  8
HLADINA1
  6
CONTINUOUS
 10
-129.53523567425751
 20
-139.53858617738231
 30
0.0
 11
-136.0697413134194
 21
-146.57772002727569
 31
0.0
 12
-125.2121400426451
 22
-146.57772002727569
 32
0.0
 13
-125.2121400426451
 23
-146.57772002727569
 33
0.0
210
0.0
220
0.0
230
1.0
  0
SOLID
  5
6507E
  8
HLADINA1
  6
CONTINUOUS
 10
-136.0697413134194
 20
-146.57772002727569
 30
0.0
 11
-128.64834715820271
 21
-152.9542450331025
 31
0.0
 12
-121.2959867224501
 22
-152.9542450331025
 32
0.0
 13
-121.2959867224501
 23
-152.9542450331025
 33
0.0
210
0.0
220
0.0
230
1.0
  0
SOLID
  5
6507F
  8
HLADINA1
  6
CONTINUOUS
 10
136.0697413134194
 20
-146.57772002727569
 30
0.0
 11
125.2121400426451
 21
-146.57772002727569
 31
0.0
 12
121.2959867224501
 22
-152.9542450331025
 32
0.0
 13
121.2959867224501
 23
-152.9542450331025
 33
0.0
210
0.0
220
0.0
230
-1.0
  0
SOLID
  5
65080
  8
HLADINA1
  6
CONTINUOUS
 10
-128.64834715820271
 20
-152.9542450331025
 30
0.0
 11
-124.4155441826761
 21
-156.5911053660374
 31
0.0
 12
-118.6470868850928
 22
-156.5911053660374
 32
0.0
 13
-118.6470868850928
 23
-156.5911053660374
 33
0.0
210
0.0
220
0.0
230
1.0
  0
SOLID
  5
65081
  8
HLADINA1
  6
CONTINUOUS
 10
128.64834715820271
 20
-152.9542450331025
 30
0.0
 11
121.2959867224501
 21
-152.9542450331025
 31
0.0
 12
118.6470868850928
 22
-156.5911053660374
 32
0.0
 13
118.6470868850928
 23
-156.5911053660374
 33
0.0
210
0.0
220
0.0
230
-1.0
  0
SOLID
  5
65082
  8
HLADINA1
  6
CONTINUOUS
 10
124.4155441826761
 20
-156.5911053660374
 30
0.0
 11
118.6470868850928
 21
-156.5911053660374
 31
0.0
 12
112.0270211232598
 22
-165.6802578628913
 32
0.0
 13
112.0270211232598
 23
-165.6802578628913
 33
0.0
210
0.0
220
0.0
230
-1.0
  0
LINE
  5
65083
  8
HLADINA1
  6
CONTINUOUS
 10
-7.4303002125019191
 20
199.86193804923201
 30
0.0
 11
-106.0799013385006
 21
154.63598606144831
 31
0.0
  0
LINE
  5
65084
  8
HLADINA1
  6
CONTINUOUS
 10
114.36798504699919
 20
154.63598606144831
 30
0.0
 11
-7.4303002125019191
 21
199.86193804923201
 31
0.0
  0
LINE
  5
65085
  8
HLADINA1
  6
CONTINUOUS
 10
-106.0799013385006
 20
154.63598606144831
 30
0.0
 11
-123.65704524996811
 21
146.5777368891373
 31
0.0
  0
LINE
  5
65086
  8
HLADINA1
  6
CONTINUOUS
 10
114.36798504699919
 20
154.63598606144831
 30
0.0
 11
136.06970470668469
 21
146.5777368891373
 31
0.0
  0
LINE
  5
65087
  8
HLADINA1
  6
CONTINUOUS
 10
-123.65704524996811
 20
146.5777368891373
 30
0.0
 11
-139.0112327472724
 21
139.5386030392437
 31
0.0
  0
LINE
  5
65088
  8
HLADINA1
  6
CONTINUOUS
 10
-7.9187739383873028
 20
146.5777368891373
 30
0.0
 11
-20.572744427763961
 21
139.5386030392437
 31
0.0
  0
LINE
  5
65089
  8
HLADINA1
  6
CONTINUOUS
 10
136.0697047066846
 20
146.5777368891373
 30
0.0
 11
129.53519906752251
 21
139.5386030392437
 31
0.0
  0
LINE
  5
6508A
  8
HLADINA1
  6
CONTINUOUS
 10
129.53519906752251
 20
139.5386030392437
 30
0.0
 11
72.201549540798865
 21
146.5777368891373
 31
0.0
  0
LINE
  5
6508B
  8
HLADINA1
  6
CONTINUOUS
 10
136.0697047066846
 20
146.5777368891373
 30
0.0
 11
129.5351990675228
 21
139.5386030392437
 31
0.0
  0
LINE
  5
6508C
  8
HLADINA1
  6
CONTINUOUS
 10
143.09108860080289
 20
139.5386030392437
 30
0.0
 11
136.0697047066846
 21
146.5777368891373
 31
0.0
  0
LINE
  5
6508D
  8
HLADINA1
  6
CONTINUOUS
 10
-139.0112327472724
 20
139.5386030392437
 30
0.0
 11
-146.577746761573
 21
136.06973144098379
 31
0.0
  0
LINE
  5
6508E
  8
HLADINA1
  6
CONTINUOUS
 10
-20.572744427763961
 20
139.5386030392437
 30
0.0
 11
-26.808596703322301
 21
136.06973144098379
 31
0.0
  0
LINE
  5
6508F
  8
HLADINA1
  6
CONTINUOUS
 10
129.53519906752311
 20
139.5386030392437
 30
0.0
 11
136.25658556636
 21
136.06973144098379
 31
0.0
  0
LINE
  5
65090
  8
HLADINA1
  6
CONTINUOUS
 10
143.09108860080289
 20
139.5386030392437
 30
0.0
 11
146.55121305505739
 21
136.06973144098379
 31
0.0
  0
LINE
  5
65091
  8
HLADINA1
  6
CONTINUOUS
 10
-146.577746761573
 20
136.06973144098379
 30
0.0
 11
-146.71532458895959
 21
135.69921976065609
 31
0.0
  0
LINE
  5
65092
  8
HLADINA1
  6
CONTINUOUS
 10
-146.17862225930841
 20
135.69921976065609
 30
0.0
 11
-146.577746761573
 21
136.06973144098379
 31
0.0
  0
LINE
  5
65093
  8
HLADINA1
  6
CONTINUOUS
 10
-146.577746761573
 20
136.06973144098379
 30
0.0
 11
-146.1786222593083
 21
135.69921976065609
 31
0.0
  0
LINE
  5
65094
  8
HLADINA1
  6
CONTINUOUS
 10
-26.808596703322301
 20
136.06973144098379
 30
0.0
 11
-27.47465079020499
 21
135.69921976065609
 31
0.0
  0
LINE
  5
65095
  8
HLADINA1
  6
CONTINUOUS
 10
136.25658556636
 20
136.06973144098379
 30
0.0
 11
136.9744997742728
 21
135.69921976065609
 31
0.0
  0
LINE
  5
65096
  8
HLADINA1
  6
CONTINUOUS
 10
146.55121305505739
 20
136.06973144098379
 30
0.0
 11
146.92079044913899
 21
135.69921976065609
 31
0.0
  0
LINE
  5
65097
  8
HLADINA1
  6
CONTINUOUS
 10
-146.71532458895959
 20
135.69921976065609
 30
0.0
 11
-147.97074803455669
 21
132.3182312744525
 31
0.0
  0
LINE
  5
65098
  8
HLADINA1
  6
CONTINUOUS
 10
-146.17862225930841
 20
135.69921976065609
 30
0.0
 11
-142.53653641325681
 21
132.3182312744525
 31
0.0
  0
LINE
  5
65099
  8
HLADINA1
  6
CONTINUOUS
 10
-146.1786222593083
 20
135.69921976065609
 30
0.0
 11
-142.5365364132567
 21
132.3182312744525
 31
0.0
  0
LINE
  5
6509A
  8
HLADINA1
  6
CONTINUOUS
 10
-27.47465079020499
 20
135.69921976065609
 30
0.0
 11
-33.552519096401468
 21
132.3182312744525
 31
0.0
  0
LINE
  5
6509B
  8
HLADINA1
  6
CONTINUOUS
 10
136.9744997742728
 20
135.69921976065609
 30
0.0
 11
143.5256013991617
 21
132.3182312744525
 31
0.0
  0
LINE
  5
6509C
  8
HLADINA1
  6
CONTINUOUS
 10
146.92079044913899
 20
135.69921976065609
 30
0.0
 11
149.81095848922959
 21
132.3182312744525
 31
0.0
  0
LINE
  5
6509D
  8
HLADINA1
  6
CONTINUOUS
 10
-147.97074803455669
 20
132.3182312744525
 30
0.0
 11
-151.0521169139048
 21
124.0197780797475
 31
0.0
  0
LINE
  5
6509E
  8
HLADINA1
  6
CONTINUOUS
 10
-142.53653641325681
 20
132.3182312744525
 30
0.0
 11
-133.5972338844588
 21
124.0197780797475
 31
0.0
  0
LINE
  5
6509F
  8
HLADINA1
  6
CONTINUOUS
 10
-142.5365364132567
 20
132.3182312744525
 30
0.0
 11
-133.59723388445869
 21
124.0197780797475
 31
0.0
  0
LINE
  5
650A0
  8
HLADINA1
  6
CONTINUOUS
 10
-33.552519096401468
 20
132.3182312744525
 30
0.0
 11
-48.470317801828479
 21
124.0197780797475
 31
0.0
  0
LINE
  5
650A1
  8
HLADINA1
  6
CONTINUOUS
 10
149.81095848922959
 20
132.3182312744525
 30
0.0
 11
156.90471947167379
 21
124.0197780797475
 31
0.0
  0
LINE
  5
650A2
  8
HLADINA1
  6
CONTINUOUS
 10
156.90471947167379
 20
124.0197780797475
 30
0.0
 11
143.5256013991617
 21
132.3182312744525
 31
0.0
  0
LINE
  5
650A3
  8
HLADINA1
  6
CONTINUOUS
 10
-151.0521169139048
 20
124.0197780797475
 30
0.0
 11
-162.0470583125522
 21
94.409234795978335
 31
0.0
  0
LINE
  5
650A4
  8
HLADINA1
  6
CONTINUOUS
 10
-48.470317801828479
 20
124.0197780797475
 30
0.0
 11
-101.7000118064241
 21
94.409234795978335
 31
0.0
  0
LINE
  5
650A5
  8
HLADINA1
  6
CONTINUOUS
 10
-101.7000118064241
 20
94.409234795978335
 30
0.0
 11
-133.59723388445869
 21
124.0197780797475
 31
0.0
  0
LINE
  5
650A6
  8
HLADINA1
  6
CONTINUOUS
 10
-162.0470583125522
 20
94.409234795978335
 30
0.0
 11
-199.8619479216687
 21
-7.4302734782037438
 31
0.0
  0
LINE
  5
650A7
  8
HLADINA1
  6
CONTINUOUS
 10
-101.7000118064241
 20
94.409234795978335
 30
0.0
 11
-148.81695672466711
 21
-7.4302734782037438
 31
0.0
  0
LINE
  5
650A8
  8
HLADINA1
  6
CONTINUOUS
 10
-199.8619479216687
 20
-7.4302734782037438
 30
0.0
 11
-195.00201376120179
 21
-18.031057880888518
 31
0.0
  0
LINE
  5
650A9
  8
HLADINA1
  6
CONTINUOUS
 10
-148.81695672466711
 20
-7.4302734782037438
 30
0.0
 11
-153.72150293915519
 21
-18.031057880888518
 31
0.0
  0
LINE
  5
650AA
  8
HLADINA1
  6
CONTINUOUS
 10
-195.00201376120179
 20
-18.031057880888518
 30
0.0
 11
-139.29683524889569
 21
-139.53858617738231
 31
0.0
  0
LINE
  5
650AB
  8
HLADINA1
  6
CONTINUOUS
 10
-153.72150293915519
 20
-18.031057880888518
 30
0.0
 11
-129.53523567425751
 21
-139.53858617738231
 31
0.0
  0
LINE
  5
650AC
  8
HLADINA1
  6
CONTINUOUS
 10
-129.53523567425759
 20
-139.53858617738231
 30
0.0
 11
-136.0697413134194
 21
-146.57772002727569
 31
0.0
  0
LINE
  5
650AD
  8
HLADINA1
  6
CONTINUOUS
 10
-125.2121400426451
 20
-146.57772002727569
 30
0.0
 11
-129.53523567425751
 21
-139.53858617738231
 31
0.0
  0
LINE
  5
650AE
  8
HLADINA1
  6
CONTINUOUS
 10
-136.0697413134194
 20
-146.57772002727569
 30
0.0
 11
-128.64834715820271
 21
-152.9542450331025
 31
0.0
  0
LINE
  5
650AF
  8
HLADINA1
  6
CONTINUOUS
 10
-125.2121400426451
 20
-146.57772002727569
 30
0.0
 11
-121.2959867224501
 21
-152.9542450331025
 31
0.0
  0
LINE
  5
650B0
  8
HLADINA1
  6
CONTINUOUS
 10
-128.64834715820271
 20
-152.9542450331025
 30
0.0
 11
-124.4155441826761
 21
-156.5911053660374
 31
0.0
  0
LINE
  5
650B1
  8
HLADINA1
  6
CONTINUOUS
 10
-121.2959867224501
 20
-152.9542450331025
 30
0.0
 11
-118.6470868850928
 21
-156.5911053660374
 31
0.0
  0
LINE
  5
650B2
  8
HLADINA1
  6
CONTINUOUS
 10
-118.6470868850928
 20
-156.5911053660374
 30
0.0
 11
-112.0270211232598
 21
-165.6802578628913
 31
0.0
  0
LINE
  5
650B3
  8
HLADINA1
  6
CONTINUOUS
 10
-112.0270211232598
 20
-165.6802578628913
 30
0.0
 11
-124.4155441826761
 21
-156.5911053660374
 31
0.0
  0
ENDBLK
  5
650B5
  8
0
  0
BLOCK
  8
0
  2
*U113
 70
     1
 10
0.0
 20
0.0
 30
0.0
  3
*U113
  1

  0
TEXT
  5
650B7
  8
S-OBRYS
  6
CONTINUOUS
 62
     7
 10
8760.6974933009151
 20
399875.09201957617
 30
0.0
 40
100.0
  1
2810
 41
0.8
  0
ENDBLK
  5
650B9
  8
0
  0
BLOCK
  8
0
  2
*U114
 70
     1
 10
0.0
 20
0.0
 30
0.0
  3
*U114
  1

  0
TEXT
  5
650BB
  8
S-OBRYS
  6
CONTINUOUS
 62
     7
 10
8748.9873613574582
 20
399683.41193523369
 30
0.0
 40
100.0
  1
1850
 41
0.8
  0
ENDBLK
  5
650BD
  8
0
  0
BLOCK
  8
0
  2
*U115
 70
     1
 10
0.0
 20
0.0
 30
0.0
  3
*U115
  1

  0
TEXT
  5
650BF
  8
S-OBRYS
  6
CONTINUOUS
 62
     7
 10
7541.1558877231682
 20
399681.75685461482
 30
0.0
 40
100.0
  1
300
 41
0.8
  0
ENDBLK
  5
650C1
  8
0
  0
BLOCK
  8
0
  2
*U116
 70
     1
 10
0.0
 20
0.0
 30
0.0
  3
*U116
  1

  0
TEXT
  5
650C3
  8
S-OBRYS
  6
CONTINUOUS
 62
     7
 10
7258.4952437553657
 20
399091.79555741849
 30
0.0
 40
100.0
  1
520
 50
90.0
 41
0.8
  0
ENDBLK
  5
650C5
  8
0
  0
BLOCK
  8
0
  2
*U117
 70
     1
 10
0.0
 20
0.0
 30
0.0
  3
*U117
  1

  0
TEXT
  5
650C7
  8
S-OBRYS
  6
CONTINUOUS
 62
     7
 10
8080.3437748465894
 20
403073.88248871628
 30
0.0
 40
100.0
  1
25°
 50
282.50000000000011
 41
0.8
  0
ENDBLK
  5
650C9
  8
0
  0
BLOCK
  8
0
  2
*U118
 70
     1
 10
0.0
 20
0.0
 30
0.0
  3
*U118
  1

  0
TEXT
  5
650CB
  8
S-OBRYS
  6
CONTINUOUS
 62
     7
 10
9811.6582130577553
 20
399595.46630364523
 30
0.0
 40
100.0
  1
\U+220521
 50
40.56593838441303
 41
0.8
  0
ENDBLK
  5
650CD
  8
0
  0
BLOCK
  8
0
  2
*U119
 70
     1
 10
0.0
 20
0.0
 30
0.0
  3
*U119
  1

  0
TEXT
  5
650CF
  8
S-OBRYS
  6
CONTINUOUS
 62
     7
 10
7432.3595162194051
 20
398663.93841456139
 30
0.0
 40
100.0
  1
100
 50
90.0
 41
0.8
  0
ENDBLK
  5
650D1
  8
0
  0
BLOCK
  8
0
  2
*U120
 70
     1
 10
0.0
 20
0.0
 30
0.0
  3
*U120
  1

  0
TEXT
  5
650D3
  8
S-OBRYS
  6
CONTINUOUS
 62
     7
 10
8115.7927313961527
 20
398695.83049012168
 30
0.0
 40
100.0
  1
408
 41
0.8
  0
ENDBLK
  5
650D5
  8
0
  0
BLOCK
  8
0
  2
*U121
 70
     1
 10
0.0
 20
0.0
 30
0.0
  3
*U121
  1

  0
TEXT
  5
650D7
  8
S-OBRYS
  6
CONTINUOUS
 62
     7
 10
7802.7927313961509
 20
398695.83049012168
 30
0.0
 40
100.0
  1
218
 41
0.8
  0
ENDBLK
  5
650D9
  8
0
  0
BLOCK
  8
0
  2
*U122
 70
     1
 10
0.0
 20
0.0
 30
0.0
  3
*U122
  1

  0
TEXT
  5
650DB
  8
S-OBRYS
  6
CONTINUOUS
 62
     7
 10
7354.0684934617311
 20
403010.9935343276
 30
0.0
 40
100.0
  1
824
 50
90.0
 41
0.8
  0
ENDBLK
  5
650DD
  8
0
  0
BLOCK
  8
0
  2
*U123
 70
     1
 10
0.0
 20
0.0
 30
0.0
  3
*U123
  1

  0
TEXT
  5
650DF
  8
S-OBRYS
  6
CONTINUOUS
 62
     7
 10
10290.93929435903
 20
404826.60751836258
 30
0.0
 40
100.0
  1
1100
 50
294.9999999999971
 41
0.8
  0
ENDBLK
  5
650E1
  8
0
  0
BLOCK
  8
0
  2
*U124
 70
     1
 10
0.0
 20
0.0
 30
0.0
  3
*U124
  1

  0
TEXT
  5
650E3
  8
S-OBRYS
  6
CONTINUOUS
 62
     7
 10
-4260.7812834000633
 20
402120.49208355672
 30
0.0
 40
100.0
  1
2160
 41
0.8
  0
ENDBLK
  5
650E5
  8
0
  0
BLOCK
  8
0
  2
*U125
 70
     1
 10
0.0
 20
0.0
 30
0.0
  3
*U125
  1

  0
TEXT
  5
650E7
  8
S-OBRYS
  6
CONTINUOUS
 62
     7
 10
-3783.988853681813
 20
402805.1957876613
 30
0.0
 40
100.0
  1
3000
 50
24.99999999827115
 41
0.8
  0
ENDBLK
  5
650E9
  8
0
  0
BLOCK
  8
0
  2
*U126
 70
     1
 10
0.0
 20
0.0
 30
0.0
  3
*U126
  1

  0
TEXT
  5
650EB
  8
S-OBRYS
  6
CONTINUOUS
 62
     7
 10
-3869.8209049344691
 20
403036.58724726149
 30
0.0
 40
100.0
  1
2500
 50
24.99999999827115
 41
0.8
  0
ENDBLK
  5
650ED
  8
0
  0
BLOCK
  8
0
  2
*U127
 70
     1
 10
0.0
 20
0.0
 30
0.0
  3
*U127
  1

  0
TEXT
  5
650EF
  8
S-OBRYS
  6
CONTINUOUS
 62
     7
 10
-5471.0291604397062
 20
403010.9935343276
 30
0.0
 40
100.0
  1
824
 50
90.0
 41
0.8
  0
ENDBLK
  5
650F1
  8
0
  0
BLOCK
  8
0
  2
*U128
 70
     1
 10
0.0
 20
0.0
 30
0.0
  3
*U128
  1

  0
TEXT
  5
650F3
  8
S-OBRYS
  6
CONTINUOUS
 62
     7
 10
-5217.919933394478
 20
403738.0845306858
 30
0.0
 40
100.0
  1
\U+2205120
 41
0.8
  0
ENDBLK
  5
650F5
  8
0
  0
BLOCK
  8
0
  2
*U129
 70
     1
 10
0.0
 20
0.0
 30
0.0
  3
*U129
  1

  0
TEXT
  5
650F7
  8
S-OBRYS
  6
CONTINUOUS
 62
     7
 10
-4064.400160600524
 20
399875.09201957617
 30
0.0
 40
100.0
  1
2810
 41
0.8
  0
ENDBLK
  5
650F9
  8
0
  0
BLOCK
  8
0
  2
*U130
 70
     1
 10
0.0
 20
0.0
 30
0.0
  3
*U130
  1

  0
TEXT
  5
650FB
  8
S-OBRYS
  6
CONTINUOUS
 62
     7
 10
-4076.1102925439791
 20
399683.41193523369
 30
0.0
 40
100.0
  1
1850
 41
0.8
  0
ENDBLK
  5
650FD
  8
0
  0
BLOCK
  8
0
  2
*U131
 70
     1
 10
0.0
 20
0.0
 30
0.0
  3
*U131
  1

  0
TEXT
  5
650FF
  8
S-OBRYS
  6
CONTINUOUS
 62
     7
 10
-5283.9417661782691
 20
399681.75685461482
 30
0.0
 40
100.0
  1
300
 41
0.8
  0
ENDBLK
  5
65101
  8
0
  0
BLOCK
  8
0
  2
*U132
 70
     1
 10
0.0
 20
0.0
 30
0.0
  3
*U132
  1

  0
TEXT
  5
65103
  8
S-OBRYS
  6
CONTINUOUS
 62
     7
 10
-5566.6024101460707
 20
399091.79555741849
 30
0.0
 40
100.0
  1
520
 50
90.0
 41
0.8
  0
ENDBLK
  5
65105
  8
0
  0
BLOCK
  8
0
  2
*U133
 70
     1
 10
0.0
 20
0.0
 30
0.0
  3
*U133
  1

  0
TEXT
  5
65107
  8
S-OBRYS
  6
CONTINUOUS
 62
     7
 10
-3341.6792942171219
 20
399091.79555741849
 30
0.0
 40
100.0
  1
450
 50
90.0
 41
0.8
  0
ENDBLK
  5
65109
  8
0
  0
BLOCK
  8
0
  2
*U134
 70
     1
 10
0.0
 20
0.0
 30
0.0
  3
*U134
  1

  0
TEXT
  5
6510B
  8
S-OBRYS
  6
CONTINUOUS
 62
     7
 10
-4744.753879054877
 20
403073.88248871628
 30
0.0
 40
100.0
  1
25°
 50
282.50000000000011
 41
0.8
  0
ENDBLK
  5
6510D
  8
0
  0
BLOCK
  8
0
  2
*U135
 70
     1
 10
0.0
 20
0.0
 30
0.0
  3
*U135
  1

  0
TEXT
  5
6510F
  8
S-OBRYS
  6
CONTINUOUS
 62
     7
 10
-2534.1583595424931
 20
404826.60751836252
 30
0.0
 40
100.0
  1
1100
 50
294.9999999999971
 41
0.8
  0
ENDBLK
  5
65111
  8
0
  0
BLOCK
  8
0
  2
*U136
 70
     1
 10
0.0
 20
0.0
 30
0.0
  3
*U136
  1

  0
TEXT
  5
65113
  8
S-OBRYS
  6
CONTINUOUS
 62
     7
 10
-3013.4394408434591
 20
399595.46630364499
 30
0.0
 40
100.0
  1
\U+220521
 50
40.565938384358773
 41
0.8
  0
ENDBLK
  5
65115
  8
0
  0
BLOCK
  8
0
  2
*U137
 70
     1
 10
0.0
 20
0.0
 30
0.0
  3
*U137
  1

  0
TEXT
  5
65117
  8
S-OBRYS
  6
CONTINUOUS
 62
     7
 10
-5392.7381376820322
 20
398663.93841456139
 30
0.0
 40
100.0
  1
100
 50
90.0
 41
0.8
  0
ENDBLK
  5
65119
  8
0
  0
BLOCK
  8
0
  2
*U138
 70
     1
 10
0.0
 20
0.0
 30
0.0
  3
*U138
  1

  0
TEXT
  5
6511B
  8
S-OBRYS
  6
CONTINUOUS
 62
     7
 10
-4709.3049225052837
 20
398695.83049012168
 30
0.0
 40
100.0
  1
408
 41
0.8
  0
ENDBLK
  5
6511D
  8
0
  0
BLOCK
  8
0
  2
*U139
 70
     1
 10
0.0
 20
0.0
 30
0.0
  3
*U139
  1

  0
TEXT
  5
6511F
  8
S-OBRYS
  6
CONTINUOUS
 62
     7
 10
-5022.3049225052846
 20
398695.83049012168
 30
0.0
 40
100.0
  1
218
 41
0.8
  0
ENDBLK
  5
65121
  8
0
  0
BLOCK
  8
0
  2
*U140
 70
     1
 10
0.0
 20
0.0
 30
0.0
  3
*U140
  1

  0
TEXT
  5
65123
  8
S-OBRYS
  6
CONTINUOUS
 62
     7
 10
8571.4589528407614
 20
401897.48797089211
 30
0.0
 40
100.0
  1
2160
 41
0.8
  0
ENDBLK
  5
65125
  8
0
  0
BLOCK
  8
0
  2
*U141
 70
     1
 10
0.0
 20
0.0
 30
0.0
  3
*U141
  1

  0
TEXT
  5
65127
  8
S-OBRYS
  6
CONTINUOUS
 62
     7
 10
8955.2767489666367
 20
403036.58724726178
 30
0.0
 40
100.0
  1
2500
 50
24.999999998250988
 41
0.8
  0
ENDBLK
  5
65129
  8
0
  0
BLOCK
  8
0
  2
*U142
 70
     1
 10
0.0
 20
0.0
 30
0.0
  3
*U142
  1

  0
TEXT
  5
6512B
  8
S-OBRYS
  6
CONTINUOUS
 62
     7
 10
9041.1088002191464
 20
402805.19578766171
 30
0.0
 40
100.0
  1
3000
 50
24.999999998250988
 41
0.8
  0
ENDBLK
  5
6512D
  8
0
  0
BLOCK
  8
0
  2
*U143
 70
     1
 10
0.0
 20
0.0
 30
0.0
  3
*U143
  1

  0
TEXT
  5
6512F
  8
S-OBRYS
  6
CONTINUOUS
 62
     7
 10
8558.6020847870877
 20
402120.49208355672
 30
0.0
 40
100.0
  1
1850
 41
0.8
  0
ENDBLK
  5
65131
  8
0
  0
BLOCK
  8
0
  2
*U144
 70
     1
 10
0.0
 20
0.0
 30
0.0
  3
*U144
  1

  0
TEXT
  5
65133
  8
S-OBRYS
  6
CONTINUOUS
 62
     7
 10
-4190.105102300533
 20
401897.48797089211
 30
0.0
 40
100.0
  1
2160
 41
0.8
  0
ENDBLK
  5
65135
  8
0
  0
BLOCK
  8
0
  2
*U145
 70
     1
 10
0.0
 20
0.0
 30
0.0
  3
*U145
  1

  0
TEXT
  5
65137
  8
S-OBRYS
  6
CONTINUOUS
 62
     7
 10
-4202.9619703542057
 20
402120.49208355672
 30
0.0
 40
100.0
  1
1850
 41
0.8
  0
ENDBLK
  5
65139
  8
0
  0
BLOCK
  8
0
  2
*U146
 70
     1
 10
0.0
 20
0.0
 30
0.0
  3
*U146
  1

  0
TEXT
  5
6513B
  8
S-OBRYS
  6
CONTINUOUS
 62
     7
 10
-3720.455254921641
 20
402805.1957876613
 30
0.0
 40
100.0
  1
3000
 50
24.99999999827115
 41
0.8
  0
ENDBLK
  5
6513D
  8
0
  0
BLOCK
  8
0
  2
*U147
 70
     1
 10
0.0
 20
0.0
 30
0.0
  3
*U147
  1

  0
TEXT
  5
6513F
  8
S-OBRYS
  6
CONTINUOUS
 62
     7
 10
-3806.2873061743262
 20
403036.58724726149
 30
0.0
 40
100.0
  1
2500
 50
24.99999999827115
 41
0.8
  0
ENDBLK
  5
65141
  8
0
  0
BLOCK
  8
0
  2
*U148
 70
     1
 10
0.0
 20
0.0
 30
0.0
  3
*U148
  1

  0
TEXT
  5
65143
  8
S-OBRYS
  6
CONTINUOUS
 62
     7
 10
-5407.4955616795642
 20
403010.9935343276
 30
0.0
 40
100.0
  1
824
 50
90.0
 41
0.8
  0
ENDBLK
  5
65145
  8
0
  0
BLOCK
  8
0
  2
*U149
 70
     1
 10
0.0
 20
0.0
 30
0.0
  3
*U149
  1

  0
TEXT
  5
65147
  8
S-OBRYS
  6
CONTINUOUS
 62
     7
 10
-5154.3863346343351
 20
403738.0845306858
 30
0.0
 40
100.0
  1
\U+2205120
 41
0.8
  0
ENDBLK
  5
65149
  8
0
  0
BLOCK
  8
0
  2
*U150
 70
     1
 10
0.0
 20
0.0
 30
0.0
  3
*U150
  1

  0
TEXT
  5
6514B
  8
S-OBRYS
  6
CONTINUOUS
 62
     7
 10
-4681.2202802947186
 20
403073.88248871628
 30
0.0
 40
100.0
  1
25°
 50
282.50000000000011
 41
0.8
  0
ENDBLK
  5
6514D
  8
0
  0
BLOCK
  8
0
  2
*U151
 70
     1
 10
0.0
 20
0.0
 30
0.0
  3
*U151
  1

  0
TEXT
  5
6514F
  8
S-OBRYS
  6
CONTINUOUS
 62
     7
 10
-2470.6247607824089
 20
404826.60751836258
 30
0.0
 40
100.0
  1
1100
 50
294.9999999999971
 41
0.8
  0
ENDBLK
  5
65151
  8
0
  0
BLOCK
  8
0
  2
*U152
 70
     1
 10
0.0
 20
0.0
 30
0.0
  3
*U152
  1

  0
TEXT
  5
65153
  8
S-OBRYS
  6
CONTINUOUS
 62
     7
 10
7607.1777205069593
 20
403788.54778959072
 30
0.0
 40
100.0
  1
\U+2205120
 41
0.8
  0
ENDBLK
  5
65155
  8
0
  0
BLOCK
  8
0
  2
*U153
 70
     1
 10
0.0
 20
0.0
 30
0.0
  3
*U153
  1

  0
TEXT
  5
65157
  8
S-OBRYS
  6
CONTINUOUS
 62
     7
 10
9387.5850534660276
 20
398600.22941774112
 30
0.0
 40
100.0
  1
450
 50
90.0
 41
0.8
  0
ENDBLK
  5
65159
  8
0
  0
BLOCK
  8
0
  2
*U154
 70
     1
 10
0.0
 20
0.0
 30
0.0
  3
*U154
  1

  0
TEXT
  5
65196
  8
OBRYS
  6
CONTINUOUS
 10
-5894.4542394693872
 20
406739.86003336363
 30
0.0
 40
400.0
  1
Mixér obilí  MO3
  7
R
  0
ENDBLK
  5
65198
  8
0
  0
BLOCK
  8
0
  2
*U155
 70
     1
 10
0.0
 20
0.0
 30
0.0
  3
*U155
  1

  0
TEXT
  5
6519A
  8
S-OBRYS
  6
CONTINUOUS
 62
     7
 10
21359.141165343459
 20
399547.02612828882
 30
0.0
 40
100.0
  1
2160
 41
0.8
  0
ENDBLK
  5
6519C
  8
0
  0
BLOCK
  8
0
  2
*U156
 70
     1
 10
0.0
 20
0.0
 30
0.0
  3
*U156
  1

  0
TEXT
  5
6519E
  8
S-OBRYS
  6
CONTINUOUS
 62
     7
 10
21346.284297289789
 20
399770.03024095332
 30
0.0
 40
100.0
  1
1850
 41
0.8
  0
ENDBLK
  5
651A0
  8
0
  0
BLOCK
  8
0
  2
*U157
 70
     1
 10
0.0
 20
0.0
 30
0.0
  3
*U157
  1

  0
TEXT
  5
651A2
  8
S-OBRYS
  6
CONTINUOUS
 62
     7
 10
21828.791012722359
 20
400454.73394505779
 30
0.0
 40
100.0
  1
3000
 50
24.999999998273012
 41
0.8
  0
ENDBLK
  5
651A4
  8
0
  0
BLOCK
  8
0
  2
*U158
 70
     1
 10
0.0
 20
0.0
 30
0.0
  3
*U158
  1

  0
TEXT
  5
651A6
  8
S-OBRYS
  6
CONTINUOUS
 62
     7
 10
21742.9589614697
 20
400686.12540465803
 30
0.0
 40
100.0
  1
2500
 50
24.999999998273012
 41
0.8
  0
ENDBLK
  5
651A8
  8
0
  0
BLOCK
  8
0
  2
*U159
 70
     1
 10
0.0
 20
0.0
 30
0.0
  3
*U159
  1

  0
TEXT
  5
651AA
  8
S-OBRYS
  6
CONTINUOUS
 62
     7
 10
20394.859933009651
 20
401438.08594698732
 30
0.0
 40
100.0
  1
\U+2205120
 41
0.8
  0
ENDBLK
  5
651AC
  8
0
  0
BLOCK
  8
0
  2
*U160
 70
     1
 10
0.0
 20
0.0
 30
0.0
  3
*U160
  1

  0
TEXT
  5
651AE
  8
S-OBRYS
  6
CONTINUOUS
 62
     7
 10
20868.025987349291
 20
400723.42064611282
 30
0.0
 40
100.0
  1
25°
 50
282.50000000000011
 41
0.8
  0
ENDBLK
  5
651B0
  8
0
  0
BLOCK
  8
0
  2
*U161
 70
     1
 10
0.0
 20
0.0
 30
0.0
  3
*U161
  1

  0
TEXT
  5
651B2
  8
S-OBRYS
  6
CONTINUOUS
 62
     7
 10
23078.621506861578
 20
402476.14567575918
 30
0.0
 40
100.0
  1
1100
 50
294.9999999999971
 41
0.8
  0
ENDBLK
  5
651B4
  8
0
  0
BLOCK
  8
0
  2
*U162
 70
     1
 10
0.0
 20
0.0
 30
0.0
  3
*U162
  1

  0
TEXT
  5
651B6
  8
S-OBRYS
  6
CONTINUOUS
 62
     7
 10
21740.584027840141
 20
401062.25687962159
 30
0.0
 40
100.0
  1
25°
 50
282.50000000000011
 41
0.8
  0
ENDBLK
  5
651B8
  8
0
  0
BLOCK
  8
0
  2
*U163
 70
     1
 10
0.0
 20
0.0
 30
0.0
  3
*U163
  1

  0
TEXT
  5
651BA
  8
S-OBRYS
  6
CONTINUOUS
 62
     7
 10
23854.7327391531
 20
402697.83626988123
 30
0.0
 40
100.0
  1
1000
 50
295.00000000000148
 41
0.8
  0
ENDBLK
  5
651BC
  8
0
  0
BLOCK
  8
0
  2
*U164
 70
     1
 10
0.0
 20
0.0
 30
0.0
  3
*U164
  1

  0
TEXT
  5
651BE
  8
S-OBRYS
  6
CONTINUOUS
 62
     7
 10
22213.308610970649
 20
400043.03021188529
 30
0.0
 40
100.0
  1
2165
 41
0.8
  0
ENDBLK
  5
651C0
  8
0
  0
BLOCK
  8
0
  2
*U165
 70
     1
 10
0.0
 20
0.0
 30
0.0
  3
*U165
  1

  0
TEXT
  5
651C2
  8
S-OBRYS
  6
CONTINUOUS
 62
     7
 10
22504.756873056402
 20
400843.17696736299
 30
0.0
 40
100.0
  1
3000
 50
24.999999998455269
 41
0.8
  0
ENDBLK
  5
651C4
  8
0
  0
BLOCK
  8
0
  2
*U166
 70
     1
 10
0.0
 20
0.0
 30
0.0
  3
*U166
  1

  0
TEXT
  5
651C6
  8
S-OBRYS
  6
CONTINUOUS
 62
     7
 10
21132.242061383778
 20
401601.86945516733
 30
0.0
 40
100.0
  1
\U+2205120
 41
0.8
  0
ENDBLK
  5
651C8
  8
0
  0
BLOCK
  8
0
  2
*U167
 70
     1
 10
0.0
 20
0.0
 30
0.0
  3
*U167
  1

  0
TEXT
  5
651CA
  8
S-OBRYS
  6
CONTINUOUS
 62
     7
 10
20904.540376930501
 20
400928.68322071381
 30
0.0
 40
100.0
  1
720
 50
90.0
 41
0.8
  0
ENDBLK
  5
651CC
  8
0
  0
BLOCK
  8
0
  2
*U168
 70
     1
 10
0.0
 20
0.0
 30
0.0
  3
*U168
  1

  0
TEXT
  5
651CE
  8
S-OBRYS
  6
CONTINUOUS
 62
     7
 10
20080.761203206199
 20
401636.75564959279
 30
0.0
 40
100.0
  1
MIN.200
 41
0.8
  0
ENDBLK
  5
651D0
  8
0
  0
BLOCK
  8
0
  2
*U169
 70
     1
 10
0.0
 20
0.0
 30
0.0
  3
*U169
  1

  0
TEXT
  5
651D2
  8
S-OBRYS
  6
CONTINUOUS
 62
     7
 10
24360.881990802201
 20
402399.06102877832
 30
0.0
 40
100.0
  1
MIN.400
 41
0.8
  0
ENDBLK
  5
651D4
  8
0
  0
BLOCK
  8
0
  2
*U170
 70
     1
 10
0.0
 20
0.0
 30
0.0
  3
*U170
  1

  0
TEXT
  5
651D6
  8
S-OBRYS
  6
CONTINUOUS
 62
     7
 10
19080.577808602338
 20
404126.02899505419
 30
0.0
 40
100.0
  1
25°
 50
282.50000000000011
 41
0.8
  0
ENDBLK
  5
651D8
  8
0
  0
BLOCK
  8
0
  2
*U171
 70
     1
 10
0.0
 20
0.0
 30
0.0
  3
*U171
  1

  0
TEXT
  5
651DA
  8
S-OBRYS
  6
CONTINUOUS
 62
     7
 10
21194.72651991529
 20
405761.60838531359
 30
0.0
 40
100.0
  1
1000
 50
295.00000000000148
 41
0.8
  0
ENDBLK
  5
651DC
  8
0
  0
BLOCK
  8
0
  2
*U172
 70
     1
 10
0.0
 20
0.0
 30
0.0
  3
*U172
  1

  0
TEXT
  5
651DE
  8
S-OBRYS
  6
CONTINUOUS
 62
     7
 10
19553.302391732839
 20
403106.80232731788
 30
0.0
 40
100.0
  1
2165
 41
0.8
  0
ENDBLK
  5
651E0
  8
0
  0
BLOCK
  8
0
  2
*U173
 70
     1
 10
0.0
 20
0.0
 30
0.0
  3
*U173
  1

  0
TEXT
  5
651E2
  8
S-OBRYS
  6
CONTINUOUS
 62
     7
 10
19844.75065381475
 20
403906.94908279949
 30
0.0
 40
100.0
  1
3000
 50
24.999999998273012
 41
0.8
  0
ENDBLK
  5
651E4
  8
0
  0
BLOCK
  8
0
  2
*U174
 70
     1
 10
0.0
 20
0.0
 30
0.0
  3
*U174
  1

  0
TEXT
  5
651E6
  8
S-OBRYS
  6
CONTINUOUS
 62
     7
 10
18472.235842145968
 20
404665.64157059981
 30
0.0
 40
100.0
  1
\U+2205120
 41
0.8
  0
ENDBLK
  5
651E8
  8
0
  0
BLOCK
  8
0
  2
*U175
 70
     1
 10
0.0
 20
0.0
 30
0.0
  3
*U175
  1

  0
TEXT
  5
651EA
  8
S-OBRYS
  6
CONTINUOUS
 62
     7
 10
18244.534157692691
 20
403992.45533614641
 30
0.0
 40
100.0
  1
720
 50
90.0
 41
0.8
  0
ENDBLK
  5
651EC
  8
0
  0
BLOCK
  8
0
  2
*U176
 70
     1
 10
0.0
 20
0.0
 30
0.0
  3
*U176
  1

  0
TEXT
  5
651EE
  8
S-OBRYS
  6
CONTINUOUS
 62
     7
 10
19359.38374364192
 20
401345.69811611902
 30
0.0
 40
100.0
  1
MIN.200
 41
0.8
  0
ENDBLK
  5
651F0
  8
0
  0
BLOCK
  8
0
  2
*U177
 70
     1
 10
0.0
 20
0.0
 30
0.0
  3
*U177
  1

  0
TEXT
  5
651F2
  8
S-OBRYS
  6
CONTINUOUS
 62
     7
 10
20173.99834681931
 20
400648.86516627431
 30
0.0
 40
100.0
  1
824
 50
90.0
 41
0.8
  0
ENDBLK
  5
651F4
  8
0
  0
BLOCK
  8
0
  2
*U178
 70
     1
 10
0.0
 20
0.0
 30
0.0
  3
*U178
  1

  0
TEXT
  5
651F6
  8
S-OBRYS
  6
CONTINUOUS
 62
     7
 10
23652.183079090159
 20
402080.81426169339
 30
0.0
 40
100.0
  1
MIN.400
 41
0.8
  0
ENDBLK
  5
651F8
  8
0
  0
BLOCK
  8
0
  2
*U179
 70
     1
 10
0.0
 20
0.0
 30
0.0
  3
*U179
  1

  0
TEXT
  5
651FA
  8
S-OBRYS
  6
CONTINUOUS
 62
     7
 10
-4251.3772048822229
 20
402984.36394259077
 30
0.0
 40
100.0
  1
1850
 41
0.8
  0
ENDBLK
  5
651FC
  8
0
  0
BLOCK
  8
0
  2
*U180
 70
     1
 10
0.0
 20
0.0
 30
0.0
  3
*U180
  1

  0
TEXT
  5
651FE
  8
S-OBRYS
  6
CONTINUOUS
 62
     7
 10
-3768.8704894498092
 20
403669.06764669542
 30
0.0
 40
100.0
  1
3000
 50
24.999999998268251
 41
0.8
  0
ENDBLK
  5
65200
  8
0
  0
BLOCK
  8
0
  2
*U181
 70
     1
 10
0.0
 20
0.0
 30
0.0
  3
*U181
  1

  0
TEXT
  5
65202
  8
S-OBRYS
  6
CONTINUOUS
 62
     7
 10
-3854.7025407024062
 20
403900.4591062956
 30
0.0
 40
100.0
  1
2500
 50
24.999999998268251
 41
0.8
  0
ENDBLK
  5
65204
  8
0
  0
BLOCK
  8
0
  2
*U182
 70
     1
 10
0.0
 20
0.0
 30
0.0
  3
*U182
  1

  0
TEXT
  5
65206
  8
S-OBRYS
  6
CONTINUOUS
 62
     7
 10
-5455.9107962075796
 20
403874.86539336172
 30
0.0
 40
100.0
  1
824
 50
90.0
 41
0.8
  0
ENDBLK
  5
65208
  8
0
  0
BLOCK
  8
0
  2
*U183
 70
     1
 10
0.0
 20
0.0
 30
0.0
  3
*U183
  1

  0
TEXT
  5
6520A
  8
S-OBRYS
  6
CONTINUOUS
 62
     7
 10
-5202.8015691623514
 20
404652.41964862472
 30
0.0
 40
100.0
  1
\U+2205120
 41
0.8
  0
ENDBLK
  5
6520C
  8
0
  0
BLOCK
  8
0
  2
*U184
 70
     1
 10
0.0
 20
0.0
 30
0.0
  3
*U184
  1

  0
TEXT
  5
6520E
  8
S-OBRYS
  6
CONTINUOUS
 62
     7
 10
-2519.0399953104252
 20
405690.47937739658
 30
0.0
 40
100.0
  1
1100
 50
294.9999999999971
 41
0.8
  0
ENDBLK
  5
65210
  8
0
  0
BLOCK
  8
0
  2
*U185
 70
     1
 10
0.0
 20
0.0
 30
0.0
  3
*U185
  1

  0
TEXT
  5
65212
  8
S-OBRYS
  6
CONTINUOUS
 62
     7
 10
-4238.5203368285493
 20
402761.35982992622
 30
0.0
 40
100.0
  1
2160
 41
0.8
  0
ENDBLK
  5
65214
  8
0
  0
BLOCK
  8
0
  2
*U186
 70
     1
 10
0.0
 20
0.0
 30
0.0
  3
*U186
  1

  0
TEXT
  5
65216
  8
S-OBRYS
  6
CONTINUOUS
 62
     7
 10
-4049.281796368397
 20
401374.16343325138
 30
0.0
 40
100.0
  1
2810
 41
0.8
  0
ENDBLK
  5
65218
  8
0
  0
BLOCK
  8
0
  2
*U187
 70
     1
 10
0.0
 20
0.0
 30
0.0
  3
*U187
  1

  0
TEXT
  5
6521A
  8
S-OBRYS
  6
CONTINUOUS
 62
     7
 10
-4060.991928311852
 20
401182.48334890889
 30
0.0
 40
100.0
  1
1850
 41
0.8
  0
ENDBLK
  5
6521C
  8
0
  0
BLOCK
  8
0
  2
*U188
 70
     1
 10
0.0
 20
0.0
 30
0.0
  3
*U188
  1

  0
TEXT
  5
6521E
  8
S-OBRYS
  6
CONTINUOUS
 62
     7
 10
-5268.8234019461433
 20
401180.82826828992
 30
0.0
 40
100.0
  1
300
 41
0.8
  0
ENDBLK
  5
65220
  8
0
  0
BLOCK
  8
0
  2
*U189
 70
     1
 10
0.0
 20
0.0
 30
0.0
  3
*U189
  1

  0
TEXT
  5
65222
  8
S-OBRYS
  6
CONTINUOUS
 62
     7
 10
-5551.4840459139441
 20
400590.8669710937
 30
0.0
 40
100.0
  1
520
 50
90.0
 41
0.8
  0
ENDBLK
  5
65224
  8
0
  0
BLOCK
  8
0
  2
*U190
 70
     1
 10
0.0
 20
0.0
 30
0.0
  3
*U190
  1

  0
TEXT
  5
65226
  8
S-OBRYS
  6
CONTINUOUS
 62
     7
 10
-3422.3942362032831
 20
400099.30083141627
 30
0.0
 40
100.0
  1
450
 50
90.0
 41
0.8
  0
ENDBLK
  5
65228
  8
0
  0
BLOCK
  8
0
  2
*U191
 70
     1
 10
0.0
 20
0.0
 30
0.0
  3
*U191
  1

  0
TEXT
  5
6522A
  8
S-OBRYS
  6
CONTINUOUS
 62
     7
 10
-2998.3210766123079
 20
401094.53771732101
 30
0.0
 40
100.0
  1
\U+220521
 50
40.565938384720532
 41
0.8
  0
ENDBLK
  5
6522C
  8
0
  0
BLOCK
  8
0
  2
*U192
 70
     1
 10
0.0
 20
0.0
 30
0.0
  3
*U192
  1

  0
TEXT
  5
6522E
  8
S-OBRYS
  6
CONTINUOUS
 62
     7
 10
-5377.6197734499056
 20
400163.00982823648
 30
0.0
 40
100.0
  1
100
 50
90.0
 41
0.8
  0
ENDBLK
  5
65230
  8
0
  0
BLOCK
  8
0
  2
*U193
 70
     1
 10
0.0
 20
0.0
 30
0.0
  3
*U193
  1

  0
TEXT
  5
65232
  8
S-OBRYS
  6
CONTINUOUS
 62
     7
 10
-4694.186558273158
 20
400194.90190379682
 30
0.0
 40
100.0
  1
408
 41
0.8
  0
ENDBLK
  5
65234
  8
0
  0
BLOCK
  8
0
  2
*U194
 70
     1
 10
0.0
 20
0.0
 30
0.0
  3
*U194
  1

  0
TEXT
  5
65236
  8
S-OBRYS
  6
CONTINUOUS
 62
     7
 10
-5007.1865582731589
 20
400194.90190379682
 30
0.0
 40
100.0
  1
218
 41
0.8
  0
ENDBLK
  5
65238
  8
0
  0
BLOCK
  8
0
  2
*U195
 70
     1
 10
0.0
 20
0.0
 30
0.0
  3
*U195
  1

  0
TEXT
  5
65275
  8
S-OBRYS
  6
CONTINUOUS
 62
     7
 10
-2611.641133279631
 20
399225.49417442299
 30
0.0
 40
100.0
  1
1100
 50
294.9999999999971
 41
0.8
  0
ENDBLK
  5
65277
  8
0
  0
BLOCK
  8
0
  2
*U196
 70
     1
 10
0.0
 20
0.0
 30
0.0
  3
*U196
  1

  0
TEXT
  5
65279
  8
S-OBRYS
  6
CONTINUOUS
 62
     7
 10
-4331.1214747977256
 20
396296.37462695251
 30
0.0
 40
100.0
  1
2160
 41
0.8
  0
ENDBLK
  5
6527B
  8
0
  0
BLOCK
  8
0
  2
*U197
 70
     1
 10
0.0
 20
0.0
 30
0.0
  3
*U197
  1

  0
TEXT
  5
6527D
  8
S-OBRYS
  6
CONTINUOUS
 62
     7
 10
-6330.8788964992636
 20
398095.04661478283
 30
0.0
 40
100.0
  1
MIN.200
 41
0.8
  0
ENDBLK
  5
6527F
  8
0
  0
BLOCK
  8
0
  2
*U198
 70
     1
 10
0.0
 20
0.0
 30
0.0
  3
*U198
  1

  0
TEXT
  5
65281
  8
S-OBRYS
  6
CONTINUOUS
 62
     7
 10
-2038.0795610510229
 20
398830.1627603572
 30
0.0
 40
100.0
  1
MIN.400
 41
0.8
  0
ENDBLK
  5
65283
  8
0
  0
BLOCK
  8
0
  2
*U199
 70
     1
 10
0.0
 20
0.0
 30
0.0
  3
*U199
  1

  0
TEXT
  5
65285
  8
S-OBRYS
  6
CONTINUOUS
 62
     7
 10
-4343.9783428514002
 20
396519.37873961712
 30
0.0
 40
100.0
  1
1850
 41
0.8
  0
ENDBLK
  5
65287
  8
0
  0
BLOCK
  8
0
  2
*U200
 70
     1
 10
0.0
 20
0.0
 30
0.0
  3
*U200
  1

  0
TEXT
  5
65289
  8
S-OBRYS
  6
CONTINUOUS
 62
     7
 10
-3861.4716274183202
 20
397204.08244372113
 30
0.0
 40
100.0
  1
3000
 50
24.999999998296619
 41
0.8
  0
ENDBLK
  5
6528B
  8
0
  0
BLOCK
  8
0
  2
*U201
 70
     1
 10
0.0
 20
0.0
 30
0.0
  3
*U201
  1

  0
TEXT
  5
6528D
  8
S-OBRYS
  6
CONTINUOUS
 62
     7
 10
-3947.3036786710918
 20
397435.47390332131
 30
0.0
 40
100.0
  1
2500
 50
24.999999998296619
 41
0.8
  0
ENDBLK
  5
6528F
  8
0
  0
BLOCK
  8
0
  2
*U202
 70
     1
 10
0.0
 20
0.0
 30
0.0
  3
*U202
  1

  0
TEXT
  5
65291
  8
S-OBRYS
  6
CONTINUOUS
 62
     7
 10
-5516.264293321874
 20
397398.21366493811
 30
0.0
 40
100.0
  1
824
 50
90.0
 41
0.8
  0
ENDBLK
  5
65293
  8
0
  0
BLOCK
  8
0
  2
*U203
 70
     1
 10
0.0
 20
0.0
 30
0.0
  3
*U203
  1

  0
TEXT
  5
65295
  8
S-OBRYS
  6
CONTINUOUS
 62
     7
 10
-5295.4027071315286
 20
398187.43444565102
 30
0.0
 40
100.0
  1
\U+2205120
 41
0.8
  0
ENDBLK
  5
65297
  8
0
  0
ENDSEC
  0
SECTION
  2
ENTITIES
  0
TEXT
  5
2F7A5
  8
KOTY
 10
-393803.77638965531
 20
-299016.15321175661
 30
0.0
 40
150.0
  1

 41
0.7
  7
ROMANT
  0
TEXT
  5
3AD8B
  8
KOTY
 10
-14797.18019204357
 20
454294.55370899959
 30
0.0
 40
150.0
  1

 41
0.7
  7
ROMANT
  0
TEXT
  5
404AD
  8
KOTY
 10
44010.2314385153
 20
465617.23741859582
 30
0.0
 40
92.0
  1

 41
0.7
  7
CYRILLIC
  0
TEXT
  5
404B4
  8
KOTY
 10
39575.071591094718
 20
465613.29777162091
 30
0.0
 40
92.0
  1

 41
0.7
  7
CYRILLIC
  0
TEXT
  5
40B14
  8
KOTY
 10
5856.0590664841584
 20
486921.1132385282
 30
0.0
 40
150.0
  1

 41
0.7
  7
ROMANT
  0
TEXT
  5
40BFC
  8
KOTY
 10
8767.7265956277752
 20
466337.2608060218
 30
0.0
 40
150.0
  1

 41
0.7
  7
ROMANS
  0
TEXT
  5
51A7C
  8
KOTY
 10
-47677.341387967608
 20
395133.71812193602
 30
0.0
 40
150.0
  1

 41
0.7
  7
ROMANS
  0
TEXT
  5
51A94
  8
KOTY
 10
-45176.819295693742
 20
395133.7181219359
 30
0.0
 40
150.0
  1

 41
0.7
  7
ROMANS
  0
TEXT
  5
51A9B
  8
KOTY
 10
-48084.423320344351
 20
397411.27855615731
 30
0.0
 40
150.0
  1

 41
0.7
  7
ROMANT
  0
TEXT
  5
51B05
  8
RAZ
 62
     6
 10
-47365.887544580757
 20
392999.37567832542
 30
0.0
 40
193.54103193599991
  1

 41
0.8
  7
R08
  0
TEXT
  5
51B06
  8
RAZ
 62
     1
 10
-47245.037660778231
 20
393401.77274166199
 30
0.0
 40
125.41458869452801
  1

  7
ROMANS
  0
TEXT
  5
58307
  8
KOTY
 10
22966.528519463162
 20
383405.87475258159
 30
0.0
 40
150.0
  1

 41
0.7
  7
ROMANS
  0
TEXT
  5
58308
  8
KOTY
 10
22966.528519463169
 20
383855.87475258159
 30
0.0
 40
150.0
  1

 41
0.7
  7
ROMANS
  0
TEXT
  5
58315
  8
KOTY
 10
25467.050611737021
 20
383855.87475258141
 30
0.0
 40
150.0
  1

 41
0.7
  7
ROMANS
  0
TEXT
  5
58316
  8
KOTY
 10
25467.050611737021
 20
383405.87475258141
 30
0.0
 40
150.0
  1

 41
0.7
  7
ROMANS
  0
TEXT
  5
5833F
  8
KOTY
 10
22966.528519463162
 20
385205.87475258153
 30
0.0
 40
150.0
  1

 41
0.7
  7
ROMANS
  0
TEXT
  5
58340
  8
KOTY
 10
22966.528519463169
 20
385655.87475258159
 30
0.0
 40
150.0
  1

 41
0.7
  7
ROMANS
  0
TEXT
  5
58354
  8
KOTY
 10
25467.050611737021
 20
385655.87475258141
 30
0.0
 40
150.0
  1

 41
0.7
  7
ROMANS
  0
TEXT
  5
58355
  8
KOTY
 10
25467.050611737021
 20
385205.87475258141
 30
0.0
 40
150.0
  1

 41
0.7
  7
ROMANS
  0
TEXT
  5
58397
  8
KOTY
 10
25467.050611737039
 20
390605.87475258129
 30
0.0
 40
150.0
  1

 41
0.7
  7
ROMANS
  0
TEXT
  5
58398
  8
KOTY
 10
25467.050611737039
 20
391055.87475258141
 30
0.0
 40
150.0
  1

 41
0.7
  7
ROMANS
  0
TEXT
  5
583C1
  8
KOTY
 10
25467.050611737031
 20
389255.87475258141
 30
0.0
 40
150.0
  1

 41
0.7
  7
ROMANS
  0
TEXT
  5
58C84
  8
KOTY
 10
22966.52851946322
 20
387905.87475258153
 30
0.0
 40
150.0
  1

 41
0.7
  7
ROMANS
  0
INSERT
  5
5A11D
  8
SILNA
  6
CONTINUOUS
  2
A$C5B1234F8
 10
21045.108802659091
 20
799530.18634617259
 30
0.0
 50
134.99999999999989
  0
LINE
  5
630FB
  8
S-OBRYS
  6
CONTINUOUS
 10
-9317.3245871225408
 20
393402.81400089961
 30
0.0
 11
1182.675412877463
 21
393402.81400089961
 31
0.0
  0
LINE
  5
630FC
  8
S-OBRYS
  6
CONTINUOUS
 10
1182.675412877463
 20
393402.81400089961
 30
0.0
 11
1182.675412877463
 21
408252.81400089961
 31
0.0
  0
LINE
  5
630FD
  8
S-OBRYS
  6
CONTINUOUS
 10
1182.675412877463
 20
408252.81400089961
 30
0.0
 11
-9317.3245871225372
 21
408252.81400089961
 31
0.0
  0
LINE
  5
630FE
  8
S-OBRYS
  6
CONTINUOUS
 10
-9317.3245871225372
 20
408252.81400089961
 30
0.0
 11
-9317.3245871225408
 21
393402.81400089961
 31
0.0
  0
DIMENSION
  5
63E2C
  8
S-OBRYS
  6
CONTINUOUS
  2
*D67
 10
-3169.2385548878092
 20
402959.36394259072
 30
0.0
 11
-4093.281966786984
 21
403034.36394259077
 31
0.0
 70
     0
  1
1850
 13
-5017.3253786861605
 23
403532.34858085332
 33
0.0
 14
-3169.2385548878092
 24
403579.05586955219
 34
0.0
  0
DIMENSION
  5
63E2D
  8
S-OBRYS
  6
CONTINUOUS
  2
*D68
 10
-2260.7393085897779
 20
404344.73631780362
 30
0.0
 11
-3651.8973587946089
 21
403778.78200926131
 31
0.0
 70
     0
 13
-5297.1115239419451
 23
403757.65279745409
 33
0.0
 14
-2510.954613558104
 24
404881.324770968
 34
0.0
 50
24.999999998268251
  0
LINE
  5
63E2E
  8
S-OBRYS
  6
CONTINUOUS
 10
-4903.62911700533
 20
403579.05586955219
 30
0.0
 11
-4607.1981778016116
 21
403579.05586955219
 31
0.0
  0
DIMENSION
  5
63E2F
  8
S-OBRYS
  6
CONTINUOUS
  2
*D69
 10
-2573.148306606774
 20
404470.4732119746
 30
0.0
 11
-3737.7294100472068
 21
404010.17346886138
 31
0.0
 70
     0
 13
-4981.0863210686521
 23
403718.80899028812
 33
0.0
 14
-2710.388807029457
 24
404764.78641492839
 34
0.0
 50
24.999999998268251
  0
LINE
  5
63E30
  8
S-OBRYS
  6
CONTINUOUS
 10
-5219.1846828096532
 20
404229.41257480357
 30
0.0
 11
-2933.7319738523802
 21
405295.13667534152
 31
0.0
  0
LINE
  5
63E31
  8
S-OBRYS
  6
CONTINUOUS
 10
-5246.9046125875029
 20
404242.9138275205
 30
0.0
 11
-2943.854204849471
 21
405316.84386976581
 31
0.0
  0
LINE
  5
63E32
  8
S-OBRYS
  6
CONTINUOUS
 10
-5336.3207098763087
 20
403853.65437211923
 30
0.0
 11
-2782.773990601454
 21
405044.39276277361
 31
0.0
  0
LINE
  5
63E33
  8
S-OBRYS
  6
CONTINUOUS
 10
-4990.527595923254
 20
403739.05586955219
 30
0.0
 11
-3228.3935944666232
 21
404560.75244912668
 31
0.0
  0
LINE
  5
63E34
  8
S-OBRYS
  6
CONTINUOUS
 10
-5017.3253786861605
 20
403701.1761833349
 30
0.0
 11
-5017.3253786861605
 21
403532.34858085332
 31
0.0
  0
LINE
  5
63E35
  8
S-OBRYS
  6
CONTINUOUS
 10
-4921.1185155223729
 20
403679.25725253829
 30
0.0
 11
-4901.669654270605
 21
403688.32640548242
 31
0.0
  0
ARC
  5
63E36
  8
S-OBRYS
  6
CONTINUOUS
 10
-4935.848542830754
 20
403672.38852799957
 30
0.0
 40
7.728910881886959
 50
333.29407464352568
 51
76.705925358582419
  0
POLYLINE
  5
63E37
  8
S-OBRYS
  6
CONTINUOUS
 66
     1
 10
0.0
 20
0.0
 30
0.0
  0
VERTEX
  5
6515A
  8
S-OBRYS
  6
CONTINUOUS
 10
-4944.6552353241277
 20
403702.60767550493
 30
0.0
  0
VERTEX
  5
6515B
  8
S-OBRYS
  6
CONTINUOUS
 10
-4934.0712867858019
 20
403679.9103246181
 30
0.0
  0
SEQEND
  5
6515C
  8
S-OBRYS
  6
CONTINUOUS
  0
POLYLINE
  5
63E38
  8
S-OBRYS
  6
CONTINUOUS
 66
     1
 10
0.0
 20
0.0
 30
0.0
  0
VERTEX
  5
6515D
  8
S-OBRYS
  6
CONTINUOUS
 10
-4928.9441141639109
 20
403668.91506744787
 30
0.0
  0
VERTEX
  5
6515E
  8
S-OBRYS
  6
CONTINUOUS
 10
-4923.2235813924271
 20
403656.64734533039
 30
0.0
  0
VERTEX
  5
6515F
  8
S-OBRYS
  6
CONTINUOUS
 10
-4882.9963502356923
 20
403675.40561128512
 30
0.0
  0
VERTEX
  5
65160
  8
S-OBRYS
  6
CONTINUOUS
 10
-4888.7168830071751
 20
403687.67333340261
 30
0.0
  0
SEQEND
  5
65161
  8
S-OBRYS
  6
CONTINUOUS
  0
LINE
  5
63E39
  8
S-OBRYS
  6
CONTINUOUS
 10
-4981.0863210686521
 20
403718.80899028812
 30
0.0
 11
-4981.0863210686521
 21
403579.05586955219
 31
0.0
  0
DIMENSION
  5
63E3A
  8
S-OBRYS
  6
CONTINUOUS
  2
*D70
 10
-5430.9107962075141
 20
404403.05586955219
 30
0.0
 11
-5505.9107962075786
 21
403991.05586955219
 31
0.0
 70
     0
 13
-5066.1980029795304
 23
403579.05586955219
 33
0.0
 14
-5129.1778055807517
 24
404403.05586955219
 34
0.0
 50
90.0
  0
LINE
  5
63E3B
  8
S-OBRYS
  6
CONTINUOUS
 10
-4896.7314680941199
 20
403652.34774580487
 30
0.0
 11
-4946.6951757910583
 21
403759.49526273529
 31
0.0
  0
LINE
  5
63E3C
  8
S-OBRYS
  6
CONTINUOUS
 10
-5066.1980029795304
 20
403579.05586955219
 30
0.0
 11
-5175.8471804575684
 21
403814.19928948209
 31
0.0
  0
LINE
  5
63E3D
  8
S-OBRYS
  6
CONTINUOUS
 10
-5066.1980029795304
 20
403579.05586955219
 30
0.0
 11
-4981.0863210686521
 21
403579.05586955219
 31
0.0
  0
LINE
  5
63E3E
  8
S-OBRYS
  6
CONTINUOUS
 10
-5229.306913806744
 20
404251.11976922792
 30
0.0
 11
-4981.0863210686521
 21
403718.80899028812
 31
0.0
  0
LINE
  5
63E3F
  8
S-OBRYS
  6
CONTINUOUS
 10
-5209.1551612653284
 20
403829.9595555343
 30
0.0
 11
-5198.7767750732746
 21
403807.70303452172
 31
0.0
  0
LINE
  5
63E40
  8
S-OBRYS
  6
CONTINUOUS
 10
-5175.7822717556037
 20
403892.40474761272
 30
0.0
 11
-5218.2192048117431
 21
403872.61608073988
 31
0.0
  0
POLYLINE
  5
63E41
  8
S-OBRYS
  6
CONTINUOUS
 66
     1
 10
0.0
 20
0.0
 30
0.0
  0
VERTEX
  5
65162
  8
S-OBRYS
  6
CONTINUOUS
 10
-5172.4135354523823
 20
403919.82406669908
 30
0.0
  0
VERTEX
  5
65163
  8
S-OBRYS
  6
CONTINUOUS
 10
-5201.1984946755256
 20
403981.55361095961
 30
0.0
  0
VERTEX
  5
65164
  8
S-OBRYS
  6
CONTINUOUS
 10
-5214.4677623152384
 20
403975.3660498411
 30
0.0
  0
VERTEX
  5
65165
  8
S-OBRYS
  6
CONTINUOUS
 10
-5184.1486032099638
 20
403910.34640331578
 30
0.0
  0
SEQEND
  5
65166
  8
S-OBRYS
  6
CONTINUOUS
  0
LINE
  5
63E42
  8
S-OBRYS
  6
CONTINUOUS
 10
-5297.1115239419451
 20
403757.65279745409
 30
0.0
 11
-5052.4084214420509
 21
403871.75972812407
 31
0.0
  0
LINE
  5
63E43
  8
S-OBRYS
  6
CONTINUOUS
 10
-5101.5201324751179
 20
403977.08013231249
 30
0.0
 11
-5317.9305302676594
 21
403802.29930059769
 31
0.0
  0
LINE
  5
63E44
  8
S-OBRYS
  6
CONTINUOUS
 10
-5298.7186815860259
 20
403761.09935814422
 30
0.0
 11
-5054.0155790861318
 21
403875.2062888142
 31
0.0
  0
LINE
  5
63E45
  8
S-OBRYS
  6
CONTINUOUS
 10
-5279.0454104214441
 20
403833.70432391157
 30
0.0
 11
-5273.3777786819919
 21
403821.55004842352
 31
0.0
  0
LINE
  5
63E46
  8
S-OBRYS
  6
CONTINUOUS
 10
-5352.3253775777048
 20
403904.16816618229
 30
0.0
 11
-5307.9125007291232
 21
403808.92444442073
 31
0.0
  0
LINE
  5
63E47
  8
S-OBRYS
  6
CONTINUOUS
 10
-5306.3918481190049
 20
403925.58732273488
 30
0.0
 11
-5255.7967591096249
 21
403817.08580421051
 31
0.0
  0
LINE
  5
63E48
  8
S-OBRYS
  6
CONTINUOUS
 10
-5310.8579912022833
 20
403804.07273829612
 30
0.0
 11
-5228.2337102039746
 21
403842.60107327509
 31
0.0
  0
LINE
  5
63E49
  8
S-OBRYS
  6
CONTINUOUS
 10
-5307.9125007291232
 20
403808.92444442073
 30
0.0
 11
-5216.0454418117151
 21
403851.76275752601
 31
0.0
  0
LINE
  5
63E4A
  8
S-OBRYS
  6
CONTINUOUS
 10
-5309.0970677780788
 20
403783.35587915668
 30
0.0
 11
-5209.1551612653284
 21
403829.9595555343
 31
0.0
  0
LINE
  5
63E4B
  8
S-OBRYS
  6
CONTINUOUS
 10
-5302.6084619582689
 20
403786.38156574132
 30
0.0
 11
-5310.8579912022833
 21
403804.07273829612
 31
0.0
  0
LINE
  5
63E4C
  8
S-OBRYS
  6
CONTINUOUS
 10
-5298.7186815860259
 20
403761.09935814422
 30
0.0
 11
-5309.0970677780788
 21
403783.35587915668
 31
0.0
  0
LINE
  5
63E4D
  8
S-OBRYS
  6
CONTINUOUS
 10
-5317.9305302676657
 20
403802.29930059769
 30
0.0
 11
-5297.1115239419451
 21
403757.65279745409
 31
0.0
  0
LINE
  5
63E4E
  8
S-OBRYS
  6
CONTINUOUS
 10
-5317.9887395506948
 20
403830.53300830623
 30
0.0
 11
-5324.1905102735918
 21
403827.64107512397
 31
0.0
  0
LINE
  5
63E4F
  8
S-OBRYS
  6
CONTINUOUS
 10
-5260.4583186603049
 20
403947.00647928752
 30
0.0
 11
-5352.3253775777048
 21
403904.16816618229
 31
0.0
  0
LINE
  5
63E50
  8
S-OBRYS
  6
CONTINUOUS
 10
-5342.2491387561377
 20
403882.55960229668
 30
0.0
 11
-5348.4509094790337
 21
403879.66766911442
 31
0.0
  0
LINE
  5
63E51
  8
S-OBRYS
  6
CONTINUOUS
 10
-5348.4509094790337
 20
403879.66766911442
 30
0.0
 11
-5324.1905102735918
 21
403827.64107512397
 31
0.0
  0
LINE
  5
63E52
  8
S-OBRYS
  6
CONTINUOUS
 10
-5250.708128277387
 20
403942.28880195197
 30
0.0
 11
-5232.0501095131176
 21
403902.27655158902
 31
0.0
  0
LINE
  5
63E53
  8
S-OBRYS
  6
CONTINUOUS
 10
-5256.9098990002822
 20
403939.39686876972
 30
0.0
 11
-5250.708128277387
 21
403942.28880195197
 31
0.0
  0
LINE
  5
63E54
  8
S-OBRYS
  6
CONTINUOUS
 10
-5227.1636738216621
 20
403875.6058830152
 30
0.0
 11
-5260.4583186603049
 21
403947.00647928752
 31
0.0
  0
LINE
  5
63E55
  8
S-OBRYS
  6
CONTINUOUS
 10
-5221.6789551750699
 20
403880.03553933738
 30
0.0
 11
-5232.0501095131176
 21
403902.27655158902
 31
0.0
  0
LINE
  5
63E56
  8
S-OBRYS
  6
CONTINUOUS
 10
-5203.4440811583409
 20
403951.7256893107
 30
0.0
 11
-5245.8810142144866
 21
403931.93702243798
 31
0.0
  0
LINE
  5
63E57
  8
S-OBRYS
  6
CONTINUOUS
 10
-5219.5938614717379
 20
403859.3723680437
 30
0.0
 11
-5213.3920907488427
 21
403862.26430122613
 31
0.0
  0
LINE
  5
63E58
  8
S-OBRYS
  6
CONTINUOUS
 10
-5228.2337102039746
 20
403842.60107327509
 30
0.0
 11
-5219.9841809599602
 21
403824.90990072029
 31
0.0
  0
LINE
  5
63E59
  8
S-OBRYS
  6
CONTINUOUS
 10
-5256.5272772328608
 20
403851.89077931078
 30
0.0
 11
-5247.9157070349829
 21
403833.4232074251
 31
0.0
  0
LINE
  5
63E5A
  8
S-OBRYS
  6
CONTINUOUS
 10
-5256.5272772328608
 20
403851.89077931078
 30
0.0
 11
-5275.688097242085
 21
403892.98129042331
 31
0.0
  0
LINE
  5
63E5B
  8
S-OBRYS
  6
CONTINUOUS
 10
-5216.0454418117151
 20
403851.76275752601
 30
0.0
 11
-5227.1636738216621
 21
403875.6058830152
 31
0.0
  0
LINE
  5
63E5C
  8
S-OBRYS
  6
CONTINUOUS
 10
-5213.3920907488427
 20
403862.26430122613
 30
0.0
 11
-5221.6789551750699
 21
403880.03553933738
 31
0.0
  0
LINE
  5
63E5D
  8
S-OBRYS
  6
CONTINUOUS
 10
-5302.581186990973
 20
403908.73077183438
 30
0.0
 11
-5295.9284267293469
 21
403911.83300489228
 31
0.0
  0
LINE
  5
63E5E
  8
S-OBRYS
  6
CONTINUOUS
 10
-5294.6587128087494
 20
403909.11009460251
 30
0.0
 11
-5295.9284267293469
 21
403911.83300489228
 31
0.0
  0
LINE
  5
63E5F
  8
S-OBRYS
  6
CONTINUOUS
 10
-5301.3114730703819
 20
403906.00786154461
 30
0.0
 11
-5302.581186990973
 21
403908.73077183438
 31
0.0
  0
LINE
  5
63E60
  8
S-OBRYS
  6
CONTINUOUS
 10
-5301.150168889093
 20
403881.10813142167
 30
0.0
 11
-5305.4538938509213
 21
403904.07621901127
 31
0.0
  0
LINE
  5
63E61
  8
S-OBRYS
  6
CONTINUOUS
 10
-5305.4538938509213
 20
403904.07621901127
 30
0.0
 11
-5290.5162920282091
 21
403911.04173713567
 31
0.0
  0
LINE
  5
63E62
  8
S-OBRYS
  6
CONTINUOUS
 10
-5301.150168889093
 20
403881.10813142167
 30
0.0
 11
-5275.688097242085
 21
403892.98129042331
 31
0.0
  0
LINE
  5
63E63
  8
S-OBRYS
  6
CONTINUOUS
 10
-5275.688097242085
 20
403892.98129042331
 30
0.0
 11
-5290.5162920282091
 21
403911.04173713567
 31
0.0
  0
LINE
  5
63E64
  8
S-OBRYS
  6
CONTINUOUS
 10
-5279.0454104214441
 20
403833.70432391157
 30
0.0
 11
-5301.150168889093
 21
403881.10813142167
 31
0.0
  0
LINE
  5
63E65
  8
S-OBRYS
  6
CONTINUOUS
 10
-5156.9173435314151
 20
404002.2022508501
 30
0.0
 11
-5133.2521948894346
 21
403951.45217581239
 31
0.0
  0
POLYLINE
  5
63E66
  8
S-OBRYS
  6
CONTINUOUS
 66
     1
 10
0.0
 20
0.0
 30
0.0
  0
VERTEX
  5
65167
  8
S-OBRYS
  6
CONTINUOUS
 10
-5156.9173435314151
 20
404002.2022508501
 30
0.0
  0
VERTEX
  5
65168
  8
S-OBRYS
  6
CONTINUOUS
 10
-5170.1866111711361
 20
403996.01468973159
 30
0.0
  0
VERTEX
  5
65169
  8
S-OBRYS
  6
CONTINUOUS
 10
-5144.9872626470169
 20
403941.97451242933
 30
0.0
  0
SEQEND
  5
6516A
  8
S-OBRYS
  6
CONTINUOUS
  0
LINE
  5
63E67
  8
S-OBRYS
  6
CONTINUOUS
 10
-4964.0190578288166
 20
403736.03345365549
 30
0.0
 11
-4917.5868105943882
 21
403757.68516612618
 31
0.0
  0
POLYLINE
  5
63E68
  8
S-OBRYS
  6
CONTINUOUS
 66
     1
 10
0.0
 20
0.0
 30
0.0
  0
VERTEX
  5
6516B
  8
S-OBRYS
  6
CONTINUOUS
 10
-4909.5551767892821
 20
403732.36119862989
 30
0.0
  0
VERTEX
  5
6516C
  8
S-OBRYS
  6
CONTINUOUS
 10
-4915.2757095607658
 20
403744.62892074737
 30
0.0
  0
VERTEX
  5
6516D
  8
S-OBRYS
  6
CONTINUOUS
 10
-4955.5029407175034
 20
403725.87065479258
 30
0.0
  0
VERTEX
  5
6516E
  8
S-OBRYS
  6
CONTINUOUS
 10
-4949.7824079460188
 20
403713.6029326751
 30
0.0
  0
SEQEND
  5
6516F
  8
S-OBRYS
  6
CONTINUOUS
  0
LINE
  5
63E69
  8
S-OBRYS
  6
CONTINUOUS
 10
-4964.0190578288166
 20
403736.03345365549
 30
0.0
 11
-4969.911299408268
 21
403748.66940649989
 31
0.0
  0
LINE
  5
63E6A
  8
S-OBRYS
  6
CONTINUOUS
 10
-5073.4220987919334
 20
403916.82370462629
 30
0.0
 11
-5109.3026951066568
 21
403900.09230778558
 31
0.0
  0
LINE
  5
63E6B
  8
S-OBRYS
  6
CONTINUOUS
 10
-5127.396394502437
 20
403904.25077395543
 30
0.0
 11
-5158.4082780068202
 21
403889.78969518351
 31
0.0
  0
POLYLINE
  5
63E6C
  8
S-OBRYS
  6
CONTINUOUS
 66
     1
 10
0.0
 20
0.0
 30
0.0
  0
VERTEX
  5
65170
  8
S-OBRYS
  6
CONTINUOUS
 10
-5144.9872626470169
 20
403941.97451242933
 30
0.0
  0
VERTEX
  5
65171
  8
S-OBRYS
  6
CONTINUOUS
 10
-5120.4774394546039
 20
403889.41302697267
 30
0.0
  0
VERTEX
  5
65172
  8
S-OBRYS
  6
CONTINUOUS
 10
-5107.208171814892
 20
403895.60058809113
 30
0.0
  0
SEQEND
  5
65173
  8
S-OBRYS
  6
CONTINUOUS
  0
LINE
  5
63E6D
  8
S-OBRYS
  6
CONTINUOUS
 10
-5133.2521948894346
 20
403951.45217581239
 30
0.0
 11
-5107.2081718148838
 21
403895.60058809113
 31
0.0
  0
POLYLINE
  5
63E6E
  8
S-OBRYS
  6
CONTINUOUS
 66
     1
 10
0.0
 20
0.0
 30
0.0
  0
VERTEX
  5
65174
  8
S-OBRYS
  6
CONTINUOUS
 10
-5184.1486032099638
 20
403910.34640331578
 30
0.0
  0
VERTEX
  5
65175
  8
S-OBRYS
  6
CONTINUOUS
 10
-5164.7585905987071
 20
403868.76438708219
 30
0.0
  0
VERTEX
  5
65176
  8
S-OBRYS
  6
CONTINUOUS
 10
-5151.4893229589943
 20
403874.9519482007
 30
0.0
  0
VERTEX
  5
65177
  8
S-OBRYS
  6
CONTINUOUS
 10
-5172.4135354523823
 20
403919.82406669908
 30
0.0
  0
SEQEND
  5
65178
  8
S-OBRYS
  6
CONTINUOUS
  0
LINE
  5
63E6F
  8
S-OBRYS
  6
CONTINUOUS
 10
-4930.7697104312101
 20
403751.53787897562
 30
0.0
 11
-4925.3561013587387
 21
403739.92835685471
 31
0.0
  0
LINE
  5
63E70
  8
S-OBRYS
  6
CONTINUOUS
 10
-4917.5868105943882
 20
403757.68516612618
 30
0.0
 11
-4923.4790521738387
 21
403770.32111897069
 31
0.0
  0
ARC
  5
63E71
  8
S-OBRYS
  6
CONTINUOUS
 10
-4868.2179924419543
 20
403704.545570697
 30
0.0
 40
6.3377718662374596
 50
265.03374588930029
 51
93.570080793390304
  0
LINE
  5
63E72
  8
S-OBRYS
  6
CONTINUOUS
 10
-4936.829636682588
 20
403712.9498605954
 30
0.0
 11
-4917.3807754308218
 21
403722.01901353948
 31
0.0
  0
ARC
  5
63E73
  8
S-OBRYS
  6
CONTINUOUS
 10
-4924.3571587890101
 20
403704.545570697
 30
0.0
 40
6.3377718662374596
 50
86.429919206609682
 51
274.96625411069971
  0
POLYLINE
  5
63E74
  8
S-OBRYS
  6
CONTINUOUS
 66
     1
 10
0.0
 20
0.0
 30
0.0
  0
VERTEX
  5
65179
  8
S-OBRYS
  6
CONTINUOUS
 10
-4899.5341528128411
 20
403710.8710433619
 30
0.0
  0
VERTEX
  5
6517A
  8
S-OBRYS
  6
CONTINUOUS
 10
-4904.4280041673919
 20
403721.36594145972
 30
0.0
  0
SEQEND
  5
6517B
  8
S-OBRYS
  6
CONTINUOUS
  0
ARC
  5
63E75
  8
S-OBRYS
  6
CONTINUOUS
 10
-4902.6507481224389
 20
403728.88773807819
 30
0.0
 40
7.728910881886959
 50
153.29407464352559
 51
256.70592535858242
  0
POLYLINE
  5
63E76
  8
S-OBRYS
  6
CONTINUOUS
 66
     1
 10
0.0
 20
0.0
 30
0.0
  0
VERTEX
  5
6517C
  8
S-OBRYS
  6
CONTINUOUS
 10
-4923.8085042668536
 20
403698.2315917263
 30
0.0
  0
VERTEX
  5
6517D
  8
S-OBRYS
  6
CONTINUOUS
 10
-4868.7666469641108
 20
403698.2315917263
 30
0.0
  0
SEQEND
  5
6517E
  8
S-OBRYS
  6
CONTINUOUS
  0
POLYLINE
  5
63E77
  8
S-OBRYS
  6
CONTINUOUS
 66
     1
 10
0.0
 20
0.0
 30
0.0
  0
VERTEX
  5
6517F
  8
S-OBRYS
  6
CONTINUOUS
 10
-4868.6126413939346
 20
403710.8710433619
 30
0.0
  0
VERTEX
  5
65180
  8
S-OBRYS
  6
CONTINUOUS
 10
-4923.9625098370307
 20
403710.8710433619
 30
0.0
  0
SEQEND
  5
65181
  8
S-OBRYS
  6
CONTINUOUS
  0
ARC
  5
63E78
  8
S-OBRYS
  6
CONTINUOUS
 10
-4886.939626962223
 20
403695.19513002119
 30
0.0
 40
7.728910881886959
 50
156.866766361039
 51
256.70592535858242
  0
ARC
  5
63E79
  8
S-OBRYS
  6
CONTINUOUS
 10
-4951.5596639909709
 20
403706.08113605657
 30
0.0
 40
7.728910881886959
 50
333.29407464352568
 51
76.705925358582419
  0
LINE
  5
63E7A
  8
S-OBRYS
  6
CONTINUOUS
 10
-4950.8361579919947
 20
403742.1807408061
 30
0.0
 11
-4945.4225489195233
 21
403730.57121868519
 31
0.0
  0
LINE
  5
63E7B
  8
S-OBRYS
  6
CONTINUOUS
 10
-5163.267656123302
 20
403981.17694274889
 30
0.0
 11
-5194.2795396276933
 21
403966.71586397692
 31
0.0
  0
LINE
  5
63E7C
  8
S-OBRYS
  6
CONTINUOUS
 10
-5118.9422239249179
 20
404014.44192799641
 30
0.0
 11
-5154.8228202396422
 21
403997.7105311557
 31
0.0
  0
DIMENSION
  5
63E7D
  8
S-OBRYS
  6
CONTINUOUS
  2
*D71
 10
-5112.3253786861596
 20
404627.41964862472
 30
0.0
 11
-5052.3253786861605
 21
404627.41964862472
 31
0.0
 70
   128
  1
%%c<>
 13
-4992.3253786861596
 23
404403.05586955219
 33
0.0
 14
-5112.3253786861596
 24
404403.05586955219
 34
0.0
  0
LINE
  5
63E7E
  8
S-OBRYS
  6
CONTINUOUS
 10
-4992.3253786861596
 20
404403.05586955219
 30
0.0
 11
-4992.3253786861596
 21
404360.73394518171
 31
0.0
  0
LINE
  5
63E7F
  8
S-OBRYS
  6
CONTINUOUS
 10
-5112.3253786861596
 20
404403.05586955219
 30
0.0
 11
-5112.3253786861596
 21
404304.77702620311
 31
0.0
  0
LINE
  5
63E80
  8
S-OBRYS
  6
CONTINUOUS
 10
-5052.3253786861605
 20
404472.08869622479
 30
0.0
 11
-5052.3253786861605
 21
404303.2610937432
 31
0.0
  0
LINE
  5
63E81
  8
S-OBRYS
  6
CONTINUOUS
 10
-5119.8253786861605
 20
404403.05586955219
 30
0.0
 11
-4984.8253786861596
 21
404403.05586955219
 31
0.0
  0
LINE
  5
63E82
  8
S-OBRYS
  6
CONTINUOUS
 10
-4817.7836009014281
 20
404399.82872694748
 30
0.0
 11
-4860.6553377622331
 21
404491.76746333978
 31
0.0
  0
LINE
  5
63E83
  8
S-OBRYS
  6
CONTINUOUS
 10
-3091.0380775848462
 20
404587.28674499731
 30
0.0
 11
-3211.0619643221871
 21
404844.67880073201
 31
0.0
  0
LINE
  5
63E84
  8
S-OBRYS
  6
CONTINUOUS
 10
-2671.7667014111939
 20
404806.33686287812
 30
0.0
 11
-2510.954613558104
 21
404881.324770968
 31
0.0
  0
LINE
  5
63E85
  8
S-OBRYS
  6
CONTINUOUS
 10
-3116.2417625717721
 20
405759.516707531
 30
0.0
 11
-2671.7667014111939
 21
404806.33686287812
 31
0.0
  0
LINE
  5
63E86
  8
S-OBRYS
  6
CONTINUOUS
 10
-2710.388807029457
 20
404764.78641492839
 30
0.0
 11
-2953.415215218025
 21
405285.9582291554
 31
0.0
  0
LINE
  5
63E87
  8
S-OBRYS
  6
CONTINUOUS
 10
-3111.6887472287199
 20
404577.65717959643
 30
0.0
 11
-2671.90644269831
 21
404782.73103611992
 31
0.0
  0
LINE
  5
63E88
  8
S-OBRYS
  6
CONTINUOUS
 10
-3157.1835502737672
 20
403603.61380052677
 30
0.0
 11
-3157.1835502737672
 21
404552.80446455273
 31
0.0
  0
LINE
  5
63E89
  8
S-OBRYS
  6
CONTINUOUS
 10
-3149.2385548878092
 20
404552.80446455273
 30
0.0
 11
-3149.2385548878092
 21
403603.61380052677
 31
0.0
  0
LINE
  5
63E8A
  8
S-OBRYS
  6
CONTINUOUS
 10
-3189.2385548878092
 20
404552.80446455273
 30
0.0
 11
-3189.2385548878092
 21
403603.61380052677
 31
0.0
  0
LINE
  5
63E8B
  8
S-OBRYS
  6
CONTINUOUS
 10
-3119.2385548878078
 20
403579.05586955219
 30
0.0
 11
-3119.2385548878078
 21
403603.61380052677
 31
0.0
  0
LINE
  5
63E8D
  8
S-OBRYS
  6
CONTINUOUS
 10
-3219.2385548878092
 20
403579.05586955219
 30
0.0
 11
-3219.2385548878092
 21
403603.61380052677
 31
0.0
  0
LINE
  5
63E8E
  8
S-OBRYS
  6
CONTINUOUS
 10
-3219.2385548878092
 20
403579.05586955219
 30
0.0
 11
-3119.2385548878078
 21
403579.05586955219
 31
0.0
  0
LINE
  5
63E8F
  8
S-OBRYS
  6
CONTINUOUS
 10
-3219.2385548878092
 20
403603.61380052677
 30
0.0
 11
-3119.2385548878078
 21
403603.61380052677
 31
0.0
  0
LINE
  5
63E90
  8
S-OBRYS
  6
CONTINUOUS
 10
-4448.0100237904771
 20
404572.25697773771
 30
0.0
 11
-4490.8817606512748
 21
404664.19571413001
 31
0.0
  0
POLYLINE
  5
63E91
  8
S-OBRYS
  6
CONTINUOUS
 66
     1
 10
0.0
 20
0.0
 30
0.0
 70
     1
  0
VERTEX
  5
65182
  8
S-OBRYS
  6
CONTINUOUS
 10
-4052.415476771384
 20
404773.48599087872
 30
0.0
  0
VERTEX
  5
65183
  8
S-OBRYS
  6
CONTINUOUS
 10
-4029.553642552637
 20
404784.14663925441
 30
0.0
  0
VERTEX
  5
65184
  8
S-OBRYS
  6
CONTINUOUS
 10
-3986.8106406016891
 20
404692.48397576722
 30
0.0
  0
VERTEX
  5
65185
  8
S-OBRYS
  6
CONTINUOUS
 10
-4009.672474820436
 20
404681.82332739158
 30
0.0
  0
SEQEND
  5
65186
  8
S-OBRYS
  6
CONTINUOUS
  0
LINE
  5
63E92
  8
S-OBRYS
  6
CONTINUOUS
 10
-3246.152238715506
 20
404598.83598461718
 30
0.0
 11
-3123.1660431358978
 21
404656.18538946338
 31
0.0
  0
LINE
  5
63E93
  8
S-OBRYS
  6
CONTINUOUS
 10
-3228.3935944666232
 20
404560.75244912668
 30
0.0
 11
-3246.152238715506
 21
404598.83598461718
 31
0.0
  0
LINE
  5
63E94
  8
S-OBRYS
  6
CONTINUOUS
 10
-3110.0835153090011
 20
404579.89323673898
 30
0.0
 11
-3228.3935944666232
 21
404579.89323673898
 31
0.0
  0
LINE
  5
63E95
  8
S-OBRYS
  6
CONTINUOUS
 10
-3228.3935944666232
 20
404552.80446455273
 30
0.0
 11
-3110.0835153090011
 21
404552.80446455273
 31
0.0
  0
LINE
  5
63E96
  8
S-OBRYS
  6
CONTINUOUS
 10
-3228.3935944666232
 20
404579.89323673898
 30
0.0
 11
-3228.3935944666232
 21
404552.80446455273
 31
0.0
  0
LINE
  5
63E97
  8
S-OBRYS
  6
CONTINUOUS
 10
-3110.0835153090011
 20
404579.89323673898
 30
0.0
 11
-3110.0835153090011
 21
404552.80446455273
 31
0.0
  0
LINE
  5
63E98
  8
S-OBRYS
  6
CONTINUOUS
 10
-2852.805466509853
 20
404590.2023247875
 30
0.0
 11
-2923.2318703201022
 21
404741.23223514517
 31
0.0
  0
LINE
  5
63E99
  8
S-OBRYS
  6
CONTINUOUS
 10
-2759.4815763817751
 20
404994.44201928418
 30
0.0
 11
-2598.6694885286929
 21
405069.429927374
 31
0.0
  0
LINE
  5
63E9A
  8
S-OBRYS
  6
CONTINUOUS
 10
-2510.954613558104
 20
404881.324770968
 30
0.0
 11
-2955.4296747186818
 21
405834.50461562071
 31
0.0
  0
LINE
  5
63E9B
  8
S-OBRYS
  6
CONTINUOUS
 10
-3006.7175757380319
 20
405391.85538959882
 30
0.0
 11
-2998.8616454526859
 21
405375.00829273491
 31
0.0
  0
LINE
  5
63E9C
  8
S-OBRYS
  6
CONTINUOUS
 10
-2969.7051628169429
 20
405359.23493016732
 30
0.0
 11
-2980.9542396167308
 21
405383.35865321389
 31
0.0
  0
LINE
  5
63E9D
  8
S-OBRYS
  6
CONTINUOUS
 10
-3113.1086017443672
 20
405342.24443941307
 30
0.0
 11
-3101.9236766868712
 21
405389.76270991529
 31
0.0
  0
LINE
  5
63E9E
  8
S-OBRYS
  6
CONTINUOUS
 10
-3239.796458978883
 20
405747.3107005473
 30
0.0
 11
-3054.1639133219069
 21
405349.22042171418
 31
0.0
  0
LINE
  5
63E9F
  8
S-OBRYS
  6
CONTINUOUS
 10
-3127.2458828177619
 20
405335.65211698302
 30
0.0
 11
-3299.075450154357
 21
405704.1418132846
 31
0.0
  0
LINE
  5
63EA0
  8
S-OBRYS
  6
CONTINUOUS
 10
-3216.0954825240192
 20
405758.36264737393
 30
0.0
 11
-3038.3188671523899
 21
405377.11946540471
 31
0.0
  0
LINE
  5
63EA1
  8
S-OBRYS
  6
CONTINUOUS
 10
-3038.3188671523899
 20
405377.11946540471
 30
0.0
 11
-3006.7175757380319
 21
405391.85538959882
 31
0.0
  0
LINE
  5
63EA2
  8
S-OBRYS
  6
CONTINUOUS
 10
-3171.6153971122621
 20
405294.45189536101
 30
0.0
 11
-2980.9542396167308
 21
405383.35865321389
 31
0.0
  0
POLYLINE
  5
63EA3
  8
S-OBRYS
  6
CONTINUOUS
 66
     1
 10
0.0
 20
0.0
 30
0.0
 70
     1
  0
VERTEX
  5
65187
  8
S-OBRYS
  6
CONTINUOUS
 10
-3508.6308045493938
 20
405027.05694792321
 30
0.0
  0
VERTEX
  5
65188
  8
S-OBRYS
  6
CONTINUOUS
 10
-3485.7689703306391
 20
405037.71759629878
 30
0.0
  0
VERTEX
  5
65189
  8
S-OBRYS
  6
CONTINUOUS
 10
-3443.025968379698
 20
404946.05493281159
 30
0.0
  0
VERTEX
  5
6518A
  8
S-OBRYS
  6
CONTINUOUS
 10
-3465.887802598445
 20
404935.3942844359
 30
0.0
  0
SEQEND
  5
6518B
  8
S-OBRYS
  6
CONTINUOUS
  0
LINE
  5
63EA4
  8
S-OBRYS
  6
CONTINUOUS
 10
-2842.8498984918051
 20
405118.75006129028
 30
0.0
 11
-2764.4290444999642
 21
404950.5759971927
 31
0.0
  0
ARC
  5
63EA5
  8
S-OBRYS
  6
CONTINUOUS
 10
-2773.4921223703282
 20
404946.34981457522
 30
0.0
 40
10.0
 50
294.99999999908221
 51
24.999999998250981
  0
LINE
  5
63EA6
  8
S-OBRYS
  6
CONTINUOUS
 10
-2786.9760841534662
 20
404929.02836074377
 30
0.0
 11
-2769.265939752921
 21
404937.28673670482
 31
0.0
  0
ARC
  5
63EA7
  8
S-OBRYS
  6
CONTINUOUS
 10
-2745.0721918013369
 20
404954.75411977753
 30
0.0
 40
40.930215194313092
 50
109.7945424388637
 51
143.14825172400171
  0
ARC
  5
63EA8
  8
S-OBRYS
  6
CONTINUOUS
 10
-2827.2069258257329
 20
405130.89262530708
 30
0.0
 40
40.930215194313092
 50
266.85174827437481
 51
300.20545756213193
  0
LINE
  5
63EA9
  8
S-OBRYS
  6
CONTINUOUS
 10
-2988.1687669087701
 20
405296.17965010973
 30
0.0
 11
-3009.0226262817819
 21
405340.90089585452
 31
0.0
  0
LINE
  5
63EAA
  8
S-OBRYS
  6
CONTINUOUS
 10
-3160.3663203124738
 20
405270.3281723145
 30
0.0
 11
-2969.7051628169429
 21
405359.23493016732
 31
0.0
  0
LINE
  5
63EAB
  8
S-OBRYS
  6
CONTINUOUS
 10
-3116.680708483153
 20
405236.25354758918
 30
0.0
 11
-3137.5345678561721
 21
405280.97479333403
 31
0.0
  0
LINE
  5
63EAC
  8
S-OBRYS
  6
CONTINUOUS
 10
-3100.2036704530178
 20
405243.93691660638
 30
0.0
 11
-3121.057529826031
 21
405288.65816235112
 31
0.0
  0
LINE
  5
63EAD
  8
S-OBRYS
  6
CONTINUOUS
 10
-3160.5105546540872
 20
405320.14054575982
 30
0.0
 11
-3113.1086017443672
 21
405342.24443941307
 31
0.0
  0
LINE
  5
63EAE
  8
S-OBRYS
  6
CONTINUOUS
 10
-3152.6546243687412
 20
405303.29344889591
 30
0.0
 11
-3160.5105546540872
 21
405320.14054575982
 31
0.0
  0
LINE
  5
63EAF
  8
S-OBRYS
  6
CONTINUOUS
 10
-3171.6153971122621
 20
405294.45189536101
 30
0.0
 11
-3160.3663203124738
 21
405270.3281723145
 31
0.0
  0
LINE
  5
63EB0
  8
S-OBRYS
  6
CONTINUOUS
 10
-2873.849303380121
 20
405115.32858058228
 30
0.0
 11
-2856.1391589795821
 21
405123.58695654338
 31
0.0
  0
ARC
  5
63EB1
  8
S-OBRYS
  6
CONTINUOUS
 10
-2851.912976362175
 20
405114.52387867292
 30
0.0
 40
10.0
 50
24.999999998250981
 51
114.99999999908221
  0
LINE
  5
63EB2
  8
S-OBRYS
  6
CONTINUOUS
 10
-2943.854204849471
 20
405316.84386976581
 30
0.0
 11
-2933.7319738523802
 21
405295.13667534152
 31
0.0
  0
LINE
  5
63EB3
  8
S-OBRYS
  6
CONTINUOUS
 10
-2971.6917288786281
 20
405303.86301912687
 30
0.0
 11
-2992.5455882516399
 21
405348.58426487172
 31
0.0
  0
LINE
  5
63EB4
  8
S-OBRYS
  6
CONTINUOUS
 10
-3299.075450154357
 20
405704.1418132846
 30
0.0
 11
-3257.5503873987041
 21
405723.50526805292
 31
0.0
  0
LINE
  5
63EB5
  8
S-OBRYS
  6
CONTINUOUS
 10
-3099.7049729718642
 20
405723.46741663438
 30
0.0
 11
-3532.987869815101
 21
405521.42428368877
 31
0.0
  0
LINE
  5
63EB6
  8
S-OBRYS
  6
CONTINUOUS
 10
-3503.1638431654501
 20
405719.162847139
 30
0.0
 11
-3423.2844282134402
 21
405756.4112300601
 31
0.0
  0
LINE
  5
63EB7
  8
S-OBRYS
  6
CONTINUOUS
 10
-3423.2844282134402
 20
405756.4112300601
 30
0.0
 11
-3400.4258452111608
 21
405707.3908406187
 31
0.0
  0
LINE
  5
63EB8
  8
S-OBRYS
  6
CONTINUOUS
 10
-3462.9030147919621
 20
405655.98088066193
 30
0.0
 11
-3550.0491531373632
 21
405615.34396897268
 31
0.0
  0
LINE
  5
63EB9
  8
S-OBRYS
  6
CONTINUOUS
 10
-3550.0491531373632
 20
405615.34396897268
 30
0.0
 11
-3562.1240659751711
 21
405583.8275502983
 31
0.0
  0
LINE
  5
63EBA
  8
S-OBRYS
  6
CONTINUOUS
 10
-3354.8034424213979
 20
405706.38853910152
 30
0.0
 11
-3325.0167382048389
 21
405642.51074576989
 31
0.0
  0
LINE
  5
63EBB
  8
S-OBRYS
  6
CONTINUOUS
 10
-3429.6440883263422
 20
405467.73878806463
 30
0.0
 11
-3477.933103756674
 21
405571.13590045337
 31
0.0
  0
LINE
  5
63EBC
  8
S-OBRYS
  6
CONTINUOUS
 10
-3276.7013811863071
 20
405539.05714366288
 30
0.0
 11
-3471.9470919022719
 21
405448.0125735341
 31
0.0
  0
LINE
  5
63EBD
  8
S-OBRYS
  6
CONTINUOUS
 10
-3471.9470919022719
 20
405448.0125735341
 30
0.0
 11
-3503.85167365503
 21
405459.02101707918
 31
0.0
  0
LINE
  5
63EBE
  8
S-OBRYS
  6
CONTINUOUS
 10
-3480.3052601631721
 20
405670.14245769772
 30
0.0
 11
-3400.4258452111608
 21
405707.3908406187
 31
0.0
  0
LINE
  5
63EBF
  8
S-OBRYS
  6
CONTINUOUS
 10
-3454.695960491154
 20
405649.30215448368
 30
0.0
 11
-3400.922587263166
 21
405674.37709022482
 31
0.0
  0
LINE
  5
63EC0
  8
S-OBRYS
  6
CONTINUOUS
 10
-3503.1638431654501
 20
405719.162847139
 30
0.0
 11
-3480.3052601631721
 21
405670.14245769772
 31
0.0
  0
LINE
  5
63EC1
  8
S-OBRYS
  6
CONTINUOUS
 10
-3480.3052601631721
 20
405670.14245769772
 30
0.0
 11
-3454.695960491154
 21
405649.30215448368
 31
0.0
  0
LINE
  5
63EC2
  8
S-OBRYS
  6
CONTINUOUS
 10
-3310.06716344085
 20
405693.56411225378
 30
0.0
 11
-3296.9871436949329
 21
405699.66342563019
 31
0.0
  0
LINE
  5
63EC3
  8
S-OBRYS
  6
CONTINUOUS
 10
-3341.9012253857941
 20
405678.71964537882
 30
0.0
 11
-3322.1555480975148
 21
405687.9272059137
 31
0.0
  0
LINE
  5
63EC4
  8
S-OBRYS
  6
CONTINUOUS
 10
-3400.4258452111608
 20
405707.3908406187
 30
0.0
 11
-3400.922587263166
 21
405674.37709022482
 31
0.0
  0
LINE
  5
63EC5
  8
S-OBRYS
  6
CONTINUOUS
 10
-3354.8034424213979
 20
405706.38853910152
 30
0.0
 11
-3400.7633955224078
 21
405684.95706100209
 31
0.0
  0
LINE
  5
63EC6
  8
S-OBRYS
  6
CONTINUOUS
 10
-3289.6035982219041
 20
405566.7260373857
 30
0.0
 11
-3269.857920933624
 21
405575.9335979207
 31
0.0
  0
LINE
  5
63EC7
  8
S-OBRYS
  6
CONTINUOUS
 10
-3263.4974354337401
 20
405736.25875372061
 30
0.0
 11
-3216.0954825240192
 21
405758.36264737393
 31
0.0
  0
LINE
  5
63EC8
  8
S-OBRYS
  6
CONTINUOUS
 10
-3211.2337053610609
 20
405747.93653260189
 30
0.0
 11
-3178.379911666023
 21
405763.25650820148
 31
0.0
  0
LINE
  5
63EC9
  8
S-OBRYS
  6
CONTINUOUS
 10
-3005.465073457352
 20
405392.43944100413
 30
0.0
 11
-3178.379911666023
 21
405763.25650820148
 31
0.0
  0
LINE
  5
63ECA
  8
S-OBRYS
  6
CONTINUOUS
 10
-3061.6601288837919
 20
405642.46601635427
 30
0.0
 11
-2900.8480410307088
 21
405717.4539244441
 31
0.0
  0
LINE
  5
63ECB
  8
S-OBRYS
  6
CONTINUOUS
 10
-3101.9236766868712
 20
405389.76270991529
 30
0.0
 11
-3263.4974354337401
 21
405736.25875372061
 31
0.0
  0
LINE
  5
63ECC
  8
S-OBRYS
  6
CONTINUOUS
 10
-3052.2293925489648
 20
405622.24173701892
 30
0.0
 11
-3223.617665858801
 21
405542.32207265648
 31
0.0
  0
LINE
  5
63ECD
  8
S-OBRYS
  6
CONTINUOUS
 10
-3059.8631328377228
 20
405549.35995375511
 30
0.0
 11
-3112.9669512959231
 21
405663.24145994423
 31
0.0
  0
LINE
  5
63ECE
  8
S-OBRYS
  6
CONTINUOUS
 10
-3006.7175757380319
 20
405391.85538959882
 30
0.0
 11
-3005.465073457352
 21
405392.43944100413
 31
0.0
  0
LINE
  5
63ECF
  8
S-OBRYS
  6
CONTINUOUS
 10
-3075.2849472692901
 20
405542.1686435829
 30
0.0
 11
-3059.8631328377228
 21
405549.35995375511
 31
0.0
  0
LINE
  5
63ED0
  8
S-OBRYS
  6
CONTINUOUS
 10
-3073.5397868826908
 20
405578.6896330039
 30
0.0
 11
-3039.3541373648341
 21
405594.6306631731
 31
0.0
  0
LINE
  5
63ED1
  8
S-OBRYS
  6
CONTINUOUS
 10
-3257.7695362769591
 20
405581.57050426077
 30
0.0
 11
-3244.689516531042
 21
405587.66981763719
 31
0.0
  0
LINE
  5
63ED2
  8
S-OBRYS
  6
CONTINUOUS
 10
-3128.38876572749
 20
405656.05014977203
 30
0.0
 11
-3112.9669512959231
 21
405663.24145994423
 31
0.0
  0
LINE
  5
63ED3
  8
S-OBRYS
  6
CONTINUOUS
 10
-3099.2902972509469
 20
405633.9117806952
 30
0.0
 11
-3065.104647733097
 21
405649.85281086451
 31
0.0
  0
LINE
  5
63ED4
  8
S-OBRYS
  6
CONTINUOUS
 10
-2955.4296747186818
 20
405834.50461562071
 30
0.0
 11
-3116.2417625717721
 21
405759.516707531
 31
0.0
  0
LINE
  5
63ED5
  8
S-OBRYS
  6
CONTINUOUS
 10
-3477.933103756674
 20
405571.13590045337
 30
0.0
 11
-3507.746149561427
 21
405635.07018350309
 31
0.0
  0
LINE
  5
63ED6
  8
S-OBRYS
  6
CONTINUOUS
 10
-3325.0167382048389
 20
405642.51074576989
 30
0.0
 11
-3276.7013811863071
 21
405539.05714366288
 31
0.0
  0
LINE
  5
63ED7
  8
S-OBRYS
  6
CONTINUOUS
 10
-3251.0328602045629
 20
405535.404109522
 30
0.0
 11
-3238.944475547898
 21
405541.04101586208
 31
0.0
  0
LINE
  5
63ED8
  8
S-OBRYS
  6
CONTINUOUS
 10
-3239.1825450016549
 20
405541.71057283948
 30
0.0
 11
-3292.6320833810319
 21
405656.17446240602
 31
0.0
  0
LINE
  5
63ED9
  8
S-OBRYS
  6
CONTINUOUS
 10
-3328.6541547161469
 20
405733.42404367519
 30
0.0
 11
-3340.742539372819
 21
405727.78713733499
 31
0.0
  0
LINE
  5
63EDA
  8
S-OBRYS
  6
CONTINUOUS
 10
-3340.742539372819
 20
405727.78713733499
 30
0.0
 11
-3304.7014247871989
 21
405650.49671768339
 31
0.0
  0
LINE
  5
63EDB
  8
S-OBRYS
  6
CONTINUOUS
 10
-3304.7014247871989
 20
405650.49671768339
 30
0.0
 11
-3251.2709296583198
 21
405536.07366649929
 31
0.0
  0
LINE
  5
63EDC
  8
S-OBRYS
  6
CONTINUOUS
 10
-3292.6320833810319
 20
405656.17446240602
 30
0.0
 11
-3328.6541547161469
 21
405733.42404367519
 31
0.0
  0
LINE
  5
63EDD
  8
S-OBRYS
  6
CONTINUOUS
 10
-3562.1240659751711
 20
405583.8275502983
 30
0.0
 11
-3503.85167365503
 21
405459.02101707918
 31
0.0
  0
DIMENSION
  5
63EDE
  8
S-OBRYS
  6
CONTINUOUS
  2
*D72
 10
-2491.9008439874451
 20
401349.16343325138
 30
0.0
 11
-3896.9008439874451
 21
401424.16343325138
 31
0.0
 70
     0
 13
-5301.9008439874451
 23
401218.02436195943
 33
0.0
 14
-2491.9008439874451
 24
400965.15268537938
 34
0.0
  0
LINE
  5
63EDF
  8
S-OBRYS
  6
CONTINUOUS
 10
-5304.0534654185103
 20
400705.15268537938
 30
0.0
 11
-2494.0534654185099
 21
400705.15268537938
 31
0.0
  0
DIMENSION
  5
63EE0
  8
S-OBRYS
  6
CONTINUOUS
  2
*D73
 10
-3151.9008439874451
 20
401157.48334890878
 30
0.0
 11
-3902.8966902166139
 21
401157.48334890878
 31
0.0
 70
   128
 13
-5001.900843987446
 23
401146.48336991132
 33
0.0
 14
-3151.9008439874451
 24
400953.79119813169
 34
0.0
  0
LINE
  5
63EE1
  8
S-OBRYS
  6
CONTINUOUS
 10
-2491.9008439874451
 20
400965.15268537938
 30
0.0
 11
-5301.9008439874451
 21
400965.15268537938
 31
0.0
  0
LINE
  5
63EE2
  8
S-OBRYS
  6
CONTINUOUS
 10
-5301.9008439874451
 20
400445.15268537938
 30
0.0
 11
-2491.9008439874451
 21
400445.15268537938
 31
0.0
  0
DIMENSION
  5
63EE3
  8
S-OBRYS
  6
CONTINUOUS
  2
*D74
 10
-5301.9008439874451
 20
401155.82826828992
 30
0.0
 11
-5154.5376876604278
 21
401155.82826828992
 31
0.0
 70
   128
  1
300
 13
-5006.3066849428897
 23
400965.15268537938
 33
0.0
 14
-5301.9008439874451
 24
400965.15268537938
 34
0.0
  0
DIMENSION
  5
63EE4
  8
S-OBRYS
  6
CONTINUOUS
  2
*D75
 10
-5526.4840459138786
 20
400965.15268537938
 30
0.0
 11
-5601.4840459139441
 21
400705.15268537938
 31
0.0
 70
     0
 13
-5301.9008439874451
 23
400445.15268537938
 33
0.0
 14
-5301.9008439874451
 24
400965.15268537938
 34
0.0
 50
90.0
  0
LINE
  5
63EE5
  8
S-OBRYS
  6
CONTINUOUS
 10
-5301.9008439874451
 20
400965.15268537938
 30
0.0
 11
-5301.9008439874451
 21
400445.15268537938
 31
0.0
  0
CIRCLE
  5
63EE6
  8
S-OBRYS
  6
CONTINUOUS
 10
-4966.900843987446
 20
400480.15268537938
 30
0.0
 40
10.0
  0
CIRCLE
  5
63EE7
  8
S-OBRYS
  6
CONTINUOUS
 10
-4963.7508439874437
 20
400930.15268537949
 30
0.0
 40
10.0
  0
LINE
  5
63EE8
  8
S-OBRYS
  6
CONTINUOUS
 10
-2841.900843987446
 20
400925.15268537938
 30
0.0
 11
-2841.900843987446
 21
400485.15268537938
 31
0.0
  0
DIMENSION
  5
63EE9
  8
S-OBRYS
  6
CONTINUOUS
  2
*D76
 10
-3397.394236203219
 20
400930.15268537949
 30
0.0
 11
-3397.3942362032831
 21
400213.58654570201
 31
0.0
 70
   128
 13
-3191.1586428798978
 23
400480.15268537938
 33
0.0
 14
-3191.1586428798978
 24
400930.15268537949
 34
0.0
 50
90.0
  0
CIRCLE
  5
63EEA
  8
S-OBRYS
  6
CONTINUOUS
 10
-3151.9008439874451
 20
400480.15268537938
 30
0.0
 40
10.0
  0
CIRCLE
  5
63EEB
  8
S-OBRYS
  6
CONTINUOUS
 10
-3151.9008439874451
 20
400930.15268537949
 30
0.0
 40
10.0
  0
LINE
  5
63EEC
  8
S-OBRYS
  6
CONTINUOUS
 10
-2491.9008439874451
 20
400965.15268537938
 30
0.0
 11
-2491.9008439874451
 21
400445.15268537938
 31
0.0
  0
DIMENSION
  5
63EED
  8
S-OBRYS
  6
CONTINUOUS
  2
*D77
 10
-2782.773990601454
 20
405044.39276277361
 30
0.0
 11
-4661.0319497638411
 21
403859.3149792247
 31
0.0
 70
     2
 13
-4903.62911700533
 23
403579.05586955219
 33
0.0
 14
-4607.1981778016116
 24
403579.05586955219
 34
0.0
 15
-5336.3207098763087
 25
403853.65437211923
 35
0.0
 16
-4718.2183135519008
 26
403755.85252188722
 36
0.0
1001
ACAD
1000
DSTYLE
1002
{
1070
   271
1070
     0
1002
}
  0
DIMENSION
  5
63EEE
  8
S-OBRYS
  6
CONTINUOUS
  2
*D78
 10
-2221.312798228726
 20
404992.84630325192
 30
0.0
 11
-2406.9106712453072
 21
405568.32734510448
 31
0.0
 70
     1
  1
1100
 13
-3463.2241356894451
 23
405737.78703859961
 33
0.0
 14
-2956.0822216006759
 24
404650.21769415558
 34
0.0
  0
DIMENSION
  5
63EEF
  8
S-OBRYS
  6
CONTINUOUS
  2
*D79
 10
-3159.4974244892369
 20
400923.64945812791
 30
0.0
 11
-2954.1479239936448
 21
401198.17224731791
 31
0.0
 70
     3
  1
%%c21
 15
-3144.3042634856538
 25
400936.65591263049
 35
0.0
 40
0.0
1001
ACAD
1000
DSTYLE
1002
{
1070
   288
1070
     1
1002
}
  0
CIRCLE
  5
63EF0
  8
S-OBRYS
  6
CONTINUOUS
 10
-5001.900843987446
 20
400605.15268537938
 30
0.0
 40
60.0
  0
DIMENSION
  5
63EF1
  8
S-OBRYS
  6
CONTINUOUS
  2
*D80
 10
-5352.619773449841
 20
400605.15268537938
 30
0.0
 11
-5427.6197734499056
 21
400283.00982823648
 31
0.0
 70
     0
 13
-5301.9008439874451
 23
400705.15268537938
 33
0.0
 14
-5101.9008439874451
 24
400605.15268537938
 34
0.0
 50
90.0
  0
CIRCLE
  5
63EF2
  8
S-OBRYS
  6
CONTINUOUS
 10
-4783.9008439874451
 20
400605.15268537938
 30
0.0
 40
10.5
  0
CIRCLE
  5
63EF3
  8
S-OBRYS
  6
CONTINUOUS
 10
-4375.9008439874442
 20
400605.15268537938
 30
0.0
 40
10.5
  0
LINE
  5
63EF4
  8
S-OBRYS
  6
CONTINUOUS
 10
-5101.9008439874451
 20
400605.15268537938
 30
0.0
 11
-4901.9008439874451
 21
400605.15268537938
 31
0.0
  0
LINE
  5
63EF5
  8
S-OBRYS
  6
CONTINUOUS
 10
-5001.900843987446
 20
400505.15268537938
 30
0.0
 11
-5001.900843987446
 21
400705.15268537938
 31
0.0
  0
LINE
  5
63EF6
  8
S-OBRYS
  6
CONTINUOUS
 10
-4803.9008439874451
 20
400605.15268537938
 30
0.0
 11
-4763.9008439874451
 21
400605.15268537938
 31
0.0
  0
LINE
  5
63EF7
  8
S-OBRYS
  6
CONTINUOUS
 10
-4783.9008439874451
 20
400585.15268537949
 30
0.0
 11
-4783.9008439874451
 21
400625.15268537938
 31
0.0
  0
LINE
  5
63EF8
  8
S-OBRYS
  6
CONTINUOUS
 10
-4395.9008439874451
 20
400605.15268537938
 30
0.0
 11
-4355.9008439874451
 21
400605.15268537938
 31
0.0
  0
LINE
  5
63EF9
  8
S-OBRYS
  6
CONTINUOUS
 10
-4375.9008439874442
 20
400585.15268537949
 30
0.0
 11
-4375.9008439874442
 21
400625.15268537938
 31
0.0
  0
LINE
  5
63EFA
  8
S-OBRYS
  6
CONTINUOUS
 10
-4983.7508439874437
 20
400930.15268537949
 30
0.0
 11
-4943.7508439874437
 21
400930.15268537949
 31
0.0
  0
LINE
  5
63EFB
  8
S-OBRYS
  6
CONTINUOUS
 10
-4963.7508439874437
 20
400910.15268537938
 30
0.0
 11
-4963.7508439874437
 21
400950.15268537938
 31
0.0
  0
LINE
  5
63EFC
  8
S-OBRYS
  6
CONTINUOUS
 10
-4986.9008439874451
 20
400480.15268537938
 30
0.0
 11
-4946.9008439874451
 21
400480.15268537938
 31
0.0
  0
LINE
  5
63EFD
  8
S-OBRYS
  6
CONTINUOUS
 10
-4966.900843987446
 20
400460.15268537938
 30
0.0
 11
-4966.900843987446
 21
400500.15268537949
 31
0.0
  0
DIMENSION
  5
63EFE
  8
S-OBRYS
  6
CONTINUOUS
  2
*D81
 10
-4783.9008439874442
 20
400169.90190379682
 30
0.0
 11
-4579.9008439874433
 21
400244.90190379682
 31
0.0
 70
     0
 13
-4375.9008439874442
 23
400594.65268537949
 33
0.0
 14
-4783.9008439874442
 24
400594.65268537949
 34
0.0
  0
DIMENSION
  5
63EFF
  8
S-OBRYS
  6
CONTINUOUS
  2
*D82
 10
-5001.9008439874442
 20
400169.90190379682
 30
0.0
 11
-4892.9008439874442
 21
400169.90190379682
 31
0.0
 70
   128
 13
-4783.9008439874442
 23
400585.15268537949
 33
0.0
 14
-5001.9008439874442
 24
400585.15268537949
 34
0.0
  0
LINE
  5
63F00
  8
S-OBRYS
  6
CONTINUOUS
 10
-3171.9008439874451
 20
400930.15268537949
 30
0.0
 11
-3131.9008439874451
 21
400930.15268537949
 31
0.0
  0
LINE
  5
63F01
  8
S-OBRYS
  6
CONTINUOUS
 10
-3151.9008439874451
 20
400910.15268537938
 30
0.0
 11
-3151.9008439874451
 21
400950.15268537938
 31
0.0
  0
LINE
  5
63F02
  8
S-OBRYS
  6
CONTINUOUS
 10
-3171.9008439874451
 20
400480.15268537938
 30
0.0
 11
-3131.9008439874451
 21
400480.15268537938
 31
0.0
  0
LINE
  5
63F03
  8
S-OBRYS
  6
CONTINUOUS
 10
-3151.9008439874451
 20
400460.15268537938
 30
0.0
 11
-3151.9008439874451
 21
400500.15268537949
 31
0.0
  0
DIMENSION
  5
63F04
  8
S-OBRYS
  6
CONTINUOUS
  2
*D83
 10
-2894.2385548877828
 20
402736.35982992611
 30
0.0
 11
-4086.139384447597
 21
402736.35982992611
 31
0.0
 70
   128
  1
2160
 13
-5052.3253786861605
 23
404303.2610937432
 33
0.0
 14
-2894.2385548877828
 24
404679.05586955219
 34
0.0
  0
INSERT
  5
63F05
  8
HLADINA1
  6
CONTINUOUS
  2
*U154
 10
0.0
 20
0.0
 30
0.0
  0
DIMENSION
  5
645FB
  8
S-OBRYS
  6
CONTINUOUS
  2
*D99
 10
-3261.8396928569859
 20
396494.37873961712
 30
0.0
 11
-4185.8831047561607
 21
396569.37873961712
 31
0.0
 70
     0
  1
1850
 13
-5109.9265166553378
 23
397067.36337787972
 33
0.0
 14
-3261.8396928569859
 24
397114.07066657848
 34
0.0
  0
DIMENSION
  5
645FC
  8
S-OBRYS
  6
CONTINUOUS
  2
*D100
 10
-2353.3404465586641
 20
397879.75111483003
 30
0.0
 11
-3744.4984967631758
 21
397313.79680628708
 31
0.0
 70
     0
 13
-5389.7126619111223
 23
397292.66759448039
 33
0.0
 14
-2603.5557515272808
 24
398416.33956799429
 34
0.0
 50
24.999999998296619
  0
LINE
  5
645FD
  8
S-OBRYS
  6
CONTINUOUS
 10
-4996.2302549745073
 20
397114.07066657848
 30
0.0
 11
-4699.7993157707888
 21
397114.07066657848
 31
0.0
  0
DIMENSION
  5
645FE
  8
S-OBRYS
  6
CONTINUOUS
  2
*D101
 10
-2665.7494445757479
 20
398005.48800900078
 30
0.0
 11
-3830.330548015947
 21
397545.18826588721
 31
0.0
 70
     0
 13
-5073.6874590378284
 23
397253.82378731441
 33
0.0
 14
-2802.9899449986342
 24
398299.80121195468
 34
0.0
 50
24.999999998296619
  0
LINE
  5
645FF
  8
S-OBRYS
  6
CONTINUOUS
 10
-5311.7858207788304
 20
397764.42737182998
 30
0.0
 11
-3026.3331118215569
 21
398830.15147236793
 31
0.0
  0
LINE
  5
64600
  8
S-OBRYS
  6
CONTINUOUS
 10
-5339.5057505566801
 20
397777.9286245468
 30
0.0
 11
-3036.4553428186482
 21
398851.8586667921
 31
0.0
  0
LINE
  5
64601
  8
S-OBRYS
  6
CONTINUOUS
 10
-5428.9218478454868
 20
397388.66916914558
 30
0.0
 11
-2875.3751285706312
 21
398579.40755980002
 31
0.0
  0
LINE
  5
64602
  8
S-OBRYS
  6
CONTINUOUS
 10
-5083.1287338924303
 20
397274.07066657848
 30
0.0
 11
-3320.9947324358
 21
398095.76724615297
 31
0.0
  0
LINE
  5
64603
  8
S-OBRYS
  6
CONTINUOUS
 10
-5109.9265166553378
 20
397236.19098036131
 30
0.0
 11
-5109.9265166553378
 21
397067.36337787972
 31
0.0
  0
LINE
  5
64604
  8
S-OBRYS
  6
CONTINUOUS
 10
-5013.7196534915493
 20
397214.27204956458
 30
0.0
 11
-4994.2707922397822
 21
397223.34120250872
 31
0.0
  0
ARC
  5
64605
  8
S-OBRYS
  6
CONTINUOUS
 10
-5028.4496807999312
 20
397207.40332502592
 30
0.0
 40
7.728910881886959
 50
333.29407464352568
 51
76.705925358582419
  0
POLYLINE
  5
64606
  8
S-OBRYS
  6
CONTINUOUS
 66
     1
 10
0.0
 20
0.0
 30
0.0
  0
VERTEX
  5
65239
  8
S-OBRYS
  6
CONTINUOUS
 10
-5037.2563732933049
 20
397237.62247253122
 30
0.0
  0
VERTEX
  5
6523A
  8
S-OBRYS
  6
CONTINUOUS
 10
-5026.6724247549801
 20
397214.92512164451
 30
0.0
  0
SEQEND
  5
6523B
  8
S-OBRYS
  6
CONTINUOUS
  0
POLYLINE
  5
64607
  8
S-OBRYS
  6
CONTINUOUS
 66
     1
 10
0.0
 20
0.0
 30
0.0
  0
VERTEX
  5
6523C
  8
S-OBRYS
  6
CONTINUOUS
 10
-5021.5452521330881
 20
397203.92986447411
 30
0.0
  0
VERTEX
  5
6523D
  8
S-OBRYS
  6
CONTINUOUS
 10
-5015.8247193616044
 20
397191.66214235668
 30
0.0
  0
VERTEX
  5
6523E
  8
S-OBRYS
  6
CONTINUOUS
 10
-4975.5974882048686
 20
397210.42040831147
 30
0.0
  0
VERTEX
  5
6523F
  8
S-OBRYS
  6
CONTINUOUS
 10
-4981.3180209763532
 20
397222.68813042901
 30
0.0
  0
SEQEND
  5
65240
  8
S-OBRYS
  6
CONTINUOUS
  0
LINE
  5
64608
  8
S-OBRYS
  6
CONTINUOUS
 10
-5073.6874590378284
 20
397253.82378731441
 30
0.0
 11
-5073.6874590378284
 21
397114.07066657848
 31
0.0
  0
DIMENSION
  5
64609
  8
S-OBRYS
  6
CONTINUOUS
  2
*D102
 10
-5491.2642933218103
 20
397938.07066657848
 30
0.0
 11
-5491.264293321874
 21
397514.40414112859
 31
0.0
 70
   128
 13
-5158.7991409487067
 23
397114.07066657848
 33
0.0
 14
-5221.778943549929
 24
397938.07066657848
 34
0.0
 50
90.0
  0
LINE
  5
6460A
  8
S-OBRYS
  6
CONTINUOUS
 10
-4989.3326060632971
 20
397187.36254283122
 30
0.0
 11
-5039.2963137602346
 21
397294.51005976158
 31
0.0
  0
LINE
  5
6460B
  8
S-OBRYS
  6
CONTINUOUS
 10
-5158.7991409487067
 20
397114.07066657848
 30
0.0
 11
-5268.4483184267447
 21
397349.21408650832
 31
0.0
  0
LINE
  5
6460C
  8
S-OBRYS
  6
CONTINUOUS
 10
-5158.7991409487067
 20
397114.07066657848
 30
0.0
 11
-5073.6874590378284
 21
397114.07066657848
 31
0.0
  0
LINE
  5
6460D
  8
S-OBRYS
  6
CONTINUOUS
 10
-5321.9080517759203
 20
397786.13456625422
 30
0.0
 11
-5073.6874590378284
 21
397253.82378731441
 31
0.0
  0
LINE
  5
6460E
  8
S-OBRYS
  6
CONTINUOUS
 10
-5301.7562992345038
 20
397364.97435256059
 30
0.0
 11
-5291.3779130424518
 21
397342.71783154813
 31
0.0
  0
LINE
  5
6460F
  8
S-OBRYS
  6
CONTINUOUS
 10
-5268.3834097247818
 20
397427.41954463901
 30
0.0
 11
-5310.8203427809203
 21
397407.63087776629
 31
0.0
  0
POLYLINE
  5
64610
  8
S-OBRYS
  6
CONTINUOUS
 66
     1
 10
0.0
 20
0.0
 30
0.0
  0
VERTEX
  5
65241
  8
S-OBRYS
  6
CONTINUOUS
 10
-5265.0146734215596
 20
397454.83886372542
 30
0.0
  0
VERTEX
  5
65242
  8
S-OBRYS
  6
CONTINUOUS
 10
-5293.7996326447019
 20
397516.56840798602
 30
0.0
  0
VERTEX
  5
65243
  8
S-OBRYS
  6
CONTINUOUS
 10
-5307.0689002844156
 20
397510.38084686751
 30
0.0
  0
VERTEX
  5
65244
  8
S-OBRYS
  6
CONTINUOUS
 10
-5276.749741179141
 20
397445.36120034207
 30
0.0
  0
SEQEND
  5
65245
  8
S-OBRYS
  6
CONTINUOUS
  0
LINE
  5
64611
  8
S-OBRYS
  6
CONTINUOUS
 10
-5389.7126619111223
 20
397292.66759448039
 30
0.0
 11
-5145.0095594112281
 21
397406.77452515048
 31
0.0
  0
LINE
  5
64612
  8
S-OBRYS
  6
CONTINUOUS
 10
-5194.1212704442951
 20
397512.0949293389
 30
0.0
 11
-5410.5316682368357
 21
397337.3140976241
 31
0.0
  0
LINE
  5
64613
  8
S-OBRYS
  6
CONTINUOUS
 10
-5391.3198195552031
 20
397296.11415517062
 30
0.0
 11
-5146.616717055309
 21
397410.22108584049
 31
0.0
  0
LINE
  5
64614
  8
S-OBRYS
  6
CONTINUOUS
 10
-5371.6465483906213
 20
397368.71912093798
 30
0.0
 11
-5365.9789166511691
 21
397356.56484544982
 31
0.0
  0
LINE
  5
64615
  8
S-OBRYS
  6
CONTINUOUS
 10
-5444.926515546882
 20
397439.18296320859
 30
0.0
 11
-5400.5136386982986
 21
397343.93924144702
 31
0.0
  0
LINE
  5
64616
  8
S-OBRYS
  6
CONTINUOUS
 10
-5398.9929860881821
 20
397460.60211976123
 30
0.0
 11
-5348.3978970788012
 21
397352.10060123692
 31
0.0
  0
LINE
  5
64617
  8
S-OBRYS
  6
CONTINUOUS
 10
-5403.4591291714596
 20
397339.08753532241
 30
0.0
 11
-5320.8348481731518
 21
397377.61587030138
 31
0.0
  0
LINE
  5
64618
  8
S-OBRYS
  6
CONTINUOUS
 10
-5400.5136386982986
 20
397343.93924144702
 30
0.0
 11
-5308.6465797808933
 21
397386.77755455242
 31
0.0
  0
LINE
  5
64619
  8
S-OBRYS
  6
CONTINUOUS
 10
-5401.698205747256
 20
397318.37067618308
 30
0.0
 11
-5301.7562992345038
 21
397364.97435256059
 31
0.0
  0
LINE
  5
6461A
  8
S-OBRYS
  6
CONTINUOUS
 10
-5395.2095999274461
 20
397321.39636276767
 30
0.0
 11
-5403.4591291714596
 21
397339.08753532241
 31
0.0
  0
LINE
  5
6461B
  8
S-OBRYS
  6
CONTINUOUS
 10
-5391.3198195552031
 20
397296.11415517062
 30
0.0
 11
-5401.698205747256
 21
397318.37067618308
 31
0.0
  0
LINE
  5
6461C
  8
S-OBRYS
  6
CONTINUOUS
 10
-5410.531668236843
 20
397337.3140976241
 30
0.0
 11
-5389.7126619111223
 21
397292.66759448039
 31
0.0
  0
LINE
  5
6461D
  8
S-OBRYS
  6
CONTINUOUS
 10
-5410.589877519873
 20
397365.54780533258
 30
0.0
 11
-5416.7916482427681
 21
397362.65587215038
 31
0.0
  0
LINE
  5
6461E
  8
S-OBRYS
  6
CONTINUOUS
 10
-5353.0594566294822
 20
397482.02127631393
 30
0.0
 11
-5444.926515546882
 21
397439.18296320859
 31
0.0
  0
LINE
  5
6461F
  8
S-OBRYS
  6
CONTINUOUS
 10
-5434.8502767253158
 20
397417.57439932303
 30
0.0
 11
-5441.0520474482109
 21
397414.68246614077
 31
0.0
  0
LINE
  5
64620
  8
S-OBRYS
  6
CONTINUOUS
 10
-5441.0520474482109
 20
397414.68246614077
 30
0.0
 11
-5416.7916482427681
 21
397362.65587215038
 31
0.0
  0
LINE
  5
64621
  8
S-OBRYS
  6
CONTINUOUS
 10
-5343.3092662465633
 20
397477.30359897832
 30
0.0
 11
-5324.6512474822957
 21
397437.29134861531
 31
0.0
  0
LINE
  5
64622
  8
S-OBRYS
  6
CONTINUOUS
 10
-5349.5110369694603
 20
397474.41166579613
 30
0.0
 11
-5343.3092662465633
 21
397477.30359897832
 31
0.0
  0
LINE
  5
64623
  8
S-OBRYS
  6
CONTINUOUS
 10
-5319.7648117908402
 20
397410.62068004161
 30
0.0
 11
-5353.0594566294822
 21
397482.02127631393
 31
0.0
  0
LINE
  5
64624
  8
S-OBRYS
  6
CONTINUOUS
 10
-5314.2800931442471
 20
397415.05033636373
 30
0.0
 11
-5324.6512474822957
 21
397437.29134861531
 31
0.0
  0
LINE
  5
64625
  8
S-OBRYS
  6
CONTINUOUS
 10
-5296.0452191275181
 20
397486.74048633699
 30
0.0
 11
-5338.4821521836639
 21
397466.95181946439
 31
0.0
  0
LINE
  5
64626
  8
S-OBRYS
  6
CONTINUOUS
 10
-5312.1949994409151
 20
397394.3871650701
 30
0.0
 11
-5305.99322871802
 21
397397.27909825242
 31
0.0
  0
LINE
  5
64627
  8
S-OBRYS
  6
CONTINUOUS
 10
-5320.8348481731518
 20
397377.61587030138
 30
0.0
 11
-5312.5853189291374
 21
397359.9246977467
 31
0.0
  0
LINE
  5
64628
  8
S-OBRYS
  6
CONTINUOUS
 10
-5349.128415202038
 20
397386.90557633719
 30
0.0
 11
-5340.5168450041601
 21
397368.43800445128
 31
0.0
  0
LINE
  5
64629
  8
S-OBRYS
  6
CONTINUOUS
 10
-5349.128415202038
 20
397386.90557633719
 30
0.0
 11
-5368.2892352112613
 21
397427.99608744949
 31
0.0
  0
LINE
  5
6462A
  8
S-OBRYS
  6
CONTINUOUS
 10
-5308.6465797808933
 20
397386.77755455242
 30
0.0
 11
-5319.7648117908402
 21
397410.62068004161
 31
0.0
  0
LINE
  5
6462B
  8
S-OBRYS
  6
CONTINUOUS
 10
-5305.99322871802
 20
397397.27909825242
 30
0.0
 11
-5314.2800931442471
 21
397415.05033636373
 31
0.0
  0
LINE
  5
6462C
  8
S-OBRYS
  6
CONTINUOUS
 10
-5395.1823249601512
 20
397443.74556886067
 30
0.0
 11
-5388.5295646985251
 21
397446.84780191857
 31
0.0
  0
LINE
  5
6462D
  8
S-OBRYS
  6
CONTINUOUS
 10
-5387.2598507779257
 20
397444.12489162892
 30
0.0
 11
-5388.5295646985251
 21
397446.84780191857
 31
0.0
  0
LINE
  5
6462E
  8
S-OBRYS
  6
CONTINUOUS
 10
-5393.9126110395591
 20
397441.0226585709
 30
0.0
 11
-5395.1823249601512
 21
397443.74556886067
 31
0.0
  0
LINE
  5
6462F
  8
S-OBRYS
  6
CONTINUOUS
 10
-5393.7513068582703
 20
397416.12292844808
 30
0.0
 11
-5398.0550318200976
 21
397439.09101603762
 31
0.0
  0
LINE
  5
64630
  8
S-OBRYS
  6
CONTINUOUS
 10
-5398.0550318200976
 20
397439.09101603762
 30
0.0
 11
-5383.1174299973873
 21
397446.05653416202
 31
0.0
  0
LINE
  5
64631
  8
S-OBRYS
  6
CONTINUOUS
 10
-5393.7513068582703
 20
397416.12292844808
 30
0.0
 11
-5368.2892352112613
 21
397427.99608744949
 31
0.0
  0
LINE
  5
64632
  8
S-OBRYS
  6
CONTINUOUS
 10
-5368.2892352112613
 20
397427.99608744949
 30
0.0
 11
-5383.1174299973873
 21
397446.05653416202
 31
0.0
  0
LINE
  5
64633
  8
S-OBRYS
  6
CONTINUOUS
 10
-5371.6465483906213
 20
397368.71912093798
 30
0.0
 11
-5393.7513068582703
 21
397416.12292844808
 31
0.0
  0
LINE
  5
64634
  8
S-OBRYS
  6
CONTINUOUS
 10
-5249.5184815005932
 20
397537.2170478765
 30
0.0
 11
-5225.8533328586118
 21
397486.4669728388
 31
0.0
  0
POLYLINE
  5
64635
  8
S-OBRYS
  6
CONTINUOUS
 66
     1
 10
0.0
 20
0.0
 30
0.0
  0
VERTEX
  5
65246
  8
S-OBRYS
  6
CONTINUOUS
 10
-5249.5184815005932
 20
397537.2170478765
 30
0.0
  0
VERTEX
  5
65247
  8
S-OBRYS
  6
CONTINUOUS
 10
-5262.7877491403124
 20
397531.02948675788
 30
0.0
  0
VERTEX
  5
65248
  8
S-OBRYS
  6
CONTINUOUS
 10
-5237.5884006161941
 20
397476.98930945562
 30
0.0
  0
SEQEND
  5
65249
  8
S-OBRYS
  6
CONTINUOUS
  0
LINE
  5
64636
  8
S-OBRYS
  6
CONTINUOUS
 10
-5056.6201957979938
 20
397271.04825068178
 30
0.0
 11
-5010.1879485635654
 21
397292.69996315253
 31
0.0
  0
POLYLINE
  5
64637
  8
S-OBRYS
  6
CONTINUOUS
 66
     1
 10
0.0
 20
0.0
 30
0.0
  0
VERTEX
  5
6524A
  8
S-OBRYS
  6
CONTINUOUS
 10
-5002.1563147584602
 20
397267.37599565618
 30
0.0
  0
VERTEX
  5
6524B
  8
S-OBRYS
  6
CONTINUOUS
 10
-5007.8768475299439
 20
397279.64371777372
 30
0.0
  0
VERTEX
  5
6524C
  8
S-OBRYS
  6
CONTINUOUS
 10
-5048.1040786866797
 20
397260.88545181899
 30
0.0
  0
VERTEX
  5
6524D
  8
S-OBRYS
  6
CONTINUOUS
 10
-5042.383545915196
 20
397248.61772970139
 30
0.0
  0
SEQEND
  5
6524E
  8
S-OBRYS
  6
CONTINUOUS
  0
LINE
  5
64638
  8
S-OBRYS
  6
CONTINUOUS
 10
-5056.6201957979938
 20
397271.04825068178
 30
0.0
 11
-5062.5124373774461
 21
397283.68420352618
 31
0.0
  0
LINE
  5
64639
  8
S-OBRYS
  6
CONTINUOUS
 10
-5166.0232367611097
 20
397451.83850165259
 30
0.0
 11
-5201.903833075834
 21
397435.10710481188
 31
0.0
  0
LINE
  5
6463A
  8
S-OBRYS
  6
CONTINUOUS
 10
-5219.9975324716142
 20
397439.26557098172
 30
0.0
 11
-5251.0094159759974
 21
397424.80449220992
 31
0.0
  0
POLYLINE
  5
6463B
  8
S-OBRYS
  6
CONTINUOUS
 66
     1
 10
0.0
 20
0.0
 30
0.0
  0
VERTEX
  5
6524F
  8
S-OBRYS
  6
CONTINUOUS
 10
-5237.5884006161941
 20
397476.98930945562
 30
0.0
  0
VERTEX
  5
65250
  8
S-OBRYS
  6
CONTINUOUS
 10
-5213.078577423782
 20
397424.42782399902
 30
0.0
  0
VERTEX
  5
65251
  8
S-OBRYS
  6
CONTINUOUS
 10
-5199.8093097840683
 20
397430.61538511747
 30
0.0
  0
SEQEND
  5
65252
  8
S-OBRYS
  6
CONTINUOUS
  0
LINE
  5
6463C
  8
S-OBRYS
  6
CONTINUOUS
 10
-5225.8533328586118
 20
397486.4669728388
 30
0.0
 11
-5199.809309784061
 21
397430.61538511747
 31
0.0
  0
POLYLINE
  5
6463D
  8
S-OBRYS
  6
CONTINUOUS
 66
     1
 10
0.0
 20
0.0
 30
0.0
  0
VERTEX
  5
65253
  8
S-OBRYS
  6
CONTINUOUS
 10
-5276.749741179141
 20
397445.36120034207
 30
0.0
  0
VERTEX
  5
65254
  8
S-OBRYS
  6
CONTINUOUS
 10
-5257.3597285678843
 20
397403.7791841086
 30
0.0
  0
VERTEX
  5
65255
  8
S-OBRYS
  6
CONTINUOUS
 10
-5244.0904609281706
 20
397409.96674522711
 30
0.0
  0
VERTEX
  5
65256
  8
S-OBRYS
  6
CONTINUOUS
 10
-5265.0146734215596
 20
397454.83886372542
 30
0.0
  0
SEQEND
  5
65257
  8
S-OBRYS
  6
CONTINUOUS
  0
LINE
  5
6463E
  8
S-OBRYS
  6
CONTINUOUS
 10
-5023.3708484003882
 20
397286.55267600197
 30
0.0
 11
-5017.9572393279159
 21
397274.94315388112
 31
0.0
  0
LINE
  5
6463F
  8
S-OBRYS
  6
CONTINUOUS
 10
-5010.1879485635654
 20
397292.69996315253
 30
0.0
 11
-5016.0801901430168
 21
397305.33591599698
 31
0.0
  0
ARC
  5
64640
  8
S-OBRYS
  6
CONTINUOUS
 10
-4960.8191304111306
 20
397239.5603677234
 30
0.0
 40
6.3377718662374596
 50
265.03374588930029
 51
93.570080793390304
  0
LINE
  5
64641
  8
S-OBRYS
  6
CONTINUOUS
 10
-5029.4307746517661
 20
397247.96465762169
 30
0.0
 11
-5009.981913399999
 21
397257.03381056577
 31
0.0
  0
ARC
  5
64642
  8
S-OBRYS
  6
CONTINUOUS
 10
-5016.9582967581882
 20
397239.5603677234
 30
0.0
 40
6.3377718662374596
 50
86.429919206609682
 51
274.96625411069971
  0
POLYLINE
  5
64643
  8
S-OBRYS
  6
CONTINUOUS
 66
     1
 10
0.0
 20
0.0
 30
0.0
  0
VERTEX
  5
65258
  8
S-OBRYS
  6
CONTINUOUS
 10
-4992.1352907820192
 20
397245.88584038819
 30
0.0
  0
VERTEX
  5
65259
  8
S-OBRYS
  6
CONTINUOUS
 10
-4997.0291421365691
 20
397256.38073848601
 30
0.0
  0
SEQEND
  5
6525A
  8
S-OBRYS
  6
CONTINUOUS
  0
ARC
  5
64644
  8
S-OBRYS
  6
CONTINUOUS
 10
-4995.2518860916171
 20
397263.90253510448
 30
0.0
 40
7.728910881886959
 50
153.29407464352559
 51
256.70592535858242
  0
POLYLINE
  5
64645
  8
S-OBRYS
  6
CONTINUOUS
 66
     1
 10
0.0
 20
0.0
 30
0.0
  0
VERTEX
  5
6525B
  8
S-OBRYS
  6
CONTINUOUS
 10
-5016.4096422360299
 20
397233.24638875248
 30
0.0
  0
VERTEX
  5
6525C
  8
S-OBRYS
  6
CONTINUOUS
 10
-4961.3677849332889
 20
397233.24638875248
 30
0.0
  0
SEQEND
  5
6525D
  8
S-OBRYS
  6
CONTINUOUS
  0
POLYLINE
  5
64646
  8
S-OBRYS
  6
CONTINUOUS
 66
     1
 10
0.0
 20
0.0
 30
0.0
  0
VERTEX
  5
6525E
  8
S-OBRYS
  6
CONTINUOUS
 10
-4961.2137793631118
 20
397245.88584038819
 30
0.0
  0
VERTEX
  5
6525F
  8
S-OBRYS
  6
CONTINUOUS
 10
-5016.5636478062079
 20
397245.88584038819
 30
0.0
  0
SEQEND
  5
65260
  8
S-OBRYS
  6
CONTINUOUS
  0
ARC
  5
64647
  8
S-OBRYS
  6
CONTINUOUS
 10
-4979.5407649314002
 20
397230.20992704749
 30
0.0
 40
7.728910881886959
 50
156.866766361039
 51
256.70592535858242
  0
ARC
  5
64648
  8
S-OBRYS
  6
CONTINUOUS
 10
-5044.1608019601481
 20
397241.09593308292
 30
0.0
 40
7.728910881886959
 50
333.29407464352568
 51
76.705925358582419
  0
LINE
  5
64649
  8
S-OBRYS
  6
CONTINUOUS
 10
-5043.4372959611719
 20
397277.19553783239
 30
0.0
 11
-5038.0236868886996
 21
397265.5860157116
 31
0.0
  0
LINE
  5
6464A
  8
S-OBRYS
  6
CONTINUOUS
 10
-5255.8687940924792
 20
397516.19173977518
 30
0.0
 11
-5286.8806775968696
 21
397501.73066100333
 31
0.0
  0
LINE
  5
6464B
  8
S-OBRYS
  6
CONTINUOUS
 10
-5211.5433618940951
 20
397549.45672502281
 30
0.0
 11
-5247.4239582088203
 21
397532.72532818199
 31
0.0
  0
DIMENSION
  5
6464C
  8
S-OBRYS
  6
CONTINUOUS
  2
*D103
 10
-5204.9265166553369
 20
398162.43444565107
 30
0.0
 11
-5144.9265166553378
 21
398162.43444565107
 31
0.0
 70
   128
  1
%%c<>
 13
-5084.9265166553378
 23
397938.07066657848
 33
0.0
 14
-5204.9265166553369
 24
397938.07066657848
 34
0.0
  0
LINE
  5
6464D
  8
S-OBRYS
  6
CONTINUOUS
 10
-5084.9265166553378
 20
397938.07066657848
 30
0.0
 11
-5084.9265166553378
 21
397895.74874220812
 31
0.0
  0
LINE
  5
6464E
  8
S-OBRYS
  6
CONTINUOUS
 10
-5204.9265166553369
 20
397938.07066657848
 30
0.0
 11
-5204.9265166553369
 21
397839.79182322952
 31
0.0
  0
LINE
  5
6464F
  8
S-OBRYS
  6
CONTINUOUS
 10
-5144.9265166553378
 20
398007.10349325108
 30
0.0
 11
-5144.9265166553378
 21
397838.2758907695
 31
0.0
  0
LINE
  5
64650
  8
S-OBRYS
  6
CONTINUOUS
 10
-5212.4265166553369
 20
397938.07066657848
 30
0.0
 11
-5077.4265166553378
 21
397938.07066657848
 31
0.0
  0
LINE
  5
64651
  8
S-OBRYS
  6
CONTINUOUS
 10
-4910.3847388706063
 20
397934.84352397389
 30
0.0
 11
-4953.2564757314112
 21
398026.78226036608
 31
0.0
  0
LINE
  5
64652
  8
S-OBRYS
  6
CONTINUOUS
 10
-3183.6392155540238
 20
398122.3015420236
 30
0.0
 11
-3303.6631022913648
 21
398379.69359775831
 31
0.0
  0
LINE
  5
64653
  8
S-OBRYS
  6
CONTINUOUS
 10
-2764.3678393803712
 20
398341.35165990453
 30
0.0
 11
-2603.5557515272808
 21
398416.33956799429
 31
0.0
  0
LINE
  5
64654
  8
S-OBRYS
  6
CONTINUOUS
 10
-3208.8429005409489
 20
399294.53150455729
 30
0.0
 11
-2764.3678393803712
 21
398341.35165990453
 31
0.0
  0
LINE
  5
64655
  8
S-OBRYS
  6
CONTINUOUS
 10
-2802.9899449986342
 20
398299.80121195468
 30
0.0
 11
-3046.0163531872022
 21
398820.97302618169
 31
0.0
  0
LINE
  5
64656
  8
S-OBRYS
  6
CONTINUOUS
 10
-3204.2898851978971
 20
398112.67197662272
 30
0.0
 11
-2764.5075806674872
 21
398317.74583314633
 31
0.0
  0
LINE
  5
64657
  8
S-OBRYS
  6
CONTINUOUS
 10
-3249.784688242944
 20
397138.62859755318
 30
0.0
 11
-3249.784688242944
 21
398087.81926157902
 31
0.0
  0
LINE
  5
64658
  8
S-OBRYS
  6
CONTINUOUS
 10
-3241.8396928569859
 20
398087.81926157902
 30
0.0
 11
-3241.8396928569859
 21
397138.62859755318
 31
0.0
  0
LINE
  5
64659
  8
S-OBRYS
  6
CONTINUOUS
 10
-3281.8396928569859
 20
398087.81926157902
 30
0.0
 11
-3281.8396928569859
 21
397138.62859755318
 31
0.0
  0
LINE
  5
6465A
  8
S-OBRYS
  6
CONTINUOUS
 10
-3211.8396928569859
 20
397114.07066657848
 30
0.0
 11
-3211.8396928569859
 21
397138.62859755318
 31
0.0
  0
LINE
  5
6465B
  8
S-OBRYS
  6
CONTINUOUS
 10
-3311.8396928569859
 20
397114.07066657848
 30
0.0
 11
-3311.8396928569859
 21
397138.62859755318
 31
0.0
  0
LINE
  5
6465C
  8
S-OBRYS
  6
CONTINUOUS
 10
-3311.8396928569859
 20
397114.07066657848
 30
0.0
 11
-3211.8396928569859
 21
397114.07066657848
 31
0.0
  0
LINE
  5
6465D
  8
S-OBRYS
  6
CONTINUOUS
 10
-3311.8396928569859
 20
397138.62859755318
 30
0.0
 11
-3211.8396928569859
 21
397138.62859755318
 31
0.0
  0
LINE
  5
6465E
  8
S-OBRYS
  6
CONTINUOUS
 10
-4540.6111617596544
 20
398107.27177476411
 30
0.0
 11
-4583.4828986204511
 21
398199.21051115642
 31
0.0
  0
POLYLINE
  5
6465F
  8
S-OBRYS
  6
CONTINUOUS
 66
     1
 10
0.0
 20
0.0
 30
0.0
 70
     1
  0
VERTEX
  5
65261
  8
S-OBRYS
  6
CONTINUOUS
 10
-4145.0166147405607
 20
398308.50078790513
 30
0.0
  0
VERTEX
  5
65262
  8
S-OBRYS
  6
CONTINUOUS
 10
-4122.1547805218142
 20
398319.1614362807
 30
0.0
  0
VERTEX
  5
65263
  8
S-OBRYS
  6
CONTINUOUS
 10
-4079.411778570865
 20
398227.49877279351
 30
0.0
  0
VERTEX
  5
65264
  8
S-OBRYS
  6
CONTINUOUS
 10
-4102.2736127896133
 20
398216.83812441787
 30
0.0
  0
SEQEND
  5
65265
  8
S-OBRYS
  6
CONTINUOUS
  0
LINE
  5
64660
  8
S-OBRYS
  6
CONTINUOUS
 10
-3338.7533766846832
 20
398133.85078164359
 30
0.0
 11
-3215.767181105075
 21
398191.20018648967
 31
0.0
  0
LINE
  5
64661
  8
S-OBRYS
  6
CONTINUOUS
 10
-3320.9947324358
 20
398095.76724615297
 30
0.0
 11
-3338.7533766846832
 21
398133.85078164359
 31
0.0
  0
LINE
  5
64662
  8
S-OBRYS
  6
CONTINUOUS
 10
-3202.6846532781778
 20
398114.90803376539
 30
0.0
 11
-3320.9947324358
 21
398114.90803376539
 31
0.0
  0
LINE
  5
64663
  8
S-OBRYS
  6
CONTINUOUS
 10
-3320.9947324358
 20
398087.81926157902
 30
0.0
 11
-3202.6846532781778
 21
398087.81926157902
 31
0.0
  0
LINE
  5
64664
  8
S-OBRYS
  6
CONTINUOUS
 10
-3320.9947324358
 20
398114.90803376539
 30
0.0
 11
-3320.9947324358
 21
398087.81926157902
 31
0.0
  0
LINE
  5
64665
  8
S-OBRYS
  6
CONTINUOUS
 10
-3202.6846532781778
 20
398114.90803376539
 30
0.0
 11
-3202.6846532781778
 21
398087.81926157902
 31
0.0
  0
LINE
  5
64666
  8
S-OBRYS
  6
CONTINUOUS
 10
-2945.4066044790302
 20
398125.21712181391
 30
0.0
 11
-3015.833008289279
 21
398276.24703217152
 31
0.0
  0
LINE
  5
64667
  8
S-OBRYS
  6
CONTINUOUS
 10
-2852.0827143509532
 20
398529.45681631053
 30
0.0
 11
-2691.2706264978701
 21
398604.44472440029
 31
0.0
  0
LINE
  5
64668
  8
S-OBRYS
  6
CONTINUOUS
 10
-2603.5557515272808
 20
398416.33956799429
 30
0.0
 11
-3048.030812687859
 21
399369.519412647
 31
0.0
  0
LINE
  5
64669
  8
S-OBRYS
  6
CONTINUOUS
 10
-3099.3187137072091
 20
398926.87018662511
 30
0.0
 11
-3091.4627834218632
 21
398910.02308976121
 31
0.0
  0
LINE
  5
6466A
  8
S-OBRYS
  6
CONTINUOUS
 10
-3062.3063007861201
 20
398894.24972719367
 30
0.0
 11
-3073.555377585908
 21
398918.37345024018
 31
0.0
  0
LINE
  5
6466B
  8
S-OBRYS
  6
CONTINUOUS
 10
-3205.709739713544
 20
398877.25923643942
 30
0.0
 11
-3194.524814656048
 21
398924.77750694152
 31
0.0
  0
LINE
  5
6466C
  8
S-OBRYS
  6
CONTINUOUS
 10
-3332.3975969480598
 20
399282.32549757359
 30
0.0
 11
-3146.7650512910841
 21
398884.23521874042
 31
0.0
  0
LINE
  5
6466D
  8
S-OBRYS
  6
CONTINUOUS
 10
-3219.84702078694
 20
398870.66691400937
 30
0.0
 11
-3391.6765881235342
 21
399239.15661031089
 31
0.0
  0
LINE
  5
6466E
  8
S-OBRYS
  6
CONTINUOUS
 10
-3308.696620493196
 20
399293.37744440028
 30
0.0
 11
-3130.9200051215671
 21
398912.13426243112
 31
0.0
  0
LINE
  5
6466F
  8
S-OBRYS
  6
CONTINUOUS
 10
-3130.9200051215671
 20
398912.13426243112
 30
0.0
 11
-3099.3187137072091
 21
398926.87018662511
 31
0.0
  0
LINE
  5
64670
  8
S-OBRYS
  6
CONTINUOUS
 10
-3264.2165350814398
 20
398829.46669238742
 30
0.0
 11
-3073.555377585908
 21
398918.37345024018
 31
0.0
  0
POLYLINE
  5
64671
  8
S-OBRYS
  6
CONTINUOUS
 66
     1
 10
0.0
 20
0.0
 30
0.0
 70
     1
  0
VERTEX
  5
65266
  8
S-OBRYS
  6
CONTINUOUS
 10
-3601.231942518571
 20
398562.0717449495
 30
0.0
  0
VERTEX
  5
65267
  8
S-OBRYS
  6
CONTINUOUS
 10
-3578.3701082998159
 20
398572.73239332507
 30
0.0
  0
VERTEX
  5
65268
  8
S-OBRYS
  6
CONTINUOUS
 10
-3535.6271063488748
 20
398481.06972983788
 30
0.0
  0
VERTEX
  5
65269
  8
S-OBRYS
  6
CONTINUOUS
 10
-3558.4889405676222
 20
398470.40908146231
 30
0.0
  0
SEQEND
  5
6526A
  8
S-OBRYS
  6
CONTINUOUS
  0
LINE
  5
64672
  8
S-OBRYS
  6
CONTINUOUS
 10
-2935.4510364609819
 20
398653.76485831669
 30
0.0
 11
-2857.0301824691419
 21
398485.590794219
 31
0.0
  0
ARC
  5
64673
  8
S-OBRYS
  6
CONTINUOUS
 10
-2866.0932603395049
 20
398481.36461160152
 30
0.0
 40
10.0
 50
294.99999999908221
 51
24.999999998250981
  0
LINE
  5
64674
  8
S-OBRYS
  6
CONTINUOUS
 10
-2879.5772221226439
 20
398464.04315777018
 30
0.0
 11
-2861.8670777220982
 21
398472.30153373111
 31
0.0
  0
ARC
  5
64675
  8
S-OBRYS
  6
CONTINUOUS
 10
-2837.6733297705141
 20
398489.76891680388
 30
0.0
 40
40.930215194313092
 50
109.7945424388637
 51
143.14825172400171
  0
ARC
  5
64676
  8
S-OBRYS
  6
CONTINUOUS
 10
-2919.8080637949101
 20
398665.90742233337
 30
0.0
 40
40.930215194313092
 50
266.85174827437481
 51
300.20545756213193
  0
LINE
  5
64677
  8
S-OBRYS
  6
CONTINUOUS
 10
-3080.7699048779468
 20
398831.19444713608
 30
0.0
 11
-3101.6237642509591
 21
398875.91569288081
 31
0.0
  0
LINE
  5
64678
  8
S-OBRYS
  6
CONTINUOUS
 10
-3252.9674582816519
 20
398805.3429693408
 30
0.0
 11
-3062.3063007861201
 21
398894.24972719367
 31
0.0
  0
LINE
  5
64679
  8
S-OBRYS
  6
CONTINUOUS
 10
-3209.2818464523298
 20
398771.26834461559
 30
0.0
 11
-3230.1357058253489
 21
398815.98959036032
 31
0.0
  0
LINE
  5
6467A
  8
S-OBRYS
  6
CONTINUOUS
 10
-3192.8048084221959
 20
398778.95171363268
 30
0.0
 11
-3213.6586677952082
 21
398823.67295937741
 31
0.0
  0
LINE
  5
6467B
  8
S-OBRYS
  6
CONTINUOUS
 10
-3253.1116926232639
 20
398855.15534278611
 30
0.0
 11
-3205.709739713544
 21
398877.25923643942
 31
0.0
  0
LINE
  5
6467C
  8
S-OBRYS
  6
CONTINUOUS
 10
-3245.255762337918
 20
398838.30824592221
 30
0.0
 11
-3253.1116926232639
 21
398855.15534278611
 31
0.0
  0
LINE
  5
6467D
  8
S-OBRYS
  6
CONTINUOUS
 10
-3264.2165350814398
 20
398829.46669238742
 30
0.0
 11
-3252.9674582816519
 21
398805.3429693408
 31
0.0
  0
LINE
  5
6467E
  8
S-OBRYS
  6
CONTINUOUS
 10
-2966.4504413492982
 20
398650.34337760869
 30
0.0
 11
-2948.7402969487598
 21
398658.60175356967
 31
0.0
  0
ARC
  5
6467F
  8
S-OBRYS
  6
CONTINUOUS
 10
-2944.5141143313522
 20
398649.53867569932
 30
0.0
 40
10.0
 50
24.999999998250981
 51
114.99999999908221
  0
LINE
  5
64680
  8
S-OBRYS
  6
CONTINUOUS
 10
-3036.4553428186482
 20
398851.8586667921
 30
0.0
 11
-3026.3331118215569
 21
398830.15147236793
 31
0.0
  0
LINE
  5
64681
  8
S-OBRYS
  6
CONTINUOUS
 10
-3064.2928668478048
 20
398838.87781615322
 30
0.0
 11
-3085.1467262208171
 21
398883.59906189801
 31
0.0
  0
LINE
  5
64682
  8
S-OBRYS
  6
CONTINUOUS
 10
-3391.6765881235342
 20
399239.15661031089
 30
0.0
 11
-3350.1515253678808
 21
399258.52006507921
 31
0.0
  0
LINE
  5
64683
  8
S-OBRYS
  6
CONTINUOUS
 10
-3192.306110941041
 20
399258.48221366073
 30
0.0
 11
-3625.5890077842778
 21
399056.43908071512
 31
0.0
  0
LINE
  5
64684
  8
S-OBRYS
  6
CONTINUOUS
 10
-3595.7649811346269
 20
399254.17764416541
 30
0.0
 11
-3515.8855661826169
 21
399291.42602708651
 31
0.0
  0
LINE
  5
64685
  8
S-OBRYS
  6
CONTINUOUS
 10
-3515.8855661826169
 20
399291.42602708651
 30
0.0
 11
-3493.026983180338
 21
399242.40563764499
 31
0.0
  0
LINE
  5
64686
  8
S-OBRYS
  6
CONTINUOUS
 10
-3555.5041527611402
 20
399190.99567768822
 30
0.0
 11
-3642.65029110654
 21
399150.35876599897
 31
0.0
  0
LINE
  5
64687
  8
S-OBRYS
  6
CONTINUOUS
 10
-3642.65029110654
 20
399150.35876599897
 30
0.0
 11
-3654.7252039443479
 21
399118.84234732459
 31
0.0
  0
LINE
  5
64688
  8
S-OBRYS
  6
CONTINUOUS
 10
-3447.404580390576
 20
399241.40333612781
 30
0.0
 11
-3417.6178761740161
 21
399177.52554279618
 31
0.0
  0
LINE
  5
64689
  8
S-OBRYS
  6
CONTINUOUS
 10
-3522.2452262955189
 20
399002.75358509092
 30
0.0
 11
-3570.5342417258512
 21
399106.15069747972
 31
0.0
  0
LINE
  5
6468A
  8
S-OBRYS
  6
CONTINUOUS
 10
-3369.3025191554848
 20
399074.07194068917
 30
0.0
 11
-3564.5482298714492
 21
398983.02737056051
 31
0.0
  0
LINE
  5
6468B
  8
S-OBRYS
  6
CONTINUOUS
 10
-3564.5482298714492
 20
398983.02737056051
 30
0.0
 11
-3596.4528116242068
 21
398994.03581410547
 31
0.0
  0
LINE
  5
6468C
  8
S-OBRYS
  6
CONTINUOUS
 10
-3572.9063981323488
 20
399205.15725472401
 30
0.0
 11
-3493.026983180338
 21
399242.40563764499
 31
0.0
  0
LINE
  5
6468D
  8
S-OBRYS
  6
CONTINUOUS
 10
-3547.2970984603312
 20
399184.31695151009
 30
0.0
 11
-3493.5237252323432
 21
399209.39188725111
 31
0.0
  0
LINE
  5
6468E
  8
S-OBRYS
  6
CONTINUOUS
 10
-3595.7649811346269
 20
399254.17764416541
 30
0.0
 11
-3572.9063981323488
 21
399205.15725472401
 31
0.0
  0
LINE
  5
6468F
  8
S-OBRYS
  6
CONTINUOUS
 10
-3572.9063981323488
 20
399205.15725472401
 30
0.0
 11
-3547.2970984603312
 21
399184.31695151009
 31
0.0
  0
LINE
  5
64690
  8
S-OBRYS
  6
CONTINUOUS
 10
-3402.6683014100272
 20
399228.57890928019
 30
0.0
 11
-3389.5882816641101
 21
399234.67822265648
 31
0.0
  0
LINE
  5
64691
  8
S-OBRYS
  6
CONTINUOUS
 10
-3434.5023633549722
 20
399213.73444240511
 30
0.0
 11
-3414.7566860666921
 21
399222.94200294011
 31
0.0
  0
LINE
  5
64692
  8
S-OBRYS
  6
CONTINUOUS
 10
-3493.026983180338
 20
399242.40563764499
 30
0.0
 11
-3493.5237252323432
 21
399209.39188725111
 31
0.0
  0
LINE
  5
64693
  8
S-OBRYS
  6
CONTINUOUS
 10
-3447.404580390576
 20
399241.40333612781
 30
0.0
 11
-3493.3645334915859
 21
399219.97185802838
 31
0.0
  0
LINE
  5
64694
  8
S-OBRYS
  6
CONTINUOUS
 10
-3382.2047361910809
 20
399101.74083441199
 30
0.0
 11
-3362.4590589028012
 21
399110.94839494699
 31
0.0
  0
LINE
  5
64695
  8
S-OBRYS
  6
CONTINUOUS
 10
-3356.0985734029168
 20
399271.27355074702
 30
0.0
 11
-3308.696620493196
 21
399293.37744440028
 31
0.0
  0
LINE
  5
64696
  8
S-OBRYS
  6
CONTINUOUS
 10
-3303.8348433302381
 20
399282.9513296283
 30
0.0
 11
-3270.9810496352011
 21
399298.27130522783
 31
0.0
  0
LINE
  5
64697
  8
S-OBRYS
  6
CONTINUOUS
 10
-3098.0662114265292
 20
398927.45423803048
 30
0.0
 11
-3270.9810496352011
 21
399298.27130522783
 31
0.0
  0
LINE
  5
64698
  8
S-OBRYS
  6
CONTINUOUS
 10
-3154.2612668529691
 20
399177.48081338062
 30
0.0
 11
-2993.449178999887
 21
399252.46872147039
 31
0.0
  0
LINE
  5
64699
  8
S-OBRYS
  6
CONTINUOUS
 10
-3194.524814656048
 20
398924.77750694152
 30
0.0
 11
-3356.0985734029168
 21
399271.27355074702
 31
0.0
  0
LINE
  5
6469A
  8
S-OBRYS
  6
CONTINUOUS
 10
-3144.830530518142
 20
399157.2565340451
 30
0.0
 11
-3316.2188038279778
 21
399077.33686968283
 31
0.0
  0
LINE
  5
6469B
  8
S-OBRYS
  6
CONTINUOUS
 10
-3152.4642708069009
 20
399084.3747507814
 30
0.0
 11
-3205.5680892650998
 21
399198.25625697052
 31
0.0
  0
LINE
  5
6469C
  8
S-OBRYS
  6
CONTINUOUS
 10
-3099.3187137072091
 20
398926.87018662511
 30
0.0
 11
-3098.0662114265292
 21
398927.45423803048
 31
0.0
  0
LINE
  5
6469D
  8
S-OBRYS
  6
CONTINUOUS
 10
-3167.8860852384678
 20
399077.18344060931
 30
0.0
 11
-3152.4642708069009
 21
399084.3747507814
 31
0.0
  0
LINE
  5
6469E
  8
S-OBRYS
  6
CONTINUOUS
 10
-3166.140924851868
 20
399113.70443003019
 30
0.0
 11
-3131.9552753340108
 21
399129.64546019939
 31
0.0
  0
LINE
  5
6469F
  8
S-OBRYS
  6
CONTINUOUS
 10
-3350.3706742461359
 20
399116.58530128712
 30
0.0
 11
-3337.2906545002188
 21
399122.68461466348
 31
0.0
  0
LINE
  5
646A0
  8
S-OBRYS
  6
CONTINUOUS
 10
-3220.9899036966681
 20
399191.06494679837
 30
0.0
 11
-3205.5680892650998
 21
399198.25625697052
 31
0.0
  0
LINE
  5
646A1
  8
S-OBRYS
  6
CONTINUOUS
 10
-3191.891435220125
 20
399168.92657772161
 30
0.0
 11
-3157.7057857022742
 21
399184.8676078908
 31
0.0
  0
LINE
  5
646A2
  8
S-OBRYS
  6
CONTINUOUS
 10
-3048.030812687859
 20
399369.519412647
 30
0.0
 11
-3208.8429005409489
 21
399294.53150455729
 31
0.0
  0
LINE
  5
646A3
  8
S-OBRYS
  6
CONTINUOUS
 10
-3570.5342417258512
 20
399106.15069747972
 30
0.0
 11
-3600.3472875306038
 21
399170.08498052938
 31
0.0
  0
LINE
  5
646A4
  8
S-OBRYS
  6
CONTINUOUS
 10
-3417.6178761740161
 20
399177.52554279618
 30
0.0
 11
-3369.3025191554848
 21
399074.07194068917
 31
0.0
  0
LINE
  5
646A5
  8
S-OBRYS
  6
CONTINUOUS
 10
-3343.633998173741
 20
399070.41890654841
 30
0.0
 11
-3331.5456135170762
 21
399076.05581288849
 31
0.0
  0
LINE
  5
646A6
  8
S-OBRYS
  6
CONTINUOUS
 10
-3331.7836829708322
 20
399076.72536986577
 30
0.0
 11
-3385.2332213502091
 21
399191.18925943231
 31
0.0
  0
LINE
  5
646A7
  8
S-OBRYS
  6
CONTINUOUS
 10
-3421.2552926853241
 20
399268.43884070148
 30
0.0
 11
-3433.3436773419962
 21
399262.8019343614
 31
0.0
  0
LINE
  5
646A8
  8
S-OBRYS
  6
CONTINUOUS
 10
-3433.3436773419962
 20
399262.8019343614
 30
0.0
 11
-3397.3025627563761
 21
399185.51151470962
 31
0.0
  0
LINE
  5
646A9
  8
S-OBRYS
  6
CONTINUOUS
 10
-3397.3025627563761
 20
399185.51151470962
 30
0.0
 11
-3343.872067627497
 21
399071.0884635257
 31
0.0
  0
LINE
  5
646AA
  8
S-OBRYS
  6
CONTINUOUS
 10
-3385.2332213502091
 20
399191.18925943231
 30
0.0
 11
-3421.2552926853241
 21
399268.43884070148
 31
0.0
  0
LINE
  5
646AB
  8
S-OBRYS
  6
CONTINUOUS
 10
-3654.7252039443479
 20
399118.84234732459
 30
0.0
 11
-3596.4528116242068
 21
398994.03581410547
 31
0.0
  0
DIMENSION
  5
646AC
  8
S-OBRYS
  6
CONTINUOUS
  2
*D94
 10
-2875.3751285706312
 20
398579.40755980002
 30
0.0
 11
-4753.633087733062
 21
397394.32977625122
 31
0.0
 70
     2
 13
-4996.2302549745073
 23
397114.07066657848
 33
0.0
 14
-4699.7993157707888
 24
397114.07066657848
 34
0.0
 15
-5428.9218478454868
 25
397388.66916914558
 35
0.0
 16
-4810.8194515210917
 26
397290.86731891357
 36
0.0
1001
ACAD
1000
DSTYLE
1002
{
1070
   271
1070
     0
1002
}
  0
DIMENSION
  5
646AD
  8
S-OBRYS
  6
CONTINUOUS
  2
*D95
 10
-2313.9139361978741
 20
398527.86110027827
 30
0.0
 11
-2499.5118092145131
 21
399103.34214213089
 31
0.0
 70
     1
  1
1100
 13
-3555.8252736586219
 23
399272.80183562601
 33
0.0
 14
-3048.6833595698558
 24
398185.23249118199
 34
0.0
  0
DIMENSION
  5
646AE
  8
S-OBRYS
  6
CONTINUOUS
  2
*D96
 10
-2986.83969285696
 20
396271.37462695251
 30
0.0
 11
-4178.7405224167742
 21
396271.37462695251
 31
0.0
 70
   128
  1
2160
 13
-5144.9265166553378
 23
397838.2758907695
 33
0.0
 14
-2986.83969285696
 24
398214.07066657842
 34
0.0
  0
LINE
  5
646AF
  8
S-OBRYS
  6
CONTINUOUS
 10
-5644.926515546882
 20
396961.01202185469
 30
0.0
 11
-5644.926515546882
 21
398024.60283106827
 31
0.0
  0
LINE
  5
646B0
  8
S-OBRYS
  6
CONTINUOUS
 10
-5644.926515546882
 20
398024.60283106827
 30
0.0
 11
-5770.4356818072192
 21
397936.89226171351
 31
0.0
  0
LINE
  5
646B1
  8
S-OBRYS
  6
CONTINUOUS
 10
-5644.926515546882
 20
397960.54195262102
 30
0.0
 11
-5770.4356818072192
 21
397872.8313832662
 31
0.0
  0
LINE
  5
646B2
  8
S-OBRYS
  6
CONTINUOUS
 10
-5644.926515546882
 20
397889.55558067741
 30
0.0
 11
-5770.4356818072192
 21
397801.84501132282
 31
0.0
  0
LINE
  5
646B3
  8
S-OBRYS
  6
CONTINUOUS
 10
-5644.926515546882
 20
397816.83787352411
 30
0.0
 11
-5770.4356818072192
 21
397729.12730416929
 31
0.0
  0
LINE
  5
646B4
  8
S-OBRYS
  6
CONTINUOUS
 10
-5644.926515546882
 20
397745.85150158062
 30
0.0
 11
-5770.4356818072192
 21
397658.1409322258
 31
0.0
  0
DIMENSION
  5
646B5
  8
S-OBRYS
  6
CONTINUOUS
  2
*D97
 10
-5644.926515546882
 20
398070.04661478283
 30
0.0
 11
-6092.7836584040251
 21
398145.04661478283
 31
0.0
 70
     0
  1
MIN.200
 13
-5444.926515546882
 23
397438.34204086778
 33
0.0
 14
-5644.926515546882
 24
397438.34204086778
 34
0.0
  0
LINE
  5
646B6
  8
S-OBRYS
  6
CONTINUOUS
 10
-5644.926515546882
 20
398024.60283106827
 30
0.0
 11
-5770.4356818072192
 21
397936.89226171351
 31
0.0
  0
LINE
  5
646B7
  8
S-OBRYS
  6
CONTINUOUS
 10
-5644.926515546882
 20
397960.54195262102
 30
0.0
 11
-5770.4356818072192
 21
397872.8313832662
 31
0.0
  0
LINE
  5
646B8
  8
S-OBRYS
  6
CONTINUOUS
 10
-5644.926515546882
 20
397889.55558067741
 30
0.0
 11
-5770.4356818072192
 21
397801.84501132282
 31
0.0
  0
LINE
  5
646B9
  8
S-OBRYS
  6
CONTINUOUS
 10
-5644.926515546882
 20
397816.83787352411
 30
0.0
 11
-5770.4356818072192
 21
397729.12730416929
 31
0.0
  0
LINE
  5
646BA
  8
S-OBRYS
  6
CONTINUOUS
 10
-5644.926515546882
 20
397745.85150158062
 30
0.0
 11
-5770.4356818072192
 21
397658.1409322258
 31
0.0
  0
LINE
  5
646BB
  8
S-OBRYS
  6
CONTINUOUS
 10
-5644.926515546882
 20
397659.28275654902
 30
0.0
 11
-5770.4356818072192
 21
397571.57218719443
 31
0.0
  0
LINE
  5
646BC
  8
S-OBRYS
  6
CONTINUOUS
 10
-5644.926515546882
 20
397574.44534672739
 30
0.0
 11
-5770.4356818072192
 21
397486.73477737262
 31
0.0
  0
LINE
  5
646BD
  8
S-OBRYS
  6
CONTINUOUS
 10
-5644.926515546882
 20
397487.8766016959
 30
0.0
 11
-5770.4356818072192
 21
397400.16603234108
 31
0.0
  0
LINE
  5
646BE
  8
S-OBRYS
  6
CONTINUOUS
 10
-5644.926515546882
 20
397401.30785666429
 30
0.0
 11
-5770.4356818072192
 21
397313.59728730959
 31
0.0
  0
LINE
  5
646BF
  8
S-OBRYS
  6
CONTINUOUS
 10
-5644.926515546882
 20
397318.20188382379
 30
0.0
 11
-5770.4356818072192
 21
397230.4913144692
 31
0.0
  0
LINE
  5
646C0
  8
S-OBRYS
  6
CONTINUOUS
 10
-5644.926515546882
 20
397233.36452488782
 30
0.0
 11
-5770.4356818072192
 21
397145.65395553311
 31
0.0
  0
LINE
  5
646C1
  8
S-OBRYS
  6
CONTINUOUS
 10
-5644.926515546882
 20
397155.45265944808
 30
0.0
 11
-5770.4356818072192
 21
397067.74209009332
 31
0.0
  0
LINE
  5
646C2
  8
S-OBRYS
  6
CONTINUOUS
 10
-5644.926515546882
 20
397082.73490140901
 30
0.0
 11
-5770.4356818072192
 21
396995.02433205431
 31
0.0
  0
LINE
  5
646C3
  8
S-OBRYS
  6
CONTINUOUS
 10
-5644.926515546882
 20
396992.70338418649
 30
0.0
 11
-5770.4356818072192
 21
396904.99281483178
 31
0.0
  0
LINE
  5
646C4
  8
S-OBRYS
  6
CONTINUOUS
 10
-5644.926515546882
 20
398024.60283106827
 30
0.0
 11
-5770.4356818072192
 21
397936.89226171351
 31
0.0
  0
LINE
  5
646C5
  8
S-OBRYS
  6
CONTINUOUS
 10
-5644.926515546882
 20
397960.54195262102
 30
0.0
 11
-5770.4356818072192
 21
397872.8313832662
 31
0.0
  0
LINE
  5
646C6
  8
S-OBRYS
  6
CONTINUOUS
 10
-5644.926515546882
 20
397889.55558067741
 30
0.0
 11
-5770.4356818072192
 21
397801.84501132282
 31
0.0
  0
LINE
  5
646C7
  8
S-OBRYS
  6
CONTINUOUS
 10
-5644.926515546882
 20
397816.83787352411
 30
0.0
 11
-5770.4356818072192
 21
397729.12730416929
 31
0.0
  0
LINE
  5
646C8
  8
S-OBRYS
  6
CONTINUOUS
 10
-5644.926515546882
 20
397745.85150158062
 30
0.0
 11
-5770.4356818072192
 21
397658.1409322258
 31
0.0
  0
LINE
  5
646C9
  8
S-OBRYS
  6
CONTINUOUS
 10
-5644.926515546882
 20
397659.28275654902
 30
0.0
 11
-5770.4356818072192
 21
397571.57218719443
 31
0.0
  0
LINE
  5
646CA
  8
S-OBRYS
  6
CONTINUOUS
 10
-5644.926515546882
 20
397574.44534672739
 30
0.0
 11
-5770.4356818072192
 21
397486.73477737262
 31
0.0
  0
LINE
  5
646CB
  8
S-OBRYS
  6
CONTINUOUS
 10
-5644.926515546882
 20
397487.8766016959
 30
0.0
 11
-5770.4356818072192
 21
397400.16603234108
 31
0.0
  0
LINE
  5
646CC
  8
S-OBRYS
  6
CONTINUOUS
 10
-5644.926515546882
 20
397401.30785666429
 30
0.0
 11
-5770.4356818072192
 21
397313.59728730959
 31
0.0
  0
LINE
  5
646CD
  8
S-OBRYS
  6
CONTINUOUS
 10
-5644.926515546882
 20
397318.20188382379
 30
0.0
 11
-5770.4356818072192
 21
397230.4913144692
 31
0.0
  0
LINE
  5
646CE
  8
S-OBRYS
  6
CONTINUOUS
 10
-5644.926515546882
 20
397233.36452488782
 30
0.0
 11
-5770.4356818072192
 21
397145.65395553311
 31
0.0
  0
LINE
  5
646CF
  8
S-OBRYS
  6
CONTINUOUS
 10
-5644.926515546882
 20
397155.45265944808
 30
0.0
 11
-5770.4356818072192
 21
397067.74209009332
 31
0.0
  0
LINE
  5
646D0
  8
S-OBRYS
  6
CONTINUOUS
 10
-5644.926515546882
 20
397082.73490140901
 30
0.0
 11
-5770.4356818072192
 21
396995.02433205431
 31
0.0
  0
LINE
  5
646D1
  8
S-OBRYS
  6
CONTINUOUS
 10
-5644.926515546882
 20
396992.70338418649
 30
0.0
 11
-5770.4356818072192
 21
396904.99281483178
 31
0.0
  0
LINE
  5
646D2
  8
S-OBRYS
  6
CONTINUOUS
 10
-2203.5557515272121
 20
397690.59154835157
 30
0.0
 11
-2203.5557515272121
 21
398754.18235756498
 31
0.0
  0
LINE
  5
646D3
  8
S-OBRYS
  6
CONTINUOUS
 10
-2203.5557515272121
 20
398754.18235756498
 30
0.0
 11
-2078.0465852668749
 21
398666.47178821033
 31
0.0
  0
LINE
  5
646D4
  8
S-OBRYS
  6
CONTINUOUS
 10
-2203.5557515272121
 20
398690.12147911772
 30
0.0
 11
-2078.0465852668749
 21
398602.41090976301
 31
0.0
  0
LINE
  5
646D5
  8
S-OBRYS
  6
CONTINUOUS
 10
-2203.5557515272121
 20
398619.13510717422
 30
0.0
 11
-2078.0465852668749
 21
398531.42453781952
 31
0.0
  0
LINE
  5
646D6
  8
S-OBRYS
  6
CONTINUOUS
 10
-2203.5557515272121
 20
398546.41740002081
 30
0.0
 11
-2078.0465852668749
 21
398458.70683066611
 31
0.0
  0
LINE
  5
646D7
  8
S-OBRYS
  6
CONTINUOUS
 10
-2203.5557515272121
 20
398475.43102807732
 30
0.0
 11
-2078.0465852668749
 21
398387.7204587225
 31
0.0
  0
LINE
  5
646D8
  8
S-OBRYS
  6
CONTINUOUS
 10
-2203.5557515272121
 20
398388.86228304578
 30
0.0
 11
-2078.0465852668749
 21
398301.15171369113
 31
0.0
  0
LINE
  5
646D9
  8
S-OBRYS
  6
CONTINUOUS
 10
-2203.5557515272121
 20
398304.02487322409
 30
0.0
 11
-2078.0465852668749
 21
398216.31430386938
 31
0.0
  0
LINE
  5
646DA
  8
S-OBRYS
  6
CONTINUOUS
 10
-2203.5557515272121
 20
398217.4561281926
 30
0.0
 11
-2078.0465852668749
 21
398129.74555883789
 31
0.0
  0
LINE
  5
646DB
  8
S-OBRYS
  6
CONTINUOUS
 10
-2203.5557515272121
 20
398130.887383161
 30
0.0
 11
-2078.0465852668749
 21
398043.17681380641
 31
0.0
  0
LINE
  5
646DC
  8
S-OBRYS
  6
CONTINUOUS
 10
-2203.5557515272121
 20
398047.7814103206
 30
0.0
 11
-2078.0465852668749
 21
397960.0708409659
 31
0.0
  0
LINE
  5
646DD
  8
S-OBRYS
  6
CONTINUOUS
 10
-2203.5557515272121
 20
397962.94405138452
 30
0.0
 11
-2078.0465852668749
 21
397875.23348202981
 31
0.0
  0
LINE
  5
646DE
  8
S-OBRYS
  6
CONTINUOUS
 10
-2203.5557515272121
 20
397885.03218594479
 30
0.0
 11
-2078.0465852668749
 21
397797.32161659008
 31
0.0
  0
LINE
  5
646DF
  8
S-OBRYS
  6
CONTINUOUS
 10
-2203.5557515272121
 20
397812.31442790572
 30
0.0
 11
-2078.0465852668749
 21
397724.60385855113
 31
0.0
  0
LINE
  5
646E0
  8
S-OBRYS
  6
CONTINUOUS
 10
-2203.5557515272121
 20
397722.28291068331
 30
0.0
 11
-2078.0465852668749
 21
397634.5723413286
 31
0.0
  0
DIMENSION
  5
646E1
  8
S-OBRYS
  6
CONTINUOUS
  2
*D98
 10
-2203.5557515272121
 20
398805.16276035731
 30
0.0
 11
-1799.984322955785
 21
398805.16276035731
 31
0.0
 70
   128
  1
MIN.400
 13
-2603.5557515272121
 23
398413.18956799421
 33
0.0
 14
-2203.5557515272121
 24
398413.18956799421
 34
0.0
  0
VIEWPORT
  5
1FAB5
 67
     1
  8
0
  6
ČERCHOVANÁ
 10
12.669026204836801
 20
9.4585013259736659
 30
0.0
 40
41.707206501782828
 41
24.2248555085413
 68
     1
 69
     1
1001
ACAD
1000
MVIEW
1002
{
1070
    16
1010
0.0
1020
0.0
1030
0.0
1010
0.0
1020
0.0
1030
1.0
1040
0.0
1040
24.2248555085413
1040
12.669026204836801
1040
9.4585013259736659
1040
50.0
1040
0.0
1040
0.0
1070
     0
1070
   100
1070
     1
1070
     1
1070
     0
1070
     0
1070
     0
1070
     0
1040
0.0
1040
0.0
1040
0.0
1040
10.0
1040
10.0
1040
10.0
1040
10.0
1070
     0
1002
{
1002
}
1002
}
  0
VIEWPORT
  5
1FAB7
 67
     1
  8
2-VZT
  6
ČERCHOVANÁ
 10
5.24999976158142
 20
3.99999976158142
 30
0.0
 40
8.3999996185302717
 41
6.3999996185302717
 68
     2
 69
     2
1001
ACAD
1000
MVIEW
1002
{
1070
    16
1010
0.0
1020
0.0
1030
0.0
1010
0.0
1020
0.0
1030
1.0
1040
0.0
1040
517776.44812413253
1040
-335493.7046016907
1040
-205251.99203018961
1040
50.0
1040
0.0
1040
0.0
1070
     0
1070
   100
1070
     1
1070
     0
1070
     0
1070
     0
1070
     0
1070
     0
1040
0.0
1040
0.0
1040
0.0
1040
1.0
1040
1.0
1040
1.0
1040
1.0
1070
     0
1002
{
1002
}
1002
}
  0
ENDSEC
  0
EOF
