  0
SECTION
  2
HEADER
  9
$ACADVER
  1
AC1009
  9
$INSBASE
 10
0.0
 20
0.0
 30
0.0
  9
$EXTMIN
 10
4800.4444335535509
 20
394054.11978133413
 30
0.0
  9
$EXTMAX
 10
28536.147139631848
 20
408904.11978133401
 30
0.0
  9
$LIMMIN
 10
-127022.6804658414
 20
-67144.462473645661
  9
$LIMMAX
 10
-873.19720690528334
 20
6755.1563308572058
  9
$ORTHOMODE
 70
     1
  9
$REGENMODE
 70
     1
  9
$FILLMODE
 70
     1
  9
$QTEXTMODE
 70
     0
  9
$MIRRTEXT
 70
     0
  9
$DRAGMODE
 70
     2
  9
$LTSCALE
 40
50.0
  9
$OSMODE
 70
   679
  9
$ATTMODE
 70
     1
  9
$TEXTSIZE
 40
200.0
  9
$TRACEWID
 40
10.0
  9
$TEXTSTYLE
  7
R
  9
$CLAYER
  8
S-OBRYS
  9
$CELTYPE
  6
CONTINUOUS
  9
$CECOLOR
 62
   256
  9
$DIMSCALE
 40
50.0
  9
$DIMASZ
 40
2.0
  9
$DIMEXO
 40
0.063
  9
$DIMDLI
 40
5.0
  9
$DIMRND
 40
0.0
  9
$DIMDLE
 40
0.0
  9
$DIMEXE
 40
0.2
  9
$DIMTP
 40
0.0
  9
$DIMTM
 40
0.0
  9
$DIMTXT
 40
2.0
  9
$DIMCEN
 40
2.0
  9
$DIMTSZ
 40
0.0
  9
$DIMTOL
 70
     0
  9
$DIMLIM
 70
     0
  9
$DIMTIH
 70
     0
  9
$DIMTOH
 70
     0
  9
$DIMSE1
 70
     0
  9
$DIMSE2
 70
     0
  9
$DIMTAD
 70
     1
  9
$DIMZIN
 70
    12
  9
$DIMBLK
  1

  9
$DIMASO
 70
     1
  9
$DIMSHO
 70
     0
  9
$DIMPOST
  1

  9
$DIMAPOST
  1

  9
$DIMALT
 70
     0
  9
$DIMALTD
 70
     2
  9
$DIMALTF
 40
25.399999999999999
  9
$DIMLFAC
 40
1.0
  9
$DIMTOFL
 70
     1
  9
$DIMTVP
 40
0.0
  9
$DIMTIX
 70
     0
  9
$DIMSOXD
 70
     0
  9
$DIMSAH
 70
     1
  9
$DIMBLK1
  1
OPEN
  9
$DIMBLK2
  1
OPEN
  9
$DIMSTYLE
  2
EMBABA
  9
$DIMCLRD
 70
     0
  9
$DIMCLRE
 70
     0
  9
$DIMCLRT
 70
     7
  9
$DIMTFAC
 40
1.0
  9
$DIMGAP
 40
0.5
  9
$LUNITS
 70
     2
  9
$LUPREC
 70
     0
  9
$SKETCHINC
 40
10.0
  9
$FILLETRAD
 40
400.0
  9
$AUNITS
 70
     0
  9
$AUPREC
 70
     4
  9
$MENU
  1
ACAD
  9
$ELEVATION
 40
0.0
  9
$PELEVATION
 40
0.0
  9
$THICKNESS
 40
0.0
  9
$LIMCHECK
 70
     0
  9
$BLIPMODE
 70
     0
  9
$CHAMFERA
 40
0.0
  9
$CHAMFERB
 40
0.0
  9
$SKPOLY
 70
     0
  9
$TDCREATE
 40
2450205.720229167
  9
$TDUPDATE
 40
2453529.3415843751
  9
$TDINDWG
 40
42.360854583299997
  9
$TDUSRTIMER
 40
42.360854583299997
  9
$USRTIMER
 70
     1
  9
$ANGBASE
 50
0.0
  9
$ANGDIR
 70
     0
  9
$PDMODE
 70
     2
  9
$PDSIZE
 40
-5.0
  9
$PLINEWID
 40
0.0
  9
$COORDS
 70
     0
  9
$SPLFRAME
 70
     0
  9
$SPLINETYPE
 70
     6
  9
$SPLINESEGS
 70
     8
  9
$ATTDIA
 70
     0
  9
$ATTREQ
 70
     1
  9
$HANDLING
 70
     1
  9
$HANDSEED
  5
65995
  9
$SURFTAB1
 70
    18
  9
$SURFTAB2
 70
    18
  9
$SURFTYPE
 70
     6
  9
$SURFU
 70
    18
  9
$SURFV
 70
    18
  9
$UCSNAME
  2

  9
$UCSORG
 10
0.0
 20
0.0
 30
0.0
  9
$UCSXDIR
 10
1.0
 20
0.0
 30
0.0
  9
$UCSYDIR
 10
0.0
 20
1.0
 30
0.0
  9
$PUCSNAME
  2

  9
$PUCSORG
 10
0.0
 20
0.0
 30
0.0
  9
$PUCSXDIR
 10
1.0
 20
0.0
 30
0.0
  9
$PUCSYDIR
 10
0.0
 20
1.0
 30
0.0
  9
$USERI1
 70
     0
  9
$USERI2
 70
     0
  9
$USERI3
 70
     0
  9
$USERI4
 70
     0
  9
$USERI5
 70
     0
  9
$USERR1
 40
0.0
  9
$USERR2
 40
50.0
  9
$USERR3
 40
0.0
  9
$USERR4
 40
0.0
  9
$USERR5
 40
0.0
  9
$WORLDVIEW
 70
     1
  9
$SHADEDGE
 70
     3
  9
$SHADEDIF
 70
    70
  9
$TILEMODE
 70
     1
  9
$MAXACTVP
 70
    16
  9
$PLIMCHECK
 70
     0
  9
$PEXTMIN
 10
1.049999952316284
 20
0.7999999523162842
 30
0.0
  9
$PEXTMAX
 10
9.4499995708465558
 20
7.1999995708465558
 30
0.0
  9
$PLIMMIN
 10
-0.2500002402958907
 20
-0.2499999962453767
  9
$PLIMMAX
 10
10.74999951940821
 20
8.2499997634587316
  9
$UNITMODE
 70
     0
  9
$VISRETAIN
 70
     0
  9
$PLINEGEN
 70
     0
  9
$PSLTSCALE
 70
     1
  0
ENDSEC
  0
SECTION
  2
TABLES
  0
TABLE
  2
VPORT
 70
     4
  0
VPORT
  2
*ACTIVE
 70
     0
 10
0.0
 20
0.0
 11
1.0
 21
1.0
 12
17987.2769220595
 22
401252.7868855978
 13
0.0
 23
0.0
 14
1.0
 24
1.0
 15
1.0
 25
1.0
 16
0.0
 26
0.0
 36
1.0
 17
0.0
 27
0.0
 37
0.0
 40
22572.68544892994
 41
1.6116303219106951
 42
50.0
 43
0.0
 44
0.0
 50
0.0
 51
0.0
 71
     0
 72
   100
 73
     1
 74
     0
 75
     0
 76
     1
 77
     0
 78
     0
  0
ENDTAB
  0
TABLE
  2
LTYPE
 70
     3
  0
LTYPE
  2
CONTINUOUS
 70
     0
  3
Solid line
 72
    65
 73
     0
 40
0.0
  0
LTYPE
  2
ČERCHOVANÁ
 70
     0
  3
Čerchovaná __ . __ . __ . __ . __ . __ . __ . _
 72
    65
 73
     4
 40
1.0
 49
0.5
 49
-0.25
 49
0.0
 49
-0.25
  0
ENDTAB
  0
TABLE
  2
LAYER
 70
    18
  0
LAYER
  2
0
 70
     0
 62
     7
  6
CONTINUOUS
  0
LAYER
  2
RAZ
 70
     0
 62
     7
  6
CONTINUOUS
  0
LAYER
  2
KOTY
 70
     0
 62
     2
  6
CONTINUOUS
  0
LAYER
  2
DEFPOINTS
 70
     0
 62
     7
  6
CONTINUOUS
  0
LAYER
  2
2-VZT
 70
     0
 62
     4
  6
CONTINUOUS
  0
LAYER
  2
OBRYS
 70
     0
 62
     7
  6
CONTINUOUS
  0
LAYER
  2
S-OBRYS
 70
     0
 62
     7
  6
CONTINUOUS
  0
ENDTAB
  0
TABLE
  2
STYLE
 70
     7
  0
STYLE
  2
STANDARD
 70
     0
 40
0.0
 41
0.8
 50
0.0
 71
     0
 42
200.0
  3
ROMANS.SHX
  4

  0
STYLE
  2
R
 70
     0
 40
0.0
 41
1.0
 50
0.0
 71
     0
 42
200.0
  3
romans.shx
  4

  0
STYLE
  2
ROMANS
 70
     0
 40
0.0
 41
0.8
 50
0.0
 71
     0
 42
300.0
  3
ROMANS.shx
  4

  0
STYLE
  2
R08
 70
     0
 40
0.0
 41
0.8
 50
0.0
 71
     0
 42
800.0
  3
ROMANS.shx
  4

  0
STYLE
  2
ROMANT
 70
     0
 40
0.0
 41
0.7
 50
0.0
 71
     0
 42
3.0
  3
romant
  4

  0
STYLE
  2
CYRILLIC
 70
     0
 40
2.2999999999999989
 41
0.7
 50
0.0
 71
     0
 42
2.2999999999999989
  3
cyrillic
  4

  0
ENDTAB
  0
TABLE
  2
VIEW
 70
     0
  0
ENDTAB
  0
TABLE
  2
UCS
 70
     0
  0
ENDTAB
  0
TABLE
  2
APPID
 70
     6
  0
APPID
  2
ACAD
 70
     0
  0
APPID
  2
PHOENIX7010
 70
     0
  0
APPID
  2
CONTENTBLOCKICON
 70
     0
  0
APPID
  2
CONTENTLONGBLOCKNAME
 70
     0
  0
APPID
  2
ACAD_DSTYLE_DIMTEXT_FILL
 70
     0
  0
APPID
  2
DCO15
 70
     0
  0
ENDTAB
  0
TABLE
  2
DIMSTYLE
 70
     3
  0
DIMSTYLE
  2
STANDARD
 70
     0
  3

  4

  5

  6
OPEN
  7
OPEN
 40
1.0
 41
80.0
 42
1.0
 43
0.0
 44
1.0
 45
0.0
 46
0.8
 47
0.0
 48
0.0
140
70.0
141
-3.0
142
0.0
143
0.0394
144
1.0
145
1.0
146
0.5
147
1.0
 71
     0
 72
     0
 73
     0
 74
     0
 75
     0
 76
     0
 77
     0
 78
     8
170
     0
171
     2
172
     1
173
     1
174
     0
175
     0
176
     7
177
     7
178
     2
  0
DIMSTYLE
  2
EMBABA
 70
     0
  3

  4

  5

  6
OPEN
  7
OPEN
 40
50.0
 41
2.0
 42
0.063
 43
5.0
 44
0.2
 45
0.0
 46
0.0
 47
0.0
 48
0.0
140
2.0
141
2.0
142
0.0
143
25.399999999999999
144
1.0
145
0.0
146
1.0
147
0.5
 71
     0
 72
     0
 73
     0
 74
     0
 75
     0
 76
     0
 77
     1
 78
    12
170
     0
171
     2
172
     1
173
     1
174
     0
175
     0
176
     0
177
     0
178
     7
  0
ENDTAB
  0
ENDSEC
  0
SECTION
  2
BLOCKS
  0
BLOCK
  8
0
  2
$MODEL_SPACE
 70
     0
 10
0.0
 20
0.0
 30
0.0
  3
$MODEL_SPACE
  1

  0
ENDBLK
  5
9
  8
0
  0
BLOCK
 67
     1
  8
0
  2
$PAPER_SPACE
 70
     0
 10
0.0
 20
0.0
 30
0.0
  3
$PAPER_SPACE
  1

  0
ENDBLK
  5
E
 67
     1
  8
0
  0
BLOCK
  8
0
  2
_OPEN
 70
     0
 10
0.0
 20
0.0
 30
0.0
  3
_OPEN
  1

  0
LINE
  5
28
  8
0
  6
BYBLOCK
 62
     0
 10
-1.0
 20
0.1666666666666666
 30
0.0
 11
0.0
 21
0.0
 31
0.0
  0
LINE
  5
29
  8
0
  6
BYBLOCK
 62
     0
 10
0.0
 20
0.0
 30
0.0
 11
-1.0
 21
-0.1666666666666666
 31
0.0
  0
LINE
  5
2A
  8
0
  6
BYBLOCK
 62
     0
 10
0.0
 20
0.0
 30
0.0
 11
-1.0
 21
0.0
 31
0.0
  0
ENDBLK
  5
2C
  8
0
  0
BLOCK
  8
0
  2
*D18
 70
     1
 10
0.0
 20
0.0
 30
0.0
  3
*D18
  1

  0
LINE
  5
656D7
  8
S-OBRYS
  6
CONTINUOUS
 62
     0
 10
10009.693699171979
 20
405100.06920503022
 30
0.0
 11
10538.05102404119
 21
405100.06920503022
 31
0.0
  0
LINE
  5
656D8
  8
S-OBRYS
  6
CONTINUOUS
 62
     0
 10
9881.7504792830096
 20
405220.06807738182
 30
0.0
 11
10538.05102404119
 21
405220.06807738182
 31
0.0
  0
LINE
  5
656D9
  8
S-OBRYS
  6
CONTINUOUS
 62
     0
 10
10528.05102404119
 20
405000.06920503028
 30
0.0
 11
10528.05102404119
 21
404900.0692050301
 31
0.0
  0
LINE
  5
656DA
  8
S-OBRYS
  6
CONTINUOUS
 62
     0
 10
10528.05102404119
 20
405320.06807738187
 30
0.0
 11
10528.0510240412
 21
405664.35379166761
 31
0.0
  0
LINE
  5
656DB
  8
S-OBRYS
  6
CONTINUOUS
 62
     0
 10
10528.05102404119
 20
405100.06920503022
 30
0.0
 11
10528.05102404119
 21
405220.06807738182
 31
0.0
  0
INSERT
  5
656DC
  8
S-OBRYS
  6
CONTINUOUS
 62
     0
  2
_OPEN
 10
10528.05102404119
 20
405100.06920503022
 30
0.0
 41
100.0
 42
100.0
 43
100.0
 50
90.0
  0
INSERT
  5
656DD
  8
S-OBRYS
  6
CONTINUOUS
 62
     0
  2
_OPEN
 10
10528.05102404119
 20
405220.06807738182
 30
0.0
 41
100.0
 42
100.0
 43
100.0
 50
270.0
  0
INSERT
  5
656DE
  8
S-OBRYS
  6
CONTINUOUS
  2
*U45
 10
0.0
 20
0.0
 30
0.0
  0
POINT
  5
656DF
  8
DEFPOINTS
  6
CONTINUOUS
 62
     0
 10
10006.54369917198
 20
405100.06920503022
 30
0.0
  0
POINT
  5
656E0
  8
DEFPOINTS
  6
CONTINUOUS
 62
     0
 10
9878.6004792830099
 20
405220.06807738182
 30
0.0
  0
POINT
  5
656E1
  8
DEFPOINTS
  6
CONTINUOUS
 62
     0
 10
10528.05102404119
 20
405220.06807738182
 30
0.0
  0
ENDBLK
  5
6564D
  8
0
  0
BLOCK
  8
0
  2
*D19
 70
     1
 10
0.0
 20
0.0
 30
0.0
  3
*D19
  1

  0
LINE
  5
656E2
  8
S-OBRYS
  6
CONTINUOUS
 62
     0
 10
10012.900479283009
 20
405100.06807738182
 30
0.0
 11
10538.05102404119
 21
405100.06807738182
 31
0.0
  0
LINE
  5
656E3
  8
S-OBRYS
  6
CONTINUOUS
 62
     0
 10
10012.900479283009
 20
404155.06807738187
 30
0.0
 11
10538.05102404119
 21
404155.06807738187
 31
0.0
  0
LINE
  5
656E4
  8
S-OBRYS
  6
CONTINUOUS
 62
     0
 10
10528.05102404119
 20
405000.06807738187
 30
0.0
 11
10528.05102404119
 21
404255.06807738187
 31
0.0
  0
INSERT
  5
656E5
  8
S-OBRYS
  6
CONTINUOUS
 62
     0
  2
_OPEN
 10
10528.05102404119
 20
405100.06807738182
 30
0.0
 41
100.0
 42
100.0
 43
100.0
 50
90.0
  0
INSERT
  5
656E6
  8
S-OBRYS
  6
CONTINUOUS
 62
     0
  2
_OPEN
 10
10528.05102404119
 20
404155.06807738187
 30
0.0
 41
100.0
 42
100.0
 43
100.0
 50
270.0
  0
INSERT
  5
656E7
  8
S-OBRYS
  6
CONTINUOUS
  2
*U46
 10
0.0
 20
0.0
 30
0.0
  0
POINT
  5
656E8
  8
DEFPOINTS
  6
CONTINUOUS
 62
     0
 10
10009.75047928301
 20
405100.06807738182
 30
0.0
  0
POINT
  5
656E9
  8
DEFPOINTS
  6
CONTINUOUS
 62
     0
 10
10009.75047928301
 20
404155.06807738187
 30
0.0
  0
POINT
  5
656EA
  8
DEFPOINTS
  6
CONTINUOUS
 62
     0
 10
10528.05102404119
 20
404155.06807738187
 30
0.0
  0
ENDBLK
  5
65659
  8
0
  0
BLOCK
  8
0
  2
*D20
 70
     1
 10
0.0
 20
0.0
 30
0.0
  3
*D20
  1

  0
LINE
  5
656EB
  8
S-OBRYS
  6
CONTINUOUS
 62
     0
 10
9531.6005657003043
 20
404590.69778199983
 30
0.0
 11
9531.6005657003043
 21
404528.18479177111
 31
0.0
  0
LINE
  5
656EC
  8
S-OBRYS
  6
CONTINUOUS
 62
     0
 10
10006.304063067189
 20
404590.47316557838
 30
0.0
 11
10006.304063067189
 21
404528.18479177111
 31
0.0
  0
LINE
  5
656ED
  8
S-OBRYS
  6
CONTINUOUS
 62
     0
 10
9906.3040630671894
 20
404538.18479177111
 30
0.0
 11
9631.6005657003043
 21
404538.18479177111
 31
0.0
  0
LINE
  5
656EE
  8
S-OBRYS
  6
CONTINUOUS
 62
     0
 10
9531.6005657003043
 20
404538.18479177111
 30
0.0
 11
9103.5053276050658
 21
404538.18479177111
 31
0.0
  0
INSERT
  5
656EF
  8
S-OBRYS
  6
CONTINUOUS
 62
     0
  2
_OPEN
 10
10006.304063067189
 20
404538.18479177111
 30
0.0
 41
100.0
 42
100.0
 43
100.0
  0
INSERT
  5
656F0
  8
S-OBRYS
  6
CONTINUOUS
 62
     0
  2
_OPEN
 10
9531.6005657003043
 20
404538.18479177111
 30
0.0
 41
100.0
 42
100.0
 43
100.0
 50
180.0
  0
INSERT
  5
656F1
  8
S-OBRYS
  6
CONTINUOUS
  2
*U47
 10
0.0
 20
0.0
 30
0.0
  0
POINT
  5
656F2
  8
DEFPOINTS
  6
CONTINUOUS
 62
     0
 10
9531.6005657003043
 20
404593.84778199991
 30
0.0
  0
POINT
  5
656F3
  8
DEFPOINTS
  6
CONTINUOUS
 62
     0
 10
10006.304063067189
 20
404593.62316557841
 30
0.0
  0
POINT
  5
656F4
  8
DEFPOINTS
  6
CONTINUOUS
 62
     0
 10
10006.304063067189
 20
404538.18479177111
 30
0.0
  0
ENDBLK
  5
65666
  8
0
  0
BLOCK
  8
0
  2
*D21
 70
     1
 10
0.0
 20
0.0
 30
0.0
  3
*D21
  1

  0
LINE
  5
656F5
  8
S-OBRYS
  6
CONTINUOUS
 62
     0
 10
9879.7504792830077
 20
402850.06807738187
 30
0.0
 11
10538.05102404119
 21
402850.06807738187
 31
0.0
  0
LINE
  5
656F6
  8
S-OBRYS
  6
CONTINUOUS
 62
     0
 10
10009.246550700749
 20
404155.06731351092
 30
0.0
 11
10538.05102404119
 21
404155.06731351092
 31
0.0
  0
LINE
  5
656F7
  8
S-OBRYS
  6
CONTINUOUS
 62
     0
 10
10528.05102404119
 20
402950.06807738187
 30
0.0
 11
10528.05102404119
 21
404055.06731351092
 31
0.0
  0
INSERT
  5
656F8
  8
S-OBRYS
  6
CONTINUOUS
 62
     0
  2
_OPEN
 10
10528.05102404119
 20
402850.06807738187
 30
0.0
 41
100.0
 42
100.0
 43
100.0
 50
270.0
  0
INSERT
  5
656F9
  8
S-OBRYS
  6
CONTINUOUS
 62
     0
  2
_OPEN
 10
10528.05102404119
 20
404155.06731351092
 30
0.0
 41
100.0
 42
100.0
 43
100.0
 50
90.0
  0
INSERT
  5
656FA
  8
S-OBRYS
  6
CONTINUOUS
  2
*U48
 10
0.0
 20
0.0
 30
0.0
  0
POINT
  5
656FB
  8
DEFPOINTS
  6
CONTINUOUS
 62
     0
 10
9876.6004792830045
 20
402850.06807738187
 30
0.0
  0
POINT
  5
656FC
  8
DEFPOINTS
  6
CONTINUOUS
 62
     0
 10
10006.09655070075
 20
404155.06731351092
 30
0.0
  0
POINT
  5
656FD
  8
DEFPOINTS
  6
CONTINUOUS
 62
     0
 10
10528.05102404119
 20
404155.06731351092
 30
0.0
  0
ENDBLK
  5
65672
  8
0
  0
BLOCK
  8
0
  2
*D22
 70
     1
 10
0.0
 20
0.0
 30
0.0
  3
*D22
  1

  0
LINE
  5
656FE
  8
S-OBRYS
  6
CONTINUOUS
 62
     0
 10
9765.9504792830103
 20
403450.06807738187
 30
0.0
 11
9393.0850055749761
 21
403450.06807738187
 31
0.0
  0
LINE
  5
656FF
  8
S-OBRYS
  6
CONTINUOUS
 62
     0
 10
9765.9504792830103
 20
402850.06807738187
 30
0.0
 11
9393.0850055749761
 21
402850.06807738187
 31
0.0
  0
LINE
  5
65700
  8
S-OBRYS
  6
CONTINUOUS
 62
     0
 10
9403.0850055749761
 20
403350.06807738182
 30
0.0
 11
9403.0850055749761
 21
402950.06807738187
 31
0.0
  0
INSERT
  5
65701
  8
S-OBRYS
  6
CONTINUOUS
 62
     0
  2
_OPEN
 10
9403.0850055749761
 20
403450.06807738187
 30
0.0
 41
100.0
 42
100.0
 43
100.0
 50
90.0
  0
INSERT
  5
65702
  8
S-OBRYS
  6
CONTINUOUS
 62
     0
  2
_OPEN
 10
9403.0850055749761
 20
402850.06807738187
 30
0.0
 41
100.0
 42
100.0
 43
100.0
 50
270.0
  0
INSERT
  5
65703
  8
S-OBRYS
  6
CONTINUOUS
  2
*U49
 10
0.0
 20
0.0
 30
0.0
  0
POINT
  5
65704
  8
DEFPOINTS
  6
CONTINUOUS
 62
     0
 10
9769.1004792830117
 20
403450.06807738187
 30
0.0
  0
POINT
  5
65705
  8
DEFPOINTS
  6
CONTINUOUS
 62
     0
 10
9769.1004792830117
 20
402850.06807738187
 30
0.0
  0
POINT
  5
65706
  8
DEFPOINTS
  6
CONTINUOUS
 62
     0
 10
9403.0850055749761
 20
402850.06807738187
 30
0.0
  0
ENDBLK
  5
6567E
  8
0
  0
BLOCK
  8
0
  2
*D23
 70
     1
 10
0.0
 20
0.0
 30
0.0
  3
*D23
  1

  0
LINE
  5
65707
  8
S-OBRYS
  6
CONTINUOUS
 62
     0
 10
10009.69369863841
 20
404920.06807738182
 30
0.0
 11
10297.34529058318
 21
404920.06807738182
 31
0.0
  0
LINE
  5
65708
  8
S-OBRYS
  6
CONTINUOUS
 62
     0
 10
10009.24655106219
 20
404155.06807738187
 30
0.0
 11
10297.34529058318
 21
404155.06807738187
 31
0.0
  0
LINE
  5
65709
  8
S-OBRYS
  6
CONTINUOUS
 62
     0
 10
10287.34529058318
 20
404820.06807738182
 30
0.0
 11
10287.34529058318
 21
404255.06807738182
 31
0.0
  0
INSERT
  5
6570A
  8
S-OBRYS
  6
CONTINUOUS
 62
     0
  2
_OPEN
 10
10287.34529058318
 20
404920.06807738182
 30
0.0
 41
100.0
 42
100.0
 43
100.0
 50
90.0
  0
INSERT
  5
6570B
  8
S-OBRYS
  6
CONTINUOUS
 62
     0
  2
_OPEN
 10
10287.34529058318
 20
404155.06807738187
 30
0.0
 41
100.0
 42
100.0
 43
100.0
 50
270.0
  0
INSERT
  5
6570C
  8
S-OBRYS
  6
CONTINUOUS
  2
*U50
 10
0.0
 20
0.0
 30
0.0
  0
POINT
  5
6570D
  8
DEFPOINTS
  6
CONTINUOUS
 62
     0
 10
10006.54369863841
 20
404920.06807738182
 30
0.0
  0
POINT
  5
6570E
  8
DEFPOINTS
  6
CONTINUOUS
 62
     0
 10
10006.09655106219
 20
404155.06807738187
 30
0.0
  0
POINT
  5
6570F
  8
DEFPOINTS
  6
CONTINUOUS
 62
     0
 10
10287.34529058318
 20
404155.06807738187
 30
0.0
  0
ENDBLK
  5
6568A
  8
0
  0
BLOCK
  8
0
  2
*D24
 70
     1
 10
0.0
 20
0.0
 30
0.0
  3
*D24
  1

  0
LINE
  5
65710
  8
S-OBRYS
  6
CONTINUOUS
 62
     0
 10
10800.034222317679
 20
399791.0762820465
 30
0.0
 11
10375.465606302891
 21
400000.91809484159
 31
0.0
  0
LINE
  5
65711
  8
S-OBRYS
  6
CONTINUOUS
 62
     0
 10
9770.3411908523412
 20
400299.99909026863
 30
0.0
 11
9680.6931293041289
 21
400344.30738588743
 31
0.0
  0
INSERT
  5
65712
  8
S-OBRYS
  6
CONTINUOUS
  2
*U51
 10
0.0
 20
0.0
 30
0.0
  0
LINE
  5
65713
  8
S-OBRYS
  6
CONTINUOUS
 62
     0
 10
9859.9892524005863
 20
400255.69079464982
 30
0.0
 11
10285.817544754649
 21
400045.22639046039
 31
0.0
  0
INSERT
  5
65714
  8
S-OBRYS
  6
CONTINUOUS
 62
     0
  2
_OPEN
 10
9859.9892524005863
 20
400255.69079464982
 30
0.0
 41
100.0
 42
100.0
 43
100.0
 50
333.69924805567757
  0
INSERT
  5
65715
  8
S-OBRYS
  6
CONTINUOUS
 62
     0
  2
_OPEN
 10
10285.817544754649
 20
400045.22639046039
 30
0.0
 41
100.0
 42
100.0
 43
100.0
 50
153.6992480556776
  0
POINT
  5
65716
  8
DEFPOINTS
  6
CONTINUOUS
 62
     0
 10
10285.817544754649
 20
400045.22639046039
 30
0.0
  0
POINT
  5
65717
  8
DEFPOINTS
  6
CONTINUOUS
 62
     0
 10
9859.9892524005863
 20
400255.69079464982
 30
0.0
  0
ENDBLK
  5
65695
  8
0
  0
BLOCK
  8
0
  2
*D25
 70
     1
 10
0.0
 20
0.0
 30
0.0
  3
*D25
  1

  0
LINE
  5
65718
  8
S-OBRYS
  6
CONTINUOUS
 62
     0
 10
10743.142196837231
 20
400705.11968816922
 30
0.0
 11
10234.30329035979
 21
400284.02627177688
 31
0.0
  0
LINE
  5
65719
  8
S-OBRYS
  6
CONTINUOUS
 62
     0
 10
9911.5035067952995
 20
400016.89091333339
 30
0.0
 11
9834.4629856582033
 21
399953.13545785763
 31
0.0
  0
INSERT
  5
6571A
  8
S-OBRYS
  6
CONTINUOUS
  2
*U52
 10
0.0
 20
0.0
 30
0.0
  0
LINE
  5
6571B
  8
S-OBRYS
  6
CONTINUOUS
 62
     0
 10
9988.5440279323957
 20
400080.64636880922
 30
0.0
 11
10157.262769222691
 21
400220.27081630111
 31
0.0
  0
INSERT
  5
6571C
  8
S-OBRYS
  6
CONTINUOUS
 62
     0
  2
_OPEN
 10
9988.5440279323957
 20
400080.64636880922
 30
0.0
 41
100.0
 42
100.0
 43
100.0
 50
39.60970956501388
  0
INSERT
  5
6571D
  8
S-OBRYS
  6
CONTINUOUS
 62
     0
  2
_OPEN
 10
10157.262769222691
 20
400220.27081630111
 30
0.0
 41
100.0
 42
100.0
 43
100.0
 50
219.60970956501379
  0
POINT
  5
6571E
  8
DEFPOINTS
  6
CONTINUOUS
 62
     0
 10
10157.262769222691
 20
400220.27081630111
 30
0.0
  0
POINT
  5
6571F
  8
DEFPOINTS
  6
CONTINUOUS
 62
     0
 10
9988.5440279323957
 20
400080.64636880922
 30
0.0
  0
ENDBLK
  5
656A0
  8
0
  0
BLOCK
  8
0
  2
*D26
 70
     1
 10
0.0
 20
0.0
 30
0.0
  3
*D26
  1

  0
LINE
  5
65720
  8
S-OBRYS
  6
CONTINUOUS
 62
     0
 10
9519.5464175408706
 20
400469.60859255522
 30
0.0
 11
9519.5464175408706
 21
400629.12136128661
 31
0.0
  0
LINE
  5
65721
  8
S-OBRYS
  6
CONTINUOUS
 62
     0
 10
9379.5464175408706
 20
400469.60859255522
 30
0.0
 11
9379.5464175408706
 21
400629.12136128661
 31
0.0
  0
LINE
  5
65722
  8
S-OBRYS
  6
CONTINUOUS
 62
     0
 10
9619.5464175408706
 20
400619.12136128661
 30
0.0
 11
9719.5464175408706
 21
400619.12136128661
 31
0.0
  0
LINE
  5
65723
  8
S-OBRYS
  6
CONTINUOUS
 62
     0
 10
9279.5464175408706
 20
400619.12136128661
 30
0.0
 11
8718.1178461122981
 21
400619.12136128661
 31
0.0
  0
LINE
  5
65724
  8
S-OBRYS
  6
CONTINUOUS
 62
     0
 10
9519.5464175408706
 20
400619.12136128661
 30
0.0
 11
9379.5464175408706
 21
400619.12136128661
 31
0.0
  0
INSERT
  5
65725
  8
S-OBRYS
  6
CONTINUOUS
 62
     0
  2
_OPEN
 10
9519.5464175408706
 20
400619.12136128661
 30
0.0
 41
100.0
 42
100.0
 43
100.0
 50
180.0
  0
INSERT
  5
65726
  8
S-OBRYS
  6
CONTINUOUS
 62
     0
  2
_OPEN
 10
9379.5464175408706
 20
400619.12136128661
 30
0.0
 41
100.0
 42
100.0
 43
100.0
  0
INSERT
  5
65727
  8
S-OBRYS
  6
CONTINUOUS
  2
*U53
 10
0.0
 20
0.0
 30
0.0
  0
POINT
  5
65728
  8
DEFPOINTS
  6
CONTINUOUS
 62
     0
 10
9519.5464175408706
 20
400466.45859255508
 30
0.0
  0
POINT
  5
65729
  8
DEFPOINTS
  6
CONTINUOUS
 62
     0
 10
9379.5464175408706
 20
400466.45859255508
 30
0.0
  0
POINT
  5
6572A
  8
DEFPOINTS
  6
CONTINUOUS
 62
     0
 10
9379.5464175408706
 20
400619.12136128661
 30
0.0
  0
ENDBLK
  5
656AE
  8
0
  0
BLOCK
  8
0
  2
*D27
 70
     1
 10
0.0
 20
0.0
 30
0.0
  3
*D27
  1

  0
LINE
  5
6572B
  8
S-OBRYS
  6
CONTINUOUS
 62
     0
 10
9374.5679105429972
 20
399864.45859255519
 30
0.0
 11
9121.0540034169026
 21
399864.45859255519
 31
0.0
  0
LINE
  5
6572C
  8
S-OBRYS
  6
CONTINUOUS
 62
     0
 10
9374.5679105429936
 20
400436.45859255508
 30
0.0
 11
9121.0540034169026
 21
400436.45859255508
 31
0.0
  0
LINE
  5
6572D
  8
S-OBRYS
  6
CONTINUOUS
 62
     0
 10
9131.0540034169026
 20
399964.45859255508
 30
0.0
 11
9131.0540034169026
 21
400336.45859255508
 31
0.0
  0
INSERT
  5
6572E
  8
S-OBRYS
  6
CONTINUOUS
 62
     0
  2
_OPEN
 10
9131.0540034169026
 20
399864.45859255519
 30
0.0
 41
100.0
 42
100.0
 43
100.0
 50
270.0
  0
INSERT
  5
6572F
  8
S-OBRYS
  6
CONTINUOUS
 62
     0
  2
_OPEN
 10
9131.0540034169026
 20
400436.45859255508
 30
0.0
 41
100.0
 42
100.0
 43
100.0
 50
90.0
  0
INSERT
  5
65730
  8
S-OBRYS
  6
CONTINUOUS
  2
*U54
 10
0.0
 20
0.0
 30
0.0
  0
POINT
  5
65731
  8
DEFPOINTS
  6
CONTINUOUS
 62
     0
 10
9377.7179105429968
 20
399864.45859255519
 30
0.0
  0
POINT
  5
65732
  8
DEFPOINTS
  6
CONTINUOUS
 62
     0
 10
9377.7179105429932
 20
400436.45859255508
 30
0.0
  0
POINT
  5
65733
  8
DEFPOINTS
  6
CONTINUOUS
 62
     0
 10
9131.0540034169026
 20
400436.45859255508
 30
0.0
  0
ENDBLK
  5
656BA
  8
0
  0
BLOCK
  8
0
  2
*D28
 70
     1
 10
0.0
 20
0.0
 30
0.0
  3
*D28
  1

  0
LINE
  5
65734
  8
S-OBRYS
  6
CONTINUOUS
 62
     0
 10
9693.1004792830099
 20
402829.91807738179
 30
0.0
 11
9693.1004792830099
 21
402609.24692475941
 31
0.0
  0
LINE
  5
65735
  8
S-OBRYS
  6
CONTINUOUS
 62
     0
 10
9845.1004792830117
 20
402829.91807738179
 30
0.0
 11
9845.1004792830117
 21
402609.24692475941
 31
0.0
  0
LINE
  5
65736
  8
S-OBRYS
  6
CONTINUOUS
 62
     0
 10
9593.1004792830081
 20
402619.24692475941
 30
0.0
 11
9493.1004792830081
 21
402619.24692475941
 31
0.0
  0
LINE
  5
65737
  8
S-OBRYS
  6
CONTINUOUS
 62
     0
 10
9945.1004792830117
 20
402619.24692475941
 30
0.0
 11
10373.19571737825
 21
402619.24692475941
 31
0.0
  0
LINE
  5
65738
  8
S-OBRYS
  6
CONTINUOUS
 62
     0
 10
9693.1004792830099
 20
402619.24692475941
 30
0.0
 11
9845.1004792830117
 21
402619.24692475941
 31
0.0
  0
INSERT
  5
65739
  8
S-OBRYS
  6
CONTINUOUS
 62
     0
  2
_OPEN
 10
9693.1004792830099
 20
402619.24692475941
 30
0.0
 41
100.0
 42
100.0
 43
100.0
  0
INSERT
  5
6573A
  8
S-OBRYS
  6
CONTINUOUS
 62
     0
  2
_OPEN
 10
9845.1004792830117
 20
402619.24692475941
 30
0.0
 41
100.0
 42
100.0
 43
100.0
 50
180.0
  0
INSERT
  5
6573B
  8
S-OBRYS
  6
CONTINUOUS
  2
*U55
 10
0.0
 20
0.0
 30
0.0
  0
POINT
  5
6573C
  8
DEFPOINTS
  6
CONTINUOUS
 62
     0
 10
9693.1004792830099
 20
402833.06807738187
 30
0.0
  0
POINT
  5
6573D
  8
DEFPOINTS
  6
CONTINUOUS
 62
     0
 10
9845.1004792830117
 20
402833.06807738187
 30
0.0
  0
POINT
  5
6573E
  8
DEFPOINTS
  6
CONTINUOUS
 62
     0
 10
9845.1004792830117
 20
402619.24692475941
 30
0.0
  0
ENDBLK
  5
656C8
  8
0
  0
BLOCK
  8
0
  2
*D29
 70
     1
 10
0.0
 20
0.0
 30
0.0
  3
*D29
  1

  0
LINE
  5
6573F
  8
S-OBRYS
  6
CONTINUOUS
 62
     0
 10
9659.6004792830063
 20
405223.2180773819
 30
0.0
 11
9659.6004792830063
 21
405312.05508498917
 31
0.0
  0
LINE
  5
65740
  8
S-OBRYS
  6
CONTINUOUS
 62
     0
 10
9878.6004792830154
 20
405223.2180773819
 30
0.0
 11
9878.6004792830154
 21
405312.05508498917
 31
0.0
  0
LINE
  5
65741
  8
S-OBRYS
  6
CONTINUOUS
 62
     0
 10
9559.6004792830045
 20
405302.05508498917
 30
0.0
 11
9459.6004792830063
 21
405302.05508498917
 31
0.0
  0
LINE
  5
65742
  8
S-OBRYS
  6
CONTINUOUS
 62
     0
 10
9978.6004792830154
 20
405302.05508498917
 30
0.0
 11
10402.886193568729
 21
405302.05508498917
 31
0.0
  0
LINE
  5
65743
  8
S-OBRYS
  6
CONTINUOUS
 62
     0
 10
9659.6004792830063
 20
405302.05508498917
 30
0.0
 11
9878.6004792830154
 21
405302.05508498917
 31
0.0
  0
INSERT
  5
65744
  8
S-OBRYS
  6
CONTINUOUS
 62
     0
  2
_OPEN
 10
9659.6004792830063
 20
405302.05508498917
 30
0.0
 41
100.0
 42
100.0
 43
100.0
  0
INSERT
  5
65745
  8
S-OBRYS
  6
CONTINUOUS
 62
     0
  2
_OPEN
 10
9878.6004792830154
 20
405302.05508498917
 30
0.0
 41
100.0
 42
100.0
 43
100.0
 50
180.0
  0
INSERT
  5
65746
  8
S-OBRYS
  6
CONTINUOUS
  2
*U56
 10
0.0
 20
0.0
 30
0.0
  0
POINT
  5
65747
  8
DEFPOINTS
  6
CONTINUOUS
 62
     0
 10
9659.6004792830063
 20
405220.06807738182
 30
0.0
  0
POINT
  5
65748
  8
DEFPOINTS
  6
CONTINUOUS
 62
     0
 10
9878.6004792830154
 20
405220.06807738182
 30
0.0
  0
POINT
  5
65749
  8
DEFPOINTS
  6
CONTINUOUS
 62
     0
 10
9878.6004792830154
 20
405302.05508498917
 30
0.0
  0
ENDBLK
  5
656D6
  8
0
  0
BLOCK
  8
0
  2
*U30
 70
     1
 10
0.0
 20
0.0
 30
0.0
  3
*U30
  1

  0
SOLID
  5
6589F
  8
S-OBRYS
  6
CONTINUOUS
 10
-0.0000977966647042
 20
172.76461771311821
 30
0.0
 11
-53.990202372544651
 21
150.40118416384701
 31
0.0
 12
-0.0000977966647476
 22
150.40118416384701
 32
0.0
 13
-0.0000977966647476
 23
150.40118416384701
 33
0.0
210
0.0
220
0.0
230
1.0
  0
SOLID
  5
658A0
  8
S-OBRYS
  6
CONTINUOUS
 10
-0.0000977966646798
 20
172.76461771311821
 30
0.0
 11
-0.0000977966646933
 21
150.40118416384701
 31
0.0
 12
83.615852110668357
 22
150.40118416384701
 32
0.0
 13
83.615852110668357
 23
150.40118416384701
 33
0.0
210
0.0
220
0.0
230
1.0
  0
SOLID
  5
658A1
  8
S-OBRYS
  6
CONTINUOUS
 10
-53.990202372544651
 20
150.40118416384701
 30
0.0
 11
-97.206467005389399
 21
132.50042123781799
 31
0.0
 12
-0.0000977966647824
 22
132.50042123781799
 32
0.0
 13
-0.0000977966647824
 23
132.50042123781799
 33
0.0
210
0.0
220
0.0
230
1.0
  0
SOLID
  5
658A2
  8
S-OBRYS
  6
CONTINUOUS
 10
53.990202372544651
 20
150.40118416384701
 30
0.0
 11
0.0000977966647476
 21
150.40118416384701
 31
0.0
 12
0.0000977966647824
 22
132.50042123781799
 32
0.0
 13
0.0000977966647824
 23
132.50042123781799
 33
0.0
210
0.0
220
0.0
230
-1.0
  0
SOLID
  5
658A3
  8
S-OBRYS
  6
CONTINUOUS
 10
-0.0000977966646933
 20
150.40118416384701
 30
0.0
 11
-0.0000977966647042
 21
132.50042123781799
 31
0.0
 12
101.566297287274
 22
132.50042123781799
 32
0.0
 13
101.566297287274
 23
132.50042123781799
 33
0.0
210
0.0
220
0.0
230
1.0
  0
SOLID
  5
658A4
  8
S-OBRYS
  6
CONTINUOUS
 10
0.0000977966646933
 20
150.40118416384701
 30
0.0
 11
-83.615852110668357
 21
150.40118416384701
 31
0.0
 12
-101.566297287274
 22
132.50042123781799
 32
0.0
 13
-101.566297287274
 23
132.50042123781799
 33
0.0
210
0.0
220
0.0
230
-1.0
  0
SOLID
  5
658A5
  8
S-OBRYS
  6
CONTINUOUS
 10
-97.206467005389399
 20
132.50042123781799
 30
0.0
 11
-105.45588591404849
 21
129.08340004415439
 31
0.0
 12
-6.2864603786180453
 22
129.08340004415439
 32
0.0
 13
-6.2864603786180453
 23
129.08340004415439
 33
0.0
210
0.0
220
0.0
230
1.0
  0
SOLID
  5
658A6
  8
S-OBRYS
  6
CONTINUOUS
 10
97.206467005389399
 20
132.50042123781799
 30
0.0
 11
0.0000977966647895
 21
132.50042123781799
 31
0.0
 12
6.2864603786180453
 22
129.08340004415439
 32
0.0
 13
6.2864603786180453
 23
129.08340004415439
 33
0.0
210
0.0
220
0.0
230
-1.0
  0
SOLID
  5
658A7
  8
S-OBRYS
  6
CONTINUOUS
 10
-0.0000977966647042
 20
132.50042123781799
 30
0.0
 11
77.877806079569993
 21
129.08340004415439
 31
0.0
 12
104.9928021718771
 22
129.08340004415439
 32
0.0
 13
104.9928021718771
 23
129.08340004415439
 33
0.0
210
0.0
220
0.0
230
1.0
  0
SOLID
  5
658A8
  8
S-OBRYS
  6
CONTINUOUS
 10
0.0000977966647042
 20
132.50042123781799
 30
0.0
 11
-101.566297287274
 21
132.50042123781799
 31
0.0
 12
-104.9928021718771
 22
129.08340004415439
 32
0.0
 13
-104.9928021718771
 23
129.08340004415439
 33
0.0
210
0.0
220
0.0
230
-1.0
  0
SOLID
  5
658A9
  8
S-OBRYS
  6
CONTINUOUS
 10
-105.45588591404849
 20
129.08340004415439
 30
0.0
 11
-118.44048364561721
 21
123.70500356177971
 31
0.0
 12
-16.18120450850698
 22
123.70500356177971
 32
0.0
 13
-16.18120450850698
 23
123.70500356177971
 33
0.0
210
0.0
220
0.0
230
1.0
  0
SOLID
  5
658AA
  8
S-OBRYS
  6
CONTINUOUS
 10
105.45588591404849
 20
129.08340004415439
 30
0.0
 11
6.2864603786180453
 21
129.08340004415439
 31
0.0
 12
16.18120450850698
 22
123.70500356177971
 32
0.0
 13
16.18120450850698
 23
123.70500356177971
 33
0.0
210
0.0
220
0.0
230
-1.0
  0
SOLID
  5
658AB
  8
S-OBRYS
  6
CONTINUOUS
 10
77.877806079569993
 20
129.08340004415439
 30
0.0
 11
86.935248347057254
 21
123.70500356177971
 31
0.0
 12
110.3861259980103
 22
123.70500356177971
 32
0.0
 13
110.3861259980103
 23
123.70500356177971
 33
0.0
210
0.0
220
0.0
230
1.0
  0
SOLID
  5
658AC
  8
S-OBRYS
  6
CONTINUOUS
 10
-77.877806079569993
 20
129.08340004415439
 30
0.0
 11
-104.9928021718771
 21
129.08340004415439
 31
0.0
 12
-110.3861259980103
 22
123.70500356177971
 32
0.0
 13
-110.3861259980103
 23
123.70500356177971
 33
0.0
210
0.0
220
0.0
230
-1.0
  0
SOLID
  5
658AD
  8
S-OBRYS
  6
CONTINUOUS
 10
-118.44048364561721
 20
123.70500356177971
 30
0.0
 11
-132.69875008898711
 21
89.282503338266906
 31
0.0
 12
-79.508970161127962
 22
89.282503338266906
 32
0.0
 13
-79.508970161127962
 23
89.282503338266906
 33
0.0
210
0.0
220
0.0
230
1.0
  0
SOLID
  5
658AE
  8
S-OBRYS
  6
CONTINUOUS
 10
118.44048364561721
 20
123.70500356177971
 30
0.0
 11
16.18120450850698
 21
123.70500356177971
 31
0.0
 12
79.508970161127962
 22
89.282503338266906
 32
0.0
 13
79.508970161127962
 23
89.282503338266906
 33
0.0
210
0.0
220
0.0
230
-1.0
  0
SOLID
  5
658AF
  8
S-OBRYS
  6
CONTINUOUS
 10
-86.935248347057254
 20
123.70500356177971
 30
0.0
 11
-110.3861259980103
 21
123.70500356177971
 31
0.0
 12
-144.9041633384968
 22
89.282503338266906
 32
0.0
 13
-144.9041633384968
 23
89.282503338266906
 33
0.0
210
0.0
220
0.0
230
-1.0
  0
SOLID
  5
658B0
  8
S-OBRYS
  6
CONTINUOUS
 10
-132.69875008898711
 20
89.282503338266906
 30
0.0
 11
-133.25124779696191
 21
87.948655878493994
 31
0.0
 12
-81.962876147048888
 22
87.948655878493994
 32
0.0
 13
-81.962876147048888
 23
87.948655878493994
 33
0.0
210
0.0
220
0.0
230
1.0
  0
SOLID
  5
658B1
  8
S-OBRYS
  6
CONTINUOUS
 10
132.69875008898711
 20
89.282503338266906
 30
0.0
 11
79.508970161127962
 21
89.282503338266906
 31
0.0
 12
81.962876147048888
 22
87.948655878493994
 32
0.0
 13
81.962876147048888
 23
87.948655878493994
 33
0.0
210
0.0
220
0.0
230
-1.0
  0
SOLID
  5
658B2
  8
S-OBRYS
  6
CONTINUOUS
 10
-133.25124779696191
 20
87.948655878493994
 30
0.0
 11
-167.50009779695571
 21
5.264617712827202
 31
0.0
 12
-125.1613328806524
 22
5.264617712827202
 32
0.0
 13
-125.1613328806524
 23
5.264617712827202
 33
0.0
210
0.0
220
0.0
230
1.0
  0
SOLID
  5
658B3
  8
S-OBRYS
  6
CONTINUOUS
 10
133.25124779696191
 20
87.948655878493994
 30
0.0
 11
81.962876147048888
 21
87.948655878493994
 31
0.0
 12
125.1613328806524
 22
5.264617712827202
 32
0.0
 13
125.1613328806524
 23
5.264617712827202
 33
0.0
210
0.0
220
0.0
230
-1.0
  0
SOLID
  5
658B4
  8
S-OBRYS
  6
CONTINUOUS
 10
-167.50009779695571
 20
5.264617712827202
 30
0.0
 11
-167.50009779695571
 21
5.264617712827202
 31
0.0
 12
-125.1613328806524
 22
5.264617712827202
 32
0.0
 13
-125.1613328806524
 23
5.264617712827202
 33
0.0
210
0.0
220
0.0
230
1.0
  0
SOLID
  5
658B5
  8
S-OBRYS
  6
CONTINUOUS
 10
-167.50009779695571
 20
5.264617712827202
 30
0.0
 11
-167.50009779695571
 21
5.264617712827202
 31
0.0
 12
-125.1613328806524
 22
5.264617712827202
 32
0.0
 13
-125.1613328806524
 23
5.264617712827202
 33
0.0
210
0.0
220
0.0
230
1.0
  0
SOLID
  5
658B6
  8
S-OBRYS
  6
CONTINUOUS
 10
-167.50009779695571
 20
5.264617712827202
 30
0.0
 11
-143.45648888877679
 21
-77.646637842706525
 31
0.0
 12
-118.75700290127691
 22
-77.646637842706525
 32
0.0
 13
-118.75700290127691
 23
-77.646637842706525
 33
0.0
210
0.0
220
0.0
230
1.0
  0
SOLID
  5
658B7
  8
S-OBRYS
  6
CONTINUOUS
 10
167.50009779695571
 20
5.264617712827202
 30
0.0
 11
125.1613328806524
 21
5.264617712827202
 31
0.0
 12
118.75700290127691
 22
-77.646637842706525
 32
0.0
 13
118.75700290127691
 23
-77.646637842706525
 33
0.0
210
0.0
220
0.0
230
-1.0
  0
SOLID
  5
658B8
  8
S-OBRYS
  6
CONTINUOUS
 10
-143.45648888877679
 20
-77.646637842706525
 30
0.0
 11
-141.51348800174111
 21
-84.346823480597365
 31
0.0
 12
-114.1465229089472
 22
-84.346823480597365
 32
0.0
 13
-114.1465229089472
 23
-84.346823480597365
 33
0.0
210
0.0
220
0.0
230
1.0
  0
SOLID
  5
658B9
  8
S-OBRYS
  6
CONTINUOUS
 10
143.45648888877679
 20
-77.646637842706525
 30
0.0
 11
118.75700290127691
 21
-77.646637842706525
 31
0.0
 12
114.1465229089472
 22
-84.346823480597365
 32
0.0
 13
114.1465229089472
 23
-84.346823480597365
 33
0.0
210
0.0
220
0.0
230
-1.0
  0
SOLID
  5
658BA
  8
S-OBRYS
  6
CONTINUOUS
 10
141.51348800174111
 20
-84.346823480597365
 30
0.0
 11
114.1465229089472
 21
-84.346823480597365
 31
0.0
 12
71.616988629802961
 22
-146.1529207280374
 32
0.0
 13
71.616988629802961
 23
-146.1529207280374
 33
0.0
210
0.0
220
0.0
230
-1.0
  0
LINE
  5
658BB
  8
S-OBRYS
  6
CONTINUOUS
 10
-0.0000977966647476
 20
150.40118416384701
 30
0.0
 11
-0.0000977966647042
 21
172.76461771311821
 31
0.0
  0
LINE
  5
658BC
  8
S-OBRYS
  6
CONTINUOUS
 10
-0.0000977966646798
 20
172.76461771311821
 30
0.0
 11
-0.0000977966646933
 21
150.40118416384701
 31
0.0
  0
LINE
  5
658BD
  8
S-OBRYS
  6
CONTINUOUS
 10
-53.990202372544651
 20
150.40118416384701
 30
0.0
 11
-97.206467005389399
 21
132.50042123781799
 31
0.0
  0
LINE
  5
658BE
  8
S-OBRYS
  6
CONTINUOUS
 10
-0.0000977966647476
 20
150.40118416384701
 30
0.0
 11
-0.0000977966647824
 21
132.50042123781799
 31
0.0
  0
LINE
  5
658BF
  8
S-OBRYS
  6
CONTINUOUS
 10
-0.0000977966646933
 20
150.40118416384701
 30
0.0
 11
-0.0000977966647042
 21
132.50042123781799
 31
0.0
  0
LINE
  5
658C0
  8
S-OBRYS
  6
CONTINUOUS
 10
83.615852110668357
 20
150.40118416384701
 30
0.0
 11
101.566297287274
 21
132.50042123781799
 31
0.0
  0
LINE
  5
658C1
  8
S-OBRYS
  6
CONTINUOUS
 10
-97.206467005389399
 20
132.50042123781799
 30
0.0
 11
-105.45588591404849
 21
129.08340004415439
 31
0.0
  0
LINE
  5
658C2
  8
S-OBRYS
  6
CONTINUOUS
 10
101.566297287274
 20
132.50042123781799
 30
0.0
 11
104.9928021718771
 21
129.08340004415439
 31
0.0
  0
LINE
  5
658C3
  8
S-OBRYS
  6
CONTINUOUS
 10
-105.45588591404849
 20
129.08340004415439
 30
0.0
 11
-118.44048364561721
 21
123.70500356177971
 31
0.0
  0
LINE
  5
658C4
  8
S-OBRYS
  6
CONTINUOUS
 10
-6.2864603786180453
 20
129.08340004415439
 30
0.0
 11
-16.18120450850698
 21
123.70500356177971
 31
0.0
  0
LINE
  5
658C5
  8
S-OBRYS
  6
CONTINUOUS
 10
77.877806079569993
 20
129.08340004415439
 30
0.0
 11
86.935248347057254
 21
123.70500356177971
 31
0.0
  0
LINE
  5
658C6
  8
S-OBRYS
  6
CONTINUOUS
 10
104.9928021718771
 20
129.08340004415439
 30
0.0
 11
110.3861259980103
 21
123.70500356177971
 31
0.0
  0
LINE
  5
658C7
  8
S-OBRYS
  6
CONTINUOUS
 10
-118.44048364561721
 20
123.70500356177971
 30
0.0
 11
-132.69875008898711
 21
89.282503338266906
 31
0.0
  0
LINE
  5
658C8
  8
S-OBRYS
  6
CONTINUOUS
 10
-16.18120450850698
 20
123.70500356177971
 30
0.0
 11
-79.508970161127962
 21
89.282503338266906
 31
0.0
  0
LINE
  5
658C9
  8
S-OBRYS
  6
CONTINUOUS
 10
110.3861259980103
 20
123.70500356177971
 30
0.0
 11
144.9041633384968
 21
89.282503338266906
 31
0.0
  0
LINE
  5
658CA
  8
S-OBRYS
  6
CONTINUOUS
 10
144.9041633384968
 20
89.282503338266906
 30
0.0
 11
86.935248347057254
 21
123.70500356177971
 31
0.0
  0
LINE
  5
658CB
  8
S-OBRYS
  6
CONTINUOUS
 10
-132.69875008898711
 20
89.282503338266906
 30
0.0
 11
-133.25124779696191
 21
87.948655878493994
 31
0.0
  0
LINE
  5
658CC
  8
S-OBRYS
  6
CONTINUOUS
 10
-79.508970161127962
 20
89.282503338266906
 30
0.0
 11
-81.962876147048888
 21
87.948655878493994
 31
0.0
  0
LINE
  5
658CD
  8
S-OBRYS
  6
CONTINUOUS
 10
-133.25124779696191
 20
87.948655878493994
 30
0.0
 11
-167.50009779695571
 21
5.264617712827202
 31
0.0
  0
LINE
  5
658CE
  8
S-OBRYS
  6
CONTINUOUS
 10
-81.962876147048888
 20
87.948655878493994
 30
0.0
 11
-125.1613328806524
 21
5.264617712827202
 31
0.0
  0
LINE
  5
658CF
  8
S-OBRYS
  6
CONTINUOUS
 10
-167.50009779695571
 20
5.264617712827202
 30
0.0
 11
-125.1613328806524
 21
5.264617712827202
 31
0.0
  0
LINE
  5
658D0
  8
S-OBRYS
  6
CONTINUOUS
 10
-167.50009779695571
 20
5.264617712827202
 30
0.0
 11
-125.1613328806524
 21
5.264617712827202
 31
0.0
  0
LINE
  5
658D1
  8
S-OBRYS
  6
CONTINUOUS
 10
-167.50009779695571
 20
5.264617712827202
 30
0.0
 11
-143.45648888877679
 21
-77.646637842706525
 31
0.0
  0
LINE
  5
658D2
  8
S-OBRYS
  6
CONTINUOUS
 10
-125.1613328806524
 20
5.264617712827202
 30
0.0
 11
-118.75700290127691
 21
-77.646637842706525
 31
0.0
  0
LINE
  5
658D3
  8
S-OBRYS
  6
CONTINUOUS
 10
-143.45648888877679
 20
-77.646637842706525
 30
0.0
 11
-141.51348800174111
 21
-84.346823480597365
 31
0.0
  0
LINE
  5
658D4
  8
S-OBRYS
  6
CONTINUOUS
 10
-118.75700290127691
 20
-77.646637842706525
 30
0.0
 11
-114.1465229089472
 21
-84.346823480597365
 31
0.0
  0
LINE
  5
658D5
  8
S-OBRYS
  6
CONTINUOUS
 10
-114.1465229089472
 20
-84.346823480597365
 30
0.0
 11
-71.616988629802961
 21
-146.1529207280374
 31
0.0
  0
LINE
  5
658D6
  8
S-OBRYS
  6
CONTINUOUS
 10
-71.616988629802961
 20
-146.1529207280374
 30
0.0
 11
-141.51348800174111
 21
-84.346823480597365
 31
0.0
  0
ENDBLK
  5
658D8
  8
0
  0
BLOCK
  8
0
  2
*U31
 70
     1
 10
0.0
 20
0.0
 30
0.0
  3
*U31
  1

  0
SOLID
  5
658DA
  8
S-OBRYS
  6
CONTINUOUS
 10
635.99990220339339
 20
172.76461771311821
 30
0.0
 11
582.00979762751365
 21
150.40118416384709
 31
0.0
 12
635.99990220339339
 22
150.40118416384709
 32
0.0
 13
635.99990220339339
 23
150.40118416384709
 33
0.0
  0
SOLID
  5
658DB
  8
S-OBRYS
  6
CONTINUOUS
 10
635.99990220339339
 20
172.76461771311821
 30
0.0
 11
635.99990220339339
 21
150.40118416384709
 31
0.0
 12
719.61585211072645
 22
150.40118416384709
 32
0.0
 13
719.61585211072645
 23
150.40118416384709
 33
0.0
  0
SOLID
  5
658DC
  8
S-OBRYS
  6
CONTINUOUS
 10
582.00979762751365
 20
150.40118416384709
 30
0.0
 11
538.79353299466891
 21
132.50042123781799
 31
0.0
 12
635.99990220339339
 22
132.50042123781799
 32
0.0
 13
635.99990220339339
 23
132.50042123781799
 33
0.0
210
0.0
220
0.0
230
1.0
  0
SOLID
  5
658DD
  8
S-OBRYS
  6
CONTINUOUS
 10
-582.00979762751365
 20
150.40118416384709
 30
0.0
 11
-635.99990220339339
 21
150.40118416384709
 31
0.0
 12
-635.99990220339339
 22
132.50042123781799
 32
0.0
 13
-635.99990220339339
 23
132.50042123781799
 33
0.0
210
0.0
220
0.0
230
-1.0
  0
SOLID
  5
658DE
  8
S-OBRYS
  6
CONTINUOUS
 10
635.99990220339339
 20
150.40118416384709
 30
0.0
 11
635.99990220339339
 21
132.50042123781799
 31
0.0
 12
737.5662972873323
 22
132.50042123781799
 32
0.0
 13
737.5662972873323
 23
132.50042123781799
 33
0.0
210
0.0
220
0.0
230
1.0
  0
SOLID
  5
658DF
  8
S-OBRYS
  6
CONTINUOUS
 10
-635.99990220339339
 20
150.40118416384709
 30
0.0
 11
-719.61585211072645
 21
150.40118416384709
 31
0.0
 12
-737.5662972873323
 22
132.50042123781799
 32
0.0
 13
-737.5662972873323
 23
132.50042123781799
 33
0.0
210
0.0
220
0.0
230
-1.0
  0
SOLID
  5
658E0
  8
S-OBRYS
  6
CONTINUOUS
 10
538.79353299466891
 20
132.50042123781799
 30
0.0
 11
530.54411408600959
 21
129.0834000441543
 31
0.0
 12
629.71353962143996
 22
129.0834000441543
 32
0.0
 13
629.71353962143996
 23
129.0834000441543
 33
0.0
210
0.0
220
0.0
230
1.0
  0
SOLID
  5
658E1
  8
S-OBRYS
  6
CONTINUOUS
 10
-538.79353299466891
 20
132.50042123781799
 30
0.0
 11
-635.99990220339339
 21
132.50042123781799
 31
0.0
 12
-629.71353962143996
 22
129.0834000441543
 32
0.0
 13
-629.71353962143996
 23
129.0834000441543
 33
0.0
210
0.0
220
0.0
230
-1.0
  0
SOLID
  5
658E2
  8
S-OBRYS
  6
CONTINUOUS
 10
635.99990220339339
 20
132.50042123781799
 30
0.0
 11
713.87780607962816
 21
129.0834000441543
 31
0.0
 12
740.99280217193541
 22
129.0834000441543
 32
0.0
 13
740.99280217193541
 23
129.0834000441543
 33
0.0
  0
SOLID
  5
658E3
  8
S-OBRYS
  6
CONTINUOUS
 10
-635.99990220339339
 20
132.50042123781799
 30
0.0
 11
-737.5662972873323
 21
132.50042123781799
 31
0.0
 12
-740.99280217193541
 22
129.0834000441543
 32
0.0
 13
-740.99280217193541
 23
129.0834000441543
 33
0.0
210
0.0
220
0.0
230
-1.0
  0
SOLID
  5
658E4
  8
S-OBRYS
  6
CONTINUOUS
 10
530.54411408600959
 20
129.0834000441543
 30
0.0
 11
517.55951635444103
 21
123.70500356177971
 31
0.0
 12
619.8187954915511
 22
123.70500356177971
 32
0.0
 13
619.8187954915511
 23
123.70500356177971
 33
0.0
210
0.0
220
0.0
230
1.0
  0
SOLID
  5
658E5
  8
S-OBRYS
  6
CONTINUOUS
 10
-530.54411408600959
 20
129.0834000441543
 30
0.0
 11
-629.71353962143996
 21
129.0834000441543
 31
0.0
 12
-619.8187954915511
 22
123.70500356177971
 32
0.0
 13
-619.8187954915511
 23
123.70500356177971
 33
0.0
210
0.0
220
0.0
230
-1.0
  0
SOLID
  5
658E6
  8
S-OBRYS
  6
CONTINUOUS
 10
713.87780607962816
 20
129.0834000441543
 30
0.0
 11
722.93524834711548
 21
123.70500356177971
 31
0.0
 12
746.38612599806845
 22
123.70500356177971
 32
0.0
 13
746.38612599806845
 23
123.70500356177971
 33
0.0
210
0.0
220
0.0
230
1.0
  0
SOLID
  5
658E7
  8
S-OBRYS
  6
CONTINUOUS
 10
-713.87780607962816
 20
129.0834000441543
 30
0.0
 11
-740.99280217193541
 21
129.0834000441543
 31
0.0
 12
-746.38612599806845
 22
123.70500356177971
 32
0.0
 13
-746.38612599806845
 23
123.70500356177971
 33
0.0
210
0.0
220
0.0
230
-1.0
  0
SOLID
  5
658E8
  8
S-OBRYS
  6
CONTINUOUS
 10
517.55951635444103
 20
123.70500356177971
 30
0.0
 11
503.30124991107112
 21
89.282503338266906
 31
0.0
 12
556.49102983893033
 22
89.282503338266906
 32
0.0
 13
556.49102983893033
 23
89.282503338266906
 33
0.0
210
0.0
220
0.0
230
1.0
  0
SOLID
  5
658E9
  8
S-OBRYS
  6
CONTINUOUS
 10
-517.55951635444103
 20
123.70500356177971
 30
0.0
 11
-619.8187954915511
 21
123.70500356177971
 31
0.0
 12
-556.49102983893033
 22
89.282503338266906
 32
0.0
 13
-556.49102983893033
 23
89.282503338266906
 33
0.0
210
0.0
220
0.0
230
-1.0
  0
SOLID
  5
658EA
  8
S-OBRYS
  6
CONTINUOUS
 10
-722.93524834711548
 20
123.70500356177971
 30
0.0
 11
-746.38612599806845
 21
123.70500356177971
 31
0.0
 12
-780.90416333855489
 22
89.282503338266906
 32
0.0
 13
-780.90416333855489
 23
89.282503338266906
 33
0.0
210
0.0
220
0.0
230
-1.0
  0
SOLID
  5
658EB
  8
S-OBRYS
  6
CONTINUOUS
 10
503.30124991107112
 20
89.282503338266906
 30
0.0
 11
502.74875220309627
 21
87.948655878493994
 31
0.0
 12
554.03712385300935
 22
87.948655878493994
 32
0.0
 13
554.03712385300935
 23
87.948655878493994
 33
0.0
210
0.0
220
0.0
230
1.0
  0
SOLID
  5
658EC
  8
S-OBRYS
  6
CONTINUOUS
 10
-503.30124991107112
 20
89.282503338266906
 30
0.0
 11
-556.49102983893033
 21
89.282503338266906
 31
0.0
 12
-554.03712385300935
 22
87.948655878493994
 32
0.0
 13
-554.03712385300935
 23
87.948655878493994
 33
0.0
210
0.0
220
0.0
230
-1.0
  0
SOLID
  5
658ED
  8
S-OBRYS
  6
CONTINUOUS
 10
502.74875220309627
 20
87.948655878493994
 30
0.0
 11
468.49990220310241
 21
5.264617712827202
 31
0.0
 12
510.83866711940573
 22
5.264617712827202
 32
0.0
 13
510.83866711940573
 23
5.264617712827202
 33
0.0
  0
SOLID
  5
658EE
  8
S-OBRYS
  6
CONTINUOUS
 10
-502.74875220309627
 20
87.948655878493994
 30
0.0
 11
-554.03712385300935
 21
87.948655878493994
 31
0.0
 12
-510.83866711940573
 22
5.264617712827202
 32
0.0
 13
-510.83866711940573
 23
5.264617712827202
 33
0.0
210
0.0
220
0.0
230
-1.0
  0
SOLID
  5
658EF
  8
S-OBRYS
  6
CONTINUOUS
 10
468.49990220310241
 20
5.264617712827202
 30
0.0
 11
468.49990220310241
 21
5.264617712827202
 31
0.0
 12
510.83866711940573
 22
5.264617712827202
 32
0.0
 13
510.83866711940573
 23
5.264617712827202
 33
0.0
210
0.0
220
0.0
230
1.0
  0
SOLID
  5
658F0
  8
S-OBRYS
  6
CONTINUOUS
 10
468.49990220310241
 20
5.264617712827202
 30
0.0
 11
468.49990220310241
 21
5.264617712827202
 31
0.0
 12
510.83866711940573
 22
5.264617712827202
 32
0.0
 13
510.83866711940573
 23
5.264617712827202
 33
0.0
210
0.0
220
0.0
230
1.0
  0
SOLID
  5
658F1
  8
S-OBRYS
  6
CONTINUOUS
 10
468.49990220310241
 20
5.264617712827202
 30
0.0
 11
492.5435111112813
 21
-77.646637842706525
 31
0.0
 12
517.24299709878119
 22
-77.646637842706525
 32
0.0
 13
517.24299709878119
 23
-77.646637842706525
 33
0.0
210
0.0
220
0.0
230
1.0
  0
SOLID
  5
658F2
  8
S-OBRYS
  6
CONTINUOUS
 10
-468.49990220310241
 20
5.264617712827202
 30
0.0
 11
-510.83866711940573
 21
5.264617712827202
 31
0.0
 12
-517.24299709878119
 22
-77.646637842706525
 32
0.0
 13
-517.24299709878119
 23
-77.646637842706525
 33
0.0
210
0.0
220
0.0
230
-1.0
  0
SOLID
  5
658F3
  8
S-OBRYS
  6
CONTINUOUS
 10
492.5435111112813
 20
-77.646637842706525
 30
0.0
 11
494.48651199831698
 21
-84.346823480597365
 31
0.0
 12
521.85347709111102
 22
-84.346823480597365
 32
0.0
 13
521.85347709111102
 23
-84.346823480597365
 33
0.0
210
0.0
220
0.0
230
1.0
  0
SOLID
  5
658F4
  8
S-OBRYS
  6
CONTINUOUS
 10
-492.5435111112813
 20
-77.646637842706525
 30
0.0
 11
-517.24299709878119
 21
-77.646637842706525
 31
0.0
 12
-521.85347709111102
 22
-84.346823480597365
 32
0.0
 13
-521.85347709111102
 23
-84.346823480597365
 33
0.0
210
0.0
220
0.0
230
-1.0
  0
SOLID
  5
658F5
  8
S-OBRYS
  6
CONTINUOUS
 10
-494.48651199831698
 20
-84.346823480597365
 30
0.0
 11
-521.85347709111102
 21
-84.346823480597365
 31
0.0
 12
-564.3830113702553
 22
-146.1529207280374
 32
0.0
 13
-564.3830113702553
 23
-146.1529207280374
 33
0.0
210
0.0
220
0.0
230
-1.0
  0
LINE
  5
658F6
  8
S-OBRYS
  6
CONTINUOUS
 10
635.99990220339339
 20
172.76461771311821
 30
0.0
 11
582.00979762751365
 21
150.40118416384709
 31
0.0
  0
LINE
  5
658F7
  8
S-OBRYS
  6
CONTINUOUS
 10
635.99990220339339
 20
150.40118416384709
 30
0.0
 11
635.99990220339339
 21
172.76461771311821
 31
0.0
  0
LINE
  5
658F8
  8
S-OBRYS
  6
CONTINUOUS
 10
635.99990220339339
 20
172.76461771311821
 30
0.0
 11
635.99990220339339
 21
150.40118416384709
 31
0.0
  0
LINE
  5
658F9
  8
S-OBRYS
  6
CONTINUOUS
 10
719.61585211072645
 20
150.40118416384709
 30
0.0
 11
635.99990220339339
 21
172.76461771311821
 31
0.0
  0
LINE
  5
658FA
  8
S-OBRYS
  6
CONTINUOUS
 10
582.00979762751365
 20
150.40118416384709
 30
0.0
 11
538.79353299466891
 21
132.50042123781799
 31
0.0
  0
LINE
  5
658FB
  8
S-OBRYS
  6
CONTINUOUS
 10
635.99990220339339
 20
150.40118416384709
 30
0.0
 11
635.99990220339339
 21
132.50042123781799
 31
0.0
  0
LINE
  5
658FC
  8
S-OBRYS
  6
CONTINUOUS
 10
635.99990220339339
 20
150.40118416384709
 30
0.0
 11
635.99990220339339
 21
132.50042123781799
 31
0.0
  0
LINE
  5
658FD
  8
S-OBRYS
  6
CONTINUOUS
 10
719.61585211072645
 20
150.40118416384709
 30
0.0
 11
737.5662972873323
 21
132.50042123781799
 31
0.0
  0
LINE
  5
658FE
  8
S-OBRYS
  6
CONTINUOUS
 10
538.79353299466891
 20
132.50042123781799
 30
0.0
 11
530.54411408600959
 21
129.0834000441543
 31
0.0
  0
LINE
  5
658FF
  8
S-OBRYS
  6
CONTINUOUS
 10
635.99990220339339
 20
132.50042123781799
 30
0.0
 11
629.71353962143996
 21
129.0834000441543
 31
0.0
  0
LINE
  5
65900
  8
S-OBRYS
  6
CONTINUOUS
 10
635.99990220339339
 20
132.50042123781799
 30
0.0
 11
713.87780607962816
 21
129.0834000441543
 31
0.0
  0
LINE
  5
65901
  8
S-OBRYS
  6
CONTINUOUS
 10
737.5662972873323
 20
132.50042123781799
 30
0.0
 11
740.99280217193541
 21
129.0834000441543
 31
0.0
  0
LINE
  5
65902
  8
S-OBRYS
  6
CONTINUOUS
 10
530.54411408600959
 20
129.0834000441543
 30
0.0
 11
517.55951635444103
 21
123.70500356177971
 31
0.0
  0
LINE
  5
65903
  8
S-OBRYS
  6
CONTINUOUS
 10
629.71353962143996
 20
129.0834000441543
 30
0.0
 11
619.8187954915511
 21
123.70500356177971
 31
0.0
  0
LINE
  5
65904
  8
S-OBRYS
  6
CONTINUOUS
 10
713.87780607962816
 20
129.0834000441543
 30
0.0
 11
722.93524834711548
 21
123.70500356177971
 31
0.0
  0
LINE
  5
65905
  8
S-OBRYS
  6
CONTINUOUS
 10
740.99280217193541
 20
129.0834000441543
 30
0.0
 11
746.38612599806845
 21
123.70500356177971
 31
0.0
  0
LINE
  5
65906
  8
S-OBRYS
  6
CONTINUOUS
 10
517.55951635444103
 20
123.70500356177971
 30
0.0
 11
503.30124991107112
 21
89.282503338266906
 31
0.0
  0
LINE
  5
65907
  8
S-OBRYS
  6
CONTINUOUS
 10
619.8187954915511
 20
123.70500356177971
 30
0.0
 11
556.49102983893033
 21
89.282503338266906
 31
0.0
  0
LINE
  5
65908
  8
S-OBRYS
  6
CONTINUOUS
 10
746.38612599806845
 20
123.70500356177971
 30
0.0
 11
780.90416333855489
 21
89.282503338266906
 31
0.0
  0
LINE
  5
65909
  8
S-OBRYS
  6
CONTINUOUS
 10
780.90416333855489
 20
89.282503338266906
 30
0.0
 11
722.93524834711548
 21
123.70500356177971
 31
0.0
  0
LINE
  5
6590A
  8
S-OBRYS
  6
CONTINUOUS
 10
503.30124991107112
 20
89.282503338266906
 30
0.0
 11
502.74875220309627
 21
87.948655878493994
 31
0.0
  0
LINE
  5
6590B
  8
S-OBRYS
  6
CONTINUOUS
 10
556.49102983893033
 20
89.282503338266906
 30
0.0
 11
554.03712385300935
 21
87.948655878493994
 31
0.0
  0
LINE
  5
6590C
  8
S-OBRYS
  6
CONTINUOUS
 10
502.74875220309627
 20
87.948655878493994
 30
0.0
 11
468.49990220310241
 21
5.264617712827202
 31
0.0
  0
LINE
  5
6590D
  8
S-OBRYS
  6
CONTINUOUS
 10
554.03712385300935
 20
87.948655878493994
 30
0.0
 11
510.83866711940573
 21
5.264617712827202
 31
0.0
  0
LINE
  5
6590E
  8
S-OBRYS
  6
CONTINUOUS
 10
468.49990220310241
 20
5.264617712827202
 30
0.0
 11
510.83866711940573
 21
5.264617712827202
 31
0.0
  0
LINE
  5
6590F
  8
S-OBRYS
  6
CONTINUOUS
 10
468.49990220310241
 20
5.264617712827202
 30
0.0
 11
510.83866711940573
 21
5.264617712827202
 31
0.0
  0
LINE
  5
65910
  8
S-OBRYS
  6
CONTINUOUS
 10
468.49990220310241
 20
5.264617712827202
 30
0.0
 11
492.5435111112813
 21
-77.646637842706525
 31
0.0
  0
LINE
  5
65911
  8
S-OBRYS
  6
CONTINUOUS
 10
510.83866711940573
 20
5.264617712827202
 30
0.0
 11
517.24299709878119
 21
-77.646637842706525
 31
0.0
  0
LINE
  5
65912
  8
S-OBRYS
  6
CONTINUOUS
 10
492.5435111112813
 20
-77.646637842706525
 30
0.0
 11
494.48651199831698
 21
-84.346823480597365
 31
0.0
  0
LINE
  5
65913
  8
S-OBRYS
  6
CONTINUOUS
 10
517.24299709878119
 20
-77.646637842706525
 30
0.0
 11
521.85347709111102
 21
-84.346823480597365
 31
0.0
  0
LINE
  5
65914
  8
S-OBRYS
  6
CONTINUOUS
 10
521.85347709111102
 20
-84.346823480597365
 30
0.0
 11
564.3830113702553
 21
-146.1529207280374
 31
0.0
  0
LINE
  5
65915
  8
S-OBRYS
  6
CONTINUOUS
 10
564.3830113702553
 20
-146.1529207280374
 30
0.0
 11
494.48651199831698
 21
-84.346823480597365
 31
0.0
  0
ENDBLK
  5
65917
  8
0
  0
BLOCK
  8
0
  2
*U32
 70
     1
 10
0.0
 20
0.0
 30
0.0
  3
*U32
  1

  0
TEXT
  5
6591E
  8
S-OBRYS
  6
CONTINUOUS
 62
     7
 10
23444.34839046761
 20
405327.05508498929
 30
0.0
 40
100.0
  1
\U+2205219
 41
0.8
  0
ENDBLK
  5
65920
  8
0
  0
BLOCK
  8
0
  2
*U33
 70
     1
 10
0.0
 20
0.0
 30
0.0
  3
*U33
  1

  0
TEXT
  5
65922
  8
S-OBRYS
  6
CONTINUOUS
 62
     7
 10
23410.84839046761
 20
402644.2469247593
 30
0.0
 40
100.0
  1
\U+2205152
 41
0.8
  0
ENDBLK
  5
65924
  8
0
  0
BLOCK
  8
0
  2
*U34
 70
     1
 10
0.0
 20
0.0
 30
0.0
  3
*U34
  1

  0
TEXT
  5
65926
  8
S-OBRYS
  6
CONTINUOUS
 62
     7
 10
23855.227506654301
 20
404513.28236309619
 30
0.0
 40
100.0
  1
945
 50
90.0
 41
0.8
  0
ENDBLK
  5
65928
  8
0
  0
BLOCK
  8
0
  2
*U35
 70
     1
 10
0.0
 20
0.0
 30
0.0
  3
*U35
  1

  0
TEXT
  5
6592A
  8
S-OBRYS
  6
CONTINUOUS
 62
     7
 10
23855.227506654301
 20
405422.21093452472
 30
0.0
 40
100.0
  1
120
 50
90.0
 41
0.8
  0
ENDBLK
  5
6592C
  8
0
  0
BLOCK
  8
0
  2
*U36
 70
     1
 10
0.0
 20
0.0
 30
0.0
  3
*U36
  1

  0
TEXT
  5
6592E
  8
S-OBRYS
  6
CONTINUOUS
 62
     7
 10
22469.253238789661
 20
404563.18479177111
 30
0.0
 40
100.0
  1
\U+2205475
 41
0.8
  0
ENDBLK
  5
65930
  8
0
  0
BLOCK
  8
0
  2
*U37
 70
     1
 10
0.0
 20
0.0
 30
0.0
  3
*U37
  1

  0
TEXT
  5
65932
  8
S-OBRYS
  6
CONTINUOUS
 62
     7
 10
23855.227506654301
 20
403344.47245735122
 30
0.0
 40
100.0
  1
1305
 50
90.0
 41
0.8
  0
ENDBLK
  5
65934
  8
0
  0
BLOCK
  8
0
  2
*U38
 70
     1
 10
0.0
 20
0.0
 30
0.0
  3
*U38
  1

  0
TEXT
  5
65936
  8
S-OBRYS
  6
CONTINUOUS
 62
     7
 10
22730.26148818808
 20
403033.8776011914
 30
0.0
 40
100.0
  1
600
 50
90.0
 41
0.8
  0
ENDBLK
  5
65938
  8
0
  0
BLOCK
  8
0
  2
*U39
 70
     1
 10
0.0
 20
0.0
 30
0.0
  3
*U39
  1

  0
TEXT
  5
6593A
  8
S-OBRYS
  6
CONTINUOUS
 62
     7
 10
23614.521773196291
 20
404423.28236309602
 30
0.0
 40
100.0
  1
765
 50
90.0
 41
0.8
  0
ENDBLK
  5
6593C
  8
0
  0
BLOCK
  8
0
  2
*U40
 70
     1
 10
0.0
 20
0.0
 30
0.0
  3
*U40
  1

  0
TEXT
  5
6593E
  8
S-OBRYS
  6
CONTINUOUS
 62
     7
 10
23881.323280489811
 20
399952.84843674902
 30
0.0
 40
100.0
  1
\U+2205475
 50
333.69924805567757
 41
0.8
  0
ENDBLK
  5
65940
  8
0
  0
BLOCK
  8
0
  2
*U41
 70
     1
 10
0.0
 20
0.0
 30
0.0
  3
*U41
  1

  0
TEXT
  5
65942
  8
S-OBRYS
  6
CONTINUOUS
 62
     7
 10
23840.003910619609
 20
400526.28251036833
 30
0.0
 40
100.0
  1
\U+2205219
 50
39.609709565042152
 41
0.8
  0
ENDBLK
  5
65944
  8
0
  0
BLOCK
  8
0
  2
*U42
 70
     1
 10
0.0
 20
0.0
 30
0.0
  3
*U42
  1

  0
TEXT
  5
65946
  8
S-OBRYS
  6
CONTINUOUS
 62
     7
 10
22072.43718586833
 20
400644.12136128661
 30
0.0
 40
100.0
  1
140x60
 41
0.8
  0
ENDBLK
  5
65948
  8
0
  0
BLOCK
  8
0
  2
*U43
 70
     1
 10
0.0
 20
0.0
 30
0.0
  3
*U43
  1

  0
TEXT
  5
6594A
  8
S-OBRYS
  6
CONTINUOUS
 62
     7
 10
22458.23048603001
 20
400048.17160288373
 30
0.0
 40
100.0
  1
572
 50
90.0
 41
0.8
  0
ENDBLK
  5
6594C
  8
0
  0
BLOCK
  8
0
  2
*U44
 70
     1
 10
0.0
 20
0.0
 30
0.0
  3
*U44
  1

  0
TEXT
  5
6594E
  8
OBRYS
  6
CONTINUOUS
 10
6238.712453295615
 20
407374.8691068812
 30
0.0
 40
400.0
  1
Odstředivý odlučovač K 475
  7
R
  0
ENDBLK
  5
65950
  8
0
  0
BLOCK
  8
0
  2
*U45
 70
     1
 10
0.0
 20
0.0
 30
0.0
  3
*U45
  1

  0
TEXT
  5
65966
  8
S-OBRYS
  6
CONTINUOUS
 62
     7
 10
10503.051024041129
 20
405422.21093452472
 30
0.0
 40
100.0
  1
120
 50
90.0
 41
0.8
  0
ENDBLK
  5
65968
  8
0
  0
BLOCK
  8
0
  2
*U46
 70
     1
 10
0.0
 20
0.0
 30
0.0
  3
*U46
  1

  0
TEXT
  5
6596A
  8
S-OBRYS
  6
CONTINUOUS
 62
     7
 10
10503.051024041129
 20
404513.28236309619
 30
0.0
 40
100.0
  1
945
 50
90.0
 41
0.8
  0
ENDBLK
  5
6596C
  8
0
  0
BLOCK
  8
0
  2
*U47
 70
     1
 10
0.0
 20
0.0
 30
0.0
  3
*U47
  1

  0
TEXT
  5
6596E
  8
S-OBRYS
  6
CONTINUOUS
 62
     7
 10
9117.0767561764987
 20
404563.18479177111
 30
0.0
 40
100.0
  1
\U+2205475
 41
0.8
  0
ENDBLK
  5
65970
  8
0
  0
BLOCK
  8
0
  2
*U48
 70
     1
 10
0.0
 20
0.0
 30
0.0
  3
*U48
  1

  0
TEXT
  5
65972
  8
S-OBRYS
  6
CONTINUOUS
 62
     7
 10
10503.051024041129
 20
403344.47245735122
 30
0.0
 40
100.0
  1
1305
 50
90.0
 41
0.8
  0
ENDBLK
  5
65974
  8
0
  0
BLOCK
  8
0
  2
*U49
 70
     1
 10
0.0
 20
0.0
 30
0.0
  3
*U49
  1

  0
TEXT
  5
65976
  8
S-OBRYS
  6
CONTINUOUS
 62
     7
 10
9378.0850055749124
 20
403033.8776011914
 30
0.0
 40
100.0
  1
600
 50
90.0
 41
0.8
  0
ENDBLK
  5
65978
  8
0
  0
BLOCK
  8
0
  2
*U50
 70
     1
 10
0.0
 20
0.0
 30
0.0
  3
*U50
  1

  0
TEXT
  5
6597A
  8
S-OBRYS
  6
CONTINUOUS
 62
     7
 10
10262.345290583111
 20
404423.28236309602
 30
0.0
 40
100.0
  1
765
 50
90.0
 41
0.8
  0
ENDBLK
  5
6597C
  8
0
  0
BLOCK
  8
0
  2
*U51
 70
     1
 10
0.0
 20
0.0
 30
0.0
  3
*U51
  1

  0
TEXT
  5
6597E
  8
S-OBRYS
  6
CONTINUOUS
 62
     7
 10
10529.14679787661
 20
399952.84843674902
 30
0.0
 40
100.0
  1
\U+2205475
 50
333.69924805567757
 41
0.8
  0
ENDBLK
  5
65980
  8
0
  0
BLOCK
  8
0
  2
*U52
 70
     1
 10
0.0
 20
0.0
 30
0.0
  3
*U52
  1

  0
TEXT
  5
65982
  8
S-OBRYS
  6
CONTINUOUS
 62
     7
 10
10487.827428006611
 20
400526.28251036798
 30
0.0
 40
100.0
  1
\U+2205219
 50
39.609709565013858
 41
0.8
  0
ENDBLK
  5
65984
  8
0
  0
BLOCK
  8
0
  2
*U53
 70
     1
 10
0.0
 20
0.0
 30
0.0
  3
*U53
  1

  0
TEXT
  5
65986
  8
S-OBRYS
  6
CONTINUOUS
 62
     7
 10
8720.260703255155
 20
400644.12136128661
 30
0.0
 40
100.0
  1
140x60
 41
0.8
  0
ENDBLK
  5
65988
  8
0
  0
BLOCK
  8
0
  2
*U54
 70
     1
 10
0.0
 20
0.0
 30
0.0
  3
*U54
  1

  0
TEXT
  5
6598A
  8
S-OBRYS
  6
CONTINUOUS
 62
     7
 10
9106.0540034168353
 20
400048.17160288373
 30
0.0
 40
100.0
  1
572
 50
90.0
 41
0.8
  0
ENDBLK
  5
6598C
  8
0
  0
BLOCK
  8
0
  2
*U55
 70
     1
 10
0.0
 20
0.0
 30
0.0
  3
*U55
  1

  0
TEXT
  5
6598E
  8
S-OBRYS
  6
CONTINUOUS
 62
     7
 10
10058.671907854439
 20
402644.2469247593
 30
0.0
 40
100.0
  1
\U+2205152
 41
0.8
  0
ENDBLK
  5
65990
  8
0
  0
BLOCK
  8
0
  2
*U56
 70
     1
 10
0.0
 20
0.0
 30
0.0
  3
*U56
  1

  0
TEXT
  5
65992
  8
S-OBRYS
  6
CONTINUOUS
 62
     7
 10
10092.171907854439
 20
405327.05508498929
 30
0.0
 40
100.0
  1
\U+2205219
 41
0.8
  0
ENDBLK
  5
65994
  8
0
  0
ENDSEC
  0
SECTION
  2
ENTITIES
  0
TEXT
  5
2F7A5
  8
KOTY
 10
-393803.77638965531
 20
-299016.15321175661
 30
0.0
 40
150.0
  1

 41
0.7
  7
ROMANT
  0
TEXT
  5
3AD8B
  8
KOTY
 10
-14797.18019204357
 20
454294.55370899959
 30
0.0
 40
150.0
  1

 41
0.7
  7
ROMANT
  0
TEXT
  5
404AD
  8
KOTY
 10
44010.2314385153
 20
465617.23741859582
 30
0.0
 40
92.0
  1

 41
0.7
  7
CYRILLIC
  0
TEXT
  5
404B4
  8
KOTY
 10
39575.071591094718
 20
465613.29777162091
 30
0.0
 40
92.0
  1

 41
0.7
  7
CYRILLIC
  0
TEXT
  5
40B14
  8
KOTY
 10
5856.0590664841584
 20
486921.1132385282
 30
0.0
 40
150.0
  1

 41
0.7
  7
ROMANT
  0
TEXT
  5
40BFC
  8
KOTY
 10
8767.7265956277752
 20
466337.2608060218
 30
0.0
 40
150.0
  1

 41
0.7
  7
ROMANS
  0
TEXT
  5
51A7C
  8
KOTY
 10
-47677.341387967608
 20
395133.71812193602
 30
0.0
 40
150.0
  1

 41
0.7
  7
ROMANS
  0
TEXT
  5
51A94
  8
KOTY
 10
-45176.819295693742
 20
395133.7181219359
 30
0.0
 40
150.0
  1

 41
0.7
  7
ROMANS
  0
TEXT
  5
51A9B
  8
KOTY
 10
-48084.423320344351
 20
397411.27855615731
 30
0.0
 40
150.0
  1

 41
0.7
  7
ROMANT
  0
TEXT
  5
51B05
  8
RAZ
 62
     6
 10
-47365.887544580757
 20
392999.37567832542
 30
0.0
 40
193.54103193599991
  1

 41
0.8
  7
R08
  0
TEXT
  5
51B06
  8
RAZ
 62
     1
 10
-47245.037660778231
 20
393401.77274166199
 30
0.0
 40
125.41458869452801
  1

  7
ROMANS
  0
TEXT
  5
58307
  8
KOTY
 10
22966.528519463162
 20
383405.87475258159
 30
0.0
 40
150.0
  1

 41
0.7
  7
ROMANS
  0
TEXT
  5
58308
  8
KOTY
 10
22966.528519463169
 20
383855.87475258159
 30
0.0
 40
150.0
  1

 41
0.7
  7
ROMANS
  0
TEXT
  5
58315
  8
KOTY
 10
25467.050611737021
 20
383855.87475258141
 30
0.0
 40
150.0
  1

 41
0.7
  7
ROMANS
  0
TEXT
  5
58316
  8
KOTY
 10
25467.050611737021
 20
383405.87475258141
 30
0.0
 40
150.0
  1

 41
0.7
  7
ROMANS
  0
TEXT
  5
5833F
  8
KOTY
 10
22966.528519463162
 20
385205.87475258153
 30
0.0
 40
150.0
  1

 41
0.7
  7
ROMANS
  0
TEXT
  5
58340
  8
KOTY
 10
22966.528519463169
 20
385655.87475258159
 30
0.0
 40
150.0
  1

 41
0.7
  7
ROMANS
  0
TEXT
  5
58354
  8
KOTY
 10
25467.050611737021
 20
385655.87475258141
 30
0.0
 40
150.0
  1

 41
0.7
  7
ROMANS
  0
TEXT
  5
58355
  8
KOTY
 10
25467.050611737021
 20
385205.87475258141
 30
0.0
 40
150.0
  1

 41
0.7
  7
ROMANS
  0
TEXT
  5
58397
  8
KOTY
 10
25467.050611737039
 20
390605.87475258129
 30
0.0
 40
150.0
  1

 41
0.7
  7
ROMANS
  0
TEXT
  5
58398
  8
KOTY
 10
25467.050611737039
 20
391055.87475258141
 30
0.0
 40
150.0
  1

 41
0.7
  7
ROMANS
  0
TEXT
  5
583C1
  8
KOTY
 10
25467.050611737031
 20
389255.87475258141
 30
0.0
 40
150.0
  1

 41
0.7
  7
ROMANS
  0
TEXT
  5
58C84
  8
KOTY
 10
22966.52851946322
 20
387905.87475258153
 30
0.0
 40
150.0
  1

 41
0.7
  7
ROMANS
  0
LINE
  5
64FCA
  8
S-OBRYS
  6
CONTINUOUS
 10
4800.4444335535509
 20
394054.11978133413
 30
0.0
 11
15300.44443355355
 21
394054.11978133413
 31
0.0
  0
LINE
  5
64FCB
  8
S-OBRYS
  6
CONTINUOUS
 10
15300.44443355355
 20
394054.11978133413
 30
0.0
 11
15300.44443355355
 21
408904.11978133401
 31
0.0
  0
LINE
  5
64FCC
  8
S-OBRYS
  6
CONTINUOUS
 10
15300.44443355355
 20
408904.11978133401
 30
0.0
 11
4800.4444335535509
 21
408904.11978133401
 31
0.0
  0
LINE
  5
64FCD
  8
S-OBRYS
  6
CONTINUOUS
 10
4800.4444335535509
 20
408904.11978133401
 30
0.0
 11
4800.4444335535509
 21
394054.11978133413
 31
0.0
  0
LINE
  5
6558D
  8
S-OBRYS
  6
CONTINUOUS
 10
9769.1004792830117
 20
405220.06807738182
 30
0.0
 11
9769.1004792830117
 21
402833.06807738187
 31
0.0
  0
LINE
  5
6558E
  8
S-OBRYS
  6
CONTINUOUS
 10
9531.6006653999611
 20
405100.06807738222
 30
0.0
 11
9531.6004792830099
 21
404155.06807738187
 31
0.0
  0
LINE
  5
6558F
  8
S-OBRYS
  6
CONTINUOUS
 10
10006.54369863841
 20
405100.06807738182
 30
0.0
 11
10006.09655070075
 21
404155.06731351092
 31
0.0
  0
LINE
  5
65590
  8
S-OBRYS
  6
CONTINUOUS
 10
9833.9033985775404
 20
400150.45859255508
 30
0.0
 11
9833.9033985775404
 21
399814.32224454312
 31
0.0
  0
CIRCLE
  5
65591
  8
S-OBRYS
  6
CONTINUOUS
 10
10072.90339857754
 20
400150.45859255508
 30
0.0
 40
109.5
  0
CIRCLE
  5
65592
  8
S-OBRYS
  6
CONTINUOUS
 10
10072.90339857754
 20
400150.45859255508
 30
0.0
 40
237.5
  0
LINE
  5
65593
  8
S-OBRYS
  6
CONTINUOUS
 10
9833.9033985775368
 20
399814.32224454312
 30
0.0
 11
9956.903398577535
 21
399814.32224454312
 31
0.0
  0
LINE
  5
65594
  8
S-OBRYS
  6
CONTINUOUS
 10
9956.903398577535
 20
399943.2141716411
 30
0.0
 11
9956.903398577535
 21
399814.32224454312
 31
0.0
  0
DIMENSION
  5
65595
  8
S-OBRYS
  6
CONTINUOUS
  2
*D28
 10
9845.1004792830117
 20
402619.24692475941
 30
0.0
 11
10209.14809833063
 21
402694.24692475941
 31
0.0
 70
     0
  1
%%c<>
 13
9693.1004792830099
 23
402833.06807738187
 33
0.0
 14
9845.1004792830117
 24
402833.06807738187
 34
0.0
  0
LINE
  5
65596
  8
S-OBRYS
  6
CONTINUOUS
 10
9531.6004792830099
 20
404155.06807738187
 30
0.0
 11
9691.0237016733263
 21
402850.06807738187
 31
0.0
  0
LINE
  5
65597
  8
S-OBRYS
  6
CONTINUOUS
 10
9847.1772568926935
 20
402850.06807738187
 30
0.0
 11
10006.60047928301
 21
404155.06750560179
 31
0.0
  0
LINE
  5
65598
  8
S-OBRYS
  6
CONTINUOUS
 10
9720.0315919857167
 20
403450.06807738187
 30
0.0
 11
9815.3470049397529
 21
403450.06807738187
 31
0.0
  0
LINE
  5
65599
  8
S-OBRYS
  6
CONTINUOUS
 10
9680.2281239819422
 20
402833.06807738187
 30
0.0
 11
9857.972834584074
 21
402833.06807738187
 31
0.0
  0
LINE
  5
6559A
  8
S-OBRYS
  6
CONTINUOUS
 10
9661.6004792830063
 20
402850.06807738187
 30
0.0
 11
9876.6004792830045
 21
402850.06807738187
 31
0.0
  0
LINE
  5
6559B
  8
S-OBRYS
  6
CONTINUOUS
 10
9661.6004792830063
 20
402847.06807738187
 30
0.0
 11
9876.6004792830045
 21
402847.06807738187
 31
0.0
  0
LINE
  5
6559C
  8
S-OBRYS
  6
CONTINUOUS
 10
9693.1004792830099
 20
402833.06807738187
 30
0.0
 11
9845.1004792830117
 21
402833.06807738187
 31
0.0
  0
LINE
  5
6559D
  8
S-OBRYS
  6
CONTINUOUS
 10
9661.6004792830063
 20
402850.06807738187
 30
0.0
 11
9661.6004792830063
 21
402847.06807738187
 31
0.0
  0
LINE
  5
6559E
  8
S-OBRYS
  6
CONTINUOUS
 10
9691.3901918397441
 20
402847.06807738187
 30
0.0
 11
9693.1004792830099
 21
402833.06807738187
 31
0.0
  0
LINE
  5
6559F
  8
S-OBRYS
  6
CONTINUOUS
 10
9845.1004792830117
 20
402833.06807738187
 30
0.0
 11
9846.8107667262775
 21
402847.06807738187
 31
0.0
  0
LINE
  5
655A0
  8
S-OBRYS
  6
CONTINUOUS
 10
9876.6004792830045
 20
402850.06807738187
 30
0.0
 11
9876.6004792830045
 21
402847.06807738187
 31
0.0
  0
LINE
  5
655A1
  8
S-OBRYS
  6
CONTINUOUS
 10
9716.3646442608624
 20
404163.51308583992
 30
0.0
 11
9821.8363143051592
 21
404163.51308583992
 31
0.0
  0
LINE
  5
655A2
  8
S-OBRYS
  6
CONTINUOUS
 10
9700.7719722851107
 20
404204.53580059111
 30
0.0
 11
9700.7719722851107
 21
404155.06807738187
 31
0.0
  0
LINE
  5
655A3
  8
S-OBRYS
  6
CONTINUOUS
 10
9716.3646442608624
 20
404204.53580059111
 30
0.0
 11
9716.3646442608624
 21
404163.51308583992
 31
0.0
  0
LINE
  5
655A4
  8
S-OBRYS
  6
CONTINUOUS
 10
9725.40229711949
 20
404204.53580059111
 30
0.0
 11
9725.40229711949
 21
404155.06807738187
 31
0.0
  0
LINE
  5
655A5
  8
S-OBRYS
  6
CONTINUOUS
 10
9700.7719722851089
 20
404204.53580059111
 30
0.0
 11
9716.3646442608606
 21
404204.53580059111
 31
0.0
  0
LINE
  5
655A6
  8
S-OBRYS
  6
CONTINUOUS
 10
9837.4289862809092
 20
404204.53580059111
 30
0.0
 11
9837.4289862809092
 21
404155.06807738187
 31
0.0
  0
LINE
  5
655A7
  8
S-OBRYS
  6
CONTINUOUS
 10
9821.8363143051592
 20
404204.53580059111
 30
0.0
 11
9821.8363143051592
 21
404163.51308583992
 31
0.0
  0
LINE
  5
655A8
  8
S-OBRYS
  6
CONTINUOUS
 10
9812.7986614465299
 20
404204.53580059111
 30
0.0
 11
9812.7986614465299
 21
404155.06807738187
 31
0.0
  0
LINE
  5
655A9
  8
S-OBRYS
  6
CONTINUOUS
 10
9821.8363143051592
 20
404204.53580059111
 30
0.0
 11
9837.4289862808837
 21
404204.53580059111
 31
0.0
  0
LINE
  5
655AA
  8
S-OBRYS
  6
CONTINUOUS
 10
9837.4289862808837
 20
404204.53580059111
 30
0.0
 11
9821.8363143051538
 21
404204.53580059111
 31
0.0
  0
DIMENSION
  5
655AB
  8
S-OBRYS
  6
CONTINUOUS
  2
*D29
 10
9878.6004792830154
 20
405302.05508498917
 30
0.0
 11
10240.74333642587
 21
405377.05508498917
 31
0.0
 70
     0
  1
%%c<>
 13
9659.6004792830063
 23
405220.06807738182
 33
0.0
 14
9878.6004792830154
 24
405220.06807738182
 34
0.0
  0
LINE
  5
655AC
  8
S-OBRYS
  6
CONTINUOUS
 10
9878.6004792830099
 20
405220.06807738182
 30
0.0
 11
9659.6004792830063
 21
405220.06807738182
 31
0.0
  0
LINE
  5
655AD
  8
S-OBRYS
  6
CONTINUOUS
 10
10006.543698986959
 20
405100.06881400669
 30
0.0
 11
9531.6004792830099
 21
405100.06807738182
 31
0.0
  0
LINE
  5
655AE
  8
S-OBRYS
  6
CONTINUOUS
 10
9659.6004792830063
 20
405100.06807738182
 30
0.0
 11
9659.6004792830063
 21
405220.06807738182
 31
0.0
  0
LINE
  5
655AF
  8
S-OBRYS
  6
CONTINUOUS
 10
9878.6004792830099
 20
405100.06807738182
 30
0.0
 11
9878.6004792830099
 21
405220.06807738182
 31
0.0
  0
INSERT
  5
655B0
  8
S-OBRYS
  6
CONTINUOUS
  2
*U44
 10
0.0
 20
0.0
 30
0.0
  0
LINE
  5
655B1
  8
S-OBRYS
  6
CONTINUOUS
 10
10072.90339857754
 20
400150.45859255508
 30
0.0
 11
10364.27056597163
 21
400150.45859255508
 31
0.0
  0
LINE
  5
655B2
  8
S-OBRYS
  6
CONTINUOUS
 10
10218.91358493497
 20
400150.45859255508
 30
0.0
 11
9607.9923557987386
 21
400150.45859255508
 31
0.0
  0
LINE
  5
655B3
  8
S-OBRYS
  6
CONTINUOUS
 10
10072.90339857754
 20
400150.45859255508
 30
0.0
 11
10072.90339857754
 21
400455.63695199479
 31
0.0
  0
LINE
  5
655B4
  8
S-OBRYS
  6
CONTINUOUS
 10
10072.90339857754
 20
400455.63695199479
 30
0.0
 11
10072.90339857754
 21
399863.90836479102
 31
0.0
  0
LINE
  5
655B5
  8
S-OBRYS
  6
CONTINUOUS
 10
9688.5464175408706
 20
400150.45859255508
 30
0.0
 11
9688.5464175408706
 21
399814.32224454312
 31
0.0
  0
CIRCLE
  5
655B6
  8
S-OBRYS
  6
CONTINUOUS
 10
9449.5464175408706
 20
400150.45859255508
 30
0.0
 40
109.5
  0
CIRCLE
  5
655B7
  8
S-OBRYS
  6
CONTINUOUS
 10
9449.5464175408706
 20
400150.45859255508
 30
0.0
 40
237.5
  0
LINE
  5
655B8
  8
S-OBRYS
  6
CONTINUOUS
 10
9688.5464175408742
 20
399814.32224454312
 30
0.0
 11
9565.5464175408742
 21
399814.32224454312
 31
0.0
  0
LINE
  5
655B9
  8
S-OBRYS
  6
CONTINUOUS
 10
9565.5464175408742
 20
399943.2141716411
 30
0.0
 11
9565.5464175408742
 21
399814.32224454312
 31
0.0
  0
LINE
  5
655BA
  8
S-OBRYS
  6
CONTINUOUS
 10
9449.5464175408706
 20
400150.45859255508
 30
0.0
 11
9158.1792501467753
 21
400150.45859255508
 31
0.0
  0
LINE
  5
655BB
  8
S-OBRYS
  6
CONTINUOUS
 10
9158.1792501467753
 20
400150.45859255508
 30
0.0
 11
9769.1004792830117
 21
400150.45859255508
 31
0.0
  0
LINE
  5
655BC
  8
S-OBRYS
  6
CONTINUOUS
 10
9449.5464175408706
 20
400150.45859255508
 30
0.0
 11
9449.5464175408706
 21
400455.63695199479
 31
0.0
  0
LINE
  5
655BD
  8
S-OBRYS
  6
CONTINUOUS
 10
9449.5464175408706
 20
400455.63695199479
 30
0.0
 11
9449.5464175408706
 21
399863.90836479102
 31
0.0
  0
DIMENSION
  5
655BE
  8
S-OBRYS
  6
CONTINUOUS
  2
*D18
 10
10528.05102404119
 20
405220.06807738182
 30
0.0
 11
10453.051024041129
 21
405542.21093452472
 31
0.0
 70
     0
 13
10006.54369917198
 23
405100.06920503022
 33
0.0
 14
9878.6004792830099
 24
405220.06807738182
 34
0.0
 50
90.0
  0
DIMENSION
  5
655BF
  8
S-OBRYS
  6
CONTINUOUS
  2
*D19
 10
10528.05102404119
 20
404155.06807738187
 30
0.0
 11
10453.051024041129
 21
404627.56807738199
 31
0.0
 70
     0
 13
10009.75047928301
 23
405100.06807738182
 33
0.0
 14
10009.75047928301
 24
404155.06807738187
 34
0.0
 50
90.0
  0
LINE
  5
655C0
  8
S-OBRYS
  6
CONTINUOUS
 10
9531.6004792830099
 20
404155.06807738187
 30
0.0
 11
10024.988625190341
 21
404155.06807738187
 31
0.0
  0
DIMENSION
  5
655C1
  8
S-OBRYS
  6
CONTINUOUS
  2
*D20
 10
10006.304063067189
 20
404538.18479177111
 30
0.0
 11
9267.5529466526878
 21
404538.18479177111
 31
0.0
 70
   128
  1
%%c475
 13
9531.6005657003043
 23
404593.84778199991
 33
0.0
 14
10006.304063067189
 24
404593.62316557841
 34
0.0
  0
DIMENSION
  5
655C2
  8
S-OBRYS
  6
CONTINUOUS
  2
*D21
 10
10528.05102404119
 20
404155.06731351092
 30
0.0
 11
10453.051024041129
 21
403502.56769544643
 31
0.0
 70
     0
 13
9876.6004792830045
 23
402850.06807738187
 33
0.0
 14
10006.09655070075
 24
404155.06731351092
 34
0.0
 50
90.0
  0
LINE
  5
655C3
  8
S-OBRYS
  6
CONTINUOUS
 10
9847.5436986384157
 20
405140.06807738182
 30
0.0
 11
9847.5436986384157
 21
404700.06807738187
 31
0.0
  0
LINE
  5
655C4
  8
S-OBRYS
  6
CONTINUOUS
 10
9886.543698638412
 20
405100.06807738182
 30
0.0
 11
9886.543698638412
 21
404740.06807738182
 31
0.0
  0
LINE
  5
655C5
  8
S-OBRYS
  6
CONTINUOUS
 10
10006.54369863841
 20
405100.06807738182
 30
0.0
 11
10006.54369863841
 21
404740.06807738182
 31
0.0
  0
LINE
  5
655C6
  8
S-OBRYS
  6
CONTINUOUS
 10
9962.2855244171005
 20
404720.06807738182
 30
0.0
 11
9930.8018728597235
 21
404720.06807738182
 31
0.0
  0
CIRCLE
  5
655C7
  8
S-OBRYS
  6
CONTINUOUS
 10
9946.5436986384138
 20
404720.06807738182
 30
0.0
 40
4.5
  0
LINE
  5
655C8
  8
S-OBRYS
  6
CONTINUOUS
 10
9847.5436986384157
 20
404700.06807738187
 30
0.0
 11
10045.54369863841
 21
404700.06807738187
 31
0.0
  0
LINE
  5
655C9
  8
S-OBRYS
  6
CONTINUOUS
 10
9882.7855244171042
 20
404720.06807738182
 30
0.0
 11
9852.5827470644599
 21
404720.06807738182
 31
0.0
  0
CIRCLE
  5
655CA
  8
S-OBRYS
  6
CONTINUOUS
 10
9867.0436986384175
 20
404720.06807738182
 30
0.0
 40
4.5
  0
LINE
  5
655CB
  8
S-OBRYS
  6
CONTINUOUS
 10
9867.0436986384175
 20
404704.32625160308
 30
0.0
 11
9867.0436986384175
 21
404735.80990316049
 31
0.0
  0
LINE
  5
655CC
  8
S-OBRYS
  6
CONTINUOUS
 10
9867.0436986384175
 20
404804.45744189923
 30
0.0
 11
9867.0436986384175
 21
404835.67871286441
 31
0.0
  0
LINE
  5
655CD
  8
S-OBRYS
  6
CONTINUOUS
 10
9867.0436986384175
 20
404904.57856688061
 30
0.0
 11
9867.0436986384175
 21
404935.55758788303
 31
0.0
  0
LINE
  5
655CE
  8
S-OBRYS
  6
CONTINUOUS
 10
9881.5046502123732
 20
404820.06807738182
 30
0.0
 11
9852.5827470644599
 21
404820.06807738182
 31
0.0
  0
LINE
  5
655CF
  8
S-OBRYS
  6
CONTINUOUS
 10
9881.5046502123732
 20
404920.06807738182
 30
0.0
 11
9852.5827470644599
 21
404920.06807738182
 31
0.0
  0
CIRCLE
  5
655D0
  8
S-OBRYS
  6
CONTINUOUS
 10
9867.0436986384175
 20
404920.06807738182
 30
0.0
 40
4.5
  0
CIRCLE
  5
655D1
  8
S-OBRYS
  6
CONTINUOUS
 10
9867.0436986384175
 20
404820.06807738182
 30
0.0
 40
4.5
  0
LINE
  5
655D2
  8
S-OBRYS
  6
CONTINUOUS
 10
9946.5436986384138
 20
404704.32625160308
 30
0.0
 11
9946.5436986384138
 21
404735.80990316049
 31
0.0
  0
LINE
  5
655D3
  8
S-OBRYS
  6
CONTINUOUS
 10
9962.2855244171005
 20
405120.06807738182
 30
0.0
 11
9930.8018728597235
 21
405120.06807738182
 31
0.0
  0
CIRCLE
  5
655D4
  8
S-OBRYS
  6
CONTINUOUS
 10
9946.5436986384138
 20
405120.06807738182
 30
0.0
 40
4.5
  0
LINE
  5
655D5
  8
S-OBRYS
  6
CONTINUOUS
 10
9886.543698638412
 20
405100.06807738182
 30
0.0
 11
10006.54369863841
 21
405100.06807738182
 31
0.0
  0
LINE
  5
655D6
  8
S-OBRYS
  6
CONTINUOUS
 10
10045.54369863841
 20
405140.06807738182
 30
0.0
 11
9847.5436986384157
 21
405140.06807738182
 31
0.0
  0
LINE
  5
655D7
  8
S-OBRYS
  6
CONTINUOUS
 10
9867.0436986384102
 20
405104.32625160308
 30
0.0
 11
9867.0436986384102
 21
405135.80990316049
 31
0.0
  0
CIRCLE
  5
655D8
  8
S-OBRYS
  6
CONTINUOUS
 10
9867.0436986384102
 20
405120.06807738182
 30
0.0
 40
4.5
  0
LINE
  5
655D9
  8
S-OBRYS
  6
CONTINUOUS
 10
9882.7855244171005
 20
405120.06807738182
 30
0.0
 11
9854.5936340226181
 21
405120.06807738182
 31
0.0
  0
LINE
  5
655DA
  8
S-OBRYS
  6
CONTINUOUS
 10
9867.0436986384175
 20
405004.84799404087
 30
0.0
 11
9867.0436986384175
 21
405034.52902895579
 31
0.0
  0
LINE
  5
655DB
  8
S-OBRYS
  6
CONTINUOUS
 10
9881.5046502123696
 20
405020.06807738182
 30
0.0
 11
9852.5827470644545
 21
405020.06807738182
 31
0.0
  0
CIRCLE
  5
655DC
  8
S-OBRYS
  6
CONTINUOUS
 10
9867.0436986384102
 20
405020.06807738182
 30
0.0
 40
4.5
  0
LINE
  5
655DD
  8
S-OBRYS
  6
CONTINUOUS
 10
9946.5436986384138
 20
405104.32625160308
 30
0.0
 11
9946.5436986384138
 21
405135.80990316049
 31
0.0
  0
LINE
  5
655DE
  8
S-OBRYS
  6
CONTINUOUS
 10
9886.543698638412
 20
404740.06807738182
 30
0.0
 11
10006.54369863841
 21
404740.06807738182
 31
0.0
  0
LINE
  5
655DF
  8
S-OBRYS
  6
CONTINUOUS
 10
10006.54369863841
 20
404740.06807738182
 30
0.0
 11
10006.54369863841
 21
405100.06807738182
 31
0.0
  0
LINE
  5
655E0
  8
S-OBRYS
  6
CONTINUOUS
 10
10006.54369863841
 20
405100.06807738182
 30
0.0
 11
10006.54369863841
 21
405100.06807738182
 31
0.0
  0
LINE
  5
655E1
  8
S-OBRYS
  6
CONTINUOUS
 10
10045.54369863841
 20
404700.06807738187
 30
0.0
 11
10045.54369863841
 21
405140.06807738182
 31
0.0
  0
LINE
  5
655E2
  8
S-OBRYS
  6
CONTINUOUS
 10
10045.54369863841
 20
405140.06807738182
 30
0.0
 11
10045.54369863841
 21
404700.06807738187
 31
0.0
  0
LINE
  5
655E3
  8
S-OBRYS
  6
CONTINUOUS
 10
10045.54369863841
 20
405140.06807738182
 30
0.0
 11
10045.54369863841
 21
404700.06807738187
 31
0.0
  0
LINE
  5
655E4
  8
S-OBRYS
  6
CONTINUOUS
 10
10006.543698638419
 20
405100.06807738182
 30
0.0
 11
10006.543698638419
 21
404740.06807738182
 31
0.0
  0
LINE
  5
655E5
  8
S-OBRYS
  6
CONTINUOUS
 10
10010.301872859731
 20
404720.06807738182
 30
0.0
 11
10040.50465021237
 21
404720.06807738182
 31
0.0
  0
CIRCLE
  5
655E6
  8
S-OBRYS
  6
CONTINUOUS
 10
10026.04369863841
 20
404720.06807738182
 30
0.0
 40
4.5
  0
LINE
  5
655E7
  8
S-OBRYS
  6
CONTINUOUS
 10
10026.04369863841
 20
404704.32625160308
 30
0.0
 11
10026.04369863841
 21
404735.80990316049
 31
0.0
  0
LINE
  5
655E8
  8
S-OBRYS
  6
CONTINUOUS
 10
10026.04369863841
 20
404804.45744189923
 30
0.0
 11
10026.04369863841
 21
404835.67871286441
 31
0.0
  0
LINE
  5
655E9
  8
S-OBRYS
  6
CONTINUOUS
 10
10026.04369863841
 20
404904.57856688061
 30
0.0
 11
10026.04369863841
 21
404935.55758788303
 31
0.0
  0
LINE
  5
655EA
  8
S-OBRYS
  6
CONTINUOUS
 10
10011.58274706446
 20
404820.06807738182
 30
0.0
 11
10040.50465021237
 21
404820.06807738182
 31
0.0
  0
LINE
  5
655EB
  8
S-OBRYS
  6
CONTINUOUS
 10
10011.58274706446
 20
404920.06807738182
 30
0.0
 11
10040.50465021237
 21
404920.06807738182
 31
0.0
  0
CIRCLE
  5
655EC
  8
S-OBRYS
  6
CONTINUOUS
 10
10026.04369863841
 20
404920.06807738182
 30
0.0
 40
4.5
  0
CIRCLE
  5
655ED
  8
S-OBRYS
  6
CONTINUOUS
 10
10026.04369863841
 20
404820.06807738182
 30
0.0
 40
4.5
  0
LINE
  5
655EE
  8
S-OBRYS
  6
CONTINUOUS
 10
10026.043698638419
 20
405104.32625160308
 30
0.0
 11
10026.043698638419
 21
405135.80990316049
 31
0.0
  0
CIRCLE
  5
655EF
  8
S-OBRYS
  6
CONTINUOUS
 10
10026.043698638419
 20
405120.06807738182
 30
0.0
 40
4.5
  0
LINE
  5
655F0
  8
S-OBRYS
  6
CONTINUOUS
 10
10010.301872859731
 20
405120.06807738182
 30
0.0
 11
10038.49376325421
 21
405120.06807738182
 31
0.0
  0
LINE
  5
655F1
  8
S-OBRYS
  6
CONTINUOUS
 10
10026.04369863841
 20
405004.84799404087
 30
0.0
 11
10026.04369863841
 21
405034.52902895579
 31
0.0
  0
LINE
  5
655F2
  8
S-OBRYS
  6
CONTINUOUS
 10
10011.58274706446
 20
405020.06807738182
 30
0.0
 11
10040.50465021237
 21
405020.06807738182
 31
0.0
  0
CIRCLE
  5
655F3
  8
S-OBRYS
  6
CONTINUOUS
 10
10026.043698638419
 20
405020.06807738182
 30
0.0
 40
4.5
  0
CIRCLE
  5
655F4
  8
S-OBRYS
  6
CONTINUOUS
 10
9767.6892984627339
 20
403450.06807738187
 30
0.0
 40
76.0
  0
DIMENSION
  5
655F5
  8
S-OBRYS
  6
CONTINUOUS
  2
*D22
 10
9403.0850055749761
 20
402850.06807738187
 30
0.0
 11
9328.0850055749124
 21
403150.06807738182
 31
0.0
 70
     0
 13
9769.1004792830117
 23
403450.06807738187
 33
0.0
 14
9769.1004792830117
 24
402850.06807738187
 34
0.0
 50
90.0
  0
DIMENSION
  5
655F6
  8
S-OBRYS
  6
CONTINUOUS
  2
*D23
 10
10287.34529058318
 20
404155.06807738187
 30
0.0
 11
10212.345290583111
 21
404537.56807738182
 31
0.0
 70
     0
 13
10006.54369863841
 23
404920.06807738182
 33
0.0
 14
10006.09655106219
 24
404155.06807738187
 34
0.0
 50
90.0
  0
DIMENSION
  5
655F7
  8
S-OBRYS
  6
CONTINUOUS
  2
*D24
 10
9859.9892524005863
 20
400255.69079464982
 30
0.0
 11
10652.96871182543
 21
399863.76298604981
 31
0.0
 70
   131
 15
10285.817544754649
 25
400045.22639046039
 35
0.0
 40
0.0
1001
ACAD
1000
DSTYLE
1002
{
1070
   288
1070
     1
1002
}
  0
DIMENSION
  5
655F8
  8
S-OBRYS
  6
CONTINUOUS
  2
*D25
 10
9988.5440279323957
 20
400080.64636880922
 30
0.0
 11
10618.2264947078
 21
400601.74477107631
 31
0.0
 70
   131
 15
10157.262769222691
 25
400220.27081630111
 35
0.0
 40
0.0
1001
ACAD
1000
DSTYLE
1002
{
1070
   288
1070
     1
1002
}
  0
DIMENSION
  5
655F9
  8
S-OBRYS
  6
CONTINUOUS
  2
*D26
 10
9379.5464175408706
 20
400619.12136128661
 30
0.0
 11
8948.8321318265844
 21
400694.12136128661
 31
0.0
 70
     0
  1
<>x60
 13
9519.5464175408706
 23
400466.45859255508
 33
0.0
 14
9379.5464175408706
 24
400466.45859255508
 34
0.0
  0
DIMENSION
  5
655FA
  8
S-OBRYS
  6
CONTINUOUS
  2
*D27
 10
9131.0540034169026
 20
400436.45859255508
 30
0.0
 11
9131.0540034168371
 21
400162.45731716952
 31
0.0
 70
   128
 13
9377.7179105429968
 23
399864.45859255519
 33
0.0
 14
9377.7179105429932
 24
400436.45859255508
 34
0.0
 50
90.0
  0
LINE
  5
655FB
  8
S-OBRYS
  6
CONTINUOUS
 10
9449.5464175408706
 20
400466.45859255508
 30
0.0
 11
9449.5464175408706
 21
399834.45859255519
 31
0.0
  0
LINE
  5
655FC
  8
S-OBRYS
  6
CONTINUOUS
 10
9449.5464175408706
 20
400466.45859255508
 30
0.0
 11
9449.5464175408706
 21
399831.30859255511
 31
0.0
  0
LINE
  5
655FD
  8
S-OBRYS
  6
CONTINUOUS
 10
9449.5464175408706
 20
399864.45859255519
 30
0.0
 11
9449.5464175408706
 21
400436.45859255508
 31
0.0
  0
LINE
  5
655FE
  8
S-OBRYS
  6
CONTINUOUS
 10
9519.5464175408706
 20
399834.45859255519
 30
0.0
 11
9379.5464175408706
 21
399834.45859255519
 31
0.0
  0
LINE
  5
655FF
  8
S-OBRYS
  6
CONTINUOUS
 10
9379.5464175408706
 20
399894.45859255519
 30
0.0
 11
9519.5464175408706
 21
399894.45859255519
 31
0.0
  0
ARC
  5
65600
  8
S-OBRYS
  6
CONTINUOUS
 10
9489.5464175408706
 20
399866.45859255519
 30
0.0
 40
6.0
 50
0.0
 51
180.0
  0
ARC
  5
65601
  8
S-OBRYS
  6
CONTINUOUS
 10
9489.5464175408706
 20
399858.45859255508
 30
0.0
 40
6.0
 50
180.0
 51
0.0
  0
LINE
  5
65602
  8
S-OBRYS
  6
CONTINUOUS
 10
9379.5464175408706
 20
399864.45859255519
 30
0.0
 11
9519.5464175408706
 21
399864.45859255519
 31
0.0
  0
ARC
  5
65603
  8
S-OBRYS
  6
CONTINUOUS
 10
9489.5464175408706
 20
399866.45859255519
 30
0.0
 40
6.0
 50
0.0
 51
180.0
  0
ARC
  5
65604
  8
S-OBRYS
  6
CONTINUOUS
 10
9489.5464175408706
 20
399858.45859255508
 30
0.0
 40
6.0
 50
180.0
 51
0.0
  0
LINE
  5
65605
  8
S-OBRYS
  6
CONTINUOUS
 10
9517.8749245387444
 20
399864.45859255519
 30
0.0
 11
9381.2179105429932
 21
399864.45859255519
 31
0.0
  0
LINE
  5
65606
  8
S-OBRYS
  6
CONTINUOUS
 10
9379.5464175408706
 20
399864.45859255519
 30
0.0
 11
9519.5464175408706
 21
399864.45859255519
 31
0.0
  0
POLYLINE
  5
65607
  8
S-OBRYS
  6
CONTINUOUS
 66
     1
 10
0.0
 20
0.0
 30
0.0
  0
VERTEX
  5
65951
  8
S-OBRYS
  6
CONTINUOUS
 10
9511.5464175408706
 20
399894.45859255519
 30
0.0
  0
VERTEX
  5
65952
  8
S-OBRYS
  6
CONTINUOUS
 10
9519.5464175408706
 20
399894.45859255519
 30
0.0
  0
VERTEX
  5
65953
  8
S-OBRYS
  6
CONTINUOUS
 10
9519.5464175408706
 20
399834.45859255519
 30
0.0
  0
VERTEX
  5
65954
  8
S-OBRYS
  6
CONTINUOUS
 10
9379.5464175408706
 20
399834.45859255519
 30
0.0
  0
VERTEX
  5
65955
  8
S-OBRYS
  6
CONTINUOUS
 10
9379.5464175408706
 20
399894.45859255519
 30
0.0
  0
VERTEX
  5
65956
  8
S-OBRYS
  6
CONTINUOUS
 10
9387.5464175408706
 20
399894.45859255519
 30
0.0
  0
SEQEND
  5
65957
  8
S-OBRYS
  6
CONTINUOUS
  0
POLYLINE
  5
65608
  8
S-OBRYS
  6
CONTINUOUS
 66
     1
 10
0.0
 20
0.0
 30
0.0
  0
VERTEX
  5
65958
  8
S-OBRYS
  6
CONTINUOUS
 10
9391.5464175408706
 20
399894.45859255519
 30
0.0
  0
VERTEX
  5
65959
  8
S-OBRYS
  6
CONTINUOUS
 10
9507.5464175408706
 20
399894.45859255519
 30
0.0
  0
SEQEND
  5
6595A
  8
S-OBRYS
  6
CONTINUOUS
  0
LINE
  5
65609
  8
S-OBRYS
  6
CONTINUOUS
 10
9379.5464175408706
 20
399834.45859255519
 30
0.0
 11
9379.5464175408706
 21
399894.45859255519
 31
0.0
  0
ARC
  5
6560A
  8
S-OBRYS
  6
CONTINUOUS
 10
9409.5464175408706
 20
399866.45859255519
 30
0.0
 40
6.0
 50
0.0
 51
180.0
  0
ARC
  5
6560B
  8
S-OBRYS
  6
CONTINUOUS
 10
9409.5464175408706
 20
399858.45859255508
 30
0.0
 40
6.0
 50
180.0
 51
0.0
  0
LINE
  5
6560C
  8
S-OBRYS
  6
CONTINUOUS
 10
9409.5464175408651
 20
399885.38983264362
 30
0.0
 11
9409.5464175408706
 21
399846.81019959803
 31
0.0
  0
LINE
  5
6560D
  8
S-OBRYS
  6
CONTINUOUS
 10
9415.5464175408724
 20
399866.45859255519
 30
0.0
 11
9415.5464175408724
 21
399858.45859255508
 31
0.0
  0
LINE
  5
6560E
  8
S-OBRYS
  6
CONTINUOUS
 10
9403.5464175408706
 20
399858.45859255508
 30
0.0
 11
9403.5464175408706
 21
399866.45859255519
 31
0.0
  0
ARC
  5
6560F
  8
S-OBRYS
  6
CONTINUOUS
 10
9409.5464175408706
 20
399866.45859255519
 30
0.0
 40
6.0
 50
0.0
 51
180.0
  0
LINE
  5
65610
  8
S-OBRYS
  6
CONTINUOUS
 10
9403.5464175408706
 20
399858.45859255508
 30
0.0
 11
9403.5464175408706
 21
399866.45859255519
 31
0.0
  0
LINE
  5
65611
  8
S-OBRYS
  6
CONTINUOUS
 10
9415.5464175408724
 20
399866.45859255519
 30
0.0
 11
9415.5464175408651
 21
399858.45859255508
 31
0.0
  0
LINE
  5
65612
  8
S-OBRYS
  6
CONTINUOUS
 10
9391.5464175408706
 20
399834.45859255519
 30
0.0
 11
9391.5464175408706
 21
399920.14956103452
 31
0.0
  0
LINE
  5
65613
  8
S-OBRYS
  6
CONTINUOUS
 10
9387.5464175408706
 20
399834.45859255519
 30
0.0
 11
9387.5464175408706
 21
399921.19400741393
 31
0.0
  0
ARC
  5
65614
  8
S-OBRYS
  6
CONTINUOUS
 10
9409.5464175408706
 20
399858.45859255508
 30
0.0
 40
6.0
 50
180.0
 51
0.0
  0
LINE
  5
65615
  8
S-OBRYS
  6
CONTINUOUS
 10
9409.5464175408651
 20
399885.38983264362
 30
0.0
 11
9409.5464175408706
 21
399846.81019959803
 31
0.0
  0
LINE
  5
65616
  8
S-OBRYS
  6
CONTINUOUS
 10
9489.5464175408706
 20
399885.38983264362
 30
0.0
 11
9489.5464175408706
 21
399846.81019959803
 31
0.0
  0
LINE
  5
65617
  8
S-OBRYS
  6
CONTINUOUS
 10
9483.5464175408688
 20
399866.45859255519
 30
0.0
 11
9483.5464175408688
 21
399858.45859255508
 31
0.0
  0
LINE
  5
65618
  8
S-OBRYS
  6
CONTINUOUS
 10
9483.5464175408688
 20
399866.45859255519
 30
0.0
 11
9483.5464175408688
 21
399858.45859255508
 31
0.0
  0
LINE
  5
65619
  8
S-OBRYS
  6
CONTINUOUS
 10
9489.5464175408706
 20
399885.38983264362
 30
0.0
 11
9489.5464175408706
 21
399846.81019959803
 31
0.0
  0
LINE
  5
6561A
  8
S-OBRYS
  6
CONTINUOUS
 10
9519.5464175408706
 20
399894.45859255519
 30
0.0
 11
9519.5464175408706
 21
399834.45859255519
 31
0.0
  0
LINE
  5
6561B
  8
S-OBRYS
  6
CONTINUOUS
 10
9495.5464175408706
 20
399858.45859255508
 30
0.0
 11
9495.5464175408706
 21
399866.45859255519
 31
0.0
  0
LINE
  5
6561C
  8
S-OBRYS
  6
CONTINUOUS
 10
9495.5464175408706
 20
399858.45859255508
 30
0.0
 11
9495.5464175408706
 21
399866.45859255519
 31
0.0
  0
LINE
  5
6561D
  8
S-OBRYS
  6
CONTINUOUS
 10
9507.5464175408706
 20
399834.45859255519
 30
0.0
 11
9507.5464175408706
 21
399920.14956103452
 31
0.0
  0
LINE
  5
6561E
  8
S-OBRYS
  6
CONTINUOUS
 10
9511.5464175408706
 20
399834.45859255519
 30
0.0
 11
9511.5464175408706
 21
399921.19400741393
 31
0.0
  0
LINE
  5
6561F
  8
S-OBRYS
  6
CONTINUOUS
 10
9379.5464175408706
 20
400406.45859255508
 30
0.0
 11
9379.5464175408706
 21
400466.45859255508
 31
0.0
  0
LINE
  5
65620
  8
S-OBRYS
  6
CONTINUOUS
 10
9519.5464175408706
 20
400466.45859255508
 30
0.0
 11
9519.5464175408706
 21
400406.45859255508
 31
0.0
  0
LINE
  5
65621
  8
S-OBRYS
  6
CONTINUOUS
 10
9511.5464175408706
 20
400466.45859255508
 30
0.0
 11
9511.5464175408706
 21
400379.7231776964
 31
0.0
  0
LINE
  5
65622
  8
S-OBRYS
  6
CONTINUOUS
 10
9387.5464175408706
 20
400466.45859255508
 30
0.0
 11
9387.5464175408706
 21
400379.7231776964
 31
0.0
  0
POLYLINE
  5
65623
  8
S-OBRYS
  6
CONTINUOUS
 66
     1
 10
0.0
 20
0.0
 30
0.0
  0
VERTEX
  5
6595B
  8
S-OBRYS
  6
CONTINUOUS
 10
9511.5464175408706
 20
400406.45859255508
 30
0.0
  0
VERTEX
  5
6595C
  8
S-OBRYS
  6
CONTINUOUS
 10
9519.5464175408706
 20
400406.45859255508
 30
0.0
  0
VERTEX
  5
6595D
  8
S-OBRYS
  6
CONTINUOUS
 10
9519.5464175408706
 20
400466.45859255508
 30
0.0
  0
VERTEX
  5
6595E
  8
S-OBRYS
  6
CONTINUOUS
 10
9379.5464175408706
 20
400466.45859255508
 30
0.0
  0
VERTEX
  5
6595F
  8
S-OBRYS
  6
CONTINUOUS
 10
9379.5464175408706
 20
400406.45859255508
 30
0.0
  0
VERTEX
  5
65960
  8
S-OBRYS
  6
CONTINUOUS
 10
9387.5464175408706
 20
400406.45859255508
 30
0.0
  0
SEQEND
  5
65961
  8
S-OBRYS
  6
CONTINUOUS
  0
LINE
  5
65624
  8
S-OBRYS
  6
CONTINUOUS
 10
9507.5464175408706
 20
400466.45859255508
 30
0.0
 11
9507.5464175408706
 21
400380.76762407587
 31
0.0
  0
LINE
  5
65625
  8
S-OBRYS
  6
CONTINUOUS
 10
9391.5464175408706
 20
400466.45859255508
 30
0.0
 11
9391.5464175408706
 21
400380.76762407587
 31
0.0
  0
LINE
  5
65626
  8
S-OBRYS
  6
CONTINUOUS
 10
9519.546417540867
 20
400406.45859255508
 30
0.0
 11
9379.5464175408706
 21
400406.45859255508
 31
0.0
  0
POLYLINE
  5
65627
  8
S-OBRYS
  6
CONTINUOUS
 66
     1
 10
0.0
 20
0.0
 30
0.0
  0
VERTEX
  5
65962
  8
S-OBRYS
  6
CONTINUOUS
 10
9391.5464175408706
 20
400406.45859255508
 30
0.0
  0
VERTEX
  5
65963
  8
S-OBRYS
  6
CONTINUOUS
 10
9507.5464175408706
 20
400406.45859255508
 30
0.0
  0
SEQEND
  5
65964
  8
S-OBRYS
  6
CONTINUOUS
  0
LINE
  5
65628
  8
S-OBRYS
  6
CONTINUOUS
 10
9517.8749245387444
 20
400436.45859255508
 30
0.0
 11
9381.2179105429987
 21
400436.45859255508
 31
0.0
  0
ARC
  5
65629
  8
S-OBRYS
  6
CONTINUOUS
 10
9489.5464175408706
 20
400442.45859255508
 30
0.0
 40
6.0
 50
0.0
 51
180.0
  0
ARC
  5
6562A
  8
S-OBRYS
  6
CONTINUOUS
 10
9489.5464175408706
 20
400434.45859255508
 30
0.0
 40
6.0
 50
180.0
 51
0.0
  0
LINE
  5
6562B
  8
S-OBRYS
  6
CONTINUOUS
 10
9379.5464175408706
 20
400466.45859255508
 30
0.0
 11
9519.5464175408706
 21
400466.45859255508
 31
0.0
  0
ARC
  5
6562C
  8
S-OBRYS
  6
CONTINUOUS
 10
9489.5464175408706
 20
400434.45859255508
 30
0.0
 40
6.0
 50
180.0
 51
0.0
  0
ARC
  5
6562D
  8
S-OBRYS
  6
CONTINUOUS
 10
9489.5464175408706
 20
400442.45859255508
 30
0.0
 40
6.0
 50
0.0
 51
180.0
  0
LINE
  5
6562E
  8
S-OBRYS
  6
CONTINUOUS
 10
9379.5464175408706
 20
400436.45859255508
 30
0.0
 11
9519.5464175408706
 21
400436.45859255508
 31
0.0
  0
LINE
  5
6562F
  8
S-OBRYS
  6
CONTINUOUS
 10
9517.8749245387444
 20
400436.45859255508
 30
0.0
 11
9381.2179105429932
 21
400436.45859255508
 31
0.0
  0
ARC
  5
65630
  8
S-OBRYS
  6
CONTINUOUS
 10
9409.5464175408706
 20
400434.45859255508
 30
0.0
 40
6.0
 50
180.0
 51
0.0
  0
ARC
  5
65631
  8
S-OBRYS
  6
CONTINUOUS
 10
9409.5464175408706
 20
400442.45859255508
 30
0.0
 40
6.0
 50
0.0
 51
180.0
  0
LINE
  5
65632
  8
S-OBRYS
  6
CONTINUOUS
 10
9415.5464175408724
 20
400434.45859255508
 30
0.0
 11
9415.5464175408724
 21
400442.45859255508
 31
0.0
  0
LINE
  5
65633
  8
S-OBRYS
  6
CONTINUOUS
 10
9403.5464175408706
 20
400442.45859255508
 30
0.0
 11
9403.5464175408706
 21
400434.45859255508
 31
0.0
  0
LINE
  5
65634
  8
S-OBRYS
  6
CONTINUOUS
 10
9409.5464175408651
 20
400415.52735246671
 30
0.0
 11
9409.5464175408706
 21
400454.10698551242
 31
0.0
  0
ARC
  5
65635
  8
S-OBRYS
  6
CONTINUOUS
 10
9409.5464175408706
 20
400442.45859255508
 30
0.0
 40
6.0
 50
0.0
 51
180.0
  0
ARC
  5
65636
  8
S-OBRYS
  6
CONTINUOUS
 10
9409.5464175408706
 20
400434.45859255508
 30
0.0
 40
6.0
 50
180.0
 51
0.0
  0
LINE
  5
65637
  8
S-OBRYS
  6
CONTINUOUS
 10
9403.5464175408706
 20
400442.45859255508
 30
0.0
 11
9403.5464175408706
 21
400434.45859255508
 31
0.0
  0
LINE
  5
65638
  8
S-OBRYS
  6
CONTINUOUS
 10
9415.5464175408724
 20
400434.45859255508
 30
0.0
 11
9415.5464175408651
 21
400442.45859255508
 31
0.0
  0
LINE
  5
65639
  8
S-OBRYS
  6
CONTINUOUS
 10
9409.5464175408651
 20
400415.52735246671
 30
0.0
 11
9409.5464175408706
 21
400454.10698551242
 31
0.0
  0
LINE
  5
6563A
  8
S-OBRYS
  6
CONTINUOUS
 10
9483.5464175408688
 20
400434.45859255508
 30
0.0
 11
9483.5464175408688
 21
400442.45859255508
 31
0.0
  0
LINE
  5
6563B
  8
S-OBRYS
  6
CONTINUOUS
 10
9489.5464175408706
 20
400415.52735246671
 30
0.0
 11
9489.5464175408706
 21
400454.10698551242
 31
0.0
  0
LINE
  5
6563C
  8
S-OBRYS
  6
CONTINUOUS
 10
9483.5464175408688
 20
400434.45859255508
 30
0.0
 11
9483.5464175408688
 21
400442.45859255508
 31
0.0
  0
LINE
  5
6563D
  8
S-OBRYS
  6
CONTINUOUS
 10
9489.5464175408706
 20
400415.52735246671
 30
0.0
 11
9489.5464175408706
 21
400454.10698551242
 31
0.0
  0
LINE
  5
6563E
  8
S-OBRYS
  6
CONTINUOUS
 10
9495.5464175408706
 20
400442.45859255508
 30
0.0
 11
9495.5464175408706
 21
400434.45859255508
 31
0.0
  0
LINE
  5
6563F
  8
S-OBRYS
  6
CONTINUOUS
 10
9495.5464175408706
 20
400442.45859255508
 30
0.0
 11
9495.5464175408706
 21
400434.45859255508
 31
0.0
  0
VIEWPORT
  5
1FAB5
 67
     1
  8
0
  6
ČERCHOVANÁ
 10
12.669026204836801
 20
9.4585013259736659
 30
0.0
 40
41.707206501782828
 41
24.2248555085413
 68
     1
 69
     1
1001
ACAD
1000
MVIEW
1002
{
1070
    16
1010
0.0
1020
0.0
1030
0.0
1010
0.0
1020
0.0
1030
1.0
1040
0.0
1040
24.2248555085413
1040
12.669026204836801
1040
9.4585013259736659
1040
50.0
1040
0.0
1040
0.0
1070
     0
1070
   100
1070
     1
1070
     1
1070
     0
1070
     0
1070
     0
1070
     0
1040
0.0
1040
0.0
1040
0.0
1040
10.0
1040
10.0
1040
10.0
1040
10.0
1070
     0
1002
{
1002
}
1002
}
  0
VIEWPORT
  5
1FAB7
 67
     1
  8
2-VZT
  6
ČERCHOVANÁ
 10
5.24999976158142
 20
3.99999976158142
 30
0.0
 40
8.3999996185302717
 41
6.3999996185302717
 68
     2
 69
     2
1001
ACAD
1000
MVIEW
1002
{
1070
    16
1010
0.0
1020
0.0
1030
0.0
1010
0.0
1020
0.0
1030
1.0
1040
0.0
1040
517776.44812413253
1040
-335493.7046016907
1040
-205251.99203018961
1040
50.0
1040
0.0
1040
0.0
1070
     0
1070
   100
1070
     1
1070
     0
1070
     0
1070
     0
1070
     0
1070
     0
1040
0.0
1040
0.0
1040
0.0
1040
1.0
1040
1.0
1040
1.0
1040
1.0
1070
     0
1002
{
1002
}
1002
}
  0
ENDSEC
  0
EOF
