  0
SECTION
  2
HEADER
  9
$ACADVER
  1
AC1009
  9
$INSBASE
 10
0.0
 20
0.0
 30
0.0
  9
$EXTMIN
 10
-371613.63515397091
 20
-1401.9084920760361
 30
0.0
  9
$EXTMAX
 10
439407.092893294
 20
809618.82989815716
 30
0.0
  9
$LIMMIN
 10
-127022.6804658414
 20
-67144.462473645661
  9
$LIMMAX
 10
-873.19720690528334
 20
6755.1563308572058
  9
$ORTHOMODE
 70
     1
  9
$REGENMODE
 70
     1
  9
$FILLMODE
 70
     1
  9
$QTEXTMODE
 70
     0
  9
$MIRRTEXT
 70
     0
  9
$DRAGMODE
 70
     2
  9
$LTSCALE
 40
50.0
  9
$OSMODE
 70
   679
  9
$ATTMODE
 70
     1
  9
$TEXTSIZE
 40
200.0
  9
$TRACEWID
 40
10.0
  9
$TEXTSTYLE
  7
R
  9
$CLAYER
  8
S-OBRYS
  9
$CELTYPE
  6
CONTINUOUS
  9
$CECOLOR
 62
   256
  9
$DIMSCALE
 40
50.0
  9
$DIMASZ
 40
2.0
  9
$DIMEXO
 40
0.063
  9
$DIMDLI
 40
5.0
  9
$DIMRND
 40
0.0
  9
$DIMDLE
 40
0.0
  9
$DIMEXE
 40
0.2
  9
$DIMTP
 40
0.0
  9
$DIMTM
 40
0.0
  9
$DIMTXT
 40
2.0
  9
$DIMCEN
 40
2.0
  9
$DIMTSZ
 40
0.0
  9
$DIMTOL
 70
     0
  9
$DIMLIM
 70
     0
  9
$DIMTIH
 70
     0
  9
$DIMTOH
 70
     0
  9
$DIMSE1
 70
     0
  9
$DIMSE2
 70
     0
  9
$DIMTAD
 70
     1
  9
$DIMZIN
 70
    12
  9
$DIMBLK
  1

  9
$DIMASO
 70
     1
  9
$DIMSHO
 70
     0
  9
$DIMPOST
  1

  9
$DIMAPOST
  1

  9
$DIMALT
 70
     0
  9
$DIMALTD
 70
     2
  9
$DIMALTF
 40
25.399999999999999
  9
$DIMLFAC
 40
1.0
  9
$DIMTOFL
 70
     1
  9
$DIMTVP
 40
0.0
  9
$DIMTIX
 70
     0
  9
$DIMSOXD
 70
     0
  9
$DIMSAH
 70
     1
  9
$DIMBLK1
  1
OPEN
  9
$DIMBLK2
  1
OPEN
  9
$DIMSTYLE
  2
EMBABA
  9
$DIMCLRD
 70
     0
  9
$DIMCLRE
 70
     0
  9
$DIMCLRT
 70
     7
  9
$DIMTFAC
 40
1.0
  9
$DIMGAP
 40
0.5
  9
$LUNITS
 70
     2
  9
$LUPREC
 70
     0
  9
$SKETCHINC
 40
10.0
  9
$FILLETRAD
 40
400.0
  9
$AUNITS
 70
     0
  9
$AUPREC
 70
     4
  9
$MENU
  1
ACAD
  9
$ELEVATION
 40
0.0
  9
$PELEVATION
 40
0.0
  9
$THICKNESS
 40
0.0
  9
$LIMCHECK
 70
     0
  9
$BLIPMODE
 70
     0
  9
$CHAMFERA
 40
0.0
  9
$CHAMFERB
 40
0.0
  9
$SKPOLY
 70
     0
  9
$TDCREATE
 40
2450205.720229167
  9
$TDUPDATE
 40
2453529.4048538781
  9
$TDINDWG
 40
42.4247044213
  9
$TDUSRTIMER
 40
42.4247044213
  9
$USRTIMER
 70
     1
  9
$ANGBASE
 50
0.0
  9
$ANGDIR
 70
     0
  9
$PDMODE
 70
     2
  9
$PDSIZE
 40
-5.0
  9
$PLINEWID
 40
0.0
  9
$COORDS
 70
     0
  9
$SPLFRAME
 70
     0
  9
$SPLINETYPE
 70
     6
  9
$SPLINESEGS
 70
     8
  9
$ATTDIA
 70
     0
  9
$ATTREQ
 70
     1
  9
$HANDLING
 70
     1
  9
$HANDSEED
  5
674AE
  9
$SURFTAB1
 70
    18
  9
$SURFTAB2
 70
    18
  9
$SURFTYPE
 70
     6
  9
$SURFU
 70
    18
  9
$SURFV
 70
    18
  9
$UCSNAME
  2

  9
$UCSORG
 10
0.0
 20
0.0
 30
0.0
  9
$UCSXDIR
 10
1.0
 20
0.0
 30
0.0
  9
$UCSYDIR
 10
0.0
 20
1.0
 30
0.0
  9
$PUCSNAME
  2

  9
$PUCSORG
 10
0.0
 20
0.0
 30
0.0
  9
$PUCSXDIR
 10
1.0
 20
0.0
 30
0.0
  9
$PUCSYDIR
 10
0.0
 20
1.0
 30
0.0
  9
$USERI1
 70
     0
  9
$USERI2
 70
     0
  9
$USERI3
 70
     0
  9
$USERI4
 70
     0
  9
$USERI5
 70
     0
  9
$USERR1
 40
0.0
  9
$USERR2
 40
50.0
  9
$USERR3
 40
0.0
  9
$USERR4
 40
0.0
  9
$USERR5
 40
0.0
  9
$WORLDVIEW
 70
     1
  9
$SHADEDGE
 70
     3
  9
$SHADEDIF
 70
    70
  9
$TILEMODE
 70
     1
  9
$MAXACTVP
 70
    16
  9
$PLIMCHECK
 70
     0
  9
$PEXTMIN
 10
1.049999952316284
 20
0.7999999523162842
 30
0.0
  9
$PEXTMAX
 10
9.4499995708465558
 20
7.1999995708465558
 30
0.0
  9
$PLIMMIN
 10
-0.2500002402958907
 20
-0.2499999962453767
  9
$PLIMMAX
 10
10.74999951940821
 20
8.2499997634587316
  9
$UNITMODE
 70
     0
  9
$VISRETAIN
 70
     0
  9
$PLINEGEN
 70
     0
  9
$PSLTSCALE
 70
     1
  0
ENDSEC
  0
SECTION
  2
TABLES
  0
TABLE
  2
VPORT
 70
     4
  0
VPORT
  2
*ACTIVE
 70
     0
 10
0.0
 20
0.0
 11
1.0
 21
1.0
 12
2439.24227988557
 22
397305.11941465328
 13
0.0
 23
0.0
 14
1.0
 24
1.0
 15
1.0
 25
1.0
 16
0.0
 26
0.0
 36
1.0
 17
0.0
 27
0.0
 37
0.0
 40
41668.691565043577
 41
1.6116303219106951
 42
50.0
 43
0.0
 44
0.0
 50
0.0
 51
0.0
 71
     0
 72
   100
 73
     1
 74
     0
 75
     0
 76
     1
 77
     0
 78
     0
  0
ENDTAB
  0
TABLE
  2
LTYPE
 70
    14
  0
LTYPE
  2
CONTINUOUS
 70
     0
  3
Solid line
 72
    65
 73
     0
 40
0.0
  0
LTYPE
  2
ČERCHOVANÁ
 70
     0
  3
Čerchovaná __ . __ . __ . __ . __ . __ . __ . _
 72
    65
 73
     4
 40
1.0
 49
0.5
 49
-0.25
 49
0.0
 49
-0.25
  0
ENDTAB
  0
TABLE
  2
LAYER
 70
    37
  0
LAYER
  2
0
 70
     0
 62
     7
  6
CONTINUOUS
  0
LAYER
  2
RAZ
 70
     0
 62
     7
  6
CONTINUOUS
  0
LAYER
  2
KOTY
 70
     0
 62
     2
  6
CONTINUOUS
  0
LAYER
  2
DEFPOINTS
 70
     0
 62
     7
  6
CONTINUOUS
  0
LAYER
  2
2-VZT
 70
     0
 62
     4
  6
CONTINUOUS
  0
LAYER
  2
OBRYS
 70
     0
 62
     7
  6
CONTINUOUS
  0
LAYER
  2
S-OBRYS
 70
     0
 62
     7
  6
CONTINUOUS
  0
ENDTAB
  0
TABLE
  2
STYLE
 70
    11
  0
STYLE
  2
STANDARD
 70
     0
 40
0.0
 41
0.8
 50
0.0
 71
     0
 42
200.0
  3
ROMANS.SHX
  4

  0
STYLE
  2
R
 70
     0
 40
0.0
 41
1.0
 50
0.0
 71
     0
 42
200.0
  3
romans.shx
  4

  0
STYLE
  2
ROMANS
 70
     0
 40
0.0
 41
0.8
 50
0.0
 71
     0
 42
300.0
  3
ROMANS.shx
  4

  0
STYLE
  2
R08
 70
     0
 40
0.0
 41
0.8
 50
0.0
 71
     0
 42
800.0
  3
ROMANS.shx
  4

  0
STYLE
  2
ROMANT
 70
     0
 40
0.0
 41
0.7
 50
0.0
 71
     0
 42
3.0
  3
romant
  4

  0
STYLE
  2
CYRILLIC
 70
     0
 40
2.2999999999999989
 41
0.7
 50
0.0
 71
     0
 42
2.2999999999999989
  3
cyrillic
  4

  0
ENDTAB
  0
TABLE
  2
VIEW
 70
     0
  0
ENDTAB
  0
TABLE
  2
UCS
 70
     0
  0
ENDTAB
  0
TABLE
  2
APPID
 70
     6
  0
APPID
  2
ACAD
 70
     0
  0
APPID
  2
PHOENIX7010
 70
     0
  0
APPID
  2
CONTENTBLOCKICON
 70
     0
  0
APPID
  2
CONTENTLONGBLOCKNAME
 70
     0
  0
APPID
  2
ACAD_DSTYLE_DIMTEXT_FILL
 70
     0
  0
APPID
  2
DCO15
 70
     0
  0
ENDTAB
  0
TABLE
  2
DIMSTYLE
 70
     9
  0
DIMSTYLE
  2
STANDARD
 70
     0
  3

  4

  5

  6
OPEN
  7
OPEN
 40
1.0
 41
80.0
 42
1.0
 43
0.0
 44
1.0
 45
0.0
 46
0.8
 47
0.0
 48
0.0
140
70.0
141
-3.0
142
0.0
143
0.0394
144
1.0
145
1.0
146
0.5
147
1.0
 71
     0
 72
     0
 73
     0
 74
     0
 75
     0
 76
     0
 77
     0
 78
     8
170
     0
171
     2
172
     1
173
     1
174
     0
175
     0
176
     7
177
     7
178
     2
  0
DIMSTYLE
  2
EMBABA
 70
     0
  3

  4

  5

  6
OPEN
  7
OPEN
 40
50.0
 41
2.0
 42
0.063
 43
5.0
 44
0.2
 45
0.0
 46
0.0
 47
0.0
 48
0.0
140
2.0
141
2.0
142
0.0
143
25.399999999999999
144
1.0
145
0.0
146
1.0
147
0.5
 71
     0
 72
     0
 73
     0
 74
     0
 75
     0
 76
     0
 77
     1
 78
    12
170
     0
171
     2
172
     1
173
     1
174
     0
175
     0
176
     0
177
     0
178
     7
  0
ENDTAB
  0
ENDSEC
  0
SECTION
  2
BLOCKS
  0
BLOCK
  8
0
  2
$MODEL_SPACE
 70
     0
 10
0.0
 20
0.0
 30
0.0
  3
$MODEL_SPACE
  1

  0
ENDBLK
  5
9
  8
0
  0
BLOCK
 67
     1
  8
0
  2
$PAPER_SPACE
 70
     0
 10
0.0
 20
0.0
 30
0.0
  3
$PAPER_SPACE
  1

  0
ENDBLK
  5
E
 67
     1
  8
0
  0
BLOCK
  8
0
  2
_OPEN
 70
     0
 10
0.0
 20
0.0
 30
0.0
  3
_OPEN
  1

  0
LINE
  5
28
  8
0
  6
BYBLOCK
 62
     0
 10
-1.0
 20
0.1666666666666666
 30
0.0
 11
0.0
 21
0.0
 31
0.0
  0
LINE
  5
29
  8
0
  6
BYBLOCK
 62
     0
 10
0.0
 20
0.0
 30
0.0
 11
-1.0
 21
-0.1666666666666666
 31
0.0
  0
LINE
  5
2A
  8
0
  6
BYBLOCK
 62
     0
 10
0.0
 20
0.0
 30
0.0
 11
-1.0
 21
0.0
 31
0.0
  0
ENDBLK
  5
2C
  8
0
  0
BLOCK
  8
0
  2
*D132
 70
     1
 10
0.0
 20
0.0
 30
0.0
  3
*D132
  1

  0
LINE
  5
66879
  8
S-OBRYS
  6
CONTINUOUS
 62
     0
 10
-17543.20784940611
 20
404075.48444217828
 30
0.0
 11
-17261.782367239379
 21
404075.48444217828
 31
0.0
  0
LINE
  5
6687A
  8
S-OBRYS
  6
CONTINUOUS
 62
     0
 10
-17543.20784940611
 20
404445.48444217839
 30
0.0
 11
-17261.782367239379
 21
404445.48444217839
 31
0.0
  0
LINE
  5
6687B
  8
S-OBRYS
  6
CONTINUOUS
 62
     0
 10
-17271.782367239379
 20
404175.48444217839
 30
0.0
 11
-17271.782367239379
 21
404345.48444217828
 31
0.0
  0
INSERT
  5
6687C
  8
S-OBRYS
  6
CONTINUOUS
 62
     0
  2
_OPEN
 10
-17271.782367239379
 20
404075.48444217828
 30
0.0
 41
100.0
 42
100.0
 43
100.0
 50
270.0
  0
INSERT
  5
6687D
  8
S-OBRYS
  6
CONTINUOUS
 62
     0
  2
_OPEN
 10
-17271.782367239379
 20
404445.48444217839
 30
0.0
 41
100.0
 42
100.0
 43
100.0
 50
90.0
  0
INSERT
  5
6687E
  8
S-OBRYS
  6
CONTINUOUS
  2
*U284
 10
0.0
 20
0.0
 30
0.0
  0
POINT
  5
6687F
  8
DEFPOINTS
  6
CONTINUOUS
 62
     0
 10
-17546.357849406111
 20
404075.48444217828
 30
0.0
  0
POINT
  5
66880
  8
DEFPOINTS
  6
CONTINUOUS
 62
     0
 10
-17546.357849406111
 20
404445.48444217839
 30
0.0
  0
POINT
  5
66881
  8
DEFPOINTS
  6
CONTINUOUS
 62
     0
 10
-17271.782367239379
 20
404445.48444217839
 30
0.0
  0
ENDBLK
  5
66797
  8
0
  0
BLOCK
  8
0
  2
*D133
 70
     1
 10
0.0
 20
0.0
 30
0.0
  3
*D133
  1

  0
LINE
  5
66882
  8
S-OBRYS
  6
CONTINUOUS
 62
     0
 10
-16339.76780145611
 20
405391.2413005245
 30
0.0
 11
-16339.76780145611
 21
405999.62243371858
 31
0.0
  0
LINE
  5
66883
  8
S-OBRYS
  6
CONTINUOUS
 62
     0
 10
-16099.76780145611
 20
405391.2413005245
 30
0.0
 11
-16099.76780145611
 21
405999.62243371858
 31
0.0
  0
LINE
  5
66884
  8
S-OBRYS
  6
CONTINUOUS
 62
     0
 10
-16439.76780145611
 20
405989.6224337187
 30
0.0
 11
-16539.76780145611
 21
405989.6224337187
 31
0.0
  0
LINE
  5
66885
  8
S-OBRYS
  6
CONTINUOUS
 62
     0
 10
-15999.76780145611
 20
405989.6224337187
 30
0.0
 11
-15644.05351574182
 21
405989.6224337187
 31
0.0
  0
LINE
  5
66886
  8
S-OBRYS
  6
CONTINUOUS
 62
     0
 10
-16339.76780145611
 20
405989.6224337187
 30
0.0
 11
-16099.76780145611
 21
405989.6224337187
 31
0.0
  0
INSERT
  5
66887
  8
S-OBRYS
  6
CONTINUOUS
 62
     0
  2
_OPEN
 10
-16339.76780145611
 20
405989.6224337187
 30
0.0
 41
100.0
 42
100.0
 43
100.0
  0
INSERT
  5
66888
  8
S-OBRYS
  6
CONTINUOUS
 62
     0
  2
_OPEN
 10
-16099.76780145611
 20
405989.6224337187
 30
0.0
 41
100.0
 42
100.0
 43
100.0
 50
180.0
  0
INSERT
  5
66889
  8
S-OBRYS
  6
CONTINUOUS
  2
*U285
 10
0.0
 20
0.0
 30
0.0
  0
POINT
  5
6688A
  8
DEFPOINTS
  6
CONTINUOUS
 62
     0
 10
-16339.76780145611
 20
405388.09130052448
 30
0.0
  0
POINT
  5
6688B
  8
DEFPOINTS
  6
CONTINUOUS
 62
     0
 10
-16099.76780145611
 20
405388.09130052448
 30
0.0
  0
POINT
  5
6688C
  8
DEFPOINTS
  6
CONTINUOUS
 62
     0
 10
-16099.76780145611
 20
405989.6224337187
 30
0.0
  0
ENDBLK
  5
667A5
  8
0
  0
BLOCK
  8
0
  2
*D134
 70
     1
 10
0.0
 20
0.0
 30
0.0
  3
*D134
  1

  0
LINE
  5
6688D
  8
S-OBRYS
  6
CONTINUOUS
 62
     0
 10
-19062.35784940614
 20
404927.63444217842
 30
0.0
 11
-19062.35784940614
 21
405998.95497984049
 31
0.0
  0
LINE
  5
6688E
  8
S-OBRYS
  6
CONTINUOUS
 62
     0
 10
-17546.357849406111
 20
404927.6344421783
 30
0.0
 11
-17546.357849406111
 21
405998.95497984049
 31
0.0
  0
LINE
  5
6688F
  8
S-OBRYS
  6
CONTINUOUS
 62
     0
 10
-18962.35784940614
 20
405988.95497984049
 30
0.0
 11
-17646.357849406111
 21
405988.95497984049
 31
0.0
  0
INSERT
  5
66890
  8
S-OBRYS
  6
CONTINUOUS
 62
     0
  2
_OPEN
 10
-19062.35784940614
 20
405988.95497984049
 30
0.0
 41
100.0
 42
100.0
 43
100.0
 50
180.0
  0
INSERT
  5
66891
  8
S-OBRYS
  6
CONTINUOUS
 62
     0
  2
_OPEN
 10
-17546.357849406111
 20
405988.95497984049
 30
0.0
 41
100.0
 42
100.0
 43
100.0
  0
INSERT
  5
66892
  8
S-OBRYS
  6
CONTINUOUS
  2
*U286
 10
0.0
 20
0.0
 30
0.0
  0
POINT
  5
66893
  8
DEFPOINTS
  6
CONTINUOUS
 62
     0
 10
-19062.35784940614
 20
404924.48444217839
 30
0.0
  0
POINT
  5
66894
  8
DEFPOINTS
  6
CONTINUOUS
 62
     0
 10
-17546.357849406111
 20
404924.48444217828
 30
0.0
  0
POINT
  5
66895
  8
DEFPOINTS
  6
CONTINUOUS
 62
     0
 10
-17546.357849406111
 20
405988.95497984049
 30
0.0
  0
ENDBLK
  5
667B1
  8
0
  0
BLOCK
  8
0
  2
*D135
 70
     1
 10
0.0
 20
0.0
 30
0.0
  3
*D135
  1

  0
LINE
  5
66896
  8
S-OBRYS
  6
CONTINUOUS
 62
     0
 10
-19065.507849406142
 20
404430.48444217828
 30
0.0
 11
-19483.73689822201
 21
404430.48444217828
 31
0.0
  0
LINE
  5
66897
  8
S-OBRYS
  6
CONTINUOUS
 62
     0
 10
-18559.007849406182
 20
405514.48444217828
 30
0.0
 11
-19483.73689822201
 21
405514.48444217828
 31
0.0
  0
LINE
  5
66898
  8
S-OBRYS
  6
CONTINUOUS
 62
     0
 10
-19473.736898222
 20
404530.48444217828
 30
0.0
 11
-19473.736898222
 21
405414.48444217839
 31
0.0
  0
INSERT
  5
66899
  8
S-OBRYS
  6
CONTINUOUS
 62
     0
  2
_OPEN
 10
-19473.736898222
 20
404430.48444217828
 30
0.0
 41
100.0
 42
100.0
 43
100.0
 50
270.0
  0
INSERT
  5
6689A
  8
S-OBRYS
  6
CONTINUOUS
 62
     0
  2
_OPEN
 10
-19473.736898222
 20
405514.48444217828
 30
0.0
 41
100.0
 42
100.0
 43
100.0
 50
90.0
  0
INSERT
  5
6689B
  8
S-OBRYS
  6
CONTINUOUS
  2
*U287
 10
0.0
 20
0.0
 30
0.0
  0
POINT
  5
6689C
  8
DEFPOINTS
  6
CONTINUOUS
 62
     0
 10
-19062.35784940614
 20
404430.48444217828
 30
0.0
  0
POINT
  5
6689D
  8
DEFPOINTS
  6
CONTINUOUS
 62
     0
 10
-18555.85784940618
 20
405514.48444217828
 30
0.0
  0
POINT
  5
6689E
  8
DEFPOINTS
  6
CONTINUOUS
 62
     0
 10
-19473.736898222
 20
405514.48444217828
 30
0.0
  0
ENDBLK
  5
667BD
  8
0
  0
BLOCK
  8
0
  2
*D136
 70
     1
 10
0.0
 20
0.0
 30
0.0
  3
*D136
  1

  0
LINE
  5
6689F
  8
S-OBRYS
  6
CONTINUOUS
 62
     0
 10
-19065.507849406142
 20
404430.48444217828
 30
0.0
 11
-19167.93789492721
 21
404430.48444217828
 31
0.0
  0
LINE
  5
668A0
  8
S-OBRYS
  6
CONTINUOUS
 62
     0
 10
-19065.507849406142
 20
404924.48444217839
 30
0.0
 11
-19167.93789492721
 21
404924.48444217839
 31
0.0
  0
LINE
  5
668A1
  8
S-OBRYS
  6
CONTINUOUS
 62
     0
 10
-19157.93789492721
 20
404530.48444217828
 30
0.0
 11
-19157.93789492721
 21
404824.48444217839
 31
0.0
  0
INSERT
  5
668A2
  8
S-OBRYS
  6
CONTINUOUS
 62
     0
  2
_OPEN
 10
-19157.93789492721
 20
404430.48444217828
 30
0.0
 41
100.0
 42
100.0
 43
100.0
 50
270.0
  0
INSERT
  5
668A3
  8
S-OBRYS
  6
CONTINUOUS
 62
     0
  2
_OPEN
 10
-19157.93789492721
 20
404924.48444217839
 30
0.0
 41
100.0
 42
100.0
 43
100.0
 50
90.0
  0
INSERT
  5
668A4
  8
S-OBRYS
  6
CONTINUOUS
  2
*U288
 10
0.0
 20
0.0
 30
0.0
  0
POINT
  5
668A5
  8
DEFPOINTS
  6
CONTINUOUS
 62
     0
 10
-19062.35784940614
 20
404430.48444217828
 30
0.0
  0
POINT
  5
668A6
  8
DEFPOINTS
  6
CONTINUOUS
 62
     0
 10
-19062.35784940614
 20
404924.48444217839
 30
0.0
  0
POINT
  5
668A7
  8
DEFPOINTS
  6
CONTINUOUS
 62
     0
 10
-19157.93789492721
 20
404924.48444217839
 30
0.0
  0
ENDBLK
  5
667C9
  8
0
  0
BLOCK
  8
0
  2
*D137
 70
     1
 10
0.0
 20
0.0
 30
0.0
  3
*D137
  1

  0
LINE
  5
668A8
  8
S-OBRYS
  6
CONTINUOUS
 62
     0
 10
-13093.1535109376
 20
398249.474524174
 30
0.0
 11
-13093.1535109376
 21
397890.73284422542
 31
0.0
  0
LINE
  5
668A9
  8
S-OBRYS
  6
CONTINUOUS
 62
     0
 10
-12293.1535109376
 20
398249.474524174
 30
0.0
 11
-12293.1535109376
 21
397890.73284422542
 31
0.0
  0
LINE
  5
668AA
  8
S-OBRYS
  6
CONTINUOUS
 62
     0
 10
-12993.1535109376
 20
397900.73284422548
 30
0.0
 11
-12393.1535109376
 21
397900.73284422548
 31
0.0
  0
INSERT
  5
668AB
  8
S-OBRYS
  6
CONTINUOUS
 62
     0
  2
_OPEN
 10
-13093.1535109376
 20
397900.73284422548
 30
0.0
 41
100.0
 42
100.0
 43
100.0
 50
180.0
  0
INSERT
  5
668AC
  8
S-OBRYS
  6
CONTINUOUS
 62
     0
  2
_OPEN
 10
-12293.1535109376
 20
397900.73284422548
 30
0.0
 41
100.0
 42
100.0
 43
100.0
  0
INSERT
  5
668AD
  8
S-OBRYS
  6
CONTINUOUS
  2
*U289
 10
0.0
 20
0.0
 30
0.0
  0
POINT
  5
668AE
  8
DEFPOINTS
  6
CONTINUOUS
 62
     0
 10
-13093.1535109376
 20
398252.62452417403
 30
0.0
  0
POINT
  5
668AF
  8
DEFPOINTS
  6
CONTINUOUS
 62
     0
 10
-12293.1535109376
 20
398252.62452417403
 30
0.0
  0
POINT
  5
668B0
  8
DEFPOINTS
  6
CONTINUOUS
 62
     0
 10
-12293.1535109376
 20
397900.73284422548
 30
0.0
  0
ENDBLK
  5
667D5
  8
0
  0
BLOCK
  8
0
  2
*D138
 70
     1
 10
0.0
 20
0.0
 30
0.0
  3
*D138
  1

  0
LINE
  5
668B1
  8
S-OBRYS
  6
CONTINUOUS
 62
     0
 10
-12233.11619018286
 20
398309.51184492878
 30
0.0
 11
-11888.26158503355
 21
398309.51184492878
 31
0.0
  0
LINE
  5
668B2
  8
S-OBRYS
  6
CONTINUOUS
 62
     0
 10
-12233.11619018286
 20
398603.51184492878
 30
0.0
 11
-11888.26158503355
 21
398603.51184492878
 31
0.0
  0
LINE
  5
668B3
  8
S-OBRYS
  6
CONTINUOUS
 62
     0
 10
-11898.26158503355
 20
398409.51184492878
 30
0.0
 11
-11898.26158503355
 21
398503.51184492873
 31
0.0
  0
INSERT
  5
668B4
  8
S-OBRYS
  6
CONTINUOUS
 62
     0
  2
_OPEN
 10
-11898.26158503355
 20
398309.51184492878
 30
0.0
 41
100.0
 42
100.0
 43
100.0
 50
270.0
  0
INSERT
  5
668B5
  8
S-OBRYS
  6
CONTINUOUS
 62
     0
  2
_OPEN
 10
-11898.26158503355
 20
398603.51184492878
 30
0.0
 41
100.0
 42
100.0
 43
100.0
 50
90.0
  0
INSERT
  5
668B6
  8
S-OBRYS
  6
CONTINUOUS
  2
*U290
 10
0.0
 20
0.0
 30
0.0
  0
POINT
  5
668B7
  8
DEFPOINTS
  6
CONTINUOUS
 62
     0
 10
-12236.26619018286
 20
398309.51184492878
 30
0.0
  0
POINT
  5
668B8
  8
DEFPOINTS
  6
CONTINUOUS
 62
     0
 10
-12236.26619018286
 20
398603.51184492878
 30
0.0
  0
POINT
  5
668B9
  8
DEFPOINTS
  6
CONTINUOUS
 62
     0
 10
-11898.26158503355
 20
398603.51184492878
 30
0.0
  0
ENDBLK
  5
667E1
  8
0
  0
BLOCK
  8
0
  2
*D139
 70
     1
 10
0.0
 20
0.0
 30
0.0
  3
*D139
  1

  0
LINE
  5
668BA
  8
S-OBRYS
  6
CONTINUOUS
 62
     0
 10
-13573.976212232041
 20
404442.33444217831
 30
0.0
 11
-13573.976212232041
 21
403674.8829908492
 31
0.0
  0
LINE
  5
668BB
  8
S-OBRYS
  6
CONTINUOUS
 62
     0
 10
-12057.97621223201
 20
404442.33444217831
 30
0.0
 11
-12057.97621223201
 21
403674.8829908492
 31
0.0
  0
LINE
  5
668BC
  8
S-OBRYS
  6
CONTINUOUS
 62
     0
 10
-13473.976212232041
 20
403684.8829908492
 30
0.0
 11
-12157.97621223201
 21
403684.8829908492
 31
0.0
  0
INSERT
  5
668BD
  8
S-OBRYS
  6
CONTINUOUS
 62
     0
  2
_OPEN
 10
-13573.976212232041
 20
403684.8829908492
 30
0.0
 41
100.0
 42
100.0
 43
100.0
 50
180.0
  0
INSERT
  5
668BE
  8
S-OBRYS
  6
CONTINUOUS
 62
     0
  2
_OPEN
 10
-12057.97621223201
 20
403684.8829908492
 30
0.0
 41
100.0
 42
100.0
 43
100.0
  0
INSERT
  5
668BF
  8
S-OBRYS
  6
CONTINUOUS
  2
*U291
 10
0.0
 20
0.0
 30
0.0
  0
POINT
  5
668C0
  8
DEFPOINTS
  6
CONTINUOUS
 62
     0
 10
-13573.976212232041
 20
404445.48444217839
 30
0.0
  0
POINT
  5
668C1
  8
DEFPOINTS
  6
CONTINUOUS
 62
     0
 10
-12057.97621223201
 20
404445.48444217839
 30
0.0
  0
POINT
  5
668C2
  8
DEFPOINTS
  6
CONTINUOUS
 62
     0
 10
-12057.97621223201
 20
403684.8829908492
 30
0.0
  0
ENDBLK
  5
667ED
  8
0
  0
BLOCK
  8
0
  2
*D140
 70
     1
 10
0.0
 20
0.0
 30
0.0
  3
*D140
  1

  0
LINE
  5
668C3
  8
S-OBRYS
  6
CONTINUOUS
 62
     0
 10
-18759.357849406118
 20
401043.24204112153
 30
0.0
 11
-18759.357849406118
 21
401036.39204112149
 31
0.0
  0
LINE
  5
668C4
  8
S-OBRYS
  6
CONTINUOUS
 62
     0
 10
-18352.357849406151
 20
401049.54204112157
 30
0.0
 11
-18352.357849406151
 21
401056.39204112161
 31
0.0
  0
LINE
  5
668C5
  8
S-OBRYS
  6
CONTINUOUS
 62
     0
 10
-18659.357849406118
 20
401046.39204112149
 30
0.0
 11
-18452.357849406151
 21
401046.39204112149
 31
0.0
  0
INSERT
  5
668C6
  8
S-OBRYS
  6
CONTINUOUS
 62
     0
  2
_OPEN
 10
-18759.357849406118
 20
401046.39204112149
 30
0.0
 41
100.0
 42
100.0
 43
100.0
 50
180.0
  0
INSERT
  5
668C7
  8
S-OBRYS
  6
CONTINUOUS
 62
     0
  2
_OPEN
 10
-18352.357849406151
 20
401046.39204112149
 30
0.0
 41
100.0
 42
100.0
 43
100.0
  0
INSERT
  5
668C8
  8
S-OBRYS
  6
CONTINUOUS
  2
*U292
 10
0.0
 20
0.0
 30
0.0
  0
POINT
  5
668C9
  8
DEFPOINTS
  6
CONTINUOUS
 62
     0
 10
-18759.357849406118
 20
401046.39204112161
 30
0.0
  0
POINT
  5
668CA
  8
DEFPOINTS
  6
CONTINUOUS
 62
     0
 10
-18352.357849406151
 20
401046.39204112149
 30
0.0
  0
POINT
  5
668CB
  8
DEFPOINTS
  6
CONTINUOUS
 62
     0
 10
-18352.357849406151
 20
401046.39204112149
 30
0.0
  0
ENDBLK
  5
667F9
  8
0
  0
BLOCK
  8
0
  2
*D141
 70
     1
 10
0.0
 20
0.0
 30
0.0
  3
*D141
  1

  0
LINE
  5
668CC
  8
S-OBRYS
  6
CONTINUOUS
 62
     0
 10
-18352.357849406151
 20
401053.24204112153
 30
0.0
 11
-18352.357849406151
 21
401036.39204112161
 31
0.0
  0
LINE
  5
668CD
  8
S-OBRYS
  6
CONTINUOUS
 62
     0
 10
-18049.357849406129
 20
401053.24204112153
 30
0.0
 11
-18049.357849406129
 21
401036.39204112161
 31
0.0
  0
LINE
  5
668CE
  8
S-OBRYS
  6
CONTINUOUS
 62
     0
 10
-18252.357849406151
 20
401046.39204112161
 30
0.0
 11
-18149.357849406129
 21
401046.39204112161
 31
0.0
  0
LINE
  5
668CF
  8
S-OBRYS
  6
CONTINUOUS
 62
     0
 10
-18049.357849406129
 20
401046.39204112161
 30
0.0
 11
-17693.64356369184
 21
401046.39204112161
 31
0.0
  0
INSERT
  5
668D0
  8
S-OBRYS
  6
CONTINUOUS
 62
     0
  2
_OPEN
 10
-18352.357849406151
 20
401046.39204112161
 30
0.0
 41
100.0
 42
100.0
 43
100.0
 50
180.0
  0
INSERT
  5
668D1
  8
S-OBRYS
  6
CONTINUOUS
 62
     0
  2
_OPEN
 10
-18049.357849406129
 20
401046.39204112161
 30
0.0
 41
100.0
 42
100.0
 43
100.0
  0
INSERT
  5
668D2
  8
S-OBRYS
  6
CONTINUOUS
  2
*U293
 10
0.0
 20
0.0
 30
0.0
  0
POINT
  5
668D3
  8
DEFPOINTS
  6
CONTINUOUS
 62
     0
 10
-18352.357849406151
 20
401056.39204112161
 30
0.0
  0
POINT
  5
668D4
  8
DEFPOINTS
  6
CONTINUOUS
 62
     0
 10
-18049.357849406129
 20
401056.39204112149
 30
0.0
  0
POINT
  5
668D5
  8
DEFPOINTS
  6
CONTINUOUS
 62
     0
 10
-18049.357849406129
 20
401046.39204112161
 30
0.0
  0
ENDBLK
  5
66806
  8
0
  0
BLOCK
  8
0
  2
*D142
 70
     1
 10
0.0
 20
0.0
 30
0.0
  3
*D142
  1

  0
LINE
  5
668D6
  8
S-OBRYS
  6
CONTINUOUS
 62
     0
 10
-19062.35784940614
 20
397262.33444217831
 30
0.0
 11
-19062.35784940614
 21
396842.44339779922
 31
0.0
  0
LINE
  5
668D7
  8
S-OBRYS
  6
CONTINUOUS
 62
     0
 10
-18049.357849406129
 20
397262.33444217831
 30
0.0
 11
-18049.357849406129
 21
396842.44339779922
 31
0.0
  0
LINE
  5
668D8
  8
S-OBRYS
  6
CONTINUOUS
 62
     0
 10
-18962.35784940614
 20
396852.44339779922
 30
0.0
 11
-18149.357849406129
 21
396852.44339779922
 31
0.0
  0
INSERT
  5
668D9
  8
S-OBRYS
  6
CONTINUOUS
 62
     0
  2
_OPEN
 10
-19062.35784940614
 20
396852.44339779922
 30
0.0
 41
100.0
 42
100.0
 43
100.0
 50
180.0
  0
INSERT
  5
668DA
  8
S-OBRYS
  6
CONTINUOUS
 62
     0
  2
_OPEN
 10
-18049.357849406129
 20
396852.44339779922
 30
0.0
 41
100.0
 42
100.0
 43
100.0
  0
INSERT
  5
668DB
  8
S-OBRYS
  6
CONTINUOUS
  2
*U294
 10
0.0
 20
0.0
 30
0.0
  0
POINT
  5
668DC
  8
DEFPOINTS
  6
CONTINUOUS
 62
     0
 10
-19062.35784940614
 20
397265.48444217839
 30
0.0
  0
POINT
  5
668DD
  8
DEFPOINTS
  6
CONTINUOUS
 62
     0
 10
-18049.357849406129
 20
397265.48444217839
 30
0.0
  0
POINT
  5
668DE
  8
DEFPOINTS
  6
CONTINUOUS
 62
     0
 10
-18049.357849406129
 20
396852.44339779922
 30
0.0
  0
ENDBLK
  5
66812
  8
0
  0
BLOCK
  8
0
  2
*D143
 70
     1
 10
0.0
 20
0.0
 30
0.0
  3
*D143
  1

  0
LINE
  5
668DF
  8
S-OBRYS
  6
CONTINUOUS
 62
     0
 10
-19065.507849406142
 20
398445.48444217828
 30
0.0
 11
-19483.73689822201
 21
398445.48444217828
 31
0.0
  0
LINE
  5
668E0
  8
S-OBRYS
  6
CONTINUOUS
 62
     0
 10
-19065.507849406142
 20
397265.48444217839
 30
0.0
 11
-19483.73689822201
 21
397265.48444217839
 31
0.0
  0
LINE
  5
668E1
  8
S-OBRYS
  6
CONTINUOUS
 62
     0
 10
-19473.736898222
 20
398345.48444217839
 30
0.0
 11
-19473.736898222
 21
397365.48444217839
 31
0.0
  0
INSERT
  5
668E2
  8
S-OBRYS
  6
CONTINUOUS
 62
     0
  2
_OPEN
 10
-19473.736898222
 20
398445.48444217828
 30
0.0
 41
100.0
 42
100.0
 43
100.0
 50
90.0
  0
INSERT
  5
668E3
  8
S-OBRYS
  6
CONTINUOUS
 62
     0
  2
_OPEN
 10
-19473.736898222
 20
397265.48444217839
 30
0.0
 41
100.0
 42
100.0
 43
100.0
 50
270.0
  0
INSERT
  5
668E4
  8
S-OBRYS
  6
CONTINUOUS
  2
*U295
 10
0.0
 20
0.0
 30
0.0
  0
POINT
  5
668E5
  8
DEFPOINTS
  6
CONTINUOUS
 62
     0
 10
-19062.35784940614
 20
398445.48444217828
 30
0.0
  0
POINT
  5
668E6
  8
DEFPOINTS
  6
CONTINUOUS
 62
     0
 10
-19062.35784940614
 20
397265.48444217839
 30
0.0
  0
POINT
  5
668E7
  8
DEFPOINTS
  6
CONTINUOUS
 62
     0
 10
-19473.736898222
 20
397265.48444217839
 30
0.0
  0
ENDBLK
  5
6681E
  8
0
  0
BLOCK
  8
0
  2
*D144
 70
     1
 10
0.0
 20
0.0
 30
0.0
  3
*D144
  1

  0
LINE
  5
668E8
  8
S-OBRYS
  6
CONTINUOUS
 62
     0
 10
-19068.65784940614
 20
398445.48444217828
 30
0.0
 11
-19483.73689822201
 21
398445.48444217828
 31
0.0
  0
LINE
  5
668E9
  8
S-OBRYS
  6
CONTINUOUS
 62
     0
 10
-19095.507849406109
 20
400445.48444217839
 30
0.0
 11
-19483.73689822201
 21
400445.48444217839
 31
0.0
  0
LINE
  5
668EA
  8
S-OBRYS
  6
CONTINUOUS
 62
     0
 10
-19473.736898222
 20
398545.48444217828
 30
0.0
 11
-19473.736898222
 21
400345.48444217828
 31
0.0
  0
INSERT
  5
668EB
  8
S-OBRYS
  6
CONTINUOUS
 62
     0
  2
_OPEN
 10
-19473.736898222
 20
398445.48444217828
 30
0.0
 41
100.0
 42
100.0
 43
100.0
 50
270.0
  0
INSERT
  5
668EC
  8
S-OBRYS
  6
CONTINUOUS
 62
     0
  2
_OPEN
 10
-19473.736898222
 20
400445.48444217839
 30
0.0
 41
100.0
 42
100.0
 43
100.0
 50
90.0
  0
INSERT
  5
668ED
  8
S-OBRYS
  6
CONTINUOUS
  2
*U296
 10
0.0
 20
0.0
 30
0.0
  0
POINT
  5
668EE
  8
DEFPOINTS
  6
CONTINUOUS
 62
     0
 10
-19065.507849406142
 20
398445.48444217828
 30
0.0
  0
POINT
  5
668EF
  8
DEFPOINTS
  6
CONTINUOUS
 62
     0
 10
-19092.357849406111
 20
400445.48444217839
 30
0.0
  0
POINT
  5
668F0
  8
DEFPOINTS
  6
CONTINUOUS
 62
     0
 10
-19473.736898222
 20
400445.48444217839
 30
0.0
  0
ENDBLK
  5
6682A
  8
0
  0
BLOCK
  8
0
  2
*D145
 70
     1
 10
0.0
 20
0.0
 30
0.0
  3
*D145
  1

  0
LINE
  5
668F1
  8
S-OBRYS
  6
CONTINUOUS
 62
     0
 10
-19098.65784940611
 20
400445.48444217839
 30
0.0
 11
-19483.73689822201
 21
400445.48444217839
 31
0.0
  0
LINE
  5
668F2
  8
S-OBRYS
  6
CONTINUOUS
 62
     0
 10
-19095.507849406109
 20
402445.48444217828
 30
0.0
 11
-19483.73689822201
 21
402445.48444217828
 31
0.0
  0
LINE
  5
668F3
  8
S-OBRYS
  6
CONTINUOUS
 62
     0
 10
-19473.73689822201
 20
400545.48444217828
 30
0.0
 11
-19473.736898222
 21
402345.48444217839
 31
0.0
  0
INSERT
  5
668F4
  8
S-OBRYS
  6
CONTINUOUS
 62
     0
  2
_OPEN
 10
-19473.73689822201
 20
400445.48444217839
 30
0.0
 41
100.0
 42
100.0
 43
100.0
 50
270.0
  0
INSERT
  5
668F5
  8
S-OBRYS
  6
CONTINUOUS
 62
     0
  2
_OPEN
 10
-19473.736898222
 20
402445.48444217828
 30
0.0
 41
100.0
 42
100.0
 43
100.0
 50
90.0
  0
INSERT
  5
668F6
  8
S-OBRYS
  6
CONTINUOUS
  2
*U297
 10
0.0
 20
0.0
 30
0.0
  0
POINT
  5
668F7
  8
DEFPOINTS
  6
CONTINUOUS
 62
     0
 10
-19095.507849406109
 20
400445.48444217839
 30
0.0
  0
POINT
  5
668F8
  8
DEFPOINTS
  6
CONTINUOUS
 62
     0
 10
-19092.357849406111
 20
402445.48444217828
 30
0.0
  0
POINT
  5
668F9
  8
DEFPOINTS
  6
CONTINUOUS
 62
     0
 10
-19473.736898222
 20
402445.48444217828
 30
0.0
  0
ENDBLK
  5
66836
  8
0
  0
BLOCK
  8
0
  2
*D146
 70
     1
 10
0.0
 20
0.0
 30
0.0
  3
*D146
  1

  0
LINE
  5
668FA
  8
S-OBRYS
  6
CONTINUOUS
 62
     0
 10
-19098.65784940611
 20
402445.48444217828
 30
0.0
 11
-19483.73689822201
 21
402445.48444217828
 31
0.0
  0
LINE
  5
668FB
  8
S-OBRYS
  6
CONTINUOUS
 62
     0
 10
-19098.65784940611
 20
404430.48444217828
 30
0.0
 11
-19483.73689822201
 21
404430.48444217828
 31
0.0
  0
LINE
  5
668FC
  8
S-OBRYS
  6
CONTINUOUS
 62
     0
 10
-19473.736898222
 20
402545.48444217828
 30
0.0
 11
-19473.736898222
 21
404330.48444217839
 31
0.0
  0
INSERT
  5
668FD
  8
S-OBRYS
  6
CONTINUOUS
 62
     0
  2
_OPEN
 10
-19473.736898222
 20
402445.48444217828
 30
0.0
 41
100.0
 42
100.0
 43
100.0
 50
270.0
  0
INSERT
  5
668FE
  8
S-OBRYS
  6
CONTINUOUS
 62
     0
  2
_OPEN
 10
-19473.736898222
 20
404430.48444217828
 30
0.0
 41
100.0
 42
100.0
 43
100.0
 50
90.0
  0
INSERT
  5
668FF
  8
S-OBRYS
  6
CONTINUOUS
  2
*U298
 10
0.0
 20
0.0
 30
0.0
  0
POINT
  5
66900
  8
DEFPOINTS
  6
CONTINUOUS
 62
     0
 10
-19095.507849406109
 20
402445.48444217828
 30
0.0
  0
POINT
  5
66901
  8
DEFPOINTS
  6
CONTINUOUS
 62
     0
 10
-19095.507849406109
 20
404430.48444217828
 30
0.0
  0
POINT
  5
66902
  8
DEFPOINTS
  6
CONTINUOUS
 62
     0
 10
-19473.736898222
 20
404430.48444217828
 30
0.0
  0
ENDBLK
  5
66842
  8
0
  0
BLOCK
  8
0
  2
*D147
 70
     1
 10
0.0
 20
0.0
 30
0.0
  3
*D147
  1

  0
LINE
  5
66903
  8
S-OBRYS
  6
CONTINUOUS
 62
     0
 10
-16336.26780145611
 20
401031.20201443351
 30
0.0
 11
-16336.26780145611
 21
401024.35201443342
 31
0.0
  0
LINE
  5
66904
  8
S-OBRYS
  6
CONTINUOUS
 62
     0
 10
-16103.26780145611
 20
401037.5020144335
 30
0.0
 11
-16103.26780145611
 21
401044.35201443348
 31
0.0
  0
LINE
  5
66905
  8
S-OBRYS
  6
CONTINUOUS
 62
     0
 10
-16436.26780145611
 20
401034.35201443342
 30
0.0
 11
-16536.26780145611
 21
401034.35201443342
 31
0.0
  0
LINE
  5
66906
  8
S-OBRYS
  6
CONTINUOUS
 62
     0
 10
-16003.26780145611
 20
401034.35201443342
 30
0.0
 11
-15647.55351574182
 21
401034.35201443342
 31
0.0
  0
LINE
  5
66907
  8
S-OBRYS
  6
CONTINUOUS
 62
     0
 10
-16336.26780145611
 20
401034.35201443342
 30
0.0
 11
-16103.26780145611
 21
401034.35201443342
 31
0.0
  0
INSERT
  5
66908
  8
S-OBRYS
  6
CONTINUOUS
 62
     0
  2
_OPEN
 10
-16336.26780145611
 20
401034.35201443342
 30
0.0
 41
100.0
 42
100.0
 43
100.0
  0
INSERT
  5
66909
  8
S-OBRYS
  6
CONTINUOUS
 62
     0
  2
_OPEN
 10
-16103.26780145611
 20
401034.35201443342
 30
0.0
 41
100.0
 42
100.0
 43
100.0
 50
180.0
  0
INSERT
  5
6690A
  8
S-OBRYS
  6
CONTINUOUS
  2
*U299
 10
0.0
 20
0.0
 30
0.0
  0
POINT
  5
6690B
  8
DEFPOINTS
  6
CONTINUOUS
 62
     0
 10
-16336.26780145611
 20
401034.35201443348
 30
0.0
  0
POINT
  5
6690C
  8
DEFPOINTS
  6
CONTINUOUS
 62
     0
 10
-16103.26780145611
 20
401034.35201443342
 30
0.0
  0
POINT
  5
6690D
  8
DEFPOINTS
  6
CONTINUOUS
 62
     0
 10
-16103.26780145611
 20
401034.35201443342
 30
0.0
  0
ENDBLK
  5
66850
  8
0
  0
BLOCK
  8
0
  2
*D148
 70
     1
 10
0.0
 20
0.0
 30
0.0
  3
*D148
  1

  0
LINE
  5
6690E
  8
S-OBRYS
  6
CONTINUOUS
 62
     0
 10
-15946.652902694181
 20
404949.48444217828
 30
0.0
 11
-15615.21159132779
 21
404949.48444217828
 31
0.0
  0
LINE
  5
6690F
  8
S-OBRYS
  6
CONTINUOUS
 62
     0
 10
-15946.652902694181
 20
404899.48444217828
 30
0.0
 11
-15615.21159132779
 21
404899.48444217828
 31
0.0
  0
LINE
  5
66910
  8
S-OBRYS
  6
CONTINUOUS
 62
     0
 10
-15625.21159132779
 20
405049.48444217828
 30
0.0
 11
-15625.21159132779
 21
405149.48444217828
 31
0.0
  0
LINE
  5
66911
  8
S-OBRYS
  6
CONTINUOUS
 62
     0
 10
-15625.21159132779
 20
404799.48444217828
 30
0.0
 11
-15625.21159132779
 21
404447.57968027348
 31
0.0
  0
LINE
  5
66912
  8
S-OBRYS
  6
CONTINUOUS
 62
     0
 10
-15625.21159132779
 20
404949.48444217828
 30
0.0
 11
-15625.21159132779
 21
404899.48444217828
 31
0.0
  0
INSERT
  5
66913
  8
S-OBRYS
  6
CONTINUOUS
 62
     0
  2
_OPEN
 10
-15625.21159132779
 20
404949.48444217828
 30
0.0
 41
100.0
 42
100.0
 43
100.0
 50
270.0
  0
INSERT
  5
66914
  8
S-OBRYS
  6
CONTINUOUS
 62
     0
  2
_OPEN
 10
-15625.21159132779
 20
404899.48444217828
 30
0.0
 41
100.0
 42
100.0
 43
100.0
 50
90.0
  0
INSERT
  5
66915
  8
S-OBRYS
  6
CONTINUOUS
  2
*U300
 10
0.0
 20
0.0
 30
0.0
  0
POINT
  5
66916
  8
DEFPOINTS
  6
CONTINUOUS
 62
     0
 10
-15949.80290269418
 20
404949.48444217828
 30
0.0
  0
POINT
  5
66917
  8
DEFPOINTS
  6
CONTINUOUS
 62
     0
 10
-15949.80290269418
 20
404899.48444217828
 30
0.0
  0
POINT
  5
66918
  8
DEFPOINTS
  6
CONTINUOUS
 62
     0
 10
-15625.21159132779
 20
404899.48444217828
 30
0.0
  0
ENDBLK
  5
6685E
  8
0
  0
BLOCK
  8
0
  2
*D149
 70
     1
 10
0.0
 20
0.0
 30
0.0
  3
*D149
  1

  0
LINE
  5
66919
  8
S-OBRYS
  6
CONTINUOUS
 62
     0
 10
-16395.76780145611
 20
397265.0972716785
 30
0.0
 11
-16395.76780145611
 21
396858.71452534839
 31
0.0
  0
LINE
  5
6691A
  8
S-OBRYS
  6
CONTINUOUS
 62
     0
 10
-16043.76780145611
 20
397265.0972716785
 30
0.0
 11
-16043.76780145611
 21
396858.71452534839
 31
0.0
  0
LINE
  5
6691B
  8
S-OBRYS
  6
CONTINUOUS
 62
     0
 10
-16295.76780145611
 20
396868.71452534839
 30
0.0
 11
-16143.76780145611
 21
396868.71452534839
 31
0.0
  0
INSERT
  5
6691C
  8
S-OBRYS
  6
CONTINUOUS
 62
     0
  2
_OPEN
 10
-16395.76780145611
 20
396868.71452534839
 30
0.0
 41
100.0
 42
100.0
 43
100.0
 50
180.0
  0
INSERT
  5
6691D
  8
S-OBRYS
  6
CONTINUOUS
 62
     0
  2
_OPEN
 10
-16043.76780145611
 20
396868.71452534839
 30
0.0
 41
100.0
 42
100.0
 43
100.0
  0
INSERT
  5
6691E
  8
S-OBRYS
  6
CONTINUOUS
  2
*U301
 10
0.0
 20
0.0
 30
0.0
  0
POINT
  5
6691F
  8
DEFPOINTS
  6
CONTINUOUS
 62
     0
 10
-16395.76780145611
 20
397268.24727167853
 30
0.0
  0
POINT
  5
66920
  8
DEFPOINTS
  6
CONTINUOUS
 62
     0
 10
-16043.76780145611
 20
397268.24727167853
 30
0.0
  0
POINT
  5
66921
  8
DEFPOINTS
  6
CONTINUOUS
 62
     0
 10
-16043.76780145611
 20
396868.71452534839
 30
0.0
  0
ENDBLK
  5
6686A
  8
0
  0
BLOCK
  8
0
  2
*D150
 70
     1
 10
0.0
 20
0.0
 30
0.0
  3
*D150
  1

  0
LINE
  5
66922
  8
S-OBRYS
  6
CONTINUOUS
 62
     0
 10
-12063.993705886591
 20
401917.68245695648
 30
0.0
 11
-11798.126084198941
 21
401917.68245695648
 31
0.0
  0
LINE
  5
66923
  8
S-OBRYS
  6
CONTINUOUS
 62
     0
 10
-12063.993705886591
 20
401677.68245695642
 30
0.0
 11
-11798.126084198941
 21
401677.68245695642
 31
0.0
  0
LINE
  5
66924
  8
S-OBRYS
  6
CONTINUOUS
 62
     0
 10
-11808.126084198941
 20
402017.68245695642
 30
0.0
 11
-11808.126084198941
 21
402117.68245695648
 31
0.0
  0
LINE
  5
66925
  8
S-OBRYS
  6
CONTINUOUS
 62
     0
 10
-11808.126084198941
 20
401577.68245695648
 30
0.0
 11
-11808.126084198941
 21
401221.96817124222
 31
0.0
  0
LINE
  5
66926
  8
S-OBRYS
  6
CONTINUOUS
 62
     0
 10
-11808.126084198941
 20
401917.68245695648
 30
0.0
 11
-11808.126084198941
 21
401677.68245695642
 31
0.0
  0
INSERT
  5
66927
  8
S-OBRYS
  6
CONTINUOUS
 62
     0
  2
_OPEN
 10
-11808.126084198941
 20
401917.68245695648
 30
0.0
 41
100.0
 42
100.0
 43
100.0
 50
270.0
  0
INSERT
  5
66928
  8
S-OBRYS
  6
CONTINUOUS
 62
     0
  2
_OPEN
 10
-11808.126084198941
 20
401677.68245695642
 30
0.0
 41
100.0
 42
100.0
 43
100.0
 50
90.0
  0
INSERT
  5
66929
  8
S-OBRYS
  6
CONTINUOUS
  2
*U302
 10
0.0
 20
0.0
 30
0.0
  0
POINT
  5
6692A
  8
DEFPOINTS
  6
CONTINUOUS
 62
     0
 10
-12067.14370588659
 20
401917.68245695648
 30
0.0
  0
POINT
  5
6692B
  8
DEFPOINTS
  6
CONTINUOUS
 62
     0
 10
-12067.14370588659
 20
401677.68245695642
 30
0.0
  0
POINT
  5
6692C
  8
DEFPOINTS
  6
CONTINUOUS
 62
     0
 10
-11808.126084198941
 20
401677.68245695642
 30
0.0
  0
ENDBLK
  5
66878
  8
0
  0
BLOCK
  8
0
  2
*U151
 70
     1
 10
0.0
 20
0.0
 30
0.0
  3
*U151
  1

  0
TEXT
  5
66F2C
  8
S-OBRYS
  6
CONTINUOUS
 10
-16.449777305735289
 20
47.447339193138752
 30
0.0
 40
80.0
  1
1b
  7
R
  0
ENDBLK
  5
66F2E
  8
0
  0
BLOCK
  8
0
  2
*U152
 70
     1
 10
0.0
 20
0.0
 30
0.0
  3
*U152
  1

  0
TEXT
  5
66F30
  8
S-OBRYS
  6
CONTINUOUS
 10
23.348488544496441
 20
49.591841048852068
 30
0.0
 40
20.0
  1
1a
  7
R
  0
ENDBLK
  5
66F32
  8
0
  0
BLOCK
  8
0
  2
*U153
 70
     1
 10
0.0
 20
0.0
 30
0.0
  3
*U153
  1

  0
TEXT
  5
66F34
  8
S-OBRYS
  6
CONTINUOUS
 10
-3.9222036020662499
 20
557.31871110200882
 30
0.0
 40
100.0
  1
příruba prosévačka
  7
R
  0
ENDBLK
  5
66F36
  8
0
  0
BLOCK
  8
0
  2
*U154
 70
     1
 10
0.0
 20
0.0
 30
0.0
  3
*U154
  1

  0
SOLID
  5
6710E
  8
S-OBRYS
  6
CONTINUOUS
 10
0.0000000000009095
 20
139.99744886101851
 30
0.0
 11
-18.32564214838867
 21
132.40671934395951
 31
0.0
 12
0.0000000000008972
 22
132.40671934395951
 32
0.0
 13
0.0000000000008972
 23
132.40671934395951
 33
0.0
210
0.0
220
0.0
230
1.0
  0
SOLID
  5
6710F
  8
S-OBRYS
  6
CONTINUOUS
 10
0.0000000000009332
 20
139.99744886101851
 30
0.0
 11
0.0000000000009263
 21
132.40671934395951
 31
0.0
 12
45.472905011396342
 22
132.40671934395951
 32
0.0
 13
45.472905011396342
 23
132.40671934395951
 33
0.0
210
0.0
220
0.0
230
1.0
  0
SOLID
  5
67110
  8
S-OBRYS
  6
CONTINUOUS
 10
-18.32564214838867
 20
132.40671934395951
 30
0.0
 11
-51.120036686711217
 21
118.82283635637209
 31
0.0
 12
0.0000000000008752
 22
118.82283635637209
 32
0.0
 13
0.0000000000008752
 23
118.82283635637209
 33
0.0
  0
SOLID
  5
67111
  8
S-OBRYS
  6
CONTINUOUS
 10
18.32564214838867
 20
132.40671934395951
 30
0.0
 11
-0.0000000000008972
 21
132.40671934395951
 31
0.0
 12
-0.0000000000008752
 22
118.82283635637209
 32
0.0
 13
-0.0000000000008752
 23
118.82283635637209
 33
0.0
210
0.0
220
0.0
230
-1.0
  0
SOLID
  5
67112
  8
S-OBRYS
  6
CONTINUOUS
 10
0.0000000000009263
 20
132.40671934395951
 30
0.0
 11
0.0000000000009141
 21
118.82283635637209
 31
0.0
 12
70.563549776822697
 22
118.82283635637209
 32
0.0
 13
70.563549776822697
 23
118.82283635637209
 33
0.0
  0
SOLID
  5
67113
  8
S-OBRYS
  6
CONTINUOUS
 10
-0.0000000000009263
 20
132.40671934395951
 30
0.0
 11
-45.472905011396342
 21
132.40671934395951
 31
0.0
 12
-70.563549776822697
 22
118.82283635637209
 32
0.0
 13
-70.563549776822697
 23
118.82283635637209
 33
0.0
210
0.0
220
0.0
230
-1.0
  0
SOLID
  5
67114
  8
S-OBRYS
  6
CONTINUOUS
 10
-51.120036686711217
 20
118.82283635637209
 30
0.0
 11
-63.634272730830311
 21
113.6392700641597
 31
0.0
 12
0.0000000000008669
 22
113.6392700641597
 32
0.0
 13
0.0000000000008669
 23
113.6392700641597
 33
0.0
210
0.0
220
0.0
230
1.0
  0
SOLID
  5
67115
  8
S-OBRYS
  6
CONTINUOUS
 10
51.120036686711217
 20
118.82283635637209
 30
0.0
 11
-0.0000000000008752
 21
118.82283635637209
 31
0.0
 12
-0.0000000000008669
 22
113.6392700641597
 32
0.0
 13
-0.0000000000008669
 23
113.6392700641597
 33
0.0
210
0.0
220
0.0
230
-1.0
  0
SOLID
  5
67116
  8
S-OBRYS
  6
CONTINUOUS
 10
-0.0000000000009141
 20
118.82283635637209
 30
0.0
 11
-43.257964790378153
 21
118.82283635637209
 31
0.0
 12
-0.0000000000008669
 22
113.6392700641597
 32
0.0
 13
-0.0000000000008669
 23
113.6392700641597
 33
0.0
210
0.0
220
0.0
230
-1.0
  0
SOLID
  5
67117
  8
S-OBRYS
  6
CONTINUOUS
 10
43.257964790378153
 20
118.82283635637209
 30
0.0
 11
69.752660745180563
 21
113.6392700641597
 31
0.0
 12
80.138059552472512
 22
113.6392700641597
 32
0.0
 13
80.138059552472512
 23
113.6392700641597
 33
0.0
210
0.0
220
0.0
230
1.0
  0
SOLID
  5
67118
  8
S-OBRYS
  6
CONTINUOUS
 10
-43.257964790378153
 20
118.82283635637209
 30
0.0
 11
-70.563549776822697
 21
118.82283635637209
 31
0.0
 12
-80.138059552472512
 22
113.6392700641597
 32
0.0
 13
-80.138059552472512
 23
113.6392700641597
 33
0.0
210
0.0
220
0.0
230
-1.0
  0
SOLID
  5
67119
  8
S-OBRYS
  6
CONTINUOUS
 10
-63.634272730830311
 20
113.6392700641597
 30
0.0
 11
-71.315354411059985
 21
110.45766185851311
 31
0.0
 12
-5.0574841518304217
 22
110.45766185851311
 32
0.0
 13
-5.0574841518304217
 23
110.45766185851311
 33
0.0
210
0.0
220
0.0
230
1.0
  0
SOLID
  5
6711A
  8
S-OBRYS
  6
CONTINUOUS
 10
63.634272730830311
 20
113.6392700641597
 30
0.0
 11
-0.0000000000009095
 21
113.6392700641597
 31
0.0
 12
5.0574841518304217
 22
110.45766185851311
 32
0.0
 13
5.0574841518304217
 23
110.45766185851311
 33
0.0
210
0.0
220
0.0
230
-1.0
  0
SOLID
  5
6711B
  8
S-OBRYS
  6
CONTINUOUS
 10
-69.752660745180563
 20
113.6392700641597
 30
0.0
 11
-80.138059552472512
 21
113.6392700641597
 31
0.0
 12
-86.014773989985784
 22
110.45766185851311
 32
0.0
 13
-86.014773989985784
 23
110.45766185851311
 33
0.0
210
0.0
220
0.0
230
-1.0
  0
SOLID
  5
6711C
  8
S-OBRYS
  6
CONTINUOUS
 10
-71.315354411059985
 20
110.45766185851311
 30
0.0
 11
-98.994949366115677
 21
98.992398227135112
 31
0.0
 12
-23.282666312648029
 22
98.992398227135112
 32
0.0
 13
-23.282666312648029
 23
98.992398227135112
 33
0.0
210
0.0
220
0.0
230
1.0
  0
SOLID
  5
6711D
  8
S-OBRYS
  6
CONTINUOUS
 10
71.315354411059985
 20
110.45766185851311
 30
0.0
 11
5.0574841518304217
 21
110.45766185851311
 31
0.0
 12
23.282666312648029
 22
98.992398227135112
 32
0.0
 13
23.282666312648029
 23
98.992398227135112
 33
0.0
210
0.0
220
0.0
230
-1.0
  0
SOLID
  5
6711E
  8
S-OBRYS
  6
CONTINUOUS
 10
-98.994949366115677
 20
98.992398227135112
 30
0.0
 11
-110.3533115346694
 21
71.570886233467292
 31
0.0
 12
-66.871899607022399
 22
71.570886233467292
 32
0.0
 13
-66.871899607022399
 23
71.570886233467292
 33
0.0
210
0.0
220
0.0
230
1.0
  0
SOLID
  5
6711F
  8
S-OBRYS
  6
CONTINUOUS
 10
98.994949366115677
 20
98.992398227135112
 30
0.0
 11
23.282666312648029
 21
98.992398227135112
 31
0.0
 12
66.871899607022399
 22
71.570886233467292
 32
0.0
 13
66.871899607022399
 23
71.570886233467292
 33
0.0
210
0.0
220
0.0
230
-1.0
  0
SOLID
  5
67120
  8
S-OBRYS
  6
CONTINUOUS
 10
-110.3533115346694
 20
71.570886233467292
 30
0.0
 11
-139.99999999999909
 21
-0.0025511389815165
 31
0.0
 12
-100.3210092793351
 22
-0.0025511389815165
 32
0.0
 13
-100.3210092793351
 23
-0.0025511389815165
 33
0.0
210
0.0
220
0.0
230
1.0
  0
SOLID
  5
67121
  8
S-OBRYS
  6
CONTINUOUS
 10
110.3533115346694
 20
71.570886233467292
 30
0.0
 11
66.871899607022399
 21
71.570886233467292
 31
0.0
 12
100.3210092793351
 22
-0.0025511389815165
 32
0.0
 13
100.3210092793351
 23
-0.0025511389815165
 33
0.0
210
0.0
220
0.0
230
-1.0
  0
SOLID
  5
67122
  8
S-OBRYS
  6
CONTINUOUS
 10
-139.99999999999909
 20
-0.0025511389815165
 30
0.0
 11
-139.99999999999909
 21
-0.0025511389815165
 31
0.0
 12
-100.3210092793351
 22
-0.0025511389815165
 32
0.0
 13
-100.3210092793351
 23
-0.0025511389815165
 33
0.0
210
0.0
220
0.0
230
1.0
  0
SOLID
  5
67123
  8
S-OBRYS
  6
CONTINUOUS
 10
-139.99999999999909
 20
-0.0025511389815165
 30
0.0
 11
-139.99999999999909
 21
-0.0025511389815165
 31
0.0
 12
-100.3210092793351
 22
-0.0025511389815165
 32
0.0
 13
-100.3210092793351
 23
-0.0025511389815165
 33
0.0
210
0.0
220
0.0
230
1.0
  0
SOLID
  5
67124
  8
S-OBRYS
  6
CONTINUOUS
 10
-139.99999999999909
 20
-0.0025511389815165
 30
0.0
 11
-117.02828563153059
 21
-72.883147809960434
 31
0.0
 12
-91.980753483793407
 22
-72.883147809960434
 32
0.0
 13
-91.980753483793407
 23
-72.883147809960434
 33
0.0
210
0.0
220
0.0
230
1.0
  0
SOLID
  5
67125
  8
S-OBRYS
  6
CONTINUOUS
 10
139.99999999999909
 20
-0.0025511389815165
 30
0.0
 11
100.3210092793351
 21
-0.0025511389815165
 31
0.0
 12
91.980753483793407
 22
-72.883147809960434
 32
0.0
 13
91.980753483793407
 23
-72.883147809960434
 33
0.0
210
0.0
220
0.0
230
-1.0
  0
SOLID
  5
67126
  8
S-OBRYS
  6
CONTINUOUS
 10
-117.02828563153059
 20
-72.883147809960434
 30
0.0
 11
-114.69621614817829
 21
-80.281925833171329
 31
0.0
 12
-86.424720604643284
 22
-80.281925833171329
 32
0.0
 13
-86.424720604643284
 23
-80.281925833171329
 33
0.0
  0
SOLID
  5
67127
  8
S-OBRYS
  6
CONTINUOUS
 10
117.02828563153059
 20
-72.883147809960434
 30
0.0
 11
91.980753483793407
 21
-72.883147809960434
 31
0.0
 12
86.424720604643284
 22
-80.281925833171329
 32
0.0
 13
86.424720604643284
 23
-80.281925833171329
 33
0.0
210
0.0
220
0.0
230
-1.0
  0
SOLID
  5
67128
  8
S-OBRYS
  6
CONTINUOUS
 10
114.69621614817829
 20
-80.281925833171329
 30
0.0
 11
86.424720604643284
 21
-80.281925833171329
 31
0.0
 12
47.931742838711259
 22
-131.54170131277371
 32
0.0
 13
47.931742838711259
 23
-131.54170131277371
 33
0.0
210
0.0
220
0.0
230
-1.0
  0
LINE
  5
67129
  8
S-OBRYS
  6
CONTINUOUS
 10
0.0000000000008972
 20
132.40671934395951
 30
0.0
 11
0.0000000000009095
 21
139.99744886101851
 31
0.0
  0
LINE
  5
6712A
  8
S-OBRYS
  6
CONTINUOUS
 10
0.0000000000009332
 20
139.99744886101851
 30
0.0
 11
0.0000000000009263
 21
132.40671934395951
 31
0.0
  0
LINE
  5
6712B
  8
S-OBRYS
  6
CONTINUOUS
 10
-18.32564214838867
 20
132.40671934395951
 30
0.0
 11
-51.120036686711217
 21
118.82283635637209
 31
0.0
  0
LINE
  5
6712C
  8
S-OBRYS
  6
CONTINUOUS
 10
0.0000000000008972
 20
132.40671934395951
 30
0.0
 11
0.0000000000008752
 21
118.82283635637209
 31
0.0
  0
LINE
  5
6712D
  8
S-OBRYS
  6
CONTINUOUS
 10
0.0000000000009263
 20
132.40671934395951
 30
0.0
 11
0.0000000000009141
 21
118.82283635637209
 31
0.0
  0
LINE
  5
6712E
  8
S-OBRYS
  6
CONTINUOUS
 10
45.472905011396342
 20
132.40671934395951
 30
0.0
 11
70.563549776822697
 21
118.82283635637209
 31
0.0
  0
LINE
  5
6712F
  8
S-OBRYS
  6
CONTINUOUS
 10
-51.120036686711217
 20
118.82283635637209
 30
0.0
 11
-63.634272730830311
 21
113.6392700641597
 31
0.0
  0
LINE
  5
67130
  8
S-OBRYS
  6
CONTINUOUS
 10
43.257964790378153
 20
118.82283635637209
 30
0.0
 11
0.0000000000008669
 21
113.6392700641597
 31
0.0
  0
LINE
  5
67131
  8
S-OBRYS
  6
CONTINUOUS
 10
0.0000000000008669
 20
113.6392700641597
 30
0.0
 11
0.0000000000009141
 21
118.82283635637209
 31
0.0
  0
LINE
  5
67132
  8
S-OBRYS
  6
CONTINUOUS
 10
70.563549776822697
 20
118.82283635637209
 30
0.0
 11
80.138059552472512
 21
113.6392700641597
 31
0.0
  0
LINE
  5
67133
  8
S-OBRYS
  6
CONTINUOUS
 10
-63.634272730830311
 20
113.6392700641597
 30
0.0
 11
-71.315354411059985
 21
110.45766185851311
 31
0.0
  0
LINE
  5
67134
  8
S-OBRYS
  6
CONTINUOUS
 10
0.0000000000009095
 20
113.6392700641597
 30
0.0
 11
-5.0574841518304217
 21
110.45766185851311
 31
0.0
  0
LINE
  5
67135
  8
S-OBRYS
  6
CONTINUOUS
 10
80.138059552472512
 20
113.6392700641597
 30
0.0
 11
86.014773989985784
 21
110.45766185851311
 31
0.0
  0
LINE
  5
67136
  8
S-OBRYS
  6
CONTINUOUS
 10
86.014773989985784
 20
110.45766185851311
 30
0.0
 11
69.752660745180563
 21
113.6392700641597
 31
0.0
  0
LINE
  5
67137
  8
S-OBRYS
  6
CONTINUOUS
 10
-71.315354411059985
 20
110.45766185851311
 30
0.0
 11
-98.994949366115677
 21
98.992398227135112
 31
0.0
  0
LINE
  5
67138
  8
S-OBRYS
  6
CONTINUOUS
 10
-5.0574841518304217
 20
110.45766185851311
 30
0.0
 11
-23.282666312648029
 21
98.992398227135112
 31
0.0
  0
LINE
  5
67139
  8
S-OBRYS
  6
CONTINUOUS
 10
-98.994949366115677
 20
98.992398227135112
 30
0.0
 11
-110.3533115346694
 21
71.570886233467292
 31
0.0
  0
LINE
  5
6713A
  8
S-OBRYS
  6
CONTINUOUS
 10
-23.282666312648029
 20
98.992398227135112
 30
0.0
 11
-66.871899607022399
 21
71.570886233467292
 31
0.0
  0
LINE
  5
6713B
  8
S-OBRYS
  6
CONTINUOUS
 10
-110.3533115346694
 20
71.570886233467292
 30
0.0
 11
-139.99999999999909
 21
-0.0025511389815165
 31
0.0
  0
LINE
  5
6713C
  8
S-OBRYS
  6
CONTINUOUS
 10
-66.871899607022399
 20
71.570886233467292
 30
0.0
 11
-100.3210092793351
 21
-0.0025511389815165
 31
0.0
  0
LINE
  5
6713D
  8
S-OBRYS
  6
CONTINUOUS
 10
-139.99999999999909
 20
-0.0025511389815165
 30
0.0
 11
-100.3210092793351
 21
-0.0025511389815165
 31
0.0
  0
LINE
  5
6713E
  8
S-OBRYS
  6
CONTINUOUS
 10
-139.99999999999909
 20
-0.0025511389815165
 30
0.0
 11
-100.3210092793351
 21
-0.0025511389815165
 31
0.0
  0
LINE
  5
6713F
  8
S-OBRYS
  6
CONTINUOUS
 10
-139.99999999999909
 20
-0.0025511389815165
 30
0.0
 11
-117.02828563153059
 21
-72.883147809960434
 31
0.0
  0
LINE
  5
67140
  8
S-OBRYS
  6
CONTINUOUS
 10
-100.3210092793351
 20
-0.0025511389815165
 30
0.0
 11
-91.980753483793407
 21
-72.883147809960434
 31
0.0
  0
LINE
  5
67141
  8
S-OBRYS
  6
CONTINUOUS
 10
-117.02828563153059
 20
-72.883147809960434
 30
0.0
 11
-114.69621614817829
 21
-80.281925833171329
 31
0.0
  0
LINE
  5
67142
  8
S-OBRYS
  6
CONTINUOUS
 10
-91.980753483793407
 20
-72.883147809960434
 30
0.0
 11
-86.424720604643284
 21
-80.281925833171329
 31
0.0
  0
LINE
  5
67143
  8
S-OBRYS
  6
CONTINUOUS
 10
-86.424720604643284
 20
-80.281925833171329
 30
0.0
 11
-47.931742838711259
 21
-131.54170131277371
 31
0.0
  0
LINE
  5
67144
  8
S-OBRYS
  6
CONTINUOUS
 10
-47.931742838711259
 20
-131.54170131277371
 30
0.0
 11
-114.69621614817829
 21
-80.281925833171329
 31
0.0
  0
ENDBLK
  5
67146
  8
0
  0
BLOCK
  8
0
  2
*U155
 70
     1
 10
0.0
 20
0.0
 30
0.0
  3
*U155
  1

  0
SOLID
  5
67151
  8
S-OBRYS
  6
CONTINUOUS
 10
2000.0000000000421
 20
549.9974488602569
 30
0.0
 11
2000.0000000000421
 21
-0.0025511389934536
 31
0.0
 12
2012.2676761359601
 22
-0.0025511389934536
 32
0.0
 13
2012.2676761359601
 23
-0.0025511389934536
 33
0.0
210
0.0
220
0.0
230
1.0
  0
SOLID
  5
67152
  8
S-OBRYS
  6
CONTINUOUS
 10
2000.0000000000421
 20
-0.0025511389934536
 30
0.0
 11
2000.0000000000421
 21
-0.0025511389934536
 31
0.0
 12
2012.2676761359601
 22
-0.0025511389934536
 32
0.0
 13
2012.2676761359601
 23
-0.0025511389934536
 33
0.0
210
0.0
220
0.0
230
1.0
  0
SOLID
  5
67153
  8
S-OBRYS
  6
CONTINUOUS
 10
2000.0000000000421
 20
-0.0025511389934536
 30
0.0
 11
2000.0000000000421
 21
-0.0025511389934536
 31
0.0
 12
2012.2676761359601
 22
-0.0025511389934536
 32
0.0
 13
2012.2676761359601
 23
-0.0025511389934536
 33
0.0
210
0.0
220
0.0
230
1.0
  0
SOLID
  5
67154
  8
S-OBRYS
  6
CONTINUOUS
 10
2000.0000000000421
 20
-0.0025511389934536
 30
0.0
 11
2000.0000000000421
 21
-526.00255113898993
 31
0.0
 12
2024.0000354950589
 22
-526.00255113898993
 32
0.0
 13
2024.0000354950589
 23
-526.00255113898993
 33
0.0
210
0.0
220
0.0
230
1.0
  0
SOLID
  5
67155
  8
S-OBRYS
  6
CONTINUOUS
 10
-2000.0000000000421
 20
-0.0025511389934536
 30
0.0
 11
-2012.2676761359601
 21
-0.0025511389934536
 31
0.0
 12
-2024.0000354950589
 22
-526.00255113898993
 32
0.0
 13
-2024.0000354950589
 23
-526.00255113898993
 33
0.0
210
0.0
220
0.0
230
-1.0
  0
SOLID
  5
67156
  8
S-OBRYS
  6
CONTINUOUS
 10
2000.0000000000421
 20
-526.00255113898993
 30
0.0
 11
2000.0000000000421
 21
-545.98193239837519
 31
0.0
 12
2670.0000000000268
 22
-545.98193239837519
 32
0.0
 13
2670.0000000000268
 23
-545.98193239837519
 33
0.0
  0
SOLID
  5
67157
  8
S-OBRYS
  6
CONTINUOUS
 10
-2000.0000000000421
 20
-526.00255113898993
 30
0.0
 11
-2024.0000354950589
 21
-526.00255113898993
 31
0.0
 12
-2670.0000000000268
 22
-545.98193239837519
 32
0.0
 13
-2670.0000000000268
 23
-545.98193239837519
 33
0.0
210
0.0
220
0.0
230
-1.0
  0
SOLID
  5
67158
  8
S-OBRYS
  6
CONTINUOUS
 10
2000.0000000000421
 20
-545.98193239837519
 30
0.0
 11
2000.0000000000421
 21
-550.00255113897902
 31
0.0
 12
2670.0000000000268
 22
-550.00255113897902
 32
0.0
 13
2670.0000000000268
 23
-550.00255113897902
 33
0.0
  0
SOLID
  5
67159
  8
S-OBRYS
  6
CONTINUOUS
 10
-2000.0000000000421
 20
-545.98193239837519
 30
0.0
 11
-2669.9999999999241
 21
-545.98193239837519
 31
0.0
 12
-2670.0000000000268
 22
-550.00255113897902
 32
0.0
 13
-2670.0000000000268
 23
-550.00255113897902
 33
0.0
210
0.0
220
0.0
230
-1.0
  0
SOLID
  5
6715A
  8
S-OBRYS
  6
CONTINUOUS
 10
2670.0000000000268
 20
-545.98193239837519
 30
0.0
 11
2670.0000000000418
 21
-550.00255113897902
 31
0.0
 12
2800.0000000000568
 22
-550.00255113897902
 32
0.0
 13
2800.0000000000568
 23
-550.00255113897902
 33
0.0
  0
SOLID
  5
6715B
  8
S-OBRYS
  6
CONTINUOUS
 10
2000.0000000000421
 20
-550.00255113897902
 30
0.0
 11
2000.0000000000421
 21
-550.00255113897902
 31
0.0
 12
2670.0000000000268
 22
-550.00255113897902
 32
0.0
 13
2670.0000000000268
 23
-550.00255113897902
 33
0.0
210
0.0
220
0.0
230
1.0
  0
SOLID
  5
6715C
  8
S-OBRYS
  6
CONTINUOUS
 10
2670.0000000000418
 20
-550.00255113897902
 30
0.0
 11
2670.0000000000418
 21
-550.00255113897902
 31
0.0
 12
2800.0000000000568
 22
-550.00255113897902
 32
0.0
 13
2800.0000000000568
 23
-550.00255113897902
 33
0.0
210
0.0
220
0.0
230
1.0
  0
LINE
  5
6715D
  8
S-OBRYS
  6
CONTINUOUS
 10
2000.0000000000421
 20
549.9974488602569
 30
0.0
 11
2000.0000000000421
 21
-0.0025511389934536
 31
0.0
  0
LINE
  5
6715E
  8
S-OBRYS
  6
CONTINUOUS
 10
2012.2676761359601
 20
-0.0025511389934536
 30
0.0
 11
2000.0000000000421
 21
549.9974488602569
 31
0.0
  0
LINE
  5
6715F
  8
S-OBRYS
  6
CONTINUOUS
 10
2000.0000000000421
 20
-0.0025511389934536
 30
0.0
 11
2012.2676761359601
 21
-0.0025511389934536
 31
0.0
  0
LINE
  5
67160
  8
S-OBRYS
  6
CONTINUOUS
 10
2000.0000000000421
 20
-0.0025511389934536
 30
0.0
 11
2012.2676761359601
 21
-0.0025511389934536
 31
0.0
  0
LINE
  5
67161
  8
S-OBRYS
  6
CONTINUOUS
 10
2000.0000000000421
 20
-0.0025511389934536
 30
0.0
 11
2000.0000000000421
 21
-526.00255113898993
 31
0.0
  0
LINE
  5
67162
  8
S-OBRYS
  6
CONTINUOUS
 10
2012.2676761359601
 20
-0.0025511389934536
 30
0.0
 11
2024.0000354950589
 21
-526.00255113898993
 31
0.0
  0
LINE
  5
67163
  8
S-OBRYS
  6
CONTINUOUS
 10
2000.0000000000421
 20
-526.00255113898993
 30
0.0
 11
2000.0000000000421
 21
-545.98193239837519
 31
0.0
  0
LINE
  5
67164
  8
S-OBRYS
  6
CONTINUOUS
 10
2024.0000354950589
 20
-526.00255113898993
 30
0.0
 11
2670.0000000000268
 21
-545.98193239837519
 31
0.0
  0
LINE
  5
67165
  8
S-OBRYS
  6
CONTINUOUS
 10
2000.0000000000421
 20
-545.98193239837519
 30
0.0
 11
2000.0000000000421
 21
-550.00255113897902
 31
0.0
  0
LINE
  5
67166
  8
S-OBRYS
  6
CONTINUOUS
 10
2670.0000000000268
 20
-545.98193239837519
 30
0.0
 11
2670.0000000000418
 21
-550.00255113897902
 31
0.0
  0
LINE
  5
67167
  8
S-OBRYS
  6
CONTINUOUS
 10
2000.0000000000421
 20
-550.00255113897902
 30
0.0
 11
2670.0000000000268
 21
-550.00255113897902
 31
0.0
  0
LINE
  5
67168
  8
S-OBRYS
  6
CONTINUOUS
 10
2670.0000000000418
 20
-550.00255113897902
 30
0.0
 11
2800.0000000000568
 21
-550.00255113897902
 31
0.0
  0
ENDBLK
  5
6716A
  8
0
  0
BLOCK
  8
0
  2
*X156
 70
     1
 10
0.0
 20
0.0
 30
0.0
  3
*X156
  1

  0
LINE
  5
67171
  8
0
  6
CONTINUOUS
 62
     0
 10
2800.00000000004
 20
654.33382523685566
 30
0.0
 11
2754.3363763758612
 21
699.99744886103508
 31
0.0
  0
LINE
  5
67172
  8
0
  6
CONTINUOUS
 62
     0
 10
2740.0000000000368
 20
624.53126402616181
 30
0.0
 11
2670.00000000004
 21
694.53126402615806
 31
0.0
  0
LINE
  5
67173
  8
0
  6
CONTINUOUS
 62
     0
 10
2670.00000000004
 20
694.53126402615806
 30
0.0
 11
2664.5338151651781
 21
699.99744886102053
 31
0.0
  0
LINE
  5
67174
  8
0
  6
CONTINUOUS
 62
     0
 10
2741.5338151651699
 20
622.99744886102405
 30
0.0
 11
2740.0000000000368
 21
624.53126402616181
 31
0.0
  0
LINE
  5
67175
  8
0
  6
CONTINUOUS
 62
     0
 10
2603.2868620971822
 20
671.44184071832569
 30
0.0
 11
2600.0000000000332
 21
674.72870281547512
 31
0.0
  0
LINE
  5
67176
  8
0
  6
CONTINUOUS
 62
     0
 10
2600.0000000000332
 20
674.72870281547512
 30
0.0
 11
2574.7312539544769
 21
699.99744886103144
 31
0.0
  0
LINE
  5
67177
  8
0
  6
CONTINUOUS
 62
     0
 10
2651.7312539544769
 20
622.99744886103144
 30
0.0
 11
2609.4443918573311
 21
665.28431095817723
 31
0.0
  0
LINE
  5
67178
  8
0
  6
CONTINUOUS
 62
     0
 10
2561.9286927437902
 20
622.99744886103497
 30
0.0
 11
2540.0000000000359
 21
644.92614160478468
 31
0.0
  0
LINE
  5
67179
  8
0
  6
CONTINUOUS
 62
     0
 10
2740.00000000004
 20
-632.70459292351734
 30
0.0
 11
2730.2979582154881
 21
-623.00255113896492
 31
0.0
  0
LINE
  5
6717A
  8
0
  6
CONTINUOUS
 62
     0
 10
2800.0000000000441
 20
-692.70459292352098
 30
0.0
 11
2740.00000000004
 21
-632.70459292351734
 31
0.0
  0
LINE
  5
6717B
  8
0
  6
CONTINUOUS
 62
     0
 10
2670.00000000004
 20
-652.50715413421494
 30
0.0
 11
2640.495397004805
 21
-623.00255113897936
 31
0.0
  0
LINE
  5
6717C
  8
0
  6
CONTINUOUS
 62
     0
 10
2717.4953970047859
 20
-700.00255113896492
 30
0.0
 11
2670.00000000004
 21
-652.50715413421494
 31
0.0
  0
LINE
  5
6717D
  8
0
  6
CONTINUOUS
 62
     0
 10
2600.00000000004
 20
-672.30971534490516
 30
0.0
 11
2598.593417944765
 21
-670.9031332896302
 31
0.0
  0
LINE
  5
6717E
  8
0
  6
CONTINUOUS
 62
     0
 10
2590.0994178493752
 20
-662.40913319423987
 30
0.0
 11
2550.6928357941042
 21
-623.00255113896856
 31
0.0
  0
LINE
  5
6717F
  8
0
  6
CONTINUOUS
 62
     0
 10
2627.6928357941042
 20
-700.00255113896856
 30
0.0
 11
2600.00000000004
 21
-672.30971534490516
 31
0.0
  0
ENDBLK
  5
67181
  8
0
  0
BLOCK
  8
0
  2
*X157
 70
     1
 10
0.0
 20
0.0
 30
0.0
  3
*X157
  1

  0
LINE
  5
67183
  8
0
  6
CONTINUOUS
 62
     0
 10
450.00000000003268
 20
-657.76862319080817
 30
0.0
 11
414.23392794820018
 21
-622.00255113897583
 31
0.0
  0
LINE
  5
67184
  8
0
  6
CONTINUOUS
 62
     0
 10
388.00000000003638
 20
-685.57118440149861
 30
0.0
 11
324.43136673751718
 21
-622.00255113897947
 31
0.0
  0
LINE
  5
67185
  8
0
  6
CONTINUOUS
 62
     0
 10
402.43136673751718
 20
-700.00255113897583
 30
0.0
 11
388.00000000003638
 21
-685.57118440149861
 31
0.0
  0
LINE
  5
67186
  8
0
  6
CONTINUOUS
 62
     0
 10
312.62880552682691
 20
-700.00255113897583
 30
0.0
 11
234.62880552682691
 21
-622.00255113897583
 31
0.0
  0
LINE
  5
67187
  8
0
  6
CONTINUOUS
 62
     0
 10
222.82624431612561
 20
-700.00255113897583
 30
0.0
 11
144.82624431612561
 21
-622.00255113897583
 31
0.0
  0
LINE
  5
67188
  8
0
  6
CONTINUOUS
 62
     0
 10
88.000000000032742
 20
-654.97886803356948
 30
0.0
 11
55.023683105442622
 21
-622.00255113897947
 31
0.0
  0
LINE
  5
67189
  8
0
  6
CONTINUOUS
 62
     0
 10
133.02368310544259
 20
-700.00255113897583
 30
0.0
 11
88.000000000032742
 21
-654.97886803356948
 31
0.0
  0
LINE
  5
6718A
  8
0
  6
CONTINUOUS
 62
     0
 10
43.221121894745011
 20
-700.00255113896856
 30
0.0
 11
0.0000000000400178
 21
-656.78142924426345
 31
0.0
  0
ENDBLK
  5
6718C
  8
0
  0
BLOCK
  8
0
  2
*X158
 70
     1
 10
0.0
 20
0.0
 30
0.0
  3
*X158
  1

  0
LINE
  5
6718E
  8
0
  6
CONTINUOUS
 62
     0
 10
450.00000000003268
 20
664.2313768091916
 30
0.0
 11
414.23392794820018
 21
699.99744886102405
 31
0.0
  0
LINE
  5
6718F
  8
0
  6
CONTINUOUS
 62
     0
 10
388.00000000003638
 20
636.42881559850139
 30
0.0
 11
324.43136673751718
 21
699.99744886102053
 31
0.0
  0
LINE
  5
67190
  8
0
  6
CONTINUOUS
 62
     0
 10
402.43136673751718
 20
621.99744886102405
 30
0.0
 11
388.00000000003638
 21
636.42881559850139
 31
0.0
  0
LINE
  5
67191
  8
0
  6
CONTINUOUS
 62
     0
 10
312.62880552682691
 20
621.99744886102405
 30
0.0
 11
234.62880552682691
 21
699.99744886102405
 31
0.0
  0
LINE
  5
67192
  8
0
  6
CONTINUOUS
 62
     0
 10
222.82624431612561
 20
621.99744886102405
 30
0.0
 11
144.82624431612561
 21
699.99744886102405
 31
0.0
  0
LINE
  5
67193
  8
0
  6
CONTINUOUS
 62
     0
 10
88.000000000032742
 20
667.0211319664304
 30
0.0
 11
55.023683105442622
 21
699.99744886102053
 31
0.0
  0
LINE
  5
67194
  8
0
  6
CONTINUOUS
 62
     0
 10
133.02368310544259
 20
621.99744886102405
 30
0.0
 11
88.000000000032742
 21
667.0211319664304
 31
0.0
  0
LINE
  5
67195
  8
0
  6
CONTINUOUS
 62
     0
 10
43.221121894745011
 20
621.99744886103144
 30
0.0
 11
0.0000000000400178
 21
665.21857075573644
 31
0.0
  0
ENDBLK
  5
67197
  8
0
  0
BLOCK
  8
0
  2
*U159
 70
     1
 10
0.0
 20
0.0
 30
0.0
  3
*U159
  1

  0
SOLID
  5
671C1
  8
S-OBRYS
  6
CONTINUOUS
 10
-7.4303002125019191
 20
199.86193804923201
 30
0.0
 11
-106.0799013385006
 21
154.63598606144831
 31
0.0
 12
114.36798504699919
 22
154.63598606144831
 32
0.0
 13
114.36798504699919
 23
154.63598606144831
 33
0.0
210
0.0
220
0.0
230
1.0
  0
SOLID
  5
671C2
  8
S-OBRYS
  6
CONTINUOUS
 10
-106.0799013385006
 20
154.63598606144831
 30
0.0
 11
-123.65704524996811
 21
146.5777368891373
 31
0.0
 12
-7.9187739383873028
 22
146.5777368891373
 32
0.0
 13
-7.9187739383873028
 23
146.5777368891373
 33
0.0
210
0.0
220
0.0
230
1.0
  0
SOLID
  5
671C3
  8
S-OBRYS
  6
CONTINUOUS
 10
106.0799013385006
 20
154.63598606144831
 30
0.0
 11
-6.5672195654881156
 21
154.63598606144831
 31
0.0
 12
7.9187739383873028
 22
146.5777368891373
 32
0.0
 13
7.9187739383873028
 23
146.5777368891373
 33
0.0
210
0.0
220
0.0
230
-1.0
  0
SOLID
  5
671C4
  8
S-OBRYS
  6
CONTINUOUS
 10
6.5672195654881156
 20
154.63598606144831
 30
0.0
 11
72.201549540798865
 21
146.5777368891373
 31
0.0
 12
136.06970470668469
 22
146.5777368891373
 32
0.0
 13
136.06970470668469
 23
146.5777368891373
 33
0.0
210
0.0
220
0.0
230
1.0
  0
SOLID
  5
671C5
  8
S-OBRYS
  6
CONTINUOUS
 10
-6.5672195654881156
 20
154.63598606144831
 30
0.0
 11
-114.36798504699919
 21
154.63598606144831
 31
0.0
 12
-136.06970470668469
 22
146.5777368891373
 32
0.0
 13
-136.06970470668469
 23
146.5777368891373
 33
0.0
210
0.0
220
0.0
230
-1.0
  0
SOLID
  5
671C6
  8
S-OBRYS
  6
CONTINUOUS
 10
-123.65704524996811
 20
146.5777368891373
 30
0.0
 11
-139.0112327472724
 21
139.5386030392437
 31
0.0
 12
-20.572744427763961
 22
139.5386030392437
 32
0.0
 13
-20.572744427763961
 23
139.5386030392437
 33
0.0
210
0.0
220
0.0
230
1.0
  0
SOLID
  5
671C7
  8
S-OBRYS
  6
CONTINUOUS
 10
123.65704524996811
 20
146.5777368891373
 30
0.0
 11
7.9187739383873028
 21
146.5777368891373
 31
0.0
 12
20.572744427763961
 22
139.5386030392437
 32
0.0
 13
20.572744427763961
 23
139.5386030392437
 33
0.0
210
0.0
220
0.0
230
-1.0
  0
SOLID
  5
671C8
  8
S-OBRYS
  6
CONTINUOUS
 10
-72.201549540798865
 20
146.5777368891373
 30
0.0
 11
-136.0697047066846
 21
146.5777368891373
 31
0.0
 12
-129.53519906752251
 22
139.5386030392437
 32
0.0
 13
-129.53519906752251
 23
139.5386030392437
 33
0.0
210
0.0
220
0.0
230
-1.0
  0
SOLID
  5
671C9
  8
S-OBRYS
  6
CONTINUOUS
 10
136.0697047066846
 20
146.5777368891373
 30
0.0
 11
129.5351990675228
 21
139.5386030392437
 31
0.0
 12
143.09108860080289
 22
139.5386030392437
 32
0.0
 13
143.09108860080289
 23
139.5386030392437
 33
0.0
210
0.0
220
0.0
230
1.0
  0
SOLID
  5
671CA
  8
S-OBRYS
  6
CONTINUOUS
 10
-139.0112327472724
 20
139.5386030392437
 30
0.0
 11
-146.577746761573
 21
136.06973144098379
 31
0.0
 12
-26.808596703322301
 22
136.06973144098379
 32
0.0
 13
-26.808596703322301
 23
136.06973144098379
 33
0.0
210
0.0
220
0.0
230
1.0
  0
SOLID
  5
671CB
  8
S-OBRYS
  6
CONTINUOUS
 10
139.0112327472724
 20
139.5386030392437
 30
0.0
 11
20.572744427763961
 21
139.5386030392437
 31
0.0
 12
26.808596703322301
 22
136.06973144098379
 32
0.0
 13
26.808596703322301
 23
136.06973144098379
 33
0.0
210
0.0
220
0.0
230
-1.0
  0
SOLID
  5
671CC
  8
S-OBRYS
  6
CONTINUOUS
 10
129.53519906752311
 20
139.5386030392437
 30
0.0
 11
136.25658556636
 21
136.06973144098379
 31
0.0
 12
146.55121305505739
 22
136.06973144098379
 32
0.0
 13
146.55121305505739
 23
136.06973144098379
 33
0.0
210
0.0
220
0.0
230
1.0
  0
SOLID
  5
671CD
  8
S-OBRYS
  6
CONTINUOUS
 10
-129.53519906752311
 20
139.5386030392437
 30
0.0
 11
-143.09108860080289
 21
139.5386030392437
 31
0.0
 12
-146.55121305505739
 22
136.06973144098379
 32
0.0
 13
-146.55121305505739
 23
136.06973144098379
 33
0.0
210
0.0
220
0.0
230
-1.0
  0
SOLID
  5
671CE
  8
S-OBRYS
  6
CONTINUOUS
 10
-146.577746761573
 20
136.06973144098379
 30
0.0
 11
-146.71532458895959
 21
135.69921976065609
 31
0.0
 12
-146.17862225930841
 22
135.69921976065609
 32
0.0
 13
-146.17862225930841
 23
135.69921976065609
 33
0.0
  0
SOLID
  5
671CF
  8
S-OBRYS
  6
CONTINUOUS
 10
-146.577746761573
 20
136.06973144098379
 30
0.0
 11
-146.1786222593083
 21
135.69921976065609
 31
0.0
 12
-27.47465079020499
 22
135.69921976065609
 32
0.0
 13
-27.47465079020499
 23
135.69921976065609
 33
0.0
210
0.0
220
0.0
230
1.0
  0
SOLID
  5
671D0
  8
S-OBRYS
  6
CONTINUOUS
 10
146.577746761573
 20
136.06973144098379
 30
0.0
 11
26.808596703322301
 21
136.06973144098379
 31
0.0
 12
27.47465079020499
 22
135.69921976065609
 32
0.0
 13
27.47465079020499
 23
135.69921976065609
 33
0.0
210
0.0
220
0.0
230
-1.0
  0
SOLID
  5
671D1
  8
S-OBRYS
  6
CONTINUOUS
 10
136.25658556636
 20
136.06973144098379
 30
0.0
 11
136.9744997742728
 21
135.69921976065609
 31
0.0
 12
146.92079044913899
 22
135.69921976065609
 32
0.0
 13
146.92079044913899
 23
135.69921976065609
 33
0.0
  0
SOLID
  5
671D2
  8
S-OBRYS
  6
CONTINUOUS
 10
-136.25658556636
 20
136.06973144098379
 30
0.0
 11
-146.55121305505739
 21
136.06973144098379
 31
0.0
 12
-146.92079044913899
 22
135.69921976065609
 32
0.0
 13
-146.92079044913899
 23
135.69921976065609
 33
0.0
210
0.0
220
0.0
230
-1.0
  0
SOLID
  5
671D3
  8
S-OBRYS
  6
CONTINUOUS
 10
-146.71532458895959
 20
135.69921976065609
 30
0.0
 11
-147.97074803455669
 21
132.3182312744525
 31
0.0
 12
-142.53653641325681
 22
132.3182312744525
 32
0.0
 13
-142.53653641325681
 23
132.3182312744525
 33
0.0
  0
SOLID
  5
671D4
  8
S-OBRYS
  6
CONTINUOUS
 10
146.71532458895959
 20
135.69921976065609
 30
0.0
 11
146.17862225930841
 21
135.69921976065609
 31
0.0
 12
142.53653641325681
 22
132.3182312744525
 32
0.0
 13
142.53653641325681
 23
132.3182312744525
 33
0.0
210
0.0
220
0.0
230
-1.0
  0
SOLID
  5
671D5
  8
S-OBRYS
  6
CONTINUOUS
 10
-146.1786222593083
 20
135.69921976065609
 30
0.0
 11
-142.5365364132567
 21
132.3182312744525
 31
0.0
 12
-33.552519096401468
 22
132.3182312744525
 32
0.0
 13
-33.552519096401468
 23
132.3182312744525
 33
0.0
  0
SOLID
  5
671D6
  8
S-OBRYS
  6
CONTINUOUS
 10
146.1786222593083
 20
135.69921976065609
 30
0.0
 11
27.47465079020499
 21
135.69921976065609
 31
0.0
 12
33.552519096401468
 22
132.3182312744525
 32
0.0
 13
33.552519096401468
 23
132.3182312744525
 33
0.0
210
0.0
220
0.0
230
-1.0
  0
SOLID
  5
671D7
  8
S-OBRYS
  6
CONTINUOUS
 10
136.9744997742728
 20
135.69921976065609
 30
0.0
 11
143.5256013991617
 21
132.3182312744525
 31
0.0
 12
149.81095848922959
 22
132.3182312744525
 32
0.0
 13
149.81095848922959
 23
132.3182312744525
 33
0.0
210
0.0
220
0.0
230
1.0
  0
SOLID
  5
671D8
  8
S-OBRYS
  6
CONTINUOUS
 10
-136.9744997742728
 20
135.69921976065609
 30
0.0
 11
-146.92079044913899
 21
135.69921976065609
 31
0.0
 12
-149.81095848922959
 22
132.3182312744525
 32
0.0
 13
-149.81095848922959
 23
132.3182312744525
 33
0.0
210
0.0
220
0.0
230
-1.0
  0
SOLID
  5
671D9
  8
S-OBRYS
  6
CONTINUOUS
 10
-147.97074803455669
 20
132.3182312744525
 30
0.0
 11
-151.0521169139048
 21
124.0197780797475
 31
0.0
 12
-133.5972338844588
 22
124.0197780797475
 32
0.0
 13
-133.5972338844588
 23
124.0197780797475
 33
0.0
210
0.0
220
0.0
230
1.0
  0
SOLID
  5
671DA
  8
S-OBRYS
  6
CONTINUOUS
 10
147.97074803455669
 20
132.3182312744525
 30
0.0
 11
142.53653641325681
 21
132.3182312744525
 31
0.0
 12
133.5972338844588
 22
124.0197780797475
 32
0.0
 13
133.5972338844588
 23
124.0197780797475
 33
0.0
210
0.0
220
0.0
230
-1.0
  0
SOLID
  5
671DB
  8
S-OBRYS
  6
CONTINUOUS
 10
-142.5365364132567
 20
132.3182312744525
 30
0.0
 11
-133.59723388445869
 21
124.0197780797475
 31
0.0
 12
-48.470317801828479
 22
124.0197780797475
 32
0.0
 13
-48.470317801828479
 23
124.0197780797475
 33
0.0
210
0.0
220
0.0
230
1.0
  0
SOLID
  5
671DC
  8
S-OBRYS
  6
CONTINUOUS
 10
142.5365364132567
 20
132.3182312744525
 30
0.0
 11
33.552519096401468
 21
132.3182312744525
 31
0.0
 12
48.470317801828479
 22
124.0197780797475
 32
0.0
 13
48.470317801828479
 23
124.0197780797475
 33
0.0
210
0.0
220
0.0
230
-1.0
  0
SOLID
  5
671DD
  8
S-OBRYS
  6
CONTINUOUS
 10
-143.5256013991617
 20
132.3182312744525
 30
0.0
 11
-149.81095848922959
 21
132.3182312744525
 31
0.0
 12
-156.90471947167379
 22
124.0197780797475
 32
0.0
 13
-156.90471947167379
 23
124.0197780797475
 33
0.0
210
0.0
220
0.0
230
-1.0
  0
SOLID
  5
671DE
  8
S-OBRYS
  6
CONTINUOUS
 10
-151.0521169139048
 20
124.0197780797475
 30
0.0
 11
-162.0470583125522
 21
94.409234795978335
 31
0.0
 12
-101.7000118064241
 22
94.409234795978335
 32
0.0
 13
-101.7000118064241
 23
94.409234795978335
 33
0.0
210
0.0
220
0.0
230
1.0
  0
SOLID
  5
671DF
  8
S-OBRYS
  6
CONTINUOUS
 10
151.0521169139048
 20
124.0197780797475
 30
0.0
 11
133.5972338844588
 21
124.0197780797475
 31
0.0
 12
101.7000118064241
 22
94.409234795978335
 32
0.0
 13
101.7000118064241
 23
94.409234795978335
 33
0.0
210
0.0
220
0.0
230
-1.0
  0
SOLID
  5
671E0
  8
S-OBRYS
  6
CONTINUOUS
 10
133.59723388445869
 20
124.0197780797475
 30
0.0
 11
48.470317801828479
 21
124.0197780797475
 31
0.0
 12
101.7000118064241
 22
94.409234795978335
 32
0.0
 13
101.7000118064241
 23
94.409234795978335
 33
0.0
210
0.0
220
0.0
230
-1.0
  0
SOLID
  5
671E1
  8
S-OBRYS
  6
CONTINUOUS
 10
-162.0470583125522
 20
94.409234795978335
 30
0.0
 11
-199.8619479216687
 21
-7.4302734782037438
 31
0.0
 12
-148.81695672466711
 22
-7.4302734782037438
 32
0.0
 13
-148.81695672466711
 23
-7.4302734782037438
 33
0.0
210
0.0
220
0.0
230
1.0
  0
SOLID
  5
671E2
  8
S-OBRYS
  6
CONTINUOUS
 10
162.0470583125522
 20
94.409234795978335
 30
0.0
 11
101.7000118064241
 21
94.409234795978335
 31
0.0
 12
148.81695672466711
 22
-7.4302734782037438
 32
0.0
 13
148.81695672466711
 23
-7.4302734782037438
 33
0.0
210
0.0
220
0.0
230
-1.0
  0
SOLID
  5
671E3
  8
S-OBRYS
  6
CONTINUOUS
 10
-199.8619479216687
 20
-7.4302734782037438
 30
0.0
 11
-195.00201376120179
 21
-18.031057880888518
 31
0.0
 12
-153.72150293915519
 22
-18.031057880888518
 32
0.0
 13
-153.72150293915519
 23
-18.031057880888518
 33
0.0
210
0.0
220
0.0
230
1.0
  0
SOLID
  5
671E4
  8
S-OBRYS
  6
CONTINUOUS
 10
199.8619479216687
 20
-7.4302734782037438
 30
0.0
 11
148.81695672466711
 21
-7.4302734782037438
 31
0.0
 12
153.72150293915519
 22
-18.031057880888518
 32
0.0
 13
153.72150293915519
 23
-18.031057880888518
 33
0.0
210
0.0
220
0.0
230
-1.0
  0
SOLID
  5
671E5
  8
S-OBRYS
  6
CONTINUOUS
 10
-195.00201376120179
 20
-18.031057880888518
 30
0.0
 11
-139.29683524889569
 21
-139.53858617738231
 31
0.0
 12
-129.53523567425751
 22
-139.53858617738231
 32
0.0
 13
-129.53523567425751
 23
-139.53858617738231
 33
0.0
210
0.0
220
0.0
230
1.0
  0
SOLID
  5
671E6
  8
S-OBRYS
  6
CONTINUOUS
 10
195.00201376120179
 20
-18.031057880888518
 30
0.0
 11
153.72150293915519
 21
-18.031057880888518
 31
0.0
 12
129.53523567425751
 22
-139.53858617738231
 32
0.0
 13
129.53523567425751
 23
-139.53858617738231
 33
0.0
210
0.0
220
0.0
230
-1.0
  0
SOLID
  5
671E7
  8
S-OBRYS
  6
CONTINUOUS
 10
139.29683524889569
 20
-139.53858617738231
 30
0.0
 11
129.53523567425759
 21
-139.53858617738231
 31
0.0
 12
136.0697413134194
 22
-146.57772002727569
 32
0.0
 13
136.0697413134194
 23
-146.57772002727569
 33
0.0
210
0.0
220
0.0
230
-1.0
  0
SOLID
  5
671E8
  8
S-OBRYS
  6
CONTINUOUS
 10
-129.53523567425751
 20
-139.53858617738231
 30
0.0
 11
-136.0697413134194
 21
-146.57772002727569
 31
0.0
 12
-125.2121400426451
 22
-146.57772002727569
 32
0.0
 13
-125.2121400426451
 23
-146.57772002727569
 33
0.0
210
0.0
220
0.0
230
1.0
  0
SOLID
  5
671E9
  8
S-OBRYS
  6
CONTINUOUS
 10
-136.0697413134194
 20
-146.57772002727569
 30
0.0
 11
-128.64834715820271
 21
-152.9542450331025
 31
0.0
 12
-121.2959867224501
 22
-152.9542450331025
 32
0.0
 13
-121.2959867224501
 23
-152.9542450331025
 33
0.0
210
0.0
220
0.0
230
1.0
  0
SOLID
  5
671EA
  8
S-OBRYS
  6
CONTINUOUS
 10
136.0697413134194
 20
-146.57772002727569
 30
0.0
 11
125.2121400426451
 21
-146.57772002727569
 31
0.0
 12
121.2959867224501
 22
-152.9542450331025
 32
0.0
 13
121.2959867224501
 23
-152.9542450331025
 33
0.0
210
0.0
220
0.0
230
-1.0
  0
SOLID
  5
671EB
  8
S-OBRYS
  6
CONTINUOUS
 10
-128.64834715820271
 20
-152.9542450331025
 30
0.0
 11
-124.4155441826761
 21
-156.5911053660374
 31
0.0
 12
-118.6470868850928
 22
-156.5911053660374
 32
0.0
 13
-118.6470868850928
 23
-156.5911053660374
 33
0.0
210
0.0
220
0.0
230
1.0
  0
SOLID
  5
671EC
  8
S-OBRYS
  6
CONTINUOUS
 10
128.64834715820271
 20
-152.9542450331025
 30
0.0
 11
121.2959867224501
 21
-152.9542450331025
 31
0.0
 12
118.6470868850928
 22
-156.5911053660374
 32
0.0
 13
118.6470868850928
 23
-156.5911053660374
 33
0.0
210
0.0
220
0.0
230
-1.0
  0
SOLID
  5
671ED
  8
S-OBRYS
  6
CONTINUOUS
 10
124.4155441826761
 20
-156.5911053660374
 30
0.0
 11
118.6470868850928
 21
-156.5911053660374
 31
0.0
 12
112.0270211232598
 22
-165.6802578628913
 32
0.0
 13
112.0270211232598
 23
-165.6802578628913
 33
0.0
210
0.0
220
0.0
230
-1.0
  0
LINE
  5
671EE
  8
S-OBRYS
  6
CONTINUOUS
 10
-7.4303002125019191
 20
199.86193804923201
 30
0.0
 11
-106.0799013385006
 21
154.63598606144831
 31
0.0
  0
LINE
  5
671EF
  8
S-OBRYS
  6
CONTINUOUS
 10
114.36798504699919
 20
154.63598606144831
 30
0.0
 11
-7.4303002125019191
 21
199.86193804923201
 31
0.0
  0
LINE
  5
671F0
  8
S-OBRYS
  6
CONTINUOUS
 10
-106.0799013385006
 20
154.63598606144831
 30
0.0
 11
-123.65704524996811
 21
146.5777368891373
 31
0.0
  0
LINE
  5
671F1
  8
S-OBRYS
  6
CONTINUOUS
 10
114.36798504699919
 20
154.63598606144831
 30
0.0
 11
136.06970470668469
 21
146.5777368891373
 31
0.0
  0
LINE
  5
671F2
  8
S-OBRYS
  6
CONTINUOUS
 10
-123.65704524996811
 20
146.5777368891373
 30
0.0
 11
-139.0112327472724
 21
139.5386030392437
 31
0.0
  0
LINE
  5
671F3
  8
S-OBRYS
  6
CONTINUOUS
 10
-7.9187739383873028
 20
146.5777368891373
 30
0.0
 11
-20.572744427763961
 21
139.5386030392437
 31
0.0
  0
LINE
  5
671F4
  8
S-OBRYS
  6
CONTINUOUS
 10
136.0697047066846
 20
146.5777368891373
 30
0.0
 11
129.53519906752251
 21
139.5386030392437
 31
0.0
  0
LINE
  5
671F5
  8
S-OBRYS
  6
CONTINUOUS
 10
129.53519906752251
 20
139.5386030392437
 30
0.0
 11
72.201549540798865
 21
146.5777368891373
 31
0.0
  0
LINE
  5
671F6
  8
S-OBRYS
  6
CONTINUOUS
 10
136.0697047066846
 20
146.5777368891373
 30
0.0
 11
129.5351990675228
 21
139.5386030392437
 31
0.0
  0
LINE
  5
671F7
  8
S-OBRYS
  6
CONTINUOUS
 10
143.09108860080289
 20
139.5386030392437
 30
0.0
 11
136.0697047066846
 21
146.5777368891373
 31
0.0
  0
LINE
  5
671F8
  8
S-OBRYS
  6
CONTINUOUS
 10
-139.0112327472724
 20
139.5386030392437
 30
0.0
 11
-146.577746761573
 21
136.06973144098379
 31
0.0
  0
LINE
  5
671F9
  8
S-OBRYS
  6
CONTINUOUS
 10
-20.572744427763961
 20
139.5386030392437
 30
0.0
 11
-26.808596703322301
 21
136.06973144098379
 31
0.0
  0
LINE
  5
671FA
  8
S-OBRYS
  6
CONTINUOUS
 10
129.53519906752311
 20
139.5386030392437
 30
0.0
 11
136.25658556636
 21
136.06973144098379
 31
0.0
  0
LINE
  5
671FB
  8
S-OBRYS
  6
CONTINUOUS
 10
143.09108860080289
 20
139.5386030392437
 30
0.0
 11
146.55121305505739
 21
136.06973144098379
 31
0.0
  0
LINE
  5
671FC
  8
S-OBRYS
  6
CONTINUOUS
 10
-146.577746761573
 20
136.06973144098379
 30
0.0
 11
-146.71532458895959
 21
135.69921976065609
 31
0.0
  0
LINE
  5
671FD
  8
S-OBRYS
  6
CONTINUOUS
 10
-146.17862225930841
 20
135.69921976065609
 30
0.0
 11
-146.577746761573
 21
136.06973144098379
 31
0.0
  0
LINE
  5
671FE
  8
S-OBRYS
  6
CONTINUOUS
 10
-146.577746761573
 20
136.06973144098379
 30
0.0
 11
-146.1786222593083
 21
135.69921976065609
 31
0.0
  0
LINE
  5
671FF
  8
S-OBRYS
  6
CONTINUOUS
 10
-26.808596703322301
 20
136.06973144098379
 30
0.0
 11
-27.47465079020499
 21
135.69921976065609
 31
0.0
  0
LINE
  5
67200
  8
S-OBRYS
  6
CONTINUOUS
 10
136.25658556636
 20
136.06973144098379
 30
0.0
 11
136.9744997742728
 21
135.69921976065609
 31
0.0
  0
LINE
  5
67201
  8
S-OBRYS
  6
CONTINUOUS
 10
146.55121305505739
 20
136.06973144098379
 30
0.0
 11
146.92079044913899
 21
135.69921976065609
 31
0.0
  0
LINE
  5
67202
  8
S-OBRYS
  6
CONTINUOUS
 10
-146.71532458895959
 20
135.69921976065609
 30
0.0
 11
-147.97074803455669
 21
132.3182312744525
 31
0.0
  0
LINE
  5
67203
  8
S-OBRYS
  6
CONTINUOUS
 10
-146.17862225930841
 20
135.69921976065609
 30
0.0
 11
-142.53653641325681
 21
132.3182312744525
 31
0.0
  0
LINE
  5
67204
  8
S-OBRYS
  6
CONTINUOUS
 10
-146.1786222593083
 20
135.69921976065609
 30
0.0
 11
-142.5365364132567
 21
132.3182312744525
 31
0.0
  0
LINE
  5
67205
  8
S-OBRYS
  6
CONTINUOUS
 10
-27.47465079020499
 20
135.69921976065609
 30
0.0
 11
-33.552519096401468
 21
132.3182312744525
 31
0.0
  0
LINE
  5
67206
  8
S-OBRYS
  6
CONTINUOUS
 10
136.9744997742728
 20
135.69921976065609
 30
0.0
 11
143.5256013991617
 21
132.3182312744525
 31
0.0
  0
LINE
  5
67207
  8
S-OBRYS
  6
CONTINUOUS
 10
146.92079044913899
 20
135.69921976065609
 30
0.0
 11
149.81095848922959
 21
132.3182312744525
 31
0.0
  0
LINE
  5
67208
  8
S-OBRYS
  6
CONTINUOUS
 10
-147.97074803455669
 20
132.3182312744525
 30
0.0
 11
-151.0521169139048
 21
124.0197780797475
 31
0.0
  0
LINE
  5
67209
  8
S-OBRYS
  6
CONTINUOUS
 10
-142.53653641325681
 20
132.3182312744525
 30
0.0
 11
-133.5972338844588
 21
124.0197780797475
 31
0.0
  0
LINE
  5
6720A
  8
S-OBRYS
  6
CONTINUOUS
 10
-142.5365364132567
 20
132.3182312744525
 30
0.0
 11
-133.59723388445869
 21
124.0197780797475
 31
0.0
  0
LINE
  5
6720B
  8
S-OBRYS
  6
CONTINUOUS
 10
-33.552519096401468
 20
132.3182312744525
 30
0.0
 11
-48.470317801828479
 21
124.0197780797475
 31
0.0
  0
LINE
  5
6720C
  8
S-OBRYS
  6
CONTINUOUS
 10
149.81095848922959
 20
132.3182312744525
 30
0.0
 11
156.90471947167379
 21
124.0197780797475
 31
0.0
  0
LINE
  5
6720D
  8
S-OBRYS
  6
CONTINUOUS
 10
156.90471947167379
 20
124.0197780797475
 30
0.0
 11
143.5256013991617
 21
132.3182312744525
 31
0.0
  0
LINE
  5
6720E
  8
S-OBRYS
  6
CONTINUOUS
 10
-151.0521169139048
 20
124.0197780797475
 30
0.0
 11
-162.0470583125522
 21
94.409234795978335
 31
0.0
  0
LINE
  5
6720F
  8
S-OBRYS
  6
CONTINUOUS
 10
-48.470317801828479
 20
124.0197780797475
 30
0.0
 11
-101.7000118064241
 21
94.409234795978335
 31
0.0
  0
LINE
  5
67210
  8
S-OBRYS
  6
CONTINUOUS
 10
-101.7000118064241
 20
94.409234795978335
 30
0.0
 11
-133.59723388445869
 21
124.0197780797475
 31
0.0
  0
LINE
  5
67211
  8
S-OBRYS
  6
CONTINUOUS
 10
-162.0470583125522
 20
94.409234795978335
 30
0.0
 11
-199.8619479216687
 21
-7.4302734782037438
 31
0.0
  0
LINE
  5
67212
  8
S-OBRYS
  6
CONTINUOUS
 10
-101.7000118064241
 20
94.409234795978335
 30
0.0
 11
-148.81695672466711
 21
-7.4302734782037438
 31
0.0
  0
LINE
  5
67213
  8
S-OBRYS
  6
CONTINUOUS
 10
-199.8619479216687
 20
-7.4302734782037438
 30
0.0
 11
-195.00201376120179
 21
-18.031057880888518
 31
0.0
  0
LINE
  5
67214
  8
S-OBRYS
  6
CONTINUOUS
 10
-148.81695672466711
 20
-7.4302734782037438
 30
0.0
 11
-153.72150293915519
 21
-18.031057880888518
 31
0.0
  0
LINE
  5
67215
  8
S-OBRYS
  6
CONTINUOUS
 10
-195.00201376120179
 20
-18.031057880888518
 30
0.0
 11
-139.29683524889569
 21
-139.53858617738231
 31
0.0
  0
LINE
  5
67216
  8
S-OBRYS
  6
CONTINUOUS
 10
-153.72150293915519
 20
-18.031057880888518
 30
0.0
 11
-129.53523567425751
 21
-139.53858617738231
 31
0.0
  0
LINE
  5
67217
  8
S-OBRYS
  6
CONTINUOUS
 10
-129.53523567425759
 20
-139.53858617738231
 30
0.0
 11
-136.0697413134194
 21
-146.57772002727569
 31
0.0
  0
LINE
  5
67218
  8
S-OBRYS
  6
CONTINUOUS
 10
-125.2121400426451
 20
-146.57772002727569
 30
0.0
 11
-129.53523567425751
 21
-139.53858617738231
 31
0.0
  0
LINE
  5
67219
  8
S-OBRYS
  6
CONTINUOUS
 10
-136.0697413134194
 20
-146.57772002727569
 30
0.0
 11
-128.64834715820271
 21
-152.9542450331025
 31
0.0
  0
LINE
  5
6721A
  8
S-OBRYS
  6
CONTINUOUS
 10
-125.2121400426451
 20
-146.57772002727569
 30
0.0
 11
-121.2959867224501
 21
-152.9542450331025
 31
0.0
  0
LINE
  5
6721B
  8
S-OBRYS
  6
CONTINUOUS
 10
-128.64834715820271
 20
-152.9542450331025
 30
0.0
 11
-124.4155441826761
 21
-156.5911053660374
 31
0.0
  0
LINE
  5
6721C
  8
S-OBRYS
  6
CONTINUOUS
 10
-121.2959867224501
 20
-152.9542450331025
 30
0.0
 11
-118.6470868850928
 21
-156.5911053660374
 31
0.0
  0
LINE
  5
6721D
  8
S-OBRYS
  6
CONTINUOUS
 10
-118.6470868850928
 20
-156.5911053660374
 30
0.0
 11
-112.0270211232598
 21
-165.6802578628913
 31
0.0
  0
LINE
  5
6721E
  8
S-OBRYS
  6
CONTINUOUS
 10
-112.0270211232598
 20
-165.6802578628913
 30
0.0
 11
-124.4155441826761
 21
-156.5911053660374
 31
0.0
  0
ENDBLK
  5
67220
  8
0
  0
BLOCK
  8
0
  2
*U160
 70
     1
 10
0.0
 20
0.0
 30
0.0
  3
*U160
  1

  0
TEXT
  5
67222
  8
0
  6
CONTINUOUS
 62
     0
 10
1643.176848860981
 20
1632.0222275366939
 30
0.0
 40
100.0
  1
950
 50
90.0
 41
0.8
  0
ENDBLK
  5
67224
  8
0
  0
BLOCK
  8
0
  2
*U161
 70
     1
 10
0.0
 20
0.0
 30
0.0
  3
*U161
  1

  0
TEXT
  5
6724E
  8
S-OBRYS
  6
CONTINUOUS
 62
     7
 10
6772.1338000315172
 20
397049.47386231582
 30
0.0
 40
100.0
  1
1290
 41
0.8
  0
ENDBLK
  5
67250
  8
0
  0
BLOCK
  8
0
  2
*U162
 70
     1
 10
0.0
 20
0.0
 30
0.0
  3
*U162
  1

  0
TEXT
  5
67252
  8
S-OBRYS
  6
CONTINUOUS
 62
     7
 10
5935.3312894104247
 20
397775.42951554031
 30
0.0
 40
100.0
  1
1000
 50
90.0
 41
0.8
  0
ENDBLK
  5
67254
  8
0
  0
BLOCK
  8
0
  2
*U163
 70
     1
 10
0.0
 20
0.0
 30
0.0
  3
*U163
  1

  0
TEXT
  5
67256
  8
S-OBRYS
  6
CONTINUOUS
 62
     7
 10
7858.673985792494
 20
397794.23903934972
 30
0.0
 40
100.0
  1
950
 50
90.0
 41
0.8
  0
ENDBLK
  5
67258
  8
0
  0
BLOCK
  8
0
  2
*U164
 70
     1
 10
0.0
 20
0.0
 30
0.0
  3
*U164
  1

  0
TEXT
  5
6725A
  8
S-OBRYS
  6
CONTINUOUS
 62
     7
 10
7025.1338000315154
 20
405629.94555959431
 30
0.0
 40
100.0
  1
1216
 41
0.8
  0
ENDBLK
  5
6725C
  8
0
  0
BLOCK
  8
0
  2
*U165
 70
     1
 10
0.0
 20
0.0
 30
0.0
  3
*U165
  1

  0
TEXT
  5
6725E
  8
S-OBRYS
  6
CONTINUOUS
 62
     7
 10
8110.4265441097377
 20
404144.23903934972
 30
0.0
 40
100.0
  1
350
 50
90.0
 41
0.8
  0
ENDBLK
  5
67260
  8
0
  0
BLOCK
  8
0
  2
*U166
 70
     1
 10
0.0
 20
0.0
 30
0.0
  3
*U166
  1

  0
TEXT
  5
67262
  8
S-OBRYS
  6
CONTINUOUS
 62
     7
 10
6330.9464848431808
 20
404560.64380125463
 30
0.0
 40
100.0
  1
479
 50
90.0
 41
0.8
  0
ENDBLK
  5
67264
  8
0
  0
BLOCK
  8
0
  2
*U167
 70
     1
 10
0.0
 20
0.0
 30
0.0
  3
*U167
  1

  0
TEXT
  5
67266
  8
S-OBRYS
  6
CONTINUOUS
 62
     7
 10
8584.1619547848586
 20
398555.7990787715
 30
0.0
 40
100.0
  1
272
 41
0.8
  0
ENDBLK
  5
67268
  8
0
  0
BLOCK
  8
0
  2
*U168
 70
     1
 10
0.0
 20
0.0
 30
0.0
  3
*U168
  1

  0
TEXT
  5
6726A
  8
S-OBRYS
  6
CONTINUOUS
 62
     7
 10
6815.9433238410402
 20
397256.31025329541
 30
0.0
 40
100.0
  1
710
 41
0.8
  0
ENDBLK
  5
6726C
  8
0
  0
BLOCK
  8
0
  2
*U169
 70
     1
 10
0.0
 20
0.0
 30
0.0
  3
*U169
  1

  0
TEXT
  5
6726E
  8
S-OBRYS
  6
CONTINUOUS
 62
     7
 10
9487.4476690705724
 20
405599.93444060039
 30
0.0
 40
100.0
  1
174
 41
0.8
  0
ENDBLK
  5
67270
  8
0
  0
BLOCK
  8
0
  2
*U170
 70
     1
 10
0.0
 20
0.0
 30
0.0
  3
*U170
  1

  0
TEXT
  5
67272
  8
S-OBRYS
  6
CONTINUOUS
 62
     7
 10
12965.91283385176
 20
401699.31936380989
 30
0.0
 40
100.0
  1
174
 50
90.0
 41
0.8
  0
ENDBLK
  5
67274
  8
0
  0
BLOCK
  8
0
  2
*U171
 70
     1
 10
0.0
 20
0.0
 30
0.0
  3
*U171
  1

  0
TEXT
  5
67276
  8
S-OBRYS
  6
CONTINUOUS
 62
     7
 10
11720.4296255635
 20
401923.07429579488
 30
0.0
 40
100.0
  1
1216
 41
0.8
  0
ENDBLK
  5
67278
  8
0
  0
BLOCK
  8
0
  2
*U172
 70
     1
 10
0.0
 20
0.0
 30
0.0
  3
*U172
  1

  0
TEXT
  5
6727A
  8
S-OBRYS
  6
CONTINUOUS
 62
     7
 10
11718.006307827191
 20
405599.93444060039
 30
0.0
 40
100.0
  1
\U+2205400
 41
0.8
  0
ENDBLK
  5
6727C
  8
0
  0
BLOCK
  8
0
  2
*U173
 70
     1
 10
0.0
 20
0.0
 30
0.0
  3
*U173
  1

  0
TEXT
  5
6727E
  8
S-OBRYS
  6
CONTINUOUS
 62
     7
 10
10907.321056143979
 20
404612.73719150427
 30
0.0
 40
100.0
  1
1379
 50
90.0
 41
0.8
  0
ENDBLK
  5
67280
  8
0
  0
BLOCK
  8
0
  2
*U174
 70
     1
 10
0.0
 20
0.0
 30
0.0
  3
*U174
  1

  0
TEXT
  5
67282
  8
S-OBRYS
  6
CONTINUOUS
 62
     7
 10
13120.500309470301
 20
403535.61045962281
 30
0.0
 40
100.0
  1
\U+2205152
 41
0.8
  0
ENDBLK
  5
67284
  8
0
  0
BLOCK
  8
0
  2
*U175
 70
     1
 10
0.0
 20
0.0
 30
0.0
  3
*U175
  1

  0
TEXT
  5
67286
  8
S-OBRYS
  6
CONTINUOUS
 62
     7
 10
11178.731590152031
 20
404411.4376969132
 30
0.0
 40
100.0
  1
919
 50
90.0
 41
0.8
  0
ENDBLK
  5
67288
  8
0
  0
BLOCK
  8
0
  2
*U176
 70
     1
 10
0.0
 20
0.0
 30
0.0
  3
*U176
  1

  0
TEXT
  5
6728A
  8
S-OBRYS
  6
CONTINUOUS
 62
     7
 10
12373.57173804173
 20
403310.46254176687
 30
0.0
 40
100.0
  1
861
 41
0.8
  0
ENDBLK
  5
6728C
  8
0
  0
BLOCK
  8
0
  2
*U177
 70
     1
 10
0.0
 20
0.0
 30
0.0
  3
*U177
  1

  0
TEXT
  5
6728E
  8
S-OBRYS
  6
CONTINUOUS
 62
     7
 10
9053.7600846529494
 20
397037.66056356532
 30
0.0
 40
100.0
  1
278
 41
0.8
  0
ENDBLK
  5
67290
  8
0
  0
BLOCK
  8
0
  2
*U178
 70
     1
 10
0.0
 20
0.0
 30
0.0
  3
*U178
  1

  0
TEXT
  5
67292
  8
S-OBRYS
  6
CONTINUOUS
 62
     7
 10
5938.0346311155172
 20
399281.14380125463
 30
0.0
 40
100.0
  1
2000
 50
90.0
 41
0.8
  0
ENDBLK
  5
67294
  8
0
  0
BLOCK
  8
0
  2
*U179
 70
     1
 10
0.0
 20
0.0
 30
0.0
  3
*U179
  1

  0
TEXT
  5
67296
  8
S-OBRYS
  6
CONTINUOUS
 62
     7
 10
5938.2239215965537
 20
401281.14380125463
 30
0.0
 40
100.0
  1
2000
 50
90.0
 41
0.8
  0
ENDBLK
  5
67298
  8
0
  0
BLOCK
  8
0
  2
*U180
 70
     1
 10
0.0
 20
0.0
 30
0.0
  3
*U180
  1

  0
TEXT
  5
6729A
  8
S-OBRYS
  6
CONTINUOUS
 62
     7
 10
5940.810813606724
 20
403281.14380125451
 30
0.0
 40
100.0
  1
2000
 50
90.0
 41
0.8
  0
ENDBLK
  5
6729C
  8
0
  0
BLOCK
  8
0
  2
*U181
 70
     1
 10
0.0
 20
0.0
 30
0.0
  3
*U181
  1

  0
TEXT
  5
6729E
  8
S-OBRYS
  6
CONTINUOUS
 62
     7
 10
12166.83942975567
 20
398207.65558869822
 30
0.0
 40
100.0
  1
600
 41
0.8
  0
ENDBLK
  5
672A0
  8
0
  0
BLOCK
  8
0
  2
*U182
 70
     1
 10
0.0
 20
0.0
 30
0.0
  3
*U182
  1

  0
TEXT
  5
672A2
  8
S-OBRYS
  6
CONTINUOUS
 62
     7
 10
12939.218306113849
 20
399024.0396586748
 30
0.0
 40
100.0
  1
220
 50
90.0
 41
0.8
  0
ENDBLK
  5
672A4
  8
0
  0
BLOCK
  8
0
  2
*U183
 70
     1
 10
0.0
 20
0.0
 30
0.0
  3
*U183
  1

  0
TEXT
  5
672A6
  8
S-OBRYS
  6
CONTINUOUS
 62
     7
 10
7858.673985792494
 20
397794.23903934972
 30
0.0
 40
100.0
  1
950
 50
90.0
 41
0.8
  0
ENDBLK
  5
672A8
  8
0
  0
BLOCK
  8
0
  2
*U184
 70
     1
 10
0.0
 20
0.0
 30
0.0
  3
*U184
  1

  0
TEXT
  5
672AA
  8
S-OBRYS
  6
CONTINUOUS
 62
     7
 10
5940.810813606724
 20
404780.64380125451
 30
0.0
 40
100.0
  1
919
 50
90.0
 41
0.8
  0
ENDBLK
  5
672AC
  8
0
  0
BLOCK
  8
0
  2
*U185
 70
     1
 10
0.0
 20
0.0
 30
0.0
  3
*U185
  1

  0
TEXT
  5
672AE
  8
S-OBRYS
  6
CONTINUOUS
 62
     7
 10
9749.688013902598
 20
404443.07272751362
 30
0.0
 40
100.0
  1
\U+220550
 50
90.0
 41
0.8
  0
ENDBLK
  5
672B0
  8
0
  0
BLOCK
  8
0
  2
*U186
 70
     1
 10
0.0
 20
0.0
 30
0.0
  3
*U186
  1

  0
TEXT
  5
672B2
  8
S-OBRYS
  6
CONTINUOUS
 62
     7
 10
6815.9433238410429
 20
401686.81287158391
 30
0.0
 40
100.0
  1
290
 41
0.8
  0
ENDBLK
  5
672B4
  8
0
  0
BLOCK
  8
0
  2
*U187
 70
     1
 10
0.0
 20
0.0
 30
0.0
  3
*U187
  1

  0
TEXT
  5
672B6
  8
S-OBRYS
  6
CONTINUOUS
 62
     7
 10
7501.8004666981851
 20
401686.81287158368
 30
0.0
 40
100.0
  1
213
 41
0.8
  0
ENDBLK
  5
672B8
  8
0
  0
BLOCK
  8
0
  2
*U188
 70
     1
 10
0.0
 20
0.0
 30
0.0
  3
*U188
  1

  0
TEXT
  5
672BA
  8
S-OBRYS
  6
CONTINUOUS
 62
     7
 10
9481.9476690705724
 20
401686.81287158368
 30
0.0
 40
100.0
  1
163
 41
0.8
  0
ENDBLK
  5
672BC
  8
0
  0
BLOCK
  8
0
  2
*U189
 70
     1
 10
0.0
 20
0.0
 30
0.0
  3
*U189
  1

  0
TEXT
  5
672BE
  8
S-OBRYS
  6
CONTINUOUS
 62
     7
 10
18877.298964770489
 20
400905.27402162278
 30
0.0
 40
100.0
  1
407
 41
0.8
  0
ENDBLK
  5
672C0
  8
0
  0
BLOCK
  8
0
  2
*U190
 70
     1
 10
0.0
 20
0.0
 30
0.0
  3
*U190
  1

  0
TEXT
  5
672C2
  8
S-OBRYS
  6
CONTINUOUS
 62
     7
 10
19611.656107627641
 20
400905.2740216229
 30
0.0
 40
100.0
  1
303
 41
0.8
  0
ENDBLK
  5
672C4
  8
0
  0
BLOCK
  8
0
  2
*U191
 70
     1
 10
0.0
 20
0.0
 30
0.0
  3
*U191
  1

  0
TEXT
  5
672C6
  8
S-OBRYS
  6
CONTINUOUS
 62
     7
 10
18833.489440960959
 20
396839.72457099421
 30
0.0
 40
100.0
  1
1013
 41
0.8
  0
ENDBLK
  5
672C8
  8
0
  0
BLOCK
  8
0
  2
*U192
 70
     1
 10
0.0
 20
0.0
 30
0.0
  3
*U192
  1

  0
TEXT
  5
672CA
  8
S-OBRYS
  6
CONTINUOUS
 62
     7
 10
18048.705630240271
 20
397531.2711845843
 30
0.0
 40
100.0
  1
1180
 50
90.0
 41
0.8
  0
ENDBLK
  5
672CC
  8
0
  0
BLOCK
  8
0
  2
*U193
 70
     1
 10
0.0
 20
0.0
 30
0.0
  3
*U193
  1

  0
TEXT
  5
672CE
  8
S-OBRYS
  6
CONTINUOUS
 62
     7
 10
18048.705630240271
 20
399126.98547029862
 30
0.0
 40
100.0
  1
2000
 50
90.0
 41
0.8
  0
ENDBLK
  5
672D0
  8
0
  0
BLOCK
  8
0
  2
*U194
 70
     1
 10
0.0
 20
0.0
 30
0.0
  3
*U194
  1

  0
TEXT
  5
672D2
  8
S-OBRYS
  6
CONTINUOUS
 62
     7
 10
18048.70563024026
 20
401126.98547029868
 30
0.0
 40
100.0
  1
2000
 50
90.0
 41
0.8
  0
ENDBLK
  5
672D4
  8
0
  0
BLOCK
  8
0
  2
*U195
 70
     1
 10
0.0
 20
0.0
 30
0.0
  3
*U195
  1

  0
TEXT
  5
672D6
  8
S-OBRYS
  6
CONTINUOUS
 62
     7
 10
18048.70563024026
 20
403113.77118458418
 30
0.0
 40
100.0
  1
1985
 50
90.0
 41
0.8
  0
ENDBLK
  5
672D8
  8
0
  0
BLOCK
  8
0
  2
*U196
 70
     1
 10
0.0
 20
0.0
 30
0.0
  3
*U196
  1

  0
TEXT
  5
672DA
  8
S-OBRYS
  6
CONTINUOUS
 62
     7
 10
20634.562437432029
 20
398579.70044640498
 30
0.0
 40
100.0
  1
272
 41
0.8
  0
ENDBLK
  5
672DC
  8
0
  0
BLOCK
  8
0
  2
*U197
 70
     1
 10
0.0
 20
0.0
 30
0.0
  3
*U197
  1

  0
TEXT
  5
672DE
  8
S-OBRYS
  6
CONTINUOUS
 62
     7
 10
21104.160567300129
 20
397061.5619311987
 30
0.0
 40
100.0
  1
278
 41
0.8
  0
ENDBLK
  5
672E0
  8
0
  0
BLOCK
  8
0
  2
*U198
 70
     1
 10
0.0
 20
0.0
 30
0.0
  3
*U198
  1

  0
TEXT
  5
672E2
  8
S-OBRYS
  6
CONTINUOUS
 62
     7
 10
21532.34815171775
 20
401710.71423921722
 30
0.0
 40
100.0
  1
163
 41
0.8
  0
ENDBLK
  5
672E4
  8
0
  0
BLOCK
  8
0
  2
*U199
 70
     1
 10
0.0
 20
0.0
 30
0.0
  3
*U199
  1

  0
TEXT
  5
672E6
  8
S-OBRYS
  6
CONTINUOUS
 62
     7
 10
26017.014334489209
 20
401699.31936380989
 30
0.0
 40
100.0
  1
174
 50
90.0
 41
0.8
  0
ENDBLK
  5
672E8
  8
0
  0
BLOCK
  8
0
  2
*U200
 70
     1
 10
0.0
 20
0.0
 30
0.0
  3
*U200
  1

  0
TEXT
  5
672EA
  8
S-OBRYS
  6
CONTINUOUS
 62
     7
 10
24771.531126200949
 20
401923.07429579488
 30
0.0
 40
100.0
  1
1216
 41
0.8
  0
ENDBLK
  5
672EC
  8
0
  0
BLOCK
  8
0
  2
*U201
 70
     1
 10
0.0
 20
0.0
 30
0.0
  3
*U201
  1

  0
TEXT
  5
672EE
  8
S-OBRYS
  6
CONTINUOUS
 62
     7
 10
24769.10780846464
 20
405599.93444060039
 30
0.0
 40
100.0
  1
\U+2205400
 41
0.8
  0
ENDBLK
  5
672F0
  8
0
  0
BLOCK
  8
0
  2
*U202
 70
     1
 10
0.0
 20
0.0
 30
0.0
  3
*U202
  1

  0
TEXT
  5
672F2
  8
S-OBRYS
  6
CONTINUOUS
 62
     7
 10
23958.422556781439
 20
404612.73719150427
 30
0.0
 40
100.0
  1
1379
 50
90.0
 41
0.8
  0
ENDBLK
  5
672F4
  8
0
  0
BLOCK
  8
0
  2
*U203
 70
     1
 10
0.0
 20
0.0
 30
0.0
  3
*U203
  1

  0
TEXT
  5
672F6
  8
S-OBRYS
  6
CONTINUOUS
 62
     7
 10
26171.60181010775
 20
403535.61045962281
 30
0.0
 40
100.0
  1
\U+2205152
 41
0.8
  0
ENDBLK
  5
672F8
  8
0
  0
BLOCK
  8
0
  2
*U204
 70
     1
 10
0.0
 20
0.0
 30
0.0
  3
*U204
  1

  0
TEXT
  5
672FA
  8
S-OBRYS
  6
CONTINUOUS
 62
     7
 10
24229.833090789482
 20
404411.4376969132
 30
0.0
 40
100.0
  1
919
 50
90.0
 41
0.8
  0
ENDBLK
  5
672FC
  8
0
  0
BLOCK
  8
0
  2
*U205
 70
     1
 10
0.0
 20
0.0
 30
0.0
  3
*U205
  1

  0
TEXT
  5
672FE
  8
S-OBRYS
  6
CONTINUOUS
 62
     7
 10
25424.673238679181
 20
403310.46254176687
 30
0.0
 40
100.0
  1
861
 41
0.8
  0
ENDBLK
  5
67300
  8
0
  0
BLOCK
  8
0
  2
*U206
 70
     1
 10
0.0
 20
0.0
 30
0.0
  3
*U206
  1

  0
TEXT
  5
67302
  8
S-OBRYS
  6
CONTINUOUS
 62
     7
 10
25217.940930393121
 20
398207.65558869822
 30
0.0
 40
100.0
  1
600
 41
0.8
  0
ENDBLK
  5
67304
  8
0
  0
BLOCK
  8
0
  2
*U207
 70
     1
 10
0.0
 20
0.0
 30
0.0
  3
*U207
  1

  0
TEXT
  5
67306
  8
S-OBRYS
  6
CONTINUOUS
 62
     7
 10
25990.3198067513
 20
399024.0396586748
 30
0.0
 40
100.0
  1
220
 50
90.0
 41
0.8
  0
ENDBLK
  5
67308
  8
0
  0
BLOCK
  8
0
  2
*U208
 70
     1
 10
0.0
 20
0.0
 30
0.0
  3
*U208
  1

  0
TEXT
  5
6730A
  8
S-OBRYS
  6
CONTINUOUS
 62
     7
 10
24138.525862631039
 20
400747.08126857178
 30
0.0
 40
100.0
  1
1440
 50
90.0
 41
0.8
  0
ENDBLK
  5
6730C
  8
0
  0
BLOCK
  8
0
  2
*U209
 70
     1
 10
0.0
 20
0.0
 30
0.0
  3
*U209
  1

  0
TEXT
  5
6730E
  8
S-OBRYS
  6
CONTINUOUS
 62
     7
 10
21595.957051816629
 20
405783.72807544091
 30
0.0
 40
100.0
  1
1440
 41
0.8
  0
ENDBLK
  5
67310
  8
0
  0
BLOCK
  8
0
  2
*U210
 70
     1
 10
0.0
 20
0.0
 30
0.0
  3
*U210
  1

  0
TEXT
  5
67312
  8
S-OBRYS
  6
CONTINUOUS
 62
     7
 10
18364.50463353506
 20
404395.17594648909
 30
0.0
 40
100.0
  1
494
 50
90.0
 41
0.8
  0
ENDBLK
  5
67314
  8
0
  0
BLOCK
  8
0
  2
*U211
 70
     1
 10
0.0
 20
0.0
 30
0.0
  3
*U211
  1

  0
TEXT
  5
67316
  8
S-OBRYS
  6
CONTINUOUS
 62
     7
 10
18048.70563024026
 20
404646.36642267962
 30
0.0
 40
100.0
  1
1084
 50
90.0
 41
0.8
  0
ENDBLK
  5
67318
  8
0
  0
BLOCK
  8
0
  2
*U212
 70
     1
 10
0.0
 20
0.0
 30
0.0
  3
*U212
  1

  0
TEXT
  5
6731A
  8
S-OBRYS
  6
CONTINUOUS
 62
     7
 10
19084.98944096097
 20
405639.07763375249
 30
0.0
 40
100.0
  1
1516
 41
0.8
  0
ENDBLK
  5
6731C
  8
0
  0
BLOCK
  8
0
  2
*U213
 70
     1
 10
0.0
 20
0.0
 30
0.0
  3
*U213
  1

  0
TEXT
  5
6731E
  8
S-OBRYS
  6
CONTINUOUS
 62
     7
 10
20250.660161222891
 20
403980.08070839371
 30
0.0
 40
100.0
  1
370
 50
90.0
 41
0.8
  0
ENDBLK
  5
67320
  8
0
  0
BLOCK
  8
0
  2
*U214
 70
     1
 10
0.0
 20
0.0
 30
0.0
  3
*U214
  1

  0
TEXT
  5
67322
  8
S-OBRYS
  6
CONTINUOUS
 62
     7
 10
-5575.3063949211237
 20
403968.164114477
 30
0.0
 40
100.0
  1
370
 50
90.0
 41
0.8
  0
ENDBLK
  5
67324
  8
0
  0
BLOCK
  8
0
  2
*U215
 70
     1
 10
0.0
 20
0.0
 30
0.0
  3
*U215
  1

  0
TEXT
  5
67326
  8
S-OBRYS
  6
CONTINUOUS
 62
     7
 10
-4164.7204005663561
 20
405836.5878203031
 30
0.0
 40
100.0
  1
240
 41
0.8
  0
ENDBLK
  5
67328
  8
0
  0
BLOCK
  8
0
  2
*U216
 70
     1
 10
0.0
 20
0.0
 30
0.0
  3
*U216
  1

  0
TEXT
  5
6732A
  8
S-OBRYS
  6
CONTINUOUS
 62
     7
 10
-6740.9771151830419
 20
405835.92036642501
 30
0.0
 40
100.0
  1
1516
 41
0.8
  0
ENDBLK
  5
6732C
  8
0
  0
BLOCK
  8
0
  2
*U217
 70
     1
 10
0.0
 20
0.0
 30
0.0
  3
*U217
  1

  0
TEXT
  5
6732E
  8
S-OBRYS
  6
CONTINUOUS
 62
     7
 10
-7777.2609259037481
 20
404634.44982876268
 30
0.0
 40
100.0
  1
1084
 50
90.0
 41
0.8
  0
ENDBLK
  5
67330
  8
0
  0
BLOCK
  8
0
  2
*U218
 70
     1
 10
0.0
 20
0.0
 30
0.0
  3
*U218
  1

  0
TEXT
  5
67332
  8
S-OBRYS
  6
CONTINUOUS
 62
     7
 10
-7461.4619226089562
 20
404383.25935257232
 30
0.0
 40
100.0
  1
494
 50
90.0
 41
0.8
  0
ENDBLK
  5
67334
  8
0
  0
BLOCK
  8
0
  2
*U219
 70
     1
 10
0.0
 20
0.0
 30
0.0
  3
*U219
  1

  0
TEXT
  5
67336
  8
S-OBRYS
  6
CONTINUOUS
 62
     7
 10
-1085.9632529049959
 20
397747.69823080988
 30
0.0
 40
100.0
  1
800
 41
0.8
  0
ENDBLK
  5
67338
  8
0
  0
BLOCK
  8
0
  2
*U220
 70
     1
 10
0.0
 20
0.0
 30
0.0
  3
*U220
  1

  0
TEXT
  5
6733A
  8
S-OBRYS
  6
CONTINUOUS
 62
     7
 10
-201.7856127152904
 20
398162.28675532271
 30
0.0
 40
100.0
  1
294
 50
90.0
 41
0.8
  0
ENDBLK
  5
6733C
  8
0
  0
BLOCK
  8
0
  2
*U221
 70
     1
 10
0.0
 20
0.0
 30
0.0
  3
*U221
  1

  0
TEXT
  5
6733E
  8
S-OBRYS
  6
CONTINUOUS
 62
     7
 10
-1252.5954780089451
 20
403531.84837743349
 30
0.0
 40
100.0
  1
1516
 41
0.8
  0
ENDBLK
  5
67340
  8
0
  0
BLOCK
  8
0
  2
*U222
 70
     1
 10
0.0
 20
0.0
 30
0.0
  3
*U222
  1

  0
TEXT
  5
67342
  8
S-OBRYS
  6
CONTINUOUS
 62
     7
 10
-6948.667591373528
 20
400893.35742770589
 30
0.0
 40
100.0
  1
407
 41
0.8
  0
ENDBLK
  5
67344
  8
0
  0
BLOCK
  8
0
  2
*U223
 70
     1
 10
0.0
 20
0.0
 30
0.0
  3
*U223
  1

  0
TEXT
  5
67346
  8
S-OBRYS
  6
CONTINUOUS
 62
     7
 10
-6214.3104485163803
 20
400893.35742770601
 30
0.0
 40
100.0
  1
303
 41
0.8
  0
ENDBLK
  5
67348
  8
0
  0
BLOCK
  8
0
  2
*U224
 70
     1
 10
0.0
 20
0.0
 30
0.0
  3
*U224
  1

  0
TEXT
  5
6734A
  8
S-OBRYS
  6
CONTINUOUS
 62
     7
 10
-6992.4771151830528
 20
396699.40878438362
 30
0.0
 40
100.0
  1
1013
 41
0.8
  0
ENDBLK
  5
6734C
  8
0
  0
BLOCK
  8
0
  2
*U225
 70
     1
 10
0.0
 20
0.0
 30
0.0
  3
*U225
  1

  0
TEXT
  5
6734E
  8
S-OBRYS
  6
CONTINUOUS
 62
     7
 10
-7777.2609259037481
 20
397519.35459066753
 30
0.0
 40
100.0
  1
1180
 50
90.0
 41
0.8
  0
ENDBLK
  5
67350
  8
0
  0
BLOCK
  8
0
  2
*U226
 70
     1
 10
0.0
 20
0.0
 30
0.0
  3
*U226
  1

  0
TEXT
  5
67352
  8
S-OBRYS
  6
CONTINUOUS
 62
     7
 10
-7777.2609259037481
 20
399115.06887638179
 30
0.0
 40
100.0
  1
2000
 50
90.0
 41
0.8
  0
ENDBLK
  5
67354
  8
0
  0
BLOCK
  8
0
  2
*U227
 70
     1
 10
0.0
 20
0.0
 30
0.0
  3
*U227
  1

  0
TEXT
  5
67356
  8
S-OBRYS
  6
CONTINUOUS
 62
     7
 10
-7777.2609259037481
 20
401115.06887638179
 30
0.0
 40
100.0
  1
2000
 50
90.0
 41
0.8
  0
ENDBLK
  5
67358
  8
0
  0
BLOCK
  8
0
  2
*U228
 70
     1
 10
0.0
 20
0.0
 30
0.0
  3
*U228
  1

  0
TEXT
  5
6735A
  8
S-OBRYS
  6
CONTINUOUS
 62
     7
 10
-7777.2609259037481
 20
403101.85459066741
 30
0.0
 40
100.0
  1
1985
 50
90.0
 41
0.8
  0
ENDBLK
  5
6735C
  8
0
  0
BLOCK
  8
0
  2
*U229
 70
     1
 10
0.0
 20
0.0
 30
0.0
  3
*U229
  1

  0
TEXT
  5
6735E
  8
S-OBRYS
  6
CONTINUOUS
 62
     7
 10
-4168.2204005663571
 20
400881.31740101782
 30
0.0
 40
100.0
  1
233
 41
0.8
  0
ENDBLK
  5
67360
  8
0
  0
BLOCK
  8
0
  2
*U230
 70
     1
 10
0.0
 20
0.0
 30
0.0
  3
*U230
  1

  0
TEXT
  5
67362
  8
S-OBRYS
  6
CONTINUOUS
 62
     7
 10
-3928.7356190095379
 20
404283.11649542942
 30
0.0
 40
100.0
  1
\U+220550
 50
90.0
 41
0.8
  0
ENDBLK
  5
67364
  8
0
  0
BLOCK
  8
0
  2
*U231
 70
     1
 10
0.0
 20
0.0
 30
0.0
  3
*U231
  1

  0
TEXT
  5
67366
  8
S-OBRYS
  6
CONTINUOUS
 62
     7
 10
-4612.5775434235002
 20
396715.67991193279
 30
0.0
 40
100.0
  1
352
 41
0.8
  0
ENDBLK
  5
67368
  8
0
  0
BLOCK
  8
0
  2
*U232
 70
     1
 10
0.0
 20
0.0
 30
0.0
  3
*U232
  1

  0
TEXT
  5
6736A
  8
S-OBRYS
  6
CONTINUOUS
 62
     7
 10
-111.6501118806836
 20
401057.50498639792
 30
0.0
 40
100.0
  1
240
 50
90.0
 41
0.8
  0
ENDBLK
  5
6736C
  8
0
  0
BLOCK
  8
0
  2
*U233
 70
     1
 10
0.0
 20
0.0
 30
0.0
  3
*U233
  1

  0
TEXT
  5
6736E
  8
S-OBRYS
  6
CONTINUOUS
 62
     7
 10
-5016.1089844165581
 20
404146.1987278926
 30
0.0
 40
100.0
  1
370
 50
90.0
 41
0.8
  0
ENDBLK
  5
67370
  8
0
  0
BLOCK
  8
0
  2
*U234
 70
     1
 10
0.0
 20
0.0
 30
0.0
  3
*U234
  1

  0
TEXT
  5
67372
  8
S-OBRYS
  6
CONTINUOUS
 62
     7
 10
-3605.5229900617901
 20
406014.6224337187
 30
0.0
 40
100.0
  1
240
 41
0.8
  0
ENDBLK
  5
67374
  8
0
  0
BLOCK
  8
0
  2
*U235
 70
     1
 10
0.0
 20
0.0
 30
0.0
  3
*U235
  1

  0
TEXT
  5
67376
  8
S-OBRYS
  6
CONTINUOUS
 62
     7
 10
-6181.7797046784763
 20
406013.95497984061
 30
0.0
 40
100.0
  1
1516
 41
0.8
  0
ENDBLK
  5
67378
  8
0
  0
BLOCK
  8
0
  2
*U236
 70
     1
 10
0.0
 20
0.0
 30
0.0
  3
*U236
  1

  0
TEXT
  5
6737A
  8
S-OBRYS
  6
CONTINUOUS
 62
     7
 10
-7218.0635153991807
 20
404812.48444217828
 30
0.0
 40
100.0
  1
1084
 50
90.0
 41
0.8
  0
ENDBLK
  5
6737C
  8
0
  0
BLOCK
  8
0
  2
*U237
 70
     1
 10
0.0
 20
0.0
 30
0.0
  3
*U237
  1

  0
TEXT
  5
6737E
  8
S-OBRYS
  6
CONTINUOUS
 62
     7
 10
-6902.2645121043888
 20
404561.29396598792
 30
0.0
 40
100.0
  1
494
 50
90.0
 41
0.8
  0
ENDBLK
  5
67380
  8
0
  0
BLOCK
  8
0
  2
*U238
 70
     1
 10
0.0
 20
0.0
 30
0.0
  3
*U238
  1

  0
TEXT
  5
67382
  8
S-OBRYS
  6
CONTINUOUS
 62
     7
 10
-526.76584240042996
 20
397925.73284422548
 30
0.0
 40
100.0
  1
800
 41
0.8
  0
ENDBLK
  5
67384
  8
0
  0
BLOCK
  8
0
  2
*U239
 70
     1
 10
0.0
 20
0.0
 30
0.0
  3
*U239
  1

  0
TEXT
  5
67386
  8
S-OBRYS
  6
CONTINUOUS
 62
     7
 10
357.41179778927608
 20
398340.32136873831
 30
0.0
 40
100.0
  1
294
 50
90.0
 41
0.8
  0
ENDBLK
  5
67388
  8
0
  0
BLOCK
  8
0
  2
*U240
 70
     1
 10
0.0
 20
0.0
 30
0.0
  3
*U240
  1

  0
TEXT
  5
6738A
  8
S-OBRYS
  6
CONTINUOUS
 62
     7
 10
-693.39806750437901
 20
403709.88299084909
 30
0.0
 40
100.0
  1
1516
 41
0.8
  0
ENDBLK
  5
6738C
  8
0
  0
BLOCK
  8
0
  2
*U241
 70
     1
 10
0.0
 20
0.0
 30
0.0
  3
*U241
  1

  0
TEXT
  5
6738E
  8
S-OBRYS
  6
CONTINUOUS
 62
     7
 10
-6389.4701808689606
 20
401071.39204112149
 30
0.0
 40
100.0
  1
407
 41
0.8
  0
ENDBLK
  5
67390
  8
0
  0
BLOCK
  8
0
  2
*U242
 70
     1
 10
0.0
 20
0.0
 30
0.0
  3
*U242
  1

  0
TEXT
  5
67392
  8
S-OBRYS
  6
CONTINUOUS
 62
     7
 10
-5655.1130380118138
 20
401071.39204112161
 30
0.0
 40
100.0
  1
303
 41
0.8
  0
ENDBLK
  5
67394
  8
0
  0
BLOCK
  8
0
  2
*U243
 70
     1
 10
0.0
 20
0.0
 30
0.0
  3
*U243
  1

  0
TEXT
  5
67396
  8
S-OBRYS
  6
CONTINUOUS
 62
     7
 10
-6433.2797046784863
 20
396877.44339779922
 30
0.0
 40
100.0
  1
1013
 41
0.8
  0
ENDBLK
  5
67398
  8
0
  0
BLOCK
  8
0
  2
*U244
 70
     1
 10
0.0
 20
0.0
 30
0.0
  3
*U244
  1

  0
TEXT
  5
6739A
  8
S-OBRYS
  6
CONTINUOUS
 62
     7
 10
-7218.0635153991807
 20
397697.38920408313
 30
0.0
 40
100.0
  1
1180
 50
90.0
 41
0.8
  0
ENDBLK
  5
6739C
  8
0
  0
BLOCK
  8
0
  2
*U245
 70
     1
 10
0.0
 20
0.0
 30
0.0
  3
*U245
  1

  0
TEXT
  5
6739E
  8
S-OBRYS
  6
CONTINUOUS
 62
     7
 10
-7218.0635153991807
 20
399293.10348979739
 30
0.0
 40
100.0
  1
2000
 50
90.0
 41
0.8
  0
ENDBLK
  5
673A0
  8
0
  0
BLOCK
  8
0
  2
*U246
 70
     1
 10
0.0
 20
0.0
 30
0.0
  3
*U246
  1

  0
TEXT
  5
673A2
  8
S-OBRYS
  6
CONTINUOUS
 62
     7
 10
-7218.0635153991807
 20
401293.10348979739
 30
0.0
 40
100.0
  1
2000
 50
90.0
 41
0.8
  0
ENDBLK
  5
673A4
  8
0
  0
BLOCK
  8
0
  2
*U247
 70
     1
 10
0.0
 20
0.0
 30
0.0
  3
*U247
  1

  0
TEXT
  5
673A6
  8
S-OBRYS
  6
CONTINUOUS
 62
     7
 10
-7218.0635153991807
 20
403279.88920408313
 30
0.0
 40
100.0
  1
1985
 50
90.0
 41
0.8
  0
ENDBLK
  5
673A8
  8
0
  0
BLOCK
  8
0
  2
*U248
 70
     1
 10
0.0
 20
0.0
 30
0.0
  3
*U248
  1

  0
TEXT
  5
673AA
  8
S-OBRYS
  6
CONTINUOUS
 62
     7
 10
-3609.0229900617919
 20
401059.35201443348
 30
0.0
 40
100.0
  1
233
 41
0.8
  0
ENDBLK
  5
673AC
  8
0
  0
BLOCK
  8
0
  2
*U249
 70
     1
 10
0.0
 20
0.0
 30
0.0
  3
*U249
  1

  0
TEXT
  5
673AE
  8
S-OBRYS
  6
CONTINUOUS
 62
     7
 10
-3369.5382085049719
 20
404461.15110884502
 30
0.0
 40
100.0
  1
\U+220550
 50
90.0
 41
0.8
  0
ENDBLK
  5
673B0
  8
0
  0
BLOCK
  8
0
  2
*U250
 70
     1
 10
0.0
 20
0.0
 30
0.0
  3
*U250
  1

  0
TEXT
  5
673B2
  8
S-OBRYS
  6
CONTINUOUS
 62
     7
 10
-4053.3801329189341
 20
396893.71452534839
 30
0.0
 40
100.0
  1
352
 41
0.8
  0
ENDBLK
  5
673B4
  8
0
  0
BLOCK
  8
0
  2
*U251
 70
     1
 10
0.0
 20
0.0
 30
0.0
  3
*U251
  1

  0
TEXT
  5
673B6
  8
S-OBRYS
  6
CONTINUOUS
 62
     7
 10
447.5472986238828
 20
401235.53959981352
 30
0.0
 40
100.0
  1
240
 50
90.0
 41
0.8
  0
ENDBLK
  5
673B8
  8
0
  0
BLOCK
  8
0
  2
*U252
 70
     1
 10
0.0
 20
0.0
 30
0.0
  3
*U252
  1

  0
TEXT
  5
673BA
  8
S-OBRYS
  6
CONTINUOUS
 62
     7
 10
18524.177943229679
 20
404780.64380125451
 30
0.0
 40
100.0
  1
919
 50
90.0
 41
0.8
  0
ENDBLK
  5
673BC
  8
0
  0
BLOCK
  8
0
  2
*U253
 70
     1
 10
0.0
 20
0.0
 30
0.0
  3
*U253
  1

  0
TEXT
  5
673BE
  8
S-OBRYS
  6
CONTINUOUS
 62
     7
 10
22333.055143525558
 20
404443.07272751362
 30
0.0
 40
100.0
  1
\U+220550
 50
90.0
 41
0.8
  0
ENDBLK
  5
673C0
  8
0
  0
BLOCK
  8
0
  2
*U254
 70
     1
 10
0.0
 20
0.0
 30
0.0
  3
*U254
  1

  0
TEXT
  5
673C2
  8
S-OBRYS
  6
CONTINUOUS
 62
     7
 10
19399.310453464001
 20
401686.81287158391
 30
0.0
 40
100.0
  1
290
 41
0.8
  0
ENDBLK
  5
673C4
  8
0
  0
BLOCK
  8
0
  2
*U255
 70
     1
 10
0.0
 20
0.0
 30
0.0
  3
*U255
  1

  0
TEXT
  5
673C6
  8
S-OBRYS
  6
CONTINUOUS
 62
     7
 10
20085.167596321138
 20
401686.81287158368
 30
0.0
 40
100.0
  1
213
 41
0.8
  0
ENDBLK
  5
673C8
  8
0
  0
BLOCK
  8
0
  2
*U256
 70
     1
 10
0.0
 20
0.0
 30
0.0
  3
*U256
  1

  0
TEXT
  5
673CA
  8
S-OBRYS
  6
CONTINUOUS
 62
     7
 10
22065.31479869354
 20
401686.81287158368
 30
0.0
 40
100.0
  1
163
 41
0.8
  0
ENDBLK
  5
673CC
  8
0
  0
BLOCK
  8
0
  2
*U257
 70
     1
 10
0.0
 20
0.0
 30
0.0
  3
*U257
  1

  0
TEXT
  5
673CE
  8
S-OBRYS
  6
CONTINUOUS
 62
     7
 10
19355.50092965447
 20
397049.47386231582
 30
0.0
 40
100.0
  1
1290
 41
0.8
  0
ENDBLK
  5
673D0
  8
0
  0
BLOCK
  8
0
  2
*U258
 70
     1
 10
0.0
 20
0.0
 30
0.0
  3
*U258
  1

  0
TEXT
  5
673D2
  8
S-OBRYS
  6
CONTINUOUS
 62
     7
 10
18518.698419033379
 20
397775.42951554031
 30
0.0
 40
100.0
  1
1000
 50
90.0
 41
0.8
  0
ENDBLK
  5
673D4
  8
0
  0
BLOCK
  8
0
  2
*U259
 70
     1
 10
0.0
 20
0.0
 30
0.0
  3
*U259
  1

  0
TEXT
  5
673D6
  8
S-OBRYS
  6
CONTINUOUS
 62
     7
 10
20442.04111541545
 20
397794.23903934972
 30
0.0
 40
100.0
  1
950
 50
90.0
 41
0.8
  0
ENDBLK
  5
673D8
  8
0
  0
BLOCK
  8
0
  2
*U260
 70
     1
 10
0.0
 20
0.0
 30
0.0
  3
*U260
  1

  0
TEXT
  5
673DA
  8
S-OBRYS
  6
CONTINUOUS
 62
     7
 10
19608.50092965447
 20
405629.94555959431
 30
0.0
 40
100.0
  1
1216
 41
0.8
  0
ENDBLK
  5
673DC
  8
0
  0
BLOCK
  8
0
  2
*U261
 70
     1
 10
0.0
 20
0.0
 30
0.0
  3
*U261
  1

  0
TEXT
  5
673DE
  8
S-OBRYS
  6
CONTINUOUS
 62
     7
 10
20693.7936737327
 20
404144.23903934972
 30
0.0
 40
100.0
  1
350
 50
90.0
 41
0.8
  0
ENDBLK
  5
673E0
  8
0
  0
BLOCK
  8
0
  2
*U262
 70
     1
 10
0.0
 20
0.0
 30
0.0
  3
*U262
  1

  0
TEXT
  5
673E2
  8
S-OBRYS
  6
CONTINUOUS
 62
     7
 10
18914.31361446614
 20
404560.64380125463
 30
0.0
 40
100.0
  1
479
 50
90.0
 41
0.8
  0
ENDBLK
  5
673E4
  8
0
  0
BLOCK
  8
0
  2
*U263
 70
     1
 10
0.0
 20
0.0
 30
0.0
  3
*U263
  1

  0
TEXT
  5
673E6
  8
S-OBRYS
  6
CONTINUOUS
 62
     7
 10
21167.529084407819
 20
398555.7990787715
 30
0.0
 40
100.0
  1
272
 41
0.8
  0
ENDBLK
  5
673E8
  8
0
  0
BLOCK
  8
0
  2
*U264
 70
     1
 10
0.0
 20
0.0
 30
0.0
  3
*U264
  1

  0
TEXT
  5
673EA
  8
S-OBRYS
  6
CONTINUOUS
 62
     7
 10
19399.310453464001
 20
397256.31025329541
 30
0.0
 40
100.0
  1
710
 41
0.8
  0
ENDBLK
  5
673EC
  8
0
  0
BLOCK
  8
0
  2
*U265
 70
     1
 10
0.0
 20
0.0
 30
0.0
  3
*U265
  1

  0
TEXT
  5
673EE
  8
S-OBRYS
  6
CONTINUOUS
 62
     7
 10
22070.814798693529
 20
405599.93444060039
 30
0.0
 40
100.0
  1
174
 41
0.8
  0
ENDBLK
  5
673F0
  8
0
  0
BLOCK
  8
0
  2
*U266
 70
     1
 10
0.0
 20
0.0
 30
0.0
  3
*U266
  1

  0
TEXT
  5
673F2
  8
S-OBRYS
  6
CONTINUOUS
 62
     7
 10
25549.27996347471
 20
401699.31936380989
 30
0.0
 40
100.0
  1
174
 50
90.0
 41
0.8
  0
ENDBLK
  5
673F4
  8
0
  0
BLOCK
  8
0
  2
*U267
 70
     1
 10
0.0
 20
0.0
 30
0.0
  3
*U267
  1

  0
TEXT
  5
673F6
  8
S-OBRYS
  6
CONTINUOUS
 62
     7
 10
24303.79675518646
 20
401923.07429579488
 30
0.0
 40
100.0
  1
1216
 41
0.8
  0
ENDBLK
  5
673F8
  8
0
  0
BLOCK
  8
0
  2
*U268
 70
     1
 10
0.0
 20
0.0
 30
0.0
  3
*U268
  1

  0
TEXT
  5
673FA
  8
S-OBRYS
  6
CONTINUOUS
 62
     7
 10
24301.37343745014
 20
405599.93444060039
 30
0.0
 40
100.0
  1
\U+2205400
 41
0.8
  0
ENDBLK
  5
673FC
  8
0
  0
BLOCK
  8
0
  2
*U269
 70
     1
 10
0.0
 20
0.0
 30
0.0
  3
*U269
  1

  0
TEXT
  5
673FE
  8
S-OBRYS
  6
CONTINUOUS
 62
     7
 10
23490.68818576694
 20
404612.73719150427
 30
0.0
 40
100.0
  1
1379
 50
90.0
 41
0.8
  0
ENDBLK
  5
67400
  8
0
  0
BLOCK
  8
0
  2
*U270
 70
     1
 10
0.0
 20
0.0
 30
0.0
  3
*U270
  1

  0
TEXT
  5
67402
  8
S-OBRYS
  6
CONTINUOUS
 62
     7
 10
25703.867439093261
 20
403535.61045962281
 30
0.0
 40
100.0
  1
\U+2205152
 41
0.8
  0
ENDBLK
  5
67404
  8
0
  0
BLOCK
  8
0
  2
*U271
 70
     1
 10
0.0
 20
0.0
 30
0.0
  3
*U271
  1

  0
TEXT
  5
67406
  8
S-OBRYS
  6
CONTINUOUS
 62
     7
 10
23762.098719774978
 20
404411.4376969132
 30
0.0
 40
100.0
  1
919
 50
90.0
 41
0.8
  0
ENDBLK
  5
67408
  8
0
  0
BLOCK
  8
0
  2
*U272
 70
     1
 10
0.0
 20
0.0
 30
0.0
  3
*U272
  1

  0
TEXT
  5
6740A
  8
S-OBRYS
  6
CONTINUOUS
 62
     7
 10
24956.938867664681
 20
403310.46254176687
 30
0.0
 40
100.0
  1
861
 41
0.8
  0
ENDBLK
  5
6740C
  8
0
  0
BLOCK
  8
0
  2
*U273
 70
     1
 10
0.0
 20
0.0
 30
0.0
  3
*U273
  1

  0
TEXT
  5
6740E
  8
S-OBRYS
  6
CONTINUOUS
 62
     7
 10
21637.127214275912
 20
397037.66056356532
 30
0.0
 40
100.0
  1
278
 41
0.8
  0
ENDBLK
  5
67410
  8
0
  0
BLOCK
  8
0
  2
*U274
 70
     1
 10
0.0
 20
0.0
 30
0.0
  3
*U274
  1

  0
TEXT
  5
67412
  8
S-OBRYS
  6
CONTINUOUS
 62
     7
 10
18521.401760738481
 20
399281.14380125463
 30
0.0
 40
100.0
  1
2000
 50
90.0
 41
0.8
  0
ENDBLK
  5
67414
  8
0
  0
BLOCK
  8
0
  2
*U275
 70
     1
 10
0.0
 20
0.0
 30
0.0
  3
*U275
  1

  0
TEXT
  5
67416
  8
S-OBRYS
  6
CONTINUOUS
 62
     7
 10
18521.591051219511
 20
401281.14380125463
 30
0.0
 40
100.0
  1
2000
 50
90.0
 41
0.8
  0
ENDBLK
  5
67418
  8
0
  0
BLOCK
  8
0
  2
*U276
 70
     1
 10
0.0
 20
0.0
 30
0.0
  3
*U276
  1

  0
TEXT
  5
6741A
  8
S-OBRYS
  6
CONTINUOUS
 62
     7
 10
18524.177943229679
 20
403281.14380125451
 30
0.0
 40
100.0
  1
2000
 50
90.0
 41
0.8
  0
ENDBLK
  5
6741C
  8
0
  0
BLOCK
  8
0
  2
*U277
 70
     1
 10
0.0
 20
0.0
 30
0.0
  3
*U277
  1

  0
TEXT
  5
6741E
  8
S-OBRYS
  6
CONTINUOUS
 62
     7
 10
24750.206559378628
 20
398207.65558869822
 30
0.0
 40
100.0
  1
600
 41
0.8
  0
ENDBLK
  5
67420
  8
0
  0
BLOCK
  8
0
  2
*U278
 70
     1
 10
0.0
 20
0.0
 30
0.0
  3
*U278
  1

  0
TEXT
  5
67422
  8
S-OBRYS
  6
CONTINUOUS
 62
     7
 10
25522.585435736812
 20
399024.0396586748
 30
0.0
 40
100.0
  1
220
 50
90.0
 41
0.8
  0
ENDBLK
  5
67424
  8
0
  0
BLOCK
  8
0
  2
*U279
 70
     1
 10
0.0
 20
0.0
 30
0.0
  3
*U279
  1

  0
TEXT
  5
67426
  8
S-OBRYS
  6
CONTINUOUS
 62
     7
 10
20442.04111541545
 20
397794.23903934972
 30
0.0
 40
100.0
  1
950
 50
90.0
 41
0.8
  0
ENDBLK
  5
67428
  8
0
  0
BLOCK
  8
0
  2
*U280
 70
     1
 10
0.0
 20
0.0
 30
0.0
  3
*U280
  1

  0
TEXT
  5
6742A
  8
OBRYS
  6
CONTINUOUS
 10
-19815.655251996661
 20
407174.15461007378
 30
0.0
 40
400.0
  1
Korečkový elevátor EK 155 
  7
R
  0
ENDBLK
  5
6742C
  8
0
  0
BLOCK
  8
0
  2
*U281
 70
     1
 10
0.0
 20
0.0
 30
0.0
  3
*U281
  1

  0
LINE
  5
67451
  8
S-OBRYS
  6
CONTINUOUS
 10
-13571.19272556818
 20
399272.10228031629
 30
0.0
 11
-11559.76415413961
 21
399272.10228031629
 31
0.0
  0
TEXT
  5
67452
  8
S-OBRYS
  6
CONTINUOUS
 10
-13571.19272556818
 20
399302.10228031618
 30
0.0
 40
150.0
  1
Kotvení spodní hlavy
 41
0.8
  0
ENDBLK
  5
67454
  8
0
  0
BLOCK
  8
0
  2
*U282
 70
     1
 10
0.0
 20
0.0
 30
0.0
  3
*U282
  1

  0
TEXT
  5
67456
  8
S-OBRYS
  6
CONTINUOUS
 10
-13524.99482390358
 20
397925.52668605692
 30
0.0
 40
100.0
  1
\U+220514
 41
0.8
  0
ENDBLK
  5
67458
  8
0
  0
BLOCK
  8
0
  2
*U283
 70
     1
 10
0.0
 20
0.0
 30
0.0
  3
*U283
  1

  0
INSERT
  5
6745A
  8
S-OBRYS
  6
CONTINUOUS
  2
_OPEN
 10
-13097.95626280641
 20
398304.41934313817
 30
0.0
 41
100.0
 42
100.0
 43
100.0
 50
78.129590234048308
  0
POLYLINE
  5
6745B
  8
S-OBRYS
  6
CONTINUOUS
 66
     1
 10
0.0
 20
0.0
 30
0.0
  0
VERTEX
  5
6745C
  8
S-OBRYS
  6
CONTINUOUS
 10
-13118.526143794379
 20
398206.55780832429
 30
0.0
  0
VERTEX
  5
6745D
  8
S-OBRYS
  6
CONTINUOUS
 10
-13182.85196676072
 20
397900.52668605698
 30
0.0
  0
VERTEX
  5
6745E
  8
S-OBRYS
  6
CONTINUOUS
 10
-13513.56625247501
 20
397900.52668605698
 30
0.0
  0
SEQEND
  5
6745F
  8
S-OBRYS
  6
CONTINUOUS
  0
ENDBLK
  5
67461
  8
0
  0
BLOCK
  8
0
  2
*U284
 70
     1
 10
0.0
 20
0.0
 30
0.0
  3
*U284
  1

  0
TEXT
  5
67463
  8
S-OBRYS
  6
CONTINUOUS
 62
     7
 10
-17296.782367239452
 20
404146.1987278926
 30
0.0
 40
100.0
  1
370
 50
90.0
 41
0.8
  0
ENDBLK
  5
67465
  8
0
  0
BLOCK
  8
0
  2
*U285
 70
     1
 10
0.0
 20
0.0
 30
0.0
  3
*U285
  1

  0
TEXT
  5
67467
  8
S-OBRYS
  6
CONTINUOUS
 62
     7
 10
-15886.19637288468
 20
406014.6224337187
 30
0.0
 40
100.0
  1
240
 41
0.8
  0
ENDBLK
  5
67469
  8
0
  0
BLOCK
  8
0
  2
*U286
 70
     1
 10
0.0
 20
0.0
 30
0.0
  3
*U286
  1

  0
TEXT
  5
6746B
  8
S-OBRYS
  6
CONTINUOUS
 62
     7
 10
-18462.453087501359
 20
406013.95497984061
 30
0.0
 40
100.0
  1
1516
 41
0.8
  0
ENDBLK
  5
6746D
  8
0
  0
BLOCK
  8
0
  2
*U287
 70
     1
 10
0.0
 20
0.0
 30
0.0
  3
*U287
  1

  0
TEXT
  5
6746F
  8
S-OBRYS
  6
CONTINUOUS
 62
     7
 10
-19498.736898222069
 20
404812.48444217828
 30
0.0
 40
100.0
  1
1084
 50
90.0
 41
0.8
  0
ENDBLK
  5
67471
  8
0
  0
BLOCK
  8
0
  2
*U288
 70
     1
 10
0.0
 20
0.0
 30
0.0
  3
*U288
  1

  0
TEXT
  5
67473
  8
S-OBRYS
  6
CONTINUOUS
 62
     7
 10
-19182.93789492728
 20
404561.29396598792
 30
0.0
 40
100.0
  1
494
 50
90.0
 41
0.8
  0
ENDBLK
  5
67475
  8
0
  0
BLOCK
  8
0
  2
*U289
 70
     1
 10
0.0
 20
0.0
 30
0.0
  3
*U289
  1

  0
TEXT
  5
67477
  8
S-OBRYS
  6
CONTINUOUS
 62
     7
 10
-12807.439225223319
 20
397925.73284422548
 30
0.0
 40
100.0
  1
800
 41
0.8
  0
ENDBLK
  5
67479
  8
0
  0
BLOCK
  8
0
  2
*U290
 70
     1
 10
0.0
 20
0.0
 30
0.0
  3
*U290
  1

  0
TEXT
  5
6747B
  8
S-OBRYS
  6
CONTINUOUS
 62
     7
 10
-11923.26158503361
 20
398340.32136873831
 30
0.0
 40
100.0
  1
294
 50
90.0
 41
0.8
  0
ENDBLK
  5
6747D
  8
0
  0
BLOCK
  8
0
  2
*U291
 70
     1
 10
0.0
 20
0.0
 30
0.0
  3
*U291
  1

  0
TEXT
  5
6747F
  8
S-OBRYS
  6
CONTINUOUS
 62
     7
 10
-12974.07145032727
 20
403709.88299084909
 30
0.0
 40
100.0
  1
1516
 41
0.8
  0
ENDBLK
  5
67481
  8
0
  0
BLOCK
  8
0
  2
*U292
 70
     1
 10
0.0
 20
0.0
 30
0.0
  3
*U292
  1

  0
TEXT
  5
67483
  8
S-OBRYS
  6
CONTINUOUS
 62
     7
 10
-18670.14356369185
 20
401071.39204112149
 30
0.0
 40
100.0
  1
407
 41
0.8
  0
ENDBLK
  5
67485
  8
0
  0
BLOCK
  8
0
  2
*U293
 70
     1
 10
0.0
 20
0.0
 30
0.0
  3
*U293
  1

  0
TEXT
  5
67487
  8
S-OBRYS
  6
CONTINUOUS
 62
     7
 10
-17935.786420834698
 20
401071.39204112161
 30
0.0
 40
100.0
  1
303
 41
0.8
  0
ENDBLK
  5
67489
  8
0
  0
BLOCK
  8
0
  2
*U294
 70
     1
 10
0.0
 20
0.0
 30
0.0
  3
*U294
  1

  0
TEXT
  5
6748B
  8
S-OBRYS
  6
CONTINUOUS
 62
     7
 10
-18713.95308750137
 20
396877.44339779922
 30
0.0
 40
100.0
  1
1013
 41
0.8
  0
ENDBLK
  5
6748D
  8
0
  0
BLOCK
  8
0
  2
*U295
 70
     1
 10
0.0
 20
0.0
 30
0.0
  3
*U295
  1

  0
TEXT
  5
6748F
  8
S-OBRYS
  6
CONTINUOUS
 62
     7
 10
-19498.736898222069
 20
397697.38920408313
 30
0.0
 40
100.0
  1
1180
 50
90.0
 41
0.8
  0
ENDBLK
  5
67491
  8
0
  0
BLOCK
  8
0
  2
*U296
 70
     1
 10
0.0
 20
0.0
 30
0.0
  3
*U296
  1

  0
TEXT
  5
67493
  8
S-OBRYS
  6
CONTINUOUS
 62
     7
 10
-19498.736898222069
 20
399293.10348979739
 30
0.0
 40
100.0
  1
2000
 50
90.0
 41
0.8
  0
ENDBLK
  5
67495
  8
0
  0
BLOCK
  8
0
  2
*U297
 70
     1
 10
0.0
 20
0.0
 30
0.0
  3
*U297
  1

  0
TEXT
  5
67497
  8
S-OBRYS
  6
CONTINUOUS
 62
     7
 10
-19498.736898222069
 20
401293.10348979739
 30
0.0
 40
100.0
  1
2000
 50
90.0
 41
0.8
  0
ENDBLK
  5
67499
  8
0
  0
BLOCK
  8
0
  2
*U298
 70
     1
 10
0.0
 20
0.0
 30
0.0
  3
*U298
  1

  0
TEXT
  5
6749B
  8
S-OBRYS
  6
CONTINUOUS
 62
     7
 10
-19498.736898222069
 20
403279.88920408313
 30
0.0
 40
100.0
  1
1985
 50
90.0
 41
0.8
  0
ENDBLK
  5
6749D
  8
0
  0
BLOCK
  8
0
  2
*U299
 70
     1
 10
0.0
 20
0.0
 30
0.0
  3
*U299
  1

  0
TEXT
  5
6749F
  8
S-OBRYS
  6
CONTINUOUS
 62
     7
 10
-15889.69637288468
 20
401059.35201443348
 30
0.0
 40
100.0
  1
233
 41
0.8
  0
ENDBLK
  5
674A1
  8
0
  0
BLOCK
  8
0
  2
*U300
 70
     1
 10
0.0
 20
0.0
 30
0.0
  3
*U300
  1

  0
TEXT
  5
674A3
  8
S-OBRYS
  6
CONTINUOUS
 62
     7
 10
-15650.211591327859
 20
404461.15110884502
 30
0.0
 40
100.0
  1
\U+220550
 50
90.0
 41
0.8
  0
ENDBLK
  5
674A5
  8
0
  0
BLOCK
  8
0
  2
*U301
 70
     1
 10
0.0
 20
0.0
 30
0.0
  3
*U301
  1

  0
TEXT
  5
674A7
  8
S-OBRYS
  6
CONTINUOUS
 62
     7
 10
-16334.05351574182
 20
396893.71452534839
 30
0.0
 40
100.0
  1
352
 41
0.8
  0
ENDBLK
  5
674A9
  8
0
  0
BLOCK
  8
0
  2
*U302
 70
     1
 10
0.0
 20
0.0
 30
0.0
  3
*U302
  1

  0
TEXT
  5
674AB
  8
S-OBRYS
  6
CONTINUOUS
 62
     7
 10
-11833.126084199001
 20
401235.53959981352
 30
0.0
 40
100.0
  1
240
 50
90.0
 41
0.8
  0
ENDBLK
  5
674AD
  8
0
  0
ENDSEC
  0
SECTION
  2
ENTITIES
  0
TEXT
  5
2F7A5
  8
KOTY
 10
-393803.77638965531
 20
-299016.15321175661
 30
0.0
 40
150.0
  1

 41
0.7
  7
ROMANT
  0
TEXT
  5
3AD8B
  8
KOTY
 10
-14797.18019204357
 20
454294.55370899959
 30
0.0
 40
150.0
  1

 41
0.7
  7
ROMANT
  0
TEXT
  5
404AD
  8
KOTY
 10
44010.2314385153
 20
465617.23741859582
 30
0.0
 40
92.0
  1

 41
0.7
  7
CYRILLIC
  0
TEXT
  5
404B4
  8
KOTY
 10
39575.071591094718
 20
465613.29777162091
 30
0.0
 40
92.0
  1

 41
0.7
  7
CYRILLIC
  0
TEXT
  5
40B14
  8
KOTY
 10
5856.0590664841584
 20
486921.1132385282
 30
0.0
 40
150.0
  1

 41
0.7
  7
ROMANT
  0
TEXT
  5
40BFC
  8
KOTY
 10
8767.7265956277752
 20
466337.2608060218
 30
0.0
 40
150.0
  1

 41
0.7
  7
ROMANS
  0
TEXT
  5
51A7C
  8
KOTY
 10
-47677.341387967608
 20
395133.71812193602
 30
0.0
 40
150.0
  1

 41
0.7
  7
ROMANS
  0
TEXT
  5
51A94
  8
KOTY
 10
-45176.819295693742
 20
395133.7181219359
 30
0.0
 40
150.0
  1

 41
0.7
  7
ROMANS
  0
TEXT
  5
51A9B
  8
KOTY
 10
-48084.423320344351
 20
397411.27855615731
 30
0.0
 40
150.0
  1

 41
0.7
  7
ROMANT
  0
TEXT
  5
51B05
  8
RAZ
 62
     6
 10
-47365.887544580757
 20
392999.37567832542
 30
0.0
 40
193.54103193599991
  1

 41
0.8
  7
R08
  0
TEXT
  5
51B06
  8
RAZ
 62
     1
 10
-47245.037660778231
 20
393401.77274166199
 30
0.0
 40
125.41458869452801
  1

  7
ROMANS
  0
TEXT
  5
58307
  8
KOTY
 10
22966.528519463162
 20
383405.87475258159
 30
0.0
 40
150.0
  1

 41
0.7
  7
ROMANS
  0
TEXT
  5
58308
  8
KOTY
 10
22966.528519463169
 20
383855.87475258159
 30
0.0
 40
150.0
  1

 41
0.7
  7
ROMANS
  0
TEXT
  5
58315
  8
KOTY
 10
25467.050611737021
 20
383855.87475258141
 30
0.0
 40
150.0
  1

 41
0.7
  7
ROMANS
  0
TEXT
  5
58316
  8
KOTY
 10
25467.050611737021
 20
383405.87475258141
 30
0.0
 40
150.0
  1

 41
0.7
  7
ROMANS
  0
TEXT
  5
5833F
  8
KOTY
 10
22966.528519463162
 20
385205.87475258153
 30
0.0
 40
150.0
  1

 41
0.7
  7
ROMANS
  0
TEXT
  5
58340
  8
KOTY
 10
22966.528519463169
 20
385655.87475258159
 30
0.0
 40
150.0
  1

 41
0.7
  7
ROMANS
  0
TEXT
  5
58354
  8
KOTY
 10
25467.050611737021
 20
385655.87475258141
 30
0.0
 40
150.0
  1

 41
0.7
  7
ROMANS
  0
TEXT
  5
58355
  8
KOTY
 10
25467.050611737021
 20
385205.87475258141
 30
0.0
 40
150.0
  1

 41
0.7
  7
ROMANS
  0
TEXT
  5
58397
  8
KOTY
 10
25467.050611737039
 20
390605.87475258129
 30
0.0
 40
150.0
  1

 41
0.7
  7
ROMANS
  0
TEXT
  5
58398
  8
KOTY
 10
25467.050611737039
 20
391055.87475258141
 30
0.0
 40
150.0
  1

 41
0.7
  7
ROMANS
  0
TEXT
  5
583C1
  8
KOTY
 10
25467.050611737031
 20
389255.87475258141
 30
0.0
 40
150.0
  1

 41
0.7
  7
ROMANS
  0
TEXT
  5
58C84
  8
KOTY
 10
22966.52851946322
 20
387905.87475258153
 30
0.0
 40
150.0
  1

 41
0.7
  7
ROMANS
  0
CIRCLE
  5
6587E
  8
S-OBRYS
  6
CONTINUOUS
 10
33896.72886966166
 20
404108.46587452479
 30
0.0
 40
405510.36402363243
  0
CIRCLE
  5
6587F
  8
S-OBRYS
  6
CONTINUOUS
 10
33896.72886966166
 20
404105.48474181228
 30
0.0
 40
405507.39323388838
  0
LINE
  5
66630
  8
S-OBRYS
  6
CONTINUOUS
 10
-21038.800559440861
 20
393580.84861431521
 30
0.0
 11
-10538.800559440861
 21
393580.84861431521
 31
0.0
  0
LINE
  5
66631
  8
S-OBRYS
  6
CONTINUOUS
 10
-10538.800559440861
 20
393580.84861431521
 30
0.0
 11
-10538.800559440861
 21
408430.84861431521
 31
0.0
  0
LINE
  5
66632
  8
S-OBRYS
  6
CONTINUOUS
 10
-10538.800559440861
 20
408430.84861431521
 30
0.0
 11
-21038.800559440861
 21
408430.84861431521
 31
0.0
  0
LINE
  5
66633
  8
S-OBRYS
  6
CONTINUOUS
 10
-21038.800559440861
 20
408430.84861431521
 30
0.0
 11
-21038.800559440861
 21
393580.84861431521
 31
0.0
  0
INSERT
  5
66634
  8
S-OBRYS
  6
CONTINUOUS
  2
*U280
 10
0.0
 20
0.0
 30
0.0
  0
LINE
  5
66635
  8
S-OBRYS
  6
CONTINUOUS
 10
-16219.76780145611
 20
397137.8994583296
 30
0.0
 11
-16219.76780145611
 21
405217.24727167853
 31
0.0
  0
LINE
  5
66636
  8
S-OBRYS
  6
CONTINUOUS
 10
-16336.26780145611
 20
398445.48444217828
 30
0.0
 11
-16336.26780145611
 21
400415.48444217828
 31
0.0
  0
LINE
  5
66637
  8
S-OBRYS
  6
CONTINUOUS
 10
-16103.26780145611
 20
398445.48444217828
 30
0.0
 11
-16103.26780145611
 21
400415.48444217828
 31
0.0
  0
LINE
  5
66638
  8
S-OBRYS
  6
CONTINUOUS
 10
-16043.76780145611
 20
398445.48444217828
 30
0.0
 11
-16395.76780145611
 21
398445.48444217828
 31
0.0
  0
LINE
  5
66639
  8
S-OBRYS
  6
CONTINUOUS
 10
-16395.76780145611
 20
397268.24727167853
 30
0.0
 11
-16395.76780145611
 21
398445.48444217828
 31
0.0
  0
LINE
  5
6663A
  8
S-OBRYS
  6
CONTINUOUS
 10
-16043.76780145611
 20
397268.24727167853
 30
0.0
 11
-16395.76780145611
 21
397268.24727167853
 31
0.0
  0
LINE
  5
6663B
  8
S-OBRYS
  6
CONTINUOUS
 10
-16099.76780145611
 20
405514.48444217828
 30
0.0
 11
-16339.76780145611
 21
405514.48444217828
 31
0.0
  0
LINE
  5
6663C
  8
S-OBRYS
  6
CONTINUOUS
 10
-16444.008619799632
 20
397835.48444217828
 30
0.0
 11
-16001.115821917991
 21
397835.48444217828
 31
0.0
  0
LINE
  5
6663D
  8
S-OBRYS
  6
CONTINUOUS
 10
-16528.76780145611
 20
397915.48444217839
 30
0.0
 11
-16400.330459764649
 21
397915.48444217839
 31
0.0
  0
LINE
  5
6663E
  8
S-OBRYS
  6
CONTINUOUS
 10
-16441.580586411481
 20
397755.48444217828
 30
0.0
 11
-16400.330459764649
 21
397755.48444217828
 31
0.0
  0
LINE
  5
6663F
  8
S-OBRYS
  6
CONTINUOUS
 10
-16441.580586411481
 20
397755.48444217828
 30
0.0
 11
-16441.580586411481
 21
397915.48444217839
 31
0.0
  0
LINE
  5
66640
  8
S-OBRYS
  6
CONTINUOUS
 10
-16400.330459764649
 20
397755.48444217828
 30
0.0
 11
-16400.330459764649
 21
397915.48444217839
 31
0.0
  0
LINE
  5
66641
  8
S-OBRYS
  6
CONTINUOUS
 10
-16400.330459764649
 20
397885.48444217839
 30
0.0
 11
-16395.76780145611
 21
397885.48444217839
 31
0.0
  0
LINE
  5
66642
  8
S-OBRYS
  6
CONTINUOUS
 10
-16400.330459764649
 20
397785.48444217828
 30
0.0
 11
-16395.76780145611
 21
397785.48444217828
 31
0.0
  0
LINE
  5
66643
  8
S-OBRYS
  6
CONTINUOUS
 10
-12067.14370588659
 20
401677.68245695642
 30
0.0
 11
-12067.14370588659
 21
401917.68245695648
 31
0.0
  0
LINE
  5
66644
  8
S-OBRYS
  6
CONTINUOUS
 10
-12067.14370588659
 20
401917.68245695648
 30
0.0
 11
-13583.14370588662
 21
401917.68245695648
 31
0.0
  0
LINE
  5
66645
  8
S-OBRYS
  6
CONTINUOUS
 10
-13076.64370588661
 20
401407.71755819448
 30
0.0
 11
-13076.64370588661
 21
401967.28763085569
 31
0.0
  0
LINE
  5
66646
  8
S-OBRYS
  6
CONTINUOUS
 10
-12067.14370588659
 20
401677.68245695642
 30
0.0
 11
-13583.14370588662
 21
401677.68245695642
 31
0.0
  0
LINE
  5
66647
  8
S-OBRYS
  6
CONTINUOUS
 10
-16043.76780145611
 20
397268.24727167853
 30
0.0
 11
-16043.76780145611
 21
398445.48444217828
 31
0.0
  0
LINE
  5
66648
  8
S-OBRYS
  6
CONTINUOUS
 10
-16528.76780145611
 20
397834.14158710412
 30
0.0
 11
-16441.580586411481
 21
397834.14158710412
 31
0.0
  0
LINE
  5
66649
  8
S-OBRYS
  6
CONTINUOUS
 10
-16528.76780145611
 20
397834.14158710412
 30
0.0
 11
-16528.76780145611
 21
397915.48444217839
 31
0.0
  0
LINE
  5
6664A
  8
S-OBRYS
  6
CONTINUOUS
 10
-16099.76780145611
 20
405514.48444217828
 30
0.0
 11
-16099.76780145611
 21
404445.48444217839
 31
0.0
  0
LINE
  5
6664B
  8
S-OBRYS
  6
CONTINUOUS
 10
-16339.76780145611
 20
405514.48444217828
 30
0.0
 11
-16339.76780145611
 21
404445.48444217839
 31
0.0
  0
LINE
  5
6664C
  8
S-OBRYS
  6
CONTINUOUS
 10
-15972.11479679309
 20
404893.45064116362
 30
0.0
 11
-15972.11479679309
 21
404954.19482277287
 31
0.0
  0
LINE
  5
6664D
  8
S-OBRYS
  6
CONTINUOUS
 10
-16099.76780145611
 20
404954.19482277287
 30
0.0
 11
-15972.11479679309
 21
404954.19482277287
 31
0.0
  0
LINE
  5
6664E
  8
S-OBRYS
  6
CONTINUOUS
 10
-16099.76780145611
 20
404893.45064116362
 30
0.0
 11
-15964.38743765552
 21
404893.45064116362
 31
0.0
  0
LINE
  5
6664F
  8
S-OBRYS
  6
CONTINUOUS
 10
-15949.80290269418
 20
404949.48444217828
 30
0.0
 11
-15972.11479679309
 21
404949.48444217828
 31
0.0
  0
LINE
  5
66650
  8
S-OBRYS
  6
CONTINUOUS
 10
-15949.80290269418
 20
404899.48444217828
 30
0.0
 11
-15972.11479679309
 21
404899.48444217828
 31
0.0
  0
LINE
  5
66651
  8
S-OBRYS
  6
CONTINUOUS
 10
-13431.64370588661
 20
401677.68245695642
 30
0.0
 11
-13431.64370588661
 21
401917.68245695648
 31
0.0
  0
LINE
  5
66652
  8
S-OBRYS
  6
CONTINUOUS
 10
-16434.42080611912
 20
404924.48444217828
 30
0.0
 11
-15829.80290269418
 21
404924.48444217828
 31
0.0
  0
LINE
  5
66653
  8
S-OBRYS
  6
CONTINUOUS
 10
-16339.76780145611
 20
404954.19482277287
 30
0.0
 11
-16467.42080611912
 21
404954.19482277287
 31
0.0
  0
LINE
  5
66654
  8
S-OBRYS
  6
CONTINUOUS
 10
-16467.42080611912
 20
404893.45064116362
 30
0.0
 11
-16467.42080611912
 21
404954.19482277287
 31
0.0
  0
LINE
  5
66655
  8
S-OBRYS
  6
CONTINUOUS
 10
-16339.76780145611
 20
404893.45064116362
 30
0.0
 11
-16475.148165256702
 21
404893.45064116362
 31
0.0
  0
LINE
  5
66656
  8
S-OBRYS
  6
CONTINUOUS
 10
-16043.76780145611
 20
397764.8980672633
 30
0.0
 11
-16011.875003574471
 21
397764.8980672633
 31
0.0
  0
LINE
  5
66657
  8
S-OBRYS
  6
CONTINUOUS
 10
-16011.875003574471
 20
397764.8980672633
 30
0.0
 11
-16011.875003574471
 21
397906.07081709331
 31
0.0
  0
LINE
  5
66658
  8
S-OBRYS
  6
CONTINUOUS
 10
-16043.76780145611
 20
397906.07081709331
 30
0.0
 11
-16011.875003574471
 21
397906.07081709331
 31
0.0
  0
LINE
  5
66659
  8
S-OBRYS
  6
CONTINUOUS
 10
-16367.26780145611
 20
403706.20995601453
 30
0.0
 11
-16336.26780145611
 21
403706.20995601453
 31
0.0
  0
ARC
  5
6665A
  8
S-OBRYS
  6
CONTINUOUS
 10
-16364.26780145611
 20
403705.20995601453
 30
0.0
 40
3.0
 50
180.0
 51
270.0
  0
LINE
  5
6665B
  8
S-OBRYS
  6
CONTINUOUS
 10
-16367.26780145611
 20
403706.20995601453
 30
0.0
 11
-16367.26780145611
 21
403705.20995601453
 31
0.0
  0
LINE
  5
6665C
  8
S-OBRYS
  6
CONTINUOUS
 10
-16364.26780145611
 20
403702.20995601459
 30
0.0
 11
-16343.86366421405
 21
403702.20995601459
 31
0.0
  0
ARC
  5
6665D
  8
S-OBRYS
  6
CONTINUOUS
 10
-16343.86366421405
 20
403699.20995601453
 30
0.0
 40
3.0
 50
0.0
 51
90.0
  0
LINE
  5
6665E
  8
S-OBRYS
  6
CONTINUOUS
 10
-16340.86366421405
 20
403699.20995601453
 30
0.0
 11
-16340.86366421405
 21
403663.20995601453
 31
0.0
  0
LINE
  5
6665F
  8
S-OBRYS
  6
CONTINUOUS
 10
-16336.26780145611
 20
403706.20995601453
 30
0.0
 11
-16336.26780145611
 21
403656.20995601453
 31
0.0
  0
LINE
  5
66660
  8
S-OBRYS
  6
CONTINUOUS
 10
-16367.26780145611
 20
403656.20995601453
 30
0.0
 11
-16336.26780145611
 21
403656.20995601453
 31
0.0
  0
ARC
  5
66661
  8
S-OBRYS
  6
CONTINUOUS
 10
-16343.86366421405
 20
403663.20995601453
 30
0.0
 40
3.0
 50
270.0
 51
0.0
  0
LINE
  5
66662
  8
S-OBRYS
  6
CONTINUOUS
 10
-16364.26780145611
 20
403660.20995601453
 30
0.0
 11
-16343.86366421405
 21
403660.20995601453
 31
0.0
  0
LINE
  5
66663
  8
S-OBRYS
  6
CONTINUOUS
 10
-16367.26780145611
 20
403656.20995601453
 30
0.0
 11
-16367.26780145611
 21
403657.20995601453
 31
0.0
  0
ARC
  5
66664
  8
S-OBRYS
  6
CONTINUOUS
 10
-16364.26780145611
 20
403657.20995601453
 30
0.0
 40
3.0
 50
90.0
 51
180.0
  0
LINE
  5
66665
  8
S-OBRYS
  6
CONTINUOUS
 10
-13562.854723869301
 20
406034.48444217828
 30
0.0
 11
-13139.60401356986
 21
406034.48444217828
 31
0.0
  0
LINE
  5
66666
  8
S-OBRYS
  6
CONTINUOUS
 10
-13551.22936871958
 20
406022.32680978032
 30
0.0
 11
-13151.22936871958
 21
406022.32680978032
 31
0.0
  0
LINE
  5
66667
  8
S-OBRYS
  6
CONTINUOUS
 10
-13586.15626558815
 20
405648.46009749308
 30
0.0
 11
-13116.302471851021
 21
405648.46009749308
 31
0.0
  0
LINE
  5
66668
  8
S-OBRYS
  6
CONTINUOUS
 10
-13551.22936871958
 20
406022.32680978032
 30
0.0
 11
-13551.22936871958
 21
406034.48444217828
 31
0.0
  0
LINE
  5
66669
  8
S-OBRYS
  6
CONTINUOUS
 10
-13586.15626558815
 20
405067.94093021582
 30
0.0
 11
-13116.302471851021
 21
405067.94093021582
 31
0.0
  0
LINE
  5
6666A
  8
S-OBRYS
  6
CONTINUOUS
 10
-13602.073336446019
 20
405638.56417860131
 30
0.0
 11
-13100.385400993149
 21
405638.56417860131
 31
0.0
  0
LINE
  5
6666B
  8
S-OBRYS
  6
CONTINUOUS
 10
-13602.073336446019
 20
405628.4047057553
 30
0.0
 11
-13100.385400993149
 21
405628.4047057553
 31
0.0
  0
LINE
  5
6666C
  8
S-OBRYS
  6
CONTINUOUS
 10
-13586.15626558815
 20
405617.94424348982
 30
0.0
 11
-13116.302471851021
 21
405617.94424348982
 31
0.0
  0
LINE
  5
6666D
  8
S-OBRYS
  6
CONTINUOUS
 10
-13602.073336446019
 20
405638.56417860131
 30
0.0
 11
-13602.073336446019
 21
405628.4047057553
 31
0.0
  0
LINE
  5
6666E
  8
S-OBRYS
  6
CONTINUOUS
 10
-13586.15626558815
 20
405648.46009749308
 30
0.0
 11
-13586.15626558815
 21
405638.56417860131
 31
0.0
  0
LINE
  5
6666F
  8
S-OBRYS
  6
CONTINUOUS
 10
-13100.385400993149
 20
405638.56417860131
 30
0.0
 11
-13100.385400993149
 21
405628.4047057553
 31
0.0
  0
LINE
  5
66670
  8
S-OBRYS
  6
CONTINUOUS
 10
-13116.302471851021
 20
405628.4047057553
 30
0.0
 11
-13116.302471851021
 21
405067.94093021582
 31
0.0
  0
LINE
  5
66671
  8
S-OBRYS
  6
CONTINUOUS
 10
-15949.80290269418
 20
405204.48444217828
 30
0.0
 11
-15829.80290269418
 21
405204.48444217828
 31
0.0
  0
LINE
  5
66672
  8
S-OBRYS
  6
CONTINUOUS
 10
-15949.80290269418
 20
403674.48444217828
 30
0.0
 11
-15829.80290269418
 21
403674.48444217828
 31
0.0
  0
LINE
  5
66673
  8
S-OBRYS
  6
CONTINUOUS
 10
-15949.80290269418
 20
403674.48444217828
 30
0.0
 11
-15949.80290269418
 21
405204.48444217828
 31
0.0
  0
LINE
  5
66674
  8
S-OBRYS
  6
CONTINUOUS
 10
-15829.80290269418
 20
403674.48444217828
 30
0.0
 11
-15829.80290269418
 21
405204.48444217828
 31
0.0
  0
LINE
  5
66675
  8
S-OBRYS
  6
CONTINUOUS
 10
-16002.21388199666
 20
403871.57157345657
 30
0.0
 11
-16103.26780145611
 21
403871.57157345657
 31
0.0
  0
LINE
  5
66676
  8
S-OBRYS
  6
CONTINUOUS
 10
-16002.21388199666
 20
403894.48444217828
 30
0.0
 11
-16050.388352613079
 21
403894.48444217828
 31
0.0
  0
LINE
  5
66677
  8
S-OBRYS
  6
CONTINUOUS
 10
-16002.21388199666
 20
403833.0340688625
 30
0.0
 11
-16103.26780145611
 21
403833.0340688625
 31
0.0
  0
LINE
  5
66678
  8
S-OBRYS
  6
CONTINUOUS
 10
-16378.635779181141
 20
403879.72444217833
 30
0.0
 11
-16378.635779181141
 21
403729.24444217829
 31
0.0
  0
LINE
  5
66679
  8
S-OBRYS
  6
CONTINUOUS
 10
-16368.885779181141
 20
403888.54444217827
 30
0.0
 11
-16368.885779181141
 21
403720.42444217828
 31
0.0
  0
LINE
  5
6667A
  8
S-OBRYS
  6
CONTINUOUS
 10
-16002.21388199666
 20
403737.39731090009
 30
0.0
 11
-16103.26780145611
 21
403737.39731090009
 31
0.0
  0
LINE
  5
6667B
  8
S-OBRYS
  6
CONTINUOUS
 10
-16002.21388199666
 20
403714.48444217828
 30
0.0
 11
-16103.26780145611
 21
403714.48444217828
 31
0.0
  0
LINE
  5
6667C
  8
S-OBRYS
  6
CONTINUOUS
 10
-16336.26780145611
 20
403716.36683405918
 30
0.0
 11
-16368.885779181141
 21
403720.42444217828
 31
0.0
  0
LINE
  5
6667D
  8
S-OBRYS
  6
CONTINUOUS
 10
-16368.885779181141
 20
403720.42444217828
 30
0.0
 11
-16378.635779181141
 21
403729.24444217829
 31
0.0
  0
LINE
  5
6667E
  8
S-OBRYS
  6
CONTINUOUS
 10
-16002.21388199666
 20
403894.48444217828
 30
0.0
 11
-16002.21388199666
 21
403714.48444217828
 31
0.0
  0
LINE
  5
6667F
  8
S-OBRYS
  6
CONTINUOUS
 10
-16336.26780145611
 20
403892.60205029743
 30
0.0
 11
-16368.885779181141
 21
403888.54444217827
 31
0.0
  0
LINE
  5
66680
  8
S-OBRYS
  6
CONTINUOUS
 10
-16368.885779181141
 20
403888.54444217827
 30
0.0
 11
-16378.635779181141
 21
403879.72444217833
 31
0.0
  0
LINE
  5
66681
  8
S-OBRYS
  6
CONTINUOUS
 10
-16378.635779181141
 20
403804.48444217828
 30
0.0
 11
-15829.80290269418
 21
403804.48444217828
 31
0.0
  0
LINE
  5
66682
  8
S-OBRYS
  6
CONTINUOUS
 10
-16072.26780145611
 20
403656.20995601453
 30
0.0
 11
-16103.26780145611
 21
403656.20995601453
 31
0.0
  0
LINE
  5
66683
  8
S-OBRYS
  6
CONTINUOUS
 10
-16075.26780145611
 20
403660.20995601453
 30
0.0
 11
-16095.67193869816
 21
403660.20995601453
 31
0.0
  0
LINE
  5
66684
  8
S-OBRYS
  6
CONTINUOUS
 10
-16072.26780145611
 20
403706.20995601453
 30
0.0
 11
-16103.26780145611
 21
403706.20995601453
 31
0.0
  0
LINE
  5
66685
  8
S-OBRYS
  6
CONTINUOUS
 10
-16075.26780145611
 20
403702.20995601459
 30
0.0
 11
-16095.67193869816
 21
403702.20995601459
 31
0.0
  0
LINE
  5
66686
  8
S-OBRYS
  6
CONTINUOUS
 10
-16072.26780145611
 20
403706.20995601453
 30
0.0
 11
-16072.26780145611
 21
403705.20995601453
 31
0.0
  0
ARC
  5
66687
  8
S-OBRYS
  6
CONTINUOUS
 10
-16075.26780145611
 20
403705.20995601453
 30
0.0
 40
3.0
 50
270.0
 51
0.0
  0
LINE
  5
66688
  8
S-OBRYS
  6
CONTINUOUS
 10
-16072.26780145611
 20
403656.20995601453
 30
0.0
 11
-16072.26780145611
 21
403657.20995601453
 31
0.0
  0
ARC
  5
66689
  8
S-OBRYS
  6
CONTINUOUS
 10
-16075.26780145611
 20
403657.20995601453
 30
0.0
 40
3.0
 50
0.0
 51
90.0
  0
ARC
  5
6668A
  8
S-OBRYS
  6
CONTINUOUS
 10
-16095.67193869816
 20
403699.20995601453
 30
0.0
 40
3.0
 50
90.0
 51
180.0
  0
ARC
  5
6668B
  8
S-OBRYS
  6
CONTINUOUS
 10
-16095.67193869816
 20
403663.20995601453
 30
0.0
 40
3.0
 50
180.0
 51
270.0
  0
LINE
  5
6668C
  8
S-OBRYS
  6
CONTINUOUS
 10
-16098.67193869816
 20
403699.20995601453
 30
0.0
 11
-16098.67193869816
 21
403663.20995601453
 31
0.0
  0
LINE
  5
6668D
  8
S-OBRYS
  6
CONTINUOUS
 10
-16103.26780145611
 20
403706.20995601453
 30
0.0
 11
-16103.26780145611
 21
403656.20995601453
 31
0.0
  0
LINE
  5
6668E
  8
S-OBRYS
  6
CONTINUOUS
 10
-16383.07899845959
 20
403681.20995601453
 30
0.0
 11
-16056.45660445262
 21
403681.20995601453
 31
0.0
  0
LINE
  5
6668F
  8
S-OBRYS
  6
CONTINUOUS
 10
-16103.26780145611
 20
403919.72854830819
 30
0.0
 11
-16050.388352613079
 21
403919.72854830819
 31
0.0
  0
LINE
  5
66690
  8
S-OBRYS
  6
CONTINUOUS
 10
-16103.26780145611
 20
403929.72854830808
 30
0.0
 11
-16050.388352613079
 21
403929.72854830808
 31
0.0
  0
LINE
  5
66691
  8
S-OBRYS
  6
CONTINUOUS
 10
-16050.388352613079
 20
403929.72854830808
 30
0.0
 11
-16050.388352613079
 21
403889.72854830819
 31
0.0
  0
LINE
  5
66692
  8
S-OBRYS
  6
CONTINUOUS
 10
-16103.26780145611
 20
403889.72854830819
 30
0.0
 11
-16050.388352613079
 21
403889.72854830819
 31
0.0
  0
LINE
  5
66693
  8
S-OBRYS
  6
CONTINUOUS
 10
-16001.02521618754
 20
403827.56053096289
 30
0.0
 11
-15988.07427548295
 21
403827.56053096289
 31
0.0
  0
LINE
  5
66694
  8
S-OBRYS
  6
CONTINUOUS
 10
-16001.02521618754
 20
403781.40835339378
 30
0.0
 11
-15988.07427548295
 21
403781.40835339378
 31
0.0
  0
LINE
  5
66695
  8
S-OBRYS
  6
CONTINUOUS
 10
-15988.07427548295
 20
403764.38678216049
 30
0.0
 11
-15988.07427548295
 21
403964.67965096631
 31
0.0
  0
LINE
  5
66696
  8
S-OBRYS
  6
CONTINUOUS
 10
-15988.07427548295
 20
403764.38678216049
 30
0.0
 11
-15949.80290269418
 21
403764.38678216049
 31
0.0
  0
LINE
  5
66697
  8
S-OBRYS
  6
CONTINUOUS
 10
-13323.350197770391
 20
401527.71755819448
 30
0.0
 11
-12843.350197770391
 21
401527.71755819448
 31
0.0
  0
LINE
  5
66698
  8
S-OBRYS
  6
CONTINUOUS
 10
-13323.350197770391
 20
401407.71755819448
 30
0.0
 11
-12843.350197770391
 21
401407.71755819448
 31
0.0
  0
LINE
  5
66699
  8
S-OBRYS
  6
CONTINUOUS
 10
-13323.350197770391
 20
401527.71755819448
 30
0.0
 11
-13323.350197770391
 21
401407.71755819448
 31
0.0
  0
LINE
  5
6669A
  8
S-OBRYS
  6
CONTINUOUS
 10
-12843.350197770391
 20
401527.71755819448
 30
0.0
 11
-12843.350197770391
 21
401407.71755819448
 31
0.0
  0
LINE
  5
6669B
  8
S-OBRYS
  6
CONTINUOUS
 10
-13046.933325291961
 20
401677.68245695642
 30
0.0
 11
-13046.933325291961
 21
401550.02945229347
 31
0.0
  0
LINE
  5
6669C
  8
S-OBRYS
  6
CONTINUOUS
 10
-13107.677506901289
 20
401677.68245695642
 30
0.0
 11
-13107.677506901289
 21
401550.02945229347
 31
0.0
  0
LINE
  5
6669D
  8
S-OBRYS
  6
CONTINUOUS
 10
-13107.677506901289
 20
401550.02945229347
 30
0.0
 11
-13046.933325291961
 21
401550.02945229347
 31
0.0
  0
LINE
  5
6669E
  8
S-OBRYS
  6
CONTINUOUS
 10
-13101.64370588661
 20
401527.71755819448
 30
0.0
 11
-13101.64370588661
 21
401550.02945229347
 31
0.0
  0
LINE
  5
6669F
  8
S-OBRYS
  6
CONTINUOUS
 10
-13051.64370588661
 20
401527.71755819448
 30
0.0
 11
-13051.64370588661
 21
401550.02945229347
 31
0.0
  0
LINE
  5
666A0
  8
S-OBRYS
  6
CONTINUOUS
 10
-13267.750487307059
 20
401542.30209315591
 30
0.0
 11
-13267.750487307059
 21
401677.68245695642
 31
0.0
  0
LINE
  5
666A1
  8
S-OBRYS
  6
CONTINUOUS
 10
-13267.750487307059
 20
401542.30209315591
 30
0.0
 11
-13101.64370588661
 21
401542.30209315591
 31
0.0
  0
LINE
  5
666A2
  8
S-OBRYS
  6
CONTINUOUS
 10
-13583.14370588662
 20
401797.68245695642
 30
0.0
 11
-12067.14370588659
 21
401797.68245695642
 31
0.0
  0
LINE
  5
666A3
  8
S-OBRYS
  6
CONTINUOUS
 10
-13160.70370588661
 20
401957.53763085557
 30
0.0
 11
-12992.583705886609
 21
401957.53763085557
 31
0.0
  0
LINE
  5
666A4
  8
S-OBRYS
  6
CONTINUOUS
 10
-13151.88370588661
 20
401967.28763085569
 30
0.0
 11
-13001.403705886611
 21
401967.28763085569
 31
0.0
  0
LINE
  5
666A5
  8
S-OBRYS
  6
CONTINUOUS
 10
-12992.583705886609
 20
401957.53763085557
 30
0.0
 11
-13001.403705886611
 21
401967.28763085569
 31
0.0
  0
LINE
  5
666A6
  8
S-OBRYS
  6
CONTINUOUS
 10
-12987.62580571989
 20
401917.68245695648
 30
0.0
 11
-12992.583705886609
 21
401957.53763085557
 31
0.0
  0
LINE
  5
666A7
  8
S-OBRYS
  6
CONTINUOUS
 10
-13160.70370588661
 20
401957.53763085557
 30
0.0
 11
-13151.88370588661
 21
401967.28763085569
 31
0.0
  0
LINE
  5
666A8
  8
S-OBRYS
  6
CONTINUOUS
 10
-13165.661606053331
 20
401917.68245695648
 30
0.0
 11
-13160.70370588661
 21
401957.53763085557
 31
0.0
  0
POLYLINE
  5
666A9
  8
S-OBRYS
  6
CONTINUOUS
 66
     1
 10
0.0
 20
0.0
 30
0.0
 70
     1
  0
VERTEX
  5
6742D
  8
S-OBRYS
  6
CONTINUOUS
 10
-16273.242619952131
 20
397314.08354979998
 30
0.0
  0
VERTEX
  5
6742E
  8
S-OBRYS
  6
CONTINUOUS
 10
-16166.29298296008
 20
397314.08354979998
 30
0.0
  0
VERTEX
  5
6742F
  8
S-OBRYS
  6
CONTINUOUS
 10
-16166.29298296008
 20
397473.44354792911
 30
0.0
  0
VERTEX
  5
67430
  8
S-OBRYS
  6
CONTINUOUS
 10
-16273.242619952131
 20
397473.44354792911
 30
0.0
  0
SEQEND
  5
67431
  8
S-OBRYS
  6
CONTINUOUS
  0
LINE
  5
666AA
  8
S-OBRYS
  6
CONTINUOUS
 10
-16002.21388199666
 20
403775.93481549411
 30
0.0
 11
-16103.26780145611
 21
403775.93481549411
 31
0.0
  0
LINE
  5
666AB
  8
S-OBRYS
  6
CONTINUOUS
 10
-15988.07427548295
 20
403964.67965096631
 30
0.0
 11
-15949.80290269418
 21
403964.67965096631
 31
0.0
  0
LINE
  5
666AC
  8
S-OBRYS
  6
CONTINUOUS
 10
-18555.857849406129
 20
404328.5221767535
 30
0.0
 11
-18555.857849406129
 21
405514.48444217828
 31
0.0
  0
ARC
  5
666AD
  8
S-OBRYS
  6
CONTINUOUS
 10
-18563.874750621981
 20
405008.95806161192
 30
0.0
 40
505.58994467222868
 50
89.091449780856678
 51
152.41500760712191
  0
LINE
  5
666AE
  8
S-OBRYS
  6
CONTINUOUS
 10
-18759.357849406118
 20
398445.48444217828
 30
0.0
 11
-18759.357849406118
 21
400415.48444217828
 31
0.0
  0
LINE
  5
666AF
  8
S-OBRYS
  6
CONTINUOUS
 10
-18352.357849406151
 20
398445.48444217828
 30
0.0
 11
-18352.357849406151
 21
400415.48444217828
 31
0.0
  0
LINE
  5
666B0
  8
S-OBRYS
  6
CONTINUOUS
 10
-18049.357849406129
 20
397265.48444217839
 30
0.0
 11
-18049.357849406129
 21
400415.48444217828
 31
0.0
  0
LINE
  5
666B1
  8
S-OBRYS
  6
CONTINUOUS
 10
-19062.35784940614
 20
397265.48444217839
 30
0.0
 11
-19062.35784940614
 21
400415.48444217828
 31
0.0
  0
CIRCLE
  5
666B2
  8
S-OBRYS
  6
CONTINUOUS
 10
-18555.857849406129
 20
397835.48444217828
 30
0.0
 40
220.1250000000004
  0
LINE
  5
666B3
  8
S-OBRYS
  6
CONTINUOUS
 10
-18922.357849406129
 20
397835.48444217828
 30
0.0
 11
-18172.357849406129
 21
397835.48444217828
 31
0.0
  0
LINE
  5
666B4
  8
S-OBRYS
  6
CONTINUOUS
 10
-18049.357849406129
 20
398445.48444217828
 30
0.0
 11
-19062.35784940614
 21
398445.48444217828
 31
0.0
  0
LINE
  5
666B5
  8
S-OBRYS
  6
CONTINUOUS
 10
-18049.357849406129
 20
397265.48444217839
 30
0.0
 11
-19062.35784940614
 21
397265.48444217839
 31
0.0
  0
POLYLINE
  5
666B6
  8
S-OBRYS
  6
CONTINUOUS
 66
     1
 10
0.0
 20
0.0
 30
0.0
 70
     1
  0
VERTEX
  5
67432
  8
S-OBRYS
  6
CONTINUOUS
 10
-18745.971160359812
 20
397655.48444217839
 30
0.0
  0
VERTEX
  5
67433
  8
S-OBRYS
  6
CONTINUOUS
 10
-18915.971160359801
 20
397655.48444217839
 30
0.0
  0
VERTEX
  5
67434
  8
S-OBRYS
  6
CONTINUOUS
 10
-18915.971160359801
 20
398275.48444217828
 30
0.0
  0
VERTEX
  5
67435
  8
S-OBRYS
  6
CONTINUOUS
 10
-18745.971160359801
 20
398275.48444217828
 30
0.0
  0
SEQEND
  5
67436
  8
S-OBRYS
  6
CONTINUOUS
  0
POLYLINE
  5
666B7
  8
S-OBRYS
  6
CONTINUOUS
 66
     1
 10
0.0
 20
0.0
 30
0.0
 70
     1
  0
VERTEX
  5
67437
  8
S-OBRYS
  6
CONTINUOUS
 10
-18705.971160359801
 20
397615.48444217839
 30
0.0
  0
VERTEX
  5
67438
  8
S-OBRYS
  6
CONTINUOUS
 10
-18955.971160359801
 20
397615.48444217839
 30
0.0
  0
VERTEX
  5
67439
  8
S-OBRYS
  6
CONTINUOUS
 10
-18955.971160359801
 20
398315.48444217839
 30
0.0
  0
VERTEX
  5
6743A
  8
S-OBRYS
  6
CONTINUOUS
 10
-18705.971160359801
 20
398315.48444217839
 30
0.0
  0
SEQEND
  5
6743B
  8
S-OBRYS
  6
CONTINUOUS
  0
LINE
  5
666B8
  8
S-OBRYS
  6
CONTINUOUS
 10
-18759.357849406118
 20
397265.48444217839
 30
0.0
 11
-19062.35784940614
 21
397565.48444217839
 31
0.0
  0
LINE
  5
666B9
  8
S-OBRYS
  6
CONTINUOUS
 10
-18759.357849406118
 20
398475.48444217839
 30
0.0
 11
-19062.35784940614
 21
398475.48444217839
 31
0.0
  0
LINE
  5
666BA
  8
S-OBRYS
  6
CONTINUOUS
 10
-18493.357849406129
 20
397265.48444217839
 30
0.0
 11
-18493.357849406129
 21
398445.48444217828
 31
0.0
  0
LINE
  5
666BB
  8
S-OBRYS
  6
CONTINUOUS
 10
-18618.357849406129
 20
397265.48444217839
 30
0.0
 11
-18618.357849406129
 21
398445.48444217828
 31
0.0
  0
LINE
  5
666BC
  8
S-OBRYS
  6
CONTINUOUS
 10
-18555.857849406129
 20
397265.48444217839
 30
0.0
 11
-18555.857849406129
 21
398445.48444217828
 31
0.0
  0
POLYLINE
  5
666BD
  8
S-OBRYS
  6
CONTINUOUS
 66
     1
 10
0.0
 20
0.0
 30
0.0
 70
     1
  0
VERTEX
  5
6743C
  8
S-OBRYS
  6
CONTINUOUS
 10
-18405.744538452469
 20
397615.48444217839
 30
0.0
  0
VERTEX
  5
6743D
  8
S-OBRYS
  6
CONTINUOUS
 10
-18155.744538452469
 20
397615.48444217839
 30
0.0
  0
VERTEX
  5
6743E
  8
S-OBRYS
  6
CONTINUOUS
 10
-18155.744538452469
 20
398315.48444217839
 30
0.0
  0
VERTEX
  5
6743F
  8
S-OBRYS
  6
CONTINUOUS
 10
-18405.744538452469
 20
398315.48444217839
 30
0.0
  0
SEQEND
  5
67440
  8
S-OBRYS
  6
CONTINUOUS
  0
POLYLINE
  5
666BE
  8
S-OBRYS
  6
CONTINUOUS
 66
     1
 10
0.0
 20
0.0
 30
0.0
 70
     1
  0
VERTEX
  5
67441
  8
S-OBRYS
  6
CONTINUOUS
 10
-18365.744538452462
 20
397655.48444217839
 30
0.0
  0
VERTEX
  5
67442
  8
S-OBRYS
  6
CONTINUOUS
 10
-18195.744538452462
 20
397655.48444217839
 30
0.0
  0
VERTEX
  5
67443
  8
S-OBRYS
  6
CONTINUOUS
 10
-18195.744538452462
 20
398275.48444217828
 30
0.0
  0
VERTEX
  5
67444
  8
S-OBRYS
  6
CONTINUOUS
 10
-18365.744538452469
 20
398275.48444217828
 30
0.0
  0
SEQEND
  5
67445
  8
S-OBRYS
  6
CONTINUOUS
  0
LINE
  5
666BF
  8
S-OBRYS
  6
CONTINUOUS
 10
-18352.357849406151
 20
397265.48444217839
 30
0.0
 11
-18049.357849406129
 21
397565.48444217839
 31
0.0
  0
LINE
  5
666C0
  8
S-OBRYS
  6
CONTINUOUS
 10
-17759.357849406118
 20
398315.48444217839
 30
0.0
 11
-18049.357849406129
 21
398315.48444217839
 31
0.0
  0
LINE
  5
666C1
  8
S-OBRYS
  6
CONTINUOUS
 10
-18049.357849406129
 20
398475.48444217839
 30
0.0
 11
-18352.357849406151
 21
398475.48444217839
 31
0.0
  0
LINE
  5
666C2
  8
S-OBRYS
  6
CONTINUOUS
 10
-18352.357849406151
 20
400475.48444217839
 30
0.0
 11
-18352.357849406151
 21
402415.48444217828
 31
0.0
  0
LINE
  5
666C3
  8
S-OBRYS
  6
CONTINUOUS
 10
-18049.357849406129
 20
400475.48444217839
 30
0.0
 11
-18049.357849406129
 21
402415.48444217828
 31
0.0
  0
LINE
  5
666C4
  8
S-OBRYS
  6
CONTINUOUS
 10
-19062.35784940614
 20
400475.48444217839
 30
0.0
 11
-19062.35784940614
 21
402415.48444217828
 31
0.0
  0
LINE
  5
666C5
  8
S-OBRYS
  6
CONTINUOUS
 10
-18759.357849406118
 20
400475.48444217839
 30
0.0
 11
-18759.357849406118
 21
402415.48444217828
 31
0.0
  0
LINE
  5
666C6
  8
S-OBRYS
  6
CONTINUOUS
 10
-19092.357849406111
 20
400415.48444217828
 30
0.0
 11
-19092.357849406111
 21
400475.48444217839
 31
0.0
  0
LINE
  5
666C7
  8
S-OBRYS
  6
CONTINUOUS
 10
-18729.357849406151
 20
400415.48444217828
 30
0.0
 11
-18729.357849406151
 21
400475.48444217839
 31
0.0
  0
LINE
  5
666C8
  8
S-OBRYS
  6
CONTINUOUS
 10
-18729.357849406151
 20
400415.48444217828
 30
0.0
 11
-19092.357849406111
 21
400415.48444217828
 31
0.0
  0
LINE
  5
666C9
  8
S-OBRYS
  6
CONTINUOUS
 10
-18729.357849406151
 20
400475.48444217839
 30
0.0
 11
-19092.357849406111
 21
400475.48444217839
 31
0.0
  0
LINE
  5
666CA
  8
S-OBRYS
  6
CONTINUOUS
 10
-18019.357849406158
 20
400415.48444217828
 30
0.0
 11
-18382.357849406118
 21
400415.48444217828
 31
0.0
  0
LINE
  5
666CB
  8
S-OBRYS
  6
CONTINUOUS
 10
-18019.357849406158
 20
400475.48444217839
 30
0.0
 11
-18382.357849406118
 21
400475.48444217839
 31
0.0
  0
LINE
  5
666CC
  8
S-OBRYS
  6
CONTINUOUS
 10
-18382.357849406118
 20
400415.48444217828
 30
0.0
 11
-18382.357849406118
 21
400475.48444217839
 31
0.0
  0
LINE
  5
666CD
  8
S-OBRYS
  6
CONTINUOUS
 10
-18019.357849406158
 20
400415.48444217828
 30
0.0
 11
-18019.357849406158
 21
400475.48444217839
 31
0.0
  0
LINE
  5
666CE
  8
S-OBRYS
  6
CONTINUOUS
 10
-18049.357849406129
 20
402475.48444217828
 30
0.0
 11
-18049.357849406129
 21
403656.20995601453
 31
0.0
  0
LINE
  5
666CF
  8
S-OBRYS
  6
CONTINUOUS
 10
-18352.357849406151
 20
402475.48444217828
 30
0.0
 11
-18352.357849406151
 21
403656.20995601453
 31
0.0
  0
LINE
  5
666D0
  8
S-OBRYS
  6
CONTINUOUS
 10
-18759.357849406118
 20
402475.48444217828
 30
0.0
 11
-18759.357849406118
 21
403656.20995601453
 31
0.0
  0
LINE
  5
666D1
  8
S-OBRYS
  6
CONTINUOUS
 10
-19062.35784940614
 20
402475.48444217828
 30
0.0
 11
-19062.35784940614
 21
403656.20995601453
 31
0.0
  0
LINE
  5
666D2
  8
S-OBRYS
  6
CONTINUOUS
 10
-18729.357849406151
 20
402415.48444217828
 30
0.0
 11
-18729.357849406151
 21
402475.48444217828
 31
0.0
  0
LINE
  5
666D3
  8
S-OBRYS
  6
CONTINUOUS
 10
-19092.357849406111
 20
402415.48444217828
 30
0.0
 11
-19092.357849406111
 21
402475.48444217828
 31
0.0
  0
LINE
  5
666D4
  8
S-OBRYS
  6
CONTINUOUS
 10
-18729.357849406151
 20
402415.48444217828
 30
0.0
 11
-19092.357849406111
 21
402415.48444217828
 31
0.0
  0
LINE
  5
666D5
  8
S-OBRYS
  6
CONTINUOUS
 10
-18729.357849406151
 20
402475.48444217828
 30
0.0
 11
-19092.357849406111
 21
402475.48444217828
 31
0.0
  0
LINE
  5
666D6
  8
S-OBRYS
  6
CONTINUOUS
 10
-18019.357849406158
 20
402415.48444217828
 30
0.0
 11
-18382.357849406118
 21
402415.48444217828
 31
0.0
  0
LINE
  5
666D7
  8
S-OBRYS
  6
CONTINUOUS
 10
-18019.357849406158
 20
402475.48444217828
 30
0.0
 11
-18382.357849406118
 21
402475.48444217828
 31
0.0
  0
LINE
  5
666D8
  8
S-OBRYS
  6
CONTINUOUS
 10
-18382.357849406118
 20
402415.48444217828
 30
0.0
 11
-18382.357849406118
 21
402475.48444217828
 31
0.0
  0
LINE
  5
666D9
  8
S-OBRYS
  6
CONTINUOUS
 10
-18019.357849406158
 20
402415.48444217828
 30
0.0
 11
-18019.357849406158
 21
402475.48444217828
 31
0.0
  0
LINE
  5
666DA
  8
S-OBRYS
  6
CONTINUOUS
 10
-17546.357849406111
 20
404924.48444217828
 30
0.0
 11
-18275.85784940614
 21
404924.48444217828
 31
0.0
  0
LINE
  5
666DB
  8
S-OBRYS
  6
CONTINUOUS
 10
-17546.357849406111
 20
404445.48444217839
 30
0.0
 11
-18338.047505221199
 21
404445.48444217839
 31
0.0
  0
CIRCLE
  5
666DC
  8
S-OBRYS
  6
CONTINUOUS
 10
-18555.857849406129
 20
404924.48444217828
 30
0.0
 40
220.1250000000004
  0
LINE
  5
666DD
  8
S-OBRYS
  6
CONTINUOUS
 10
-18769.613801809981
 20
404415.48444217828
 30
0.0
 11
-19062.35784940614
 21
404415.48444217828
 31
0.0
  0
LINE
  5
666DE
  8
S-OBRYS
  6
CONTINUOUS
 10
-17622.357849406129
 20
403925.48444217828
 30
0.0
 11
-17622.357849406129
 21
404585.48444217828
 31
0.0
  0
LINE
  5
666DF
  8
S-OBRYS
  6
CONTINUOUS
 10
-17546.357849406111
 20
404075.48444217828
 30
0.0
 11
-17546.357849406111
 21
404924.48444217828
 31
0.0
  0
LINE
  5
666E0
  8
S-OBRYS
  6
CONTINUOUS
 10
-17546.35784940606
 20
404147.54648056219
 30
0.0
 11
-17698.3578494061
 21
404147.54648056219
 31
0.0
  0
LINE
  5
666E1
  8
S-OBRYS
  6
CONTINUOUS
 10
-18049.357849406129
 20
404415.48444217828
 30
0.0
 11
-18342.101897002289
 21
404415.48444217828
 31
0.0
  0
ARC
  5
666E2
  8
S-OBRYS
  6
CONTINUOUS
 10
-18654.143443899331
 20
403210.01383661322
 30
0.0
 40
2306.565591956647
 50
68.794163270715103
 51
87.557816989475015
  0
LINE
  5
666E3
  8
S-OBRYS
  6
CONTINUOUS
 10
-19352.357849406151
 20
398315.48444217839
 30
0.0
 11
-19062.35784940614
 21
398315.48444217839
 31
0.0
  0
LINE
  5
666E4
  8
S-OBRYS
  6
CONTINUOUS
 10
-17759.357849406118
 20
398315.48444217839
 30
0.0
 11
-18049.357849406129
 21
397855.48444217839
 31
0.0
  0
LINE
  5
666E5
  8
S-OBRYS
  6
CONTINUOUS
 10
-19352.357849406151
 20
398315.48444217839
 30
0.0
 11
-19062.35784940614
 21
397855.48444217839
 31
0.0
  0
ARC
  5
666E6
  8
S-OBRYS
  6
CONTINUOUS
 10
-18305.002240593622
 20
404968.03322750411
 30
0.0
 40
758.60662724703877
 50
158.7421079562248
 51
183.29094685858561
  0
ARC
  5
666E7
  8
S-OBRYS
  6
CONTINUOUS
 10
-17977.20885135527
 20
404961.09700956178
 30
0.0
 40
432.40382279879049
 50
355.14282671458147
 51
37.932582857793079
  0
LINE
  5
666E8
  8
S-OBRYS
  6
CONTINUOUS
 10
-17622.357849406111
 20
404001.25757355371
 30
0.0
 11
-17622.357849406111
 21
404296.94615298539
 31
0.0
  0
LINE
  5
666E9
  8
S-OBRYS
  6
CONTINUOUS
 10
-17546.357849406111
 20
404075.48444217828
 30
0.0
 11
-17698.3578494061
 21
404075.48444217828
 31
0.0
  0
LINE
  5
666EA
  8
S-OBRYS
  6
CONTINUOUS
 10
-17698.3578494061
 20
404147.54648056219
 30
0.0
 11
-17698.3578494061
 21
404075.48444217828
 31
0.0
  0
LINE
  5
666EB
  8
S-OBRYS
  6
CONTINUOUS
 10
-17546.357849406158
 20
404077.64927241899
 30
0.0
 11
-17546.357849406111
 21
404149.71131080278
 31
0.0
  0
LINE
  5
666EC
  8
S-OBRYS
  6
CONTINUOUS
 10
-18012.35784940614
 20
404445.48444217839
 30
0.0
 11
-17698.3578494061
 21
404147.54648056219
 31
0.0
  0
DIMENSION
  5
666ED
  8
S-OBRYS
  6
CONTINUOUS
  2
*D132
 10
-17271.782367239379
 20
404445.48444217839
 30
0.0
 11
-17346.782367239452
 21
404260.48444217828
 31
0.0
 70
     0
 13
-17546.357849406111
 23
404075.48444217828
 33
0.0
 14
-17546.357849406111
 24
404445.48444217839
 34
0.0
 50
90.0
  0
ARC
  5
666EE
  8
S-OBRYS
  6
CONTINUOUS
 10
-18555.857849406129
 20
404924.48444217828
 30
0.0
 40
280.0
 50
352.30331483701951
 51
187.69668516298049
  0
ARC
  5
666EF
  8
S-OBRYS
  6
CONTINUOUS
 10
-18555.857849406129
 20
403804.48444217828
 30
0.0
 40
130.0
 50
187.570691537047
 51
352.42930846295297
  0
LINE
  5
666F0
  8
0
 10
-18426.99105114237
 20
403787.35702832672
 30
0.0
 11
-18278.38038346234
 21
404886.98436359962
 31
0.0
  0
LINE
  5
666F1
  8
0
 10
-18684.7246476699
 20
403787.35702832672
 30
0.0
 11
-18833.33531534993
 21
404886.98436359962
 31
0.0
  0
LINE
  5
666F2
  8
S-OBRYS
  6
CONTINUOUS
 10
-18555.857849406129
 20
405204.48444217828
 30
0.0
 11
-18555.857849406129
 21
403674.48444217828
 31
0.0
  0
LINE
  5
666F3
  8
S-OBRYS
  6
CONTINUOUS
 10
-18835.857849406129
 20
404924.48444217828
 30
0.0
 11
-18275.85784940614
 21
404924.48444217828
 31
0.0
  0
LINE
  5
666F4
  8
S-OBRYS
  6
CONTINUOUS
 10
-18687.039355868292
 20
403804.48444217828
 30
0.0
 11
-18424.676342943982
 21
403804.48444217828
 31
0.0
  0
LINE
  5
666F5
  8
S-OBRYS
  6
CONTINUOUS
 10
-18773.668193591071
 20
404445.48444217839
 30
0.0
 11
-19062.35784940614
 21
404445.48444217839
 31
0.0
  0
LINE
  5
666F6
  8
S-OBRYS
  6
CONTINUOUS
 10
-18835.857849406129
 20
404924.48444217828
 30
0.0
 11
-19062.35784940614
 21
404924.48444217828
 31
0.0
  0
CIRCLE
  5
666F7
  8
S-OBRYS
  6
CONTINUOUS
 10
-18555.857849406129
 20
403804.48444217828
 30
0.0
 40
82.65390872543685
  0
LINE
  5
666F8
  8
S-OBRYS
  6
CONTINUOUS
 10
-18910.857849406129
 20
398445.48444217828
 30
0.0
 11
-18910.857849406129
 21
404445.48444217839
 31
0.0
  0
LINE
  5
666F9
  8
S-OBRYS
  6
CONTINUOUS
 10
-18200.85784940614
 20
398445.48444217828
 30
0.0
 11
-18200.85784940614
 21
404445.48444217839
 31
0.0
  0
CIRCLE
  5
666FA
  8
S-OBRYS
  6
CONTINUOUS
 10
-18555.857849406129
 20
397835.48444217828
 30
0.0
 40
54.619297025625649
  0
LINE
  5
666FB
  8
S-OBRYS
  6
CONTINUOUS
 10
-17720.376315365589
 20
404598.92698873283
 30
0.0
 11
-17956.958767339009
 21
404598.92698873283
 31
0.0
  0
LINE
  5
666FC
  8
S-OBRYS
  6
CONTINUOUS
 10
-17720.376315365589
 20
404775.39943215379
 30
0.0
 11
-17956.958767339009
 21
404775.39943215379
 31
0.0
  0
POLYLINE
  5
666FD
  8
S-OBRYS
  6
CONTINUOUS
 66
     1
 10
0.0
 20
0.0
 30
0.0
 70
     1
  0
VERTEX
  5
67446
  8
S-OBRYS
  6
CONTINUOUS
 10
-17970.84730246057
 20
404584.61841223919
 30
0.0
  0
VERTEX
  5
67447
  8
S-OBRYS
  6
CONTINUOUS
 10
-17706.487780244031
 20
404584.61841223919
 30
0.0
  0
VERTEX
  5
67448
  8
S-OBRYS
  6
CONTINUOUS
 10
-17706.487780244031
 20
404789.70800864737
 30
0.0
  0
VERTEX
  5
67449
  8
S-OBRYS
  6
CONTINUOUS
 10
-17970.84730246057
 20
404789.70800864737
 30
0.0
  0
SEQEND
  5
6744A
  8
S-OBRYS
  6
CONTINUOUS
  0
LINE
  5
666FE
  8
S-OBRYS
  6
CONTINUOUS
 10
-18011.30805614018
 20
404687.16321044328
 30
0.0
 11
-17673.493127776779
 21
404687.16321044328
 31
0.0
  0
LINE
  5
666FF
  8
S-OBRYS
  6
CONTINUOUS
 10
-17956.958767339009
 20
404775.39943215379
 30
0.0
 11
-17956.958767339009
 21
404598.92698873283
 31
0.0
  0
LINE
  5
66700
  8
S-OBRYS
  6
CONTINUOUS
 10
-17720.376315365589
 20
404775.39943215379
 30
0.0
 11
-17720.376315365589
 21
404598.92698873283
 31
0.0
  0
LINE
  5
66701
  8
S-OBRYS
  6
CONTINUOUS
 10
-17838.667541352301
 20
404824.49560850463
 30
0.0
 11
-17838.667541352301
 21
404562.7264104858
 31
0.0
  0
LINE
  5
66702
  8
S-OBRYS
  6
CONTINUOUS
 10
-16336.76780145611
 20
397268.24727167853
 30
0.0
 11
-16336.76780145611
 21
398425.24620629381
 31
0.0
  0
LINE
  5
66703
  8
S-OBRYS
  6
CONTINUOUS
 10
-16102.76780145611
 20
397268.24727167853
 30
0.0
 11
-16102.76780145611
 21
398425.24620629381
 31
0.0
  0
LINE
  5
66704
  8
S-OBRYS
  6
CONTINUOUS
 10
-16339.76780145611
 20
404445.48444217839
 30
0.0
 11
-16099.76780145611
 21
404445.48444217839
 31
0.0
  0
LINE
  5
66705
  8
S-OBRYS
  6
CONTINUOUS
 10
-16038.267801456121
 20
400475.48444217839
 30
0.0
 11
-16401.267801456092
 21
400475.48444217839
 31
0.0
  0
LINE
  5
66706
  8
S-OBRYS
  6
CONTINUOUS
 10
-16038.267801456121
 20
400415.48444217828
 30
0.0
 11
-16401.267801456092
 21
400415.48444217828
 31
0.0
  0
LINE
  5
66707
  8
S-OBRYS
  6
CONTINUOUS
 10
-16401.267801456092
 20
400415.48444217828
 30
0.0
 11
-16401.267801456092
 21
400475.48444217839
 31
0.0
  0
LINE
  5
66708
  8
S-OBRYS
  6
CONTINUOUS
 10
-16038.267801456121
 20
400415.48444217828
 30
0.0
 11
-16038.267801456121
 21
400475.48444217839
 31
0.0
  0
LINE
  5
66709
  8
S-OBRYS
  6
CONTINUOUS
 10
-16336.26780145611
 20
400475.48444217839
 30
0.0
 11
-16336.26780145611
 21
402415.48444217828
 31
0.0
  0
LINE
  5
6670A
  8
S-OBRYS
  6
CONTINUOUS
 10
-16103.26780145611
 20
400475.48444217839
 30
0.0
 11
-16103.26780145611
 21
402415.48444217828
 31
0.0
  0
LINE
  5
6670B
  8
S-OBRYS
  6
CONTINUOUS
 10
-16038.267801456121
 20
402475.48444217828
 30
0.0
 11
-16401.267801456092
 21
402475.48444217828
 31
0.0
  0
LINE
  5
6670C
  8
S-OBRYS
  6
CONTINUOUS
 10
-16038.267801456121
 20
402415.48444217828
 30
0.0
 11
-16401.267801456092
 21
402415.48444217828
 31
0.0
  0
LINE
  5
6670D
  8
S-OBRYS
  6
CONTINUOUS
 10
-16401.267801456092
 20
402415.48444217828
 30
0.0
 11
-16401.267801456092
 21
402475.48444217828
 31
0.0
  0
LINE
  5
6670E
  8
S-OBRYS
  6
CONTINUOUS
 10
-16038.267801456121
 20
402415.48444217828
 30
0.0
 11
-16038.267801456121
 21
402475.48444217828
 31
0.0
  0
LINE
  5
6670F
  8
S-OBRYS
  6
CONTINUOUS
 10
-16103.26780145611
 20
402475.48444217828
 30
0.0
 11
-16103.26780145611
 21
404445.48444217839
 31
0.0
  0
LINE
  5
66710
  8
S-OBRYS
  6
CONTINUOUS
 10
-16336.26780145611
 20
402475.48444217828
 30
0.0
 11
-16336.26780145611
 21
404445.48444217839
 31
0.0
  0
DIMENSION
  5
66711
  8
S-OBRYS
  6
CONTINUOUS
  2
*D133
 10
-16099.76780145611
 20
405989.6224337187
 30
0.0
 11
-15771.910658598959
 21
405989.6224337187
 31
0.0
 70
   128
 13
-16339.76780145611
 23
405388.09130052448
 33
0.0
 14
-16099.76780145611
 24
405388.09130052448
 34
0.0
  0
LINE
  5
66712
  8
S-OBRYS
  6
CONTINUOUS
 10
-16339.76780145611
 20
404469.09130052442
 30
0.0
 11
-16364.425827286959
 21
404469.09130052442
 31
0.0
  0
LINE
  5
66713
  8
S-OBRYS
  6
CONTINUOUS
 10
-16099.767801456101
 20
404469.09130052442
 30
0.0
 11
-16075.109775625249
 21
404469.09130052442
 31
0.0
  0
LINE
  5
66714
  8
S-OBRYS
  6
CONTINUOUS
 10
-16103.26780145611
 20
404415.48444217828
 30
0.0
 11
-16336.26780145611
 21
404415.48444217828
 31
0.0
  0
LINE
  5
66715
  8
S-OBRYS
  6
CONTINUOUS
 10
-16475.148165256702
 20
404893.45064116362
 30
0.0
 11
-16364.425827286959
 21
404469.09130052442
 31
0.0
  0
LINE
  5
66716
  8
S-OBRYS
  6
CONTINUOUS
 10
-16075.109775625249
 20
404469.09130052442
 30
0.0
 11
-15964.38743765552
 21
404893.45064116362
 31
0.0
  0
LINE
  5
66717
  8
S-OBRYS
  6
CONTINUOUS
 10
-16103.26780145611
 20
398475.48444217839
 30
0.0
 11
-16336.26780145611
 21
398475.48444217839
 31
0.0
  0
LINE
  5
66718
  8
S-OBRYS
  6
CONTINUOUS
 10
-16336.76780145611
 20
398315.48444217839
 30
0.0
 11
-16102.76780145611
 21
398315.48444217839
 31
0.0
  0
LINE
  5
66719
  8
S-OBRYS
  6
CONTINUOUS
 10
-16336.76780145611
 20
397855.48444217839
 30
0.0
 11
-16102.76780145611
 21
397855.48444217839
 31
0.0
  0
LINE
  5
6671A
  8
S-OBRYS
  6
CONTINUOUS
 10
-13583.14370588662
 20
401917.68245695648
 30
0.0
 11
-13583.14370588662
 21
401677.68245695642
 31
0.0
  0
LINE
  5
6671B
  8
S-OBRYS
  6
CONTINUOUS
 10
-13280.143705886599
 20
401917.68245695648
 30
0.0
 11
-13280.143705886599
 21
401677.68245695642
 31
0.0
  0
LINE
  5
6671C
  8
S-OBRYS
  6
CONTINUOUS
 10
-12570.14370588661
 20
401917.68245695648
 30
0.0
 11
-12570.14370588661
 21
401677.68245695642
 31
0.0
  0
LINE
  5
6671D
  8
S-OBRYS
  6
CONTINUOUS
 10
-12873.14370588663
 20
401917.68245695648
 30
0.0
 11
-12873.14370588663
 21
401677.68245695642
 31
0.0
  0
LINE
  5
6671E
  8
S-OBRYS
  6
CONTINUOUS
 10
-12721.64370588662
 20
401677.68245695642
 30
0.0
 11
-12721.64370588662
 21
401917.68245695648
 31
0.0
  0
CIRCLE
  5
6671F
  8
S-OBRYS
  6
CONTINUOUS
 10
-12143.14370588659
 20
401797.68245695642
 30
0.0
 40
76.0
  0
LINE
  5
66720
  8
S-OBRYS
  6
CONTINUOUS
 10
-12143.14370588659
 20
401677.68245695642
 30
0.0
 11
-12143.14370588659
 21
401917.68245695648
 31
0.0
  0
LINE
  5
66721
  8
S-OBRYS
  6
CONTINUOUS
 10
-12885.53692446616
 20
401542.30209315591
 30
0.0
 11
-12885.53692446616
 21
401677.68245695642
 31
0.0
  0
LINE
  5
66722
  8
S-OBRYS
  6
CONTINUOUS
 10
-12885.53692446616
 20
401542.30209315591
 30
0.0
 11
-13051.64370588661
 21
401542.30209315591
 31
0.0
  0
DIMENSION
  5
66723
  8
S-OBRYS
  6
CONTINUOUS
  2
*D134
 10
-17546.357849406111
 20
405988.95497984049
 30
0.0
 11
-18304.357849406129
 21
406063.95497984061
 31
0.0
 70
     0
 13
-19062.35784940614
 23
404924.48444217839
 33
0.0
 14
-17546.357849406111
 24
404924.48444217828
 34
0.0
  0
DIMENSION
  5
66724
  8
S-OBRYS
  6
CONTINUOUS
  2
*D135
 10
-19473.736898222
 20
405514.48444217828
 30
0.0
 11
-19548.736898222069
 21
404972.48444217839
 31
0.0
 70
     0
 13
-19062.35784940614
 23
404430.48444217828
 33
0.0
 14
-18555.85784940618
 24
405514.48444217828
 34
0.0
 50
90.0
  0
LINE
  5
66725
  8
S-OBRYS
  6
CONTINUOUS
 10
-18835.40565857512
 20
404908.57776468678
 30
0.0
 11
-19062.35784940614
 21
404908.57776468678
 31
0.0
  0
LINE
  5
66726
  8
S-OBRYS
  6
CONTINUOUS
 10
-17546.357849406111
 20
404908.57776468678
 30
0.0
 11
-18276.310040237149
 21
404908.57776468678
 31
0.0
  0
DIMENSION
  5
66727
  8
S-OBRYS
  6
CONTINUOUS
  2
*D136
 10
-19157.93789492721
 20
404924.48444217839
 30
0.0
 11
-19232.93789492728
 21
404677.48444217839
 31
0.0
 70
     0
 13
-19062.35784940614
 23
404430.48444217828
 33
0.0
 14
-19062.35784940614
 24
404924.48444217839
 34
0.0
 50
90.0
  0
LINE
  5
66728
  8
S-OBRYS
  6
CONTINUOUS
 10
-18835.40565857512
 20
404940.39111966977
 30
0.0
 11
-19062.35784940614
 21
404940.39111966977
 31
0.0
  0
LINE
  5
66729
  8
S-OBRYS
  6
CONTINUOUS
 10
-17546.357849406111
 20
404940.39111966977
 30
0.0
 11
-18276.310040237149
 21
404940.39111966977
 31
0.0
  0
LINE
  5
6672A
  8
S-OBRYS
  6
CONTINUOUS
 10
-18012.35784940614
 20
404445.48444217839
 30
0.0
 11
-17622.357849406111
 21
404147.54648056219
 31
0.0
  0
LINE
  5
6672B
  8
S-OBRYS
  6
CONTINUOUS
 10
-17622.357849406111
 20
404147.54648056219
 30
0.0
 11
-17546.357849406111
 21
404445.48444217839
 31
0.0
  0
LINE
  5
6672C
  8
S-OBRYS
  6
CONTINUOUS
 10
-18020.972302624548
 20
403706.20995601453
 30
0.0
 11
-18470.757171563691
 21
403706.20995601453
 31
0.0
  0
LINE
  5
6672D
  8
S-OBRYS
  6
CONTINUOUS
 10
-18020.972302624548
 20
403656.20995601453
 30
0.0
 11
-19090.743396187721
 21
403656.20995601453
 31
0.0
  0
LINE
  5
6672E
  8
S-OBRYS
  6
CONTINUOUS
 10
-18640.958527248578
 20
403706.20995601453
 30
0.0
 11
-19090.743396187721
 21
403706.20995601453
 31
0.0
  0
LINE
  5
6672F
  8
S-OBRYS
  6
CONTINUOUS
 10
-19090.743396187721
 20
403681.20995601453
 30
0.0
 11
-18297.831855892251
 21
403681.20995601453
 31
0.0
  0
LINE
  5
66730
  8
S-OBRYS
  6
CONTINUOUS
 10
-19077.025742602222
 20
403669.49276168342
 30
0.0
 11
-19077.025742602222
 21
403692.92715034558
 31
0.0
  0
CIRCLE
  5
66731
  8
S-OBRYS
  6
CONTINUOUS
 10
-19077.025742602222
 20
403681.20995601453
 30
0.0
 40
7.4447018357286652
  0
LINE
  5
66732
  8
S-OBRYS
  6
CONTINUOUS
 10
-19090.743396187721
 20
403706.20995601453
 30
0.0
 11
-19090.743396187721
 21
403656.20995601453
 31
0.0
  0
CIRCLE
  5
66733
  8
S-OBRYS
  6
CONTINUOUS
 10
-18744.689956210041
 20
403681.20995601453
 30
0.0
 40
7.4447018357286652
  0
LINE
  5
66734
  8
S-OBRYS
  6
CONTINUOUS
 10
-18744.689956210041
 20
403669.49276168342
 30
0.0
 11
-18744.689956210041
 21
403692.92715034558
 31
0.0
  0
LINE
  5
66735
  8
S-OBRYS
  6
CONTINUOUS
 10
-18020.972302624548
 20
403698.21121546399
 30
0.0
 11
-18480.984614644101
 21
403698.21121546399
 31
0.0
  0
LINE
  5
66736
  8
S-OBRYS
  6
CONTINUOUS
 10
-18020.972302624548
 20
403664.20869656518
 30
0.0
 11
-19090.743396187721
 21
403664.20869656501
 31
0.0
  0
LINE
  5
66737
  8
S-OBRYS
  6
CONTINUOUS
 10
-19062.35784940614
 20
404445.48444217839
 30
0.0
 11
-19062.35784940614
 21
404924.48444217828
 31
0.0
  0
LINE
  5
66738
  8
S-OBRYS
  6
CONTINUOUS
 10
-18759.357849406118
 20
403706.20995601453
 30
0.0
 11
-18759.357849406118
 21
404339.5967162929
 31
0.0
  0
CIRCLE
  5
66739
  8
S-OBRYS
  6
CONTINUOUS
 10
-18367.025742602229
 20
403681.20995601453
 30
0.0
 40
7.4447018357286652
  0
LINE
  5
6673A
  8
S-OBRYS
  6
CONTINUOUS
 10
-18367.025742602229
 20
403669.49276168342
 30
0.0
 11
-18367.025742602229
 21
403692.92715034558
 31
0.0
  0
LINE
  5
6673B
  8
S-OBRYS
  6
CONTINUOUS
 10
-18034.689956210052
 20
403669.49276168342
 30
0.0
 11
-18034.689956210052
 21
403692.92715034558
 31
0.0
  0
CIRCLE
  5
6673C
  8
S-OBRYS
  6
CONTINUOUS
 10
-18034.689956210052
 20
403681.20995601453
 30
0.0
 40
7.4447018357286652
  0
LINE
  5
6673D
  8
S-OBRYS
  6
CONTINUOUS
 10
-18020.972302624548
 20
403656.20995601453
 30
0.0
 11
-18020.972302624548
 21
403706.20995601453
 31
0.0
  0
LINE
  5
6673E
  8
S-OBRYS
  6
CONTINUOUS
 10
-18630.731084168168
 20
403698.21121546399
 30
0.0
 11
-19090.743396187721
 21
403698.21121546411
 31
0.0
  0
LINE
  5
6673F
  8
S-OBRYS
  6
CONTINUOUS
 10
-18352.357849406151
 20
403706.20995601453
 30
0.0
 11
-18352.357849406151
 21
404339.5967162929
 31
0.0
  0
LINE
  5
66740
  8
S-OBRYS
  6
CONTINUOUS
 10
-18049.357849406129
 20
403706.20995601453
 30
0.0
 11
-18049.357849406129
 21
404445.48444217839
 31
0.0
  0
ARC
  5
66741
  8
S-OBRYS
  6
CONTINUOUS
 10
-18027.59839370806
 20
404881.42573951551
 30
0.0
 40
522.0976330262248
 50
41.43148721762595
 51
66.547994432074987
  0
LINE
  5
66742
  8
S-OBRYS
  6
CONTINUOUS
 10
-19062.35784940614
 20
404445.48444217839
 30
0.0
 11
-19062.35784940614
 21
403706.20995601453
 31
0.0
  0
LINE
  5
66743
  8
S-OBRYS
  6
CONTINUOUS
 10
-13573.976212232041
 20
404445.48444217839
 30
0.0
 11
-13573.976212232041
 21
404924.48444217828
 31
0.0
  0
ARC
  5
66744
  8
S-OBRYS
  6
CONTINUOUS
 10
-13075.493113447879
 20
405008.95806161192
 30
0.0
 40
505.58994467222868
 50
89.091449780856678
 51
94.629740853460859
  0
ARC
  5
66745
  8
S-OBRYS
  6
CONTINUOUS
 10
-13165.761806725241
 20
403210.01383661322
 30
0.0
 40
2306.565591956647
 50
68.794163270715103
 51
87.557816989475015
  0
ARC
  5
66746
  8
S-OBRYS
  6
CONTINUOUS
 10
-12539.216756533961
 20
404881.42573951551
 30
0.0
 40
522.0976330262248
 50
41.43148721762595
 51
66.547994432074987
  0
ARC
  5
66747
  8
S-OBRYS
  6
CONTINUOUS
 10
-12488.827214181179
 20
404961.09700956178
 30
0.0
 40
432.40382279879049
 50
355.14282671458147
 51
37.932582857793079
  0
LINE
  5
66748
  8
S-OBRYS
  6
CONTINUOUS
 10
-12057.97621223201
 20
404075.48444217828
 30
0.0
 11
-12057.97621223201
 21
404924.48444217828
 31
0.0
  0
LINE
  5
66749
  8
S-OBRYS
  6
CONTINUOUS
 10
-12057.97621223201
 20
404924.48444217828
 30
0.0
 11
-13598.50895485816
 21
404924.48444217828
 31
0.0
  0
LINE
  5
6674A
  8
S-OBRYS
  6
CONTINUOUS
 10
-12057.97621223201
 20
404940.39111966977
 30
0.0
 11
-13586.15626558815
 21
404940.39111966977
 31
0.0
  0
LINE
  5
6674B
  8
S-OBRYS
  6
CONTINUOUS
 10
-12057.97621223201
 20
404908.57776468678
 30
0.0
 11
-13573.976212232041
 21
404908.57776468678
 31
0.0
  0
LINE
  5
6674C
  8
S-OBRYS
  6
CONTINUOUS
 10
-12057.97621223201
 20
404445.48444217839
 30
0.0
 11
-13573.976212232041
 21
404445.48444217839
 31
0.0
  0
LINE
  5
6674D
  8
S-OBRYS
  6
CONTINUOUS
 10
-12523.976212232041
 20
404445.48444217839
 30
0.0
 11
-12209.97621223201
 21
404147.54648056219
 31
0.0
  0
LINE
  5
6674E
  8
S-OBRYS
  6
CONTINUOUS
 10
-12523.976212232041
 20
404445.48444217839
 30
0.0
 11
-12133.97621223201
 21
404147.54648056219
 31
0.0
  0
LINE
  5
6674F
  8
S-OBRYS
  6
CONTINUOUS
 10
-12133.976212232041
 20
403925.48444217828
 30
0.0
 11
-12133.976212232041
 21
404585.48444217828
 31
0.0
  0
LINE
  5
66750
  8
S-OBRYS
  6
CONTINUOUS
 10
-12133.97621223201
 20
404147.54648056219
 30
0.0
 11
-12057.97621223201
 21
404445.48444217839
 31
0.0
  0
LINE
  5
66751
  8
S-OBRYS
  6
CONTINUOUS
 10
-12057.97621223197
 20
404147.54648056219
 30
0.0
 11
-12209.97621223201
 21
404147.54648056219
 31
0.0
  0
LINE
  5
66752
  8
S-OBRYS
  6
CONTINUOUS
 10
-12057.97621223201
 20
404075.48444217828
 30
0.0
 11
-12209.97621223201
 21
404075.48444217828
 31
0.0
  0
LINE
  5
66753
  8
S-OBRYS
  6
CONTINUOUS
 10
-12209.97621223201
 20
404147.54648056219
 30
0.0
 11
-12209.97621223201
 21
404075.48444217828
 31
0.0
  0
LINE
  5
66754
  8
S-OBRYS
  6
CONTINUOUS
 10
-12522.92641896609
 20
404687.16321044328
 30
0.0
 11
-12185.111490602691
 21
404687.16321044328
 31
0.0
  0
LINE
  5
66755
  8
S-OBRYS
  6
CONTINUOUS
 10
-12350.285904178199
 20
404824.49560850463
 30
0.0
 11
-12350.285904178199
 21
404562.7264104858
 31
0.0
  0
LINE
  5
66756
  8
S-OBRYS
  6
CONTINUOUS
 10
-12231.99467819149
 20
404598.92698873283
 30
0.0
 11
-12468.577130164909
 21
404598.92698873283
 31
0.0
  0
LINE
  5
66757
  8
S-OBRYS
  6
CONTINUOUS
 10
-12231.99467819149
 20
404775.39943215379
 30
0.0
 11
-12468.577130164909
 21
404775.39943215379
 31
0.0
  0
POLYLINE
  5
66758
  8
S-OBRYS
  6
CONTINUOUS
 66
     1
 10
0.0
 20
0.0
 30
0.0
 70
     1
  0
VERTEX
  5
6744B
  8
S-OBRYS
  6
CONTINUOUS
 10
-12482.465665286471
 20
404584.61841223919
 30
0.0
  0
VERTEX
  5
6744C
  8
S-OBRYS
  6
CONTINUOUS
 10
-12218.10614306993
 20
404584.61841223919
 30
0.0
  0
VERTEX
  5
6744D
  8
S-OBRYS
  6
CONTINUOUS
 10
-12218.10614306993
 20
404789.70800864737
 30
0.0
  0
VERTEX
  5
6744E
  8
S-OBRYS
  6
CONTINUOUS
 10
-12482.465665286471
 20
404789.70800864737
 30
0.0
  0
SEQEND
  5
6744F
  8
S-OBRYS
  6
CONTINUOUS
  0
LINE
  5
66759
  8
S-OBRYS
  6
CONTINUOUS
 10
-12468.577130164909
 20
404775.39943215379
 30
0.0
 11
-12468.577130164909
 21
404598.92698873283
 31
0.0
  0
LINE
  5
6675A
  8
S-OBRYS
  6
CONTINUOUS
 10
-12231.99467819149
 20
404775.39943215379
 30
0.0
 11
-12231.99467819149
 21
404598.92698873283
 31
0.0
  0
LINE
  5
6675B
  8
S-OBRYS
  6
CONTINUOUS
 10
-13347.476212232041
 20
404924.48444217828
 30
0.0
 11
-12787.476212232041
 21
404924.48444217828
 31
0.0
  0
LINE
  5
6675C
  8
S-OBRYS
  6
CONTINUOUS
 10
-13067.476212232041
 20
404328.5221767535
 30
0.0
 11
-13067.476212232041
 21
405514.48444217828
 31
0.0
  0
LINE
  5
6675D
  8
S-OBRYS
  6
CONTINUOUS
 10
-13351.22936871958
 20
405031.32603187719
 30
0.0
 11
-13351.22936871958
 21
406059.32959222299
 31
0.0
  0
LINE
  5
6675E
  8
S-OBRYS
  6
CONTINUOUS
 10
-13551.22936871958
 20
406022.32680978032
 30
0.0
 11
-13586.15626558815
 21
405648.46009749308
 31
0.0
  0
LINE
  5
6675F
  8
S-OBRYS
  6
CONTINUOUS
 10
-13151.22936871958
 20
406022.32680978032
 30
0.0
 11
-13116.302471851021
 21
405648.46009749308
 31
0.0
  0
LINE
  5
66760
  8
S-OBRYS
  6
CONTINUOUS
 10
-13586.15626558815
 20
405628.4047057553
 30
0.0
 11
-13586.15626558815
 21
404924.48444217828
 31
0.0
  0
LINE
  5
66761
  8
S-OBRYS
  6
CONTINUOUS
 10
-13151.22936871958
 20
406022.32680978032
 30
0.0
 11
-13151.22936871958
 21
406034.48444217828
 31
0.0
  0
LINE
  5
66762
  8
S-OBRYS
  6
CONTINUOUS
 10
-13351.22936871958
 20
406022.32680978032
 30
0.0
 11
-13586.15626558815
 21
405648.46009749308
 31
0.0
  0
LINE
  5
66763
  8
S-OBRYS
  6
CONTINUOUS
 10
-13351.22936871958
 20
406022.32680978032
 30
0.0
 11
-13116.302471851021
 21
405648.46009749308
 31
0.0
  0
LINE
  5
66764
  8
S-OBRYS
  6
CONTINUOUS
 10
-13116.302471851021
 20
405648.46009749308
 30
0.0
 11
-13116.302471851021
 21
405638.56417860131
 31
0.0
  0
INSERT
  5
66765
  8
S-OBRYS
  6
CONTINUOUS
  2
*U281
 10
0.0
 20
0.0
 30
0.0
  0
INSERT
  5
66766
  8
S-OBRYS
  6
CONTINUOUS
  2
*U282
 10
0.0
 20
0.0
 30
0.0
  0
INSERT
  5
66767
  8
S-OBRYS
  6
CONTINUOUS
  2
*U283
 10
0.0
 20
0.0
 30
0.0
  0
LINE
  5
66768
  8
S-OBRYS
  6
CONTINUOUS
 10
-13150.04083169234
 20
398309.51184492878
 30
0.0
 11
-13036.26619018286
 21
398309.51184492878
 31
0.0
  0
CIRCLE
  5
66769
  8
S-OBRYS
  6
CONTINUOUS
 10
-13093.1535109376
 20
398309.51184492878
 30
0.0
 40
7.0
  0
LINE
  5
6676A
  8
S-OBRYS
  6
CONTINUOUS
 10
-13093.1535109376
 20
398366.39916568348
 30
0.0
 11
-13093.1535109376
 21
398252.62452417403
 31
0.0
  0
LINE
  5
6676B
  8
S-OBRYS
  6
CONTINUOUS
 10
-12350.04083169234
 20
398309.51184492878
 30
0.0
 11
-12236.26619018286
 21
398309.51184492878
 31
0.0
  0
LINE
  5
6676C
  8
S-OBRYS
  6
CONTINUOUS
 10
-12293.1535109376
 20
398366.39916568348
 30
0.0
 11
-12293.1535109376
 21
398252.62452417403
 31
0.0
  0
CIRCLE
  5
6676D
  8
S-OBRYS
  6
CONTINUOUS
 10
-12293.1535109376
 20
398309.51184492878
 30
0.0
 40
7.0
  0
DIMENSION
  5
6676E
  8
S-OBRYS
  6
CONTINUOUS
  2
*D137
 10
-12293.1535109376
 20
397900.73284422548
 30
0.0
 11
-12693.1535109376
 21
397975.73284422548
 31
0.0
 70
     0
 13
-13093.1535109376
 23
398252.62452417403
 33
0.0
 14
-12293.1535109376
 24
398252.62452417403
 34
0.0
  0
LINE
  5
6676F
  8
S-OBRYS
  6
CONTINUOUS
 10
-13093.1535109376
 20
398660.39916568348
 30
0.0
 11
-13093.1535109376
 21
398546.62452417403
 31
0.0
  0
LINE
  5
66770
  8
S-OBRYS
  6
CONTINUOUS
 10
-13150.04083169234
 20
398603.51184492878
 30
0.0
 11
-13036.26619018286
 21
398603.51184492878
 31
0.0
  0
CIRCLE
  5
66771
  8
S-OBRYS
  6
CONTINUOUS
 10
-13093.1535109376
 20
398603.51184492878
 30
0.0
 40
7.0
  0
LINE
  5
66772
  8
S-OBRYS
  6
CONTINUOUS
 10
-12293.1535109376
 20
398660.39916568348
 30
0.0
 11
-12293.1535109376
 21
398546.62452417403
 31
0.0
  0
LINE
  5
66773
  8
S-OBRYS
  6
CONTINUOUS
 10
-12350.04083169234
 20
398603.51184492878
 30
0.0
 11
-12236.26619018286
 21
398603.51184492878
 31
0.0
  0
CIRCLE
  5
66774
  8
S-OBRYS
  6
CONTINUOUS
 10
-12293.1535109376
 20
398603.51184492878
 30
0.0
 40
7.0
  0
DIMENSION
  5
66775
  8
S-OBRYS
  6
CONTINUOUS
  2
*D138
 10
-11898.26158503355
 20
398603.51184492878
 30
0.0
 11
-11973.26158503361
 21
398456.51184492873
 31
0.0
 70
     0
 13
-12236.26619018286
 23
398309.51184492878
 33
0.0
 14
-12236.26619018286
 24
398603.51184492878
 34
0.0
 50
90.0
  0
LINE
  5
66776
  8
S-OBRYS
  6
CONTINUOUS
 10
-16043.76780145611
 20
398425.24620629381
 30
0.0
 11
-16395.76780145611
 21
398425.24620629381
 31
0.0
  0
LINE
  5
66777
  8
S-OBRYS
  6
CONTINUOUS
 10
-16378.06084168597
 20
398445.48444217828
 30
0.0
 11
-16378.06084168597
 21
398479.79050743021
 31
0.0
  0
LINE
  5
66778
  8
S-OBRYS
  6
CONTINUOUS
 10
-16355.330781445091
 20
398445.48444217828
 30
0.0
 11
-16355.330781445091
 21
398479.79050743021
 31
0.0
  0
ARC
  5
66779
  8
S-OBRYS
  6
CONTINUOUS
 10
-16366.695811565531
 20
398480.8192315026
 30
0.0
 40
11.41149345422728
 50
354.82787468986248
 51
185.17212531013749
  0
ARC
  5
6677A
  8
S-OBRYS
  6
CONTINUOUS
 10
-16072.83979134668
 20
398480.8192315026
 30
0.0
 40
11.41149345422728
 50
354.82787468986248
 51
185.17212531013749
  0
LINE
  5
6677B
  8
S-OBRYS
  6
CONTINUOUS
 10
-16084.20482146713
 20
398445.48444217828
 30
0.0
 11
-16084.20482146713
 21
398479.79050743021
 31
0.0
  0
LINE
  5
6677C
  8
S-OBRYS
  6
CONTINUOUS
 10
-16061.47476122624
 20
398445.48444217828
 30
0.0
 11
-16061.47476122624
 21
398479.79050743021
 31
0.0
  0
DIMENSION
  5
6677D
  8
S-OBRYS
  6
CONTINUOUS
  2
*D139
 10
-12057.97621223201
 20
403684.8829908492
 30
0.0
 11
-12815.97621223203
 21
403759.8829908492
 31
0.0
 70
     0
 13
-13573.976212232041
 23
404445.48444217839
 33
0.0
 14
-12057.97621223201
 24
404445.48444217839
 34
0.0
  0
LINE
  5
6677E
  8
S-OBRYS
  6
CONTINUOUS
 10
-19062.35784940614
 20
404415.48444217828
 30
0.0
 11
-19062.35784940614
 21
404430.48444217828
 31
0.0
  0
LINE
  5
6677F
  8
S-OBRYS
  6
CONTINUOUS
 10
-19062.35784940614
 20
404430.48444217828
 30
0.0
 11
-19054.128430210982
 21
404430.48444217828
 31
0.0
  0
DIMENSION
  5
66780
  8
S-OBRYS
  6
CONTINUOUS
  2
*D140
 10
-18352.357849406151
 20
401046.39204112149
 30
0.0
 11
-18555.857849406129
 21
401121.39204112149
 31
0.0
 70
     0
 13
-18759.357849406118
 23
401046.39204112161
 33
0.0
 14
-18352.357849406151
 24
401046.39204112149
 34
0.0
  0
DIMENSION
  5
66781
  8
S-OBRYS
  6
CONTINUOUS
  2
*D141
 10
-18049.357849406129
 20
401046.39204112161
 30
0.0
 11
-17821.500706548992
 21
401046.39204112161
 31
0.0
 70
   128
 13
-18352.357849406151
 23
401056.39204112161
 33
0.0
 14
-18049.357849406129
 24
401056.39204112149
 34
0.0
  0
DIMENSION
  5
66782
  8
S-OBRYS
  6
CONTINUOUS
  2
*D142
 10
-18049.357849406129
 20
396852.44339779922
 30
0.0
 11
-18555.857849406129
 21
396927.44339779922
 31
0.0
 70
     0
 13
-19062.35784940614
 23
397265.48444217839
 33
0.0
 14
-18049.357849406129
 24
397265.48444217839
 34
0.0
  0
DIMENSION
  5
66783
  8
S-OBRYS
  6
CONTINUOUS
  2
*D143
 10
-19473.736898222
 20
397265.48444217839
 30
0.0
 11
-19548.736898222069
 21
397855.48444217839
 31
0.0
 70
     0
 13
-19062.35784940614
 23
398445.48444217828
 33
0.0
 14
-19062.35784940614
 24
397265.48444217839
 34
0.0
 50
90.0
  0
DIMENSION
  5
66784
  8
S-OBRYS
  6
CONTINUOUS
  2
*D144
 10
-19473.736898222
 20
400445.48444217839
 30
0.0
 11
-19548.736898222069
 21
399445.48444217839
 31
0.0
 70
     0
 13
-19065.507849406142
 23
398445.48444217828
 33
0.0
 14
-19092.357849406111
 24
400445.48444217839
 34
0.0
 50
90.0
  0
DIMENSION
  5
66785
  8
S-OBRYS
  6
CONTINUOUS
  2
*D145
 10
-19473.736898222
 20
402445.48444217828
 30
0.0
 11
-19548.736898222069
 21
401445.48444217828
 31
0.0
 70
     0
 13
-19095.507849406109
 23
400445.48444217839
 33
0.0
 14
-19092.357849406111
 24
402445.48444217828
 34
0.0
 50
90.0
  0
DIMENSION
  5
66786
  8
S-OBRYS
  6
CONTINUOUS
  2
*D146
 10
-19473.736898222
 20
404430.48444217828
 30
0.0
 11
-19548.736898222069
 21
403437.98444217828
 31
0.0
 70
     0
 13
-19095.507849406109
 23
402445.48444217828
 33
0.0
 14
-19095.507849406109
 24
404430.48444217828
 34
0.0
 50
90.0
  0
DIMENSION
  5
66787
  8
S-OBRYS
  6
CONTINUOUS
  2
*D147
 10
-16103.26780145611
 20
401034.35201443342
 30
0.0
 11
-15775.410658598959
 21
401109.35201443342
 31
0.0
 70
     0
 13
-16336.26780145611
 23
401034.35201443348
 33
0.0
 14
-16103.26780145611
 24
401034.35201443342
 34
0.0
  0
DIMENSION
  5
66788
  8
S-OBRYS
  6
CONTINUOUS
  2
*D148
 10
-15625.21159132779
 20
404899.48444217828
 30
0.0
 11
-15700.211591327859
 21
404573.53206122591
 31
0.0
 70
     0
  1
%%c50
 13
-15949.80290269418
 23
404949.48444217828
 33
0.0
 14
-15949.80290269418
 24
404899.48444217828
 34
0.0
 50
90.0
  0
DIMENSION
  5
66789
  8
S-OBRYS
  6
CONTINUOUS
  2
*D149
 10
-16043.76780145611
 20
396868.71452534839
 30
0.0
 11
-16219.76780145611
 21
396943.71452534839
 31
0.0
 70
     0
 13
-16395.76780145611
 23
397268.24727167853
 33
0.0
 14
-16043.76780145611
 24
397268.24727167853
 34
0.0
  0
DIMENSION
  5
6678A
  8
S-OBRYS
  6
CONTINUOUS
  2
*D150
 10
-11808.126084198941
 20
401677.68245695642
 30
0.0
 11
-11883.126084199001
 21
401349.82531409932
 31
0.0
 70
     0
 13
-12067.14370588659
 23
401917.68245695648
 33
0.0
 14
-12067.14370588659
 24
401677.68245695642
 34
0.0
 50
90.0
  0
VIEWPORT
  5
1FAB5
 67
     1
  8
0
  6
ČERCHOVANÁ
 10
12.669026204836801
 20
9.4585013259736659
 30
0.0
 40
41.707206501782828
 41
24.2248555085413
 68
     1
 69
     1
1001
ACAD
1000
MVIEW
1002
{
1070
    16
1010
0.0
1020
0.0
1030
0.0
1010
0.0
1020
0.0
1030
1.0
1040
0.0
1040
24.2248555085413
1040
12.669026204836801
1040
9.4585013259736659
1040
50.0
1040
0.0
1040
0.0
1070
     0
1070
   100
1070
     1
1070
     1
1070
     0
1070
     0
1070
     0
1070
     0
1040
0.0
1040
0.0
1040
0.0
1040
10.0
1040
10.0
1040
10.0
1040
10.0
1070
     0
1002
{
1002
}
1002
}
  0
VIEWPORT
  5
1FAB7
 67
     1
  8
2-VZT
  6
ČERCHOVANÁ
 10
5.24999976158142
 20
3.99999976158142
 30
0.0
 40
8.3999996185302717
 41
6.3999996185302717
 68
     2
 69
     2
1001
ACAD
1000
MVIEW
1002
{
1070
    16
1010
0.0
1020
0.0
1030
0.0
1010
0.0
1020
0.0
1030
1.0
1040
0.0
1040
517776.44812413253
1040
-335493.7046016907
1040
-205251.99203018961
1040
50.0
1040
0.0
1040
0.0
1070
     0
1070
   100
1070
     1
1070
     0
1070
     0
1070
     0
1070
     0
1070
     0
1040
0.0
1040
0.0
1040
0.0
1040
1.0
1040
1.0
1040
1.0
1040
1.0
1070
     0
1002
{
1002
}
1002
}
  0
ENDSEC
  0
EOF
