  0
SECTION
  2
HEADER
  9
$ACADVER
  1
AC1009
  9
$INSBASE
 10
0.0
 20
0.0
 30
0.0
  9
$EXTMIN
 10
-371613.63515397091
 20
-1401.9084920760361
 30
0.0
  9
$EXTMAX
 10
439407.092893294
 20
809618.82989815716
 30
0.0
  9
$LIMMIN
 10
-127022.6804658414
 20
-67144.462473645661
  9
$LIMMAX
 10
-873.19720690528334
 20
6755.1563308572058
  9
$ORTHOMODE
 70
     1
  9
$REGENMODE
 70
     1
  9
$FILLMODE
 70
     1
  9
$QTEXTMODE
 70
     0
  9
$MIRRTEXT
 70
     0
  9
$DRAGMODE
 70
     2
  9
$LTSCALE
 40
50.0
  9
$OSMODE
 70
   679
  9
$ATTMODE
 70
     1
  9
$TEXTSIZE
 40
200.0
  9
$TRACEWID
 40
10.0
  9
$TEXTSTYLE
  7
R
  9
$CLAYER
  8
S-OBRYS
  9
$CELTYPE
  6
CONTINUOUS
  9
$CECOLOR
 62
   256
  9
$DIMSCALE
 40
50.0
  9
$DIMASZ
 40
2.0
  9
$DIMEXO
 40
0.063
  9
$DIMDLI
 40
5.0
  9
$DIMRND
 40
0.0
  9
$DIMDLE
 40
0.0
  9
$DIMEXE
 40
0.2
  9
$DIMTP
 40
0.0
  9
$DIMTM
 40
0.0
  9
$DIMTXT
 40
2.0
  9
$DIMCEN
 40
2.0
  9
$DIMTSZ
 40
0.0
  9
$DIMTOL
 70
     0
  9
$DIMLIM
 70
     0
  9
$DIMTIH
 70
     0
  9
$DIMTOH
 70
     0
  9
$DIMSE1
 70
     0
  9
$DIMSE2
 70
     0
  9
$DIMTAD
 70
     1
  9
$DIMZIN
 70
    12
  9
$DIMBLK
  1

  9
$DIMASO
 70
     1
  9
$DIMSHO
 70
     0
  9
$DIMPOST
  1

  9
$DIMAPOST
  1

  9
$DIMALT
 70
     0
  9
$DIMALTD
 70
     2
  9
$DIMALTF
 40
25.399999999999999
  9
$DIMLFAC
 40
1.0
  9
$DIMTOFL
 70
     1
  9
$DIMTVP
 40
0.0
  9
$DIMTIX
 70
     0
  9
$DIMSOXD
 70
     0
  9
$DIMSAH
 70
     1
  9
$DIMBLK1
  1
OPEN
  9
$DIMBLK2
  1
OPEN
  9
$DIMSTYLE
  2
EMBABA
  9
$DIMCLRD
 70
     0
  9
$DIMCLRE
 70
     0
  9
$DIMCLRT
 70
     7
  9
$DIMTFAC
 40
1.0
  9
$DIMGAP
 40
0.5
  9
$LUNITS
 70
     2
  9
$LUPREC
 70
     0
  9
$SKETCHINC
 40
10.0
  9
$FILLETRAD
 40
400.0
  9
$AUNITS
 70
     0
  9
$AUPREC
 70
     4
  9
$MENU
  1
ACAD
  9
$ELEVATION
 40
0.0
  9
$PELEVATION
 40
0.0
  9
$THICKNESS
 40
0.0
  9
$LIMCHECK
 70
     0
  9
$BLIPMODE
 70
     0
  9
$CHAMFERA
 40
0.0
  9
$CHAMFERB
 40
0.0
  9
$SKPOLY
 70
     0
  9
$TDCREATE
 40
2450205.720229167
  9
$TDUPDATE
 40
2453529.4009944559
  9
$TDINDWG
 40
42.424356469899998
  9
$TDUSRTIMER
 40
42.424356469899998
  9
$USRTIMER
 70
     1
  9
$ANGBASE
 50
0.0
  9
$ANGDIR
 70
     0
  9
$PDMODE
 70
     2
  9
$PDSIZE
 40
-5.0
  9
$PLINEWID
 40
0.0
  9
$COORDS
 70
     0
  9
$SPLFRAME
 70
     0
  9
$SPLINETYPE
 70
     6
  9
$SPLINESEGS
 70
     8
  9
$ATTDIA
 70
     0
  9
$ATTREQ
 70
     1
  9
$HANDLING
 70
     1
  9
$HANDSEED
  5
674A0
  9
$SURFTAB1
 70
    18
  9
$SURFTAB2
 70
    18
  9
$SURFTYPE
 70
     6
  9
$SURFU
 70
    18
  9
$SURFV
 70
    18
  9
$UCSNAME
  2

  9
$UCSORG
 10
0.0
 20
0.0
 30
0.0
  9
$UCSXDIR
 10
1.0
 20
0.0
 30
0.0
  9
$UCSYDIR
 10
0.0
 20
1.0
 30
0.0
  9
$PUCSNAME
  2

  9
$PUCSORG
 10
0.0
 20
0.0
 30
0.0
  9
$PUCSXDIR
 10
1.0
 20
0.0
 30
0.0
  9
$PUCSYDIR
 10
0.0
 20
1.0
 30
0.0
  9
$USERI1
 70
     0
  9
$USERI2
 70
     0
  9
$USERI3
 70
     0
  9
$USERI4
 70
     0
  9
$USERI5
 70
     0
  9
$USERR1
 40
0.0
  9
$USERR2
 40
50.0
  9
$USERR3
 40
0.0
  9
$USERR4
 40
0.0
  9
$USERR5
 40
0.0
  9
$WORLDVIEW
 70
     1
  9
$SHADEDGE
 70
     3
  9
$SHADEDIF
 70
    70
  9
$TILEMODE
 70
     1
  9
$MAXACTVP
 70
    16
  9
$PLIMCHECK
 70
     0
  9
$PEXTMIN
 10
1.049999952316284
 20
0.7999999523162842
 30
0.0
  9
$PEXTMAX
 10
9.4499995708465558
 20
7.1999995708465558
 30
0.0
  9
$PLIMMIN
 10
-0.2500002402958907
 20
-0.2499999962453767
  9
$PLIMMAX
 10
10.74999951940821
 20
8.2499997634587316
  9
$UNITMODE
 70
     0
  9
$VISRETAIN
 70
     0
  9
$PLINEGEN
 70
     0
  9
$PSLTSCALE
 70
     1
  0
ENDSEC
  0
SECTION
  2
TABLES
  0
TABLE
  2
VPORT
 70
     4
  0
VPORT
  2
*ACTIVE
 70
     0
 10
0.0
 20
0.0
 11
1.0
 21
1.0
 12
2439.24227988557
 22
397305.11941465328
 13
0.0
 23
0.0
 14
1.0
 24
1.0
 15
1.0
 25
1.0
 16
0.0
 26
0.0
 36
1.0
 17
0.0
 27
0.0
 37
0.0
 40
41668.691565043577
 41
1.6116303219106951
 42
50.0
 43
0.0
 44
0.0
 50
0.0
 51
0.0
 71
     0
 72
   100
 73
     1
 74
     0
 75
     0
 76
     1
 77
     0
 78
     0
  0
ENDTAB
  0
TABLE
  2
LTYPE
 70
    14
  0
LTYPE
  2
CONTINUOUS
 70
     0
  3
Solid line
 72
    65
 73
     0
 40
0.0
  0
LTYPE
  2
ČERCHOVANÁ
 70
     0
  3
Čerchovaná __ . __ . __ . __ . __ . __ . __ . _
 72
    65
 73
     4
 40
1.0
 49
0.5
 49
-0.25
 49
0.0
 49
-0.25
  0
ENDTAB
  0
TABLE
  2
LAYER
 70
    37
  0
LAYER
  2
0
 70
     0
 62
     7
  6
CONTINUOUS
  0
LAYER
  2
RAZ
 70
     0
 62
     7
  6
CONTINUOUS
  0
LAYER
  2
KOTY
 70
     0
 62
     2
  6
CONTINUOUS
  0
LAYER
  2
DEFPOINTS
 70
     0
 62
     7
  6
CONTINUOUS
  0
LAYER
  2
2-VZT
 70
     0
 62
     4
  6
CONTINUOUS
  0
LAYER
  2
OBRYS
 70
     0
 62
     7
  6
CONTINUOUS
  0
LAYER
  2
S-OBRYS
 70
     0
 62
     7
  6
CONTINUOUS
  0
ENDTAB
  0
TABLE
  2
STYLE
 70
    11
  0
STYLE
  2
STANDARD
 70
     0
 40
0.0
 41
0.8
 50
0.0
 71
     0
 42
200.0
  3
ROMANS.SHX
  4

  0
STYLE
  2
R
 70
     0
 40
0.0
 41
1.0
 50
0.0
 71
     0
 42
200.0
  3
romans.shx
  4

  0
STYLE
  2
ROMANS
 70
     0
 40
0.0
 41
0.8
 50
0.0
 71
     0
 42
300.0
  3
ROMANS.shx
  4

  0
STYLE
  2
R08
 70
     0
 40
0.0
 41
0.8
 50
0.0
 71
     0
 42
800.0
  3
ROMANS.shx
  4

  0
STYLE
  2
ROMANT
 70
     0
 40
0.0
 41
0.7
 50
0.0
 71
     0
 42
3.0
  3
romant
  4

  0
STYLE
  2
CYRILLIC
 70
     0
 40
2.2999999999999989
 41
0.7
 50
0.0
 71
     0
 42
2.2999999999999989
  3
cyrillic
  4

  0
ENDTAB
  0
TABLE
  2
VIEW
 70
     0
  0
ENDTAB
  0
TABLE
  2
UCS
 70
     0
  0
ENDTAB
  0
TABLE
  2
APPID
 70
     6
  0
APPID
  2
ACAD
 70
     0
  0
APPID
  2
PHOENIX7010
 70
     0
  0
APPID
  2
CONTENTBLOCKICON
 70
     0
  0
APPID
  2
CONTENTLONGBLOCKNAME
 70
     0
  0
APPID
  2
ACAD_DSTYLE_DIMTEXT_FILL
 70
     0
  0
APPID
  2
DCO15
 70
     0
  0
ENDTAB
  0
TABLE
  2
DIMSTYLE
 70
     9
  0
DIMSTYLE
  2
STANDARD
 70
     0
  3

  4

  5

  6
OPEN
  7
OPEN
 40
1.0
 41
80.0
 42
1.0
 43
0.0
 44
1.0
 45
0.0
 46
0.8
 47
0.0
 48
0.0
140
70.0
141
-3.0
142
0.0
143
0.0394
144
1.0
145
1.0
146
0.5
147
1.0
 71
     0
 72
     0
 73
     0
 74
     0
 75
     0
 76
     0
 77
     0
 78
     8
170
     0
171
     2
172
     1
173
     1
174
     0
175
     0
176
     7
177
     7
178
     2
  0
DIMSTYLE
  2
EMBABA
 70
     0
  3

  4

  5

  6
OPEN
  7
OPEN
 40
50.0
 41
2.0
 42
0.063
 43
5.0
 44
0.2
 45
0.0
 46
0.0
 47
0.0
 48
0.0
140
2.0
141
2.0
142
0.0
143
25.399999999999999
144
1.0
145
0.0
146
1.0
147
0.5
 71
     0
 72
     0
 73
     0
 74
     0
 75
     0
 76
     0
 77
     1
 78
    12
170
     0
171
     2
172
     1
173
     1
174
     0
175
     0
176
     0
177
     0
178
     7
  0
ENDTAB
  0
ENDSEC
  0
SECTION
  2
BLOCKS
  0
BLOCK
  8
0
  2
$MODEL_SPACE
 70
     0
 10
0.0
 20
0.0
 30
0.0
  3
$MODEL_SPACE
  1

  0
ENDBLK
  5
9
  8
0
  0
BLOCK
 67
     1
  8
0
  2
$PAPER_SPACE
 70
     0
 10
0.0
 20
0.0
 30
0.0
  3
$PAPER_SPACE
  1

  0
ENDBLK
  5
E
 67
     1
  8
0
  0
BLOCK
  8
0
  2
_OPEN
 70
     0
 10
0.0
 20
0.0
 30
0.0
  3
_OPEN
  1

  0
LINE
  5
28
  8
0
  6
BYBLOCK
 62
     0
 10
-1.0
 20
0.1666666666666666
 30
0.0
 11
0.0
 21
0.0
 31
0.0
  0
LINE
  5
29
  8
0
  6
BYBLOCK
 62
     0
 10
0.0
 20
0.0
 30
0.0
 11
-1.0
 21
-0.1666666666666666
 31
0.0
  0
LINE
  5
2A
  8
0
  6
BYBLOCK
 62
     0
 10
0.0
 20
0.0
 30
0.0
 11
-1.0
 21
0.0
 31
0.0
  0
ENDBLK
  5
2C
  8
0
  0
BLOCK
  8
0
  2
*D55
 70
     1
 10
0.0
 20
0.0
 30
0.0
  3
*D55
  1

  0
LINE
  5
64A11
  8
S-OBRYS
  6
CONTINUOUS
 62
     0
 10
6285.229038126753
 20
398380.37475363549
 30
0.0
 11
6285.229038126753
 21
397014.47386231582
 31
0.0
  0
LINE
  5
64A12
  8
S-OBRYS
  6
CONTINUOUS
 62
     0
 10
7575.2290381267567
 20
398380.37475363549
 30
0.0
 11
7575.2290381267567
 21
397014.47386231582
 31
0.0
  0
LINE
  5
64A13
  8
S-OBRYS
  6
CONTINUOUS
 62
     0
 10
6385.229038126753
 20
397024.47386231582
 30
0.0
 11
7475.2290381267567
 21
397024.47386231582
 31
0.0
  0
INSERT
  5
64A14
  8
S-OBRYS
  6
CONTINUOUS
 62
     0
  2
_OPEN
 10
6285.229038126753
 20
397024.47386231582
 30
0.0
 41
100.0
 42
100.0
 43
100.0
 50
180.0
  0
INSERT
  5
64A15
  8
S-OBRYS
  6
CONTINUOUS
 62
     0
  2
_OPEN
 10
7575.2290381267567
 20
397024.47386231582
 30
0.0
 41
100.0
 42
100.0
 43
100.0
  0
INSERT
  5
64A16
  8
S-OBRYS
  6
CONTINUOUS
  2
*U209
 10
0.0
 20
0.0
 30
0.0
  0
POINT
  5
64A17
  8
DEFPOINTS
  6
CONTINUOUS
 62
     0
 10
6285.229038126753
 20
398383.52475363557
 30
0.0
  0
POINT
  5
64A18
  8
DEFPOINTS
  6
CONTINUOUS
 62
     0
 10
7575.2290381267567
 20
398383.52475363557
 30
0.0
  0
POINT
  5
64A19
  8
DEFPOINTS
  6
CONTINUOUS
 62
     0
 10
7575.2290381267567
 20
397024.47386231582
 30
0.0
  0
ENDBLK
  5
64053
  8
0
  0
BLOCK
  8
0
  2
*D56
 70
     1
 10
0.0
 20
0.0
 30
0.0
  3
*D56
  1

  0
LINE
  5
64A1A
  8
S-OBRYS
  6
CONTINUOUS
 62
     0
 10
6572.079038126758
 20
397433.52475363552
 30
0.0
 11
5950.3312894104893
 21
397433.52475363552
 31
0.0
  0
LINE
  5
64A1B
  8
S-OBRYS
  6
CONTINUOUS
 62
     0
 10
6572.079038126758
 20
398433.52475363552
 30
0.0
 11
5950.3312894104893
 21
398433.52475363552
 31
0.0
  0
LINE
  5
64A1C
  8
S-OBRYS
  6
CONTINUOUS
 62
     0
 10
5960.3312894104902
 20
397533.52475363557
 30
0.0
 11
5960.3312894104902
 21
398333.52475363557
 31
0.0
  0
INSERT
  5
64A1D
  8
S-OBRYS
  6
CONTINUOUS
 62
     0
  2
_OPEN
 10
5960.3312894104902
 20
397433.52475363552
 30
0.0
 41
100.0
 42
100.0
 43
100.0
 50
270.0
  0
INSERT
  5
64A1E
  8
S-OBRYS
  6
CONTINUOUS
 62
     0
  2
_OPEN
 10
5960.3312894104902
 20
398433.52475363552
 30
0.0
 41
100.0
 42
100.0
 43
100.0
 50
90.0
  0
INSERT
  5
64A1F
  8
S-OBRYS
  6
CONTINUOUS
  2
*U210
 10
0.0
 20
0.0
 30
0.0
  0
POINT
  5
64A20
  8
DEFPOINTS
  6
CONTINUOUS
 62
     0
 10
6575.2290381267567
 20
397433.52475363552
 30
0.0
  0
POINT
  5
64A21
  8
DEFPOINTS
  6
CONTINUOUS
 62
     0
 10
6575.2290381267567
 20
398433.52475363552
 30
0.0
  0
POINT
  5
64A22
  8
DEFPOINTS
  6
CONTINUOUS
 62
     0
 10
5960.3312894104902
 20
398433.52475363552
 30
0.0
  0
ENDBLK
  5
6405F
  8
0
  0
BLOCK
  8
0
  2
*D57
 70
     1
 10
0.0
 20
0.0
 30
0.0
  3
*D57
  1

  0
LINE
  5
64A23
  8
S-OBRYS
  6
CONTINUOUS
 62
     0
 10
7288.3790381267527
 20
397433.52475363552
 30
0.0
 11
7893.6739857925568
 21
397433.52475363552
 31
0.0
  0
LINE
  5
64A24
  8
S-OBRYS
  6
CONTINUOUS
 62
     0
 10
7578.3790381267563
 20
398383.52475363557
 30
0.0
 11
7893.6739857925568
 21
398383.52475363557
 31
0.0
  0
LINE
  5
64A25
  8
S-OBRYS
  6
CONTINUOUS
 62
     0
 10
7883.6739857925559
 20
397533.52475363557
 30
0.0
 11
7883.6739857925559
 21
398283.52475363552
 31
0.0
  0
INSERT
  5
64A26
  8
S-OBRYS
  6
CONTINUOUS
 62
     0
  2
_OPEN
 10
7883.6739857925559
 20
397433.52475363552
 30
0.0
 41
100.0
 42
100.0
 43
100.0
 50
270.0
  0
INSERT
  5
64A27
  8
S-OBRYS
  6
CONTINUOUS
 62
     0
  2
_OPEN
 10
7883.6739857925559
 20
398383.52475363557
 30
0.0
 41
100.0
 42
100.0
 43
100.0
 50
90.0
  0
INSERT
  5
64A28
  8
S-OBRYS
  6
CONTINUOUS
  2
*U211
 10
0.0
 20
0.0
 30
0.0
  0
POINT
  5
64A29
  8
DEFPOINTS
  6
CONTINUOUS
 62
     0
 10
7285.2290381267539
 20
397433.52475363552
 30
0.0
  0
POINT
  5
64A2A
  8
DEFPOINTS
  6
CONTINUOUS
 62
     0
 10
7575.2290381267567
 20
398383.52475363557
 30
0.0
  0
POINT
  5
64A2B
  8
DEFPOINTS
  6
CONTINUOUS
 62
     0
 10
7883.6739857925559
 20
398383.52475363557
 30
0.0
  0
ENDBLK
  5
6406B
  8
0
  0
BLOCK
  8
0
  2
*D58
 70
     1
 10
0.0
 20
0.0
 30
0.0
  3
*D58
  1

  0
LINE
  5
64A2C
  8
S-OBRYS
  6
CONTINUOUS
 62
     0
 10
6575.2290381267567
 20
404915.67475363548
 30
0.0
 11
6575.2290381267567
 21
405614.9455595942
 31
0.0
  0
LINE
  5
64A2D
  8
S-OBRYS
  6
CONTINUOUS
 62
     0
 10
7791.2290381267539
 20
404915.67475363548
 30
0.0
 11
7791.2290381267539
 21
405614.9455595942
 31
0.0
  0
LINE
  5
64A2E
  8
S-OBRYS
  6
CONTINUOUS
 62
     0
 10
6675.2290381267567
 20
405604.9455595942
 30
0.0
 11
7691.2290381267539
 21
405604.9455595942
 31
0.0
  0
INSERT
  5
64A2F
  8
S-OBRYS
  6
CONTINUOUS
 62
     0
  2
_OPEN
 10
6575.2290381267567
 20
405604.9455595942
 30
0.0
 41
100.0
 42
100.0
 43
100.0
 50
180.0
  0
INSERT
  5
64A30
  8
S-OBRYS
  6
CONTINUOUS
 62
     0
  2
_OPEN
 10
7791.2290381267539
 20
405604.9455595942
 30
0.0
 41
100.0
 42
100.0
 43
100.0
  0
INSERT
  5
64A31
  8
S-OBRYS
  6
CONTINUOUS
  2
*U212
 10
0.0
 20
0.0
 30
0.0
  0
POINT
  5
64A32
  8
DEFPOINTS
  6
CONTINUOUS
 62
     0
 10
6575.2290381267567
 20
404912.52475363552
 30
0.0
  0
POINT
  5
64A33
  8
DEFPOINTS
  6
CONTINUOUS
 62
     0
 10
7791.2290381267539
 20
404912.52475363552
 30
0.0
  0
POINT
  5
64A34
  8
DEFPOINTS
  6
CONTINUOUS
 62
     0
 10
7791.2290381267539
 20
405604.9455595942
 30
0.0
  0
ENDBLK
  5
64077
  8
0
  0
BLOCK
  8
0
  2
*D59
 70
     1
 10
0.0
 20
0.0
 30
0.0
  3
*D59
  1

  0
LINE
  5
64A35
  8
S-OBRYS
  6
CONTINUOUS
 62
     0
 10
7794.3790381267527
 20
404083.52475363552
 30
0.0
 11
8145.4265441098032
 21
404083.52475363552
 31
0.0
  0
LINE
  5
64A36
  8
S-OBRYS
  6
CONTINUOUS
 62
     0
 10
7794.3790381267527
 20
404433.52475363552
 30
0.0
 11
8145.4265441098032
 21
404433.52475363552
 31
0.0
  0
LINE
  5
64A37
  8
S-OBRYS
  6
CONTINUOUS
 62
     0
 10
8135.4265441098032
 20
404183.52475363552
 30
0.0
 11
8135.4265441098032
 21
404333.52475363552
 31
0.0
  0
INSERT
  5
64A38
  8
S-OBRYS
  6
CONTINUOUS
 62
     0
  2
_OPEN
 10
8135.4265441098032
 20
404083.52475363552
 30
0.0
 41
100.0
 42
100.0
 43
100.0
 50
270.0
  0
INSERT
  5
64A39
  8
S-OBRYS
  6
CONTINUOUS
 62
     0
  2
_OPEN
 10
8135.4265441098032
 20
404433.52475363552
 30
0.0
 41
100.0
 42
100.0
 43
100.0
 50
90.0
  0
INSERT
  5
64A3A
  8
S-OBRYS
  6
CONTINUOUS
  2
*U213
 10
0.0
 20
0.0
 30
0.0
  0
POINT
  5
64A3B
  8
DEFPOINTS
  6
CONTINUOUS
 62
     0
 10
7791.2290381267539
 20
404083.52475363552
 30
0.0
  0
POINT
  5
64A3C
  8
DEFPOINTS
  6
CONTINUOUS
 62
     0
 10
7791.2290381267539
 20
404433.52475363552
 30
0.0
  0
POINT
  5
64A3D
  8
DEFPOINTS
  6
CONTINUOUS
 62
     0
 10
8135.4265441098032
 20
404433.52475363552
 30
0.0
  0
ENDBLK
  5
64083
  8
0
  0
BLOCK
  8
0
  2
*D60
 70
     1
 10
0.0
 20
0.0
 30
0.0
  3
*D60
  1

  0
LINE
  5
64A3E
  8
S-OBRYS
  6
CONTINUOUS
 62
     0
 10
6572.079038126758
 20
404433.52475363552
 30
0.0
 11
6345.9464848432472
 21
404433.52475363552
 31
0.0
  0
LINE
  5
64A3F
  8
S-OBRYS
  6
CONTINUOUS
 62
     0
 10
6572.079038126758
 20
404912.52475363552
 30
0.0
 11
6345.9464848432472
 21
404912.52475363552
 31
0.0
  0
LINE
  5
64A40
  8
S-OBRYS
  6
CONTINUOUS
 62
     0
 10
6355.9464848432472
 20
404533.52475363552
 30
0.0
 11
6355.9464848432472
 21
404812.52475363552
 31
0.0
  0
INSERT
  5
64A41
  8
S-OBRYS
  6
CONTINUOUS
 62
     0
  2
_OPEN
 10
6355.9464848432472
 20
404433.52475363552
 30
0.0
 41
100.0
 42
100.0
 43
100.0
 50
270.0
  0
INSERT
  5
64A42
  8
S-OBRYS
  6
CONTINUOUS
 62
     0
  2
_OPEN
 10
6355.9464848432472
 20
404912.52475363552
 30
0.0
 41
100.0
 42
100.0
 43
100.0
 50
90.0
  0
INSERT
  5
64A43
  8
S-OBRYS
  6
CONTINUOUS
  2
*U214
 10
0.0
 20
0.0
 30
0.0
  0
POINT
  5
64A44
  8
DEFPOINTS
  6
CONTINUOUS
 62
     0
 10
6575.2290381267567
 20
404433.52475363552
 30
0.0
  0
POINT
  5
64A45
  8
DEFPOINTS
  6
CONTINUOUS
 62
     0
 10
6575.2290381267567
 20
404912.52475363552
 30
0.0
  0
POINT
  5
64A46
  8
DEFPOINTS
  6
CONTINUOUS
 62
     0
 10
6355.9464848432472
 20
404912.52475363552
 30
0.0
  0
ENDBLK
  5
6408F
  8
0
  0
BLOCK
  8
0
  2
*D61
 70
     1
 10
0.0
 20
0.0
 30
0.0
  3
*D61
  1

  0
LINE
  5
64A47
  8
S-OBRYS
  6
CONTINUOUS
 62
     0
 10
8926.3048119277155
 20
397948.61505504622
 30
0.0
 11
8926.3048119277155
 21
398540.7990787715
 31
0.0
  0
LINE
  5
64A48
  8
S-OBRYS
  6
CONTINUOUS
 62
     0
 10
9198.3048119277155
 20
398143.41918939841
 30
0.0
 11
9198.3048119277155
 21
398540.7990787715
 31
0.0
  0
LINE
  5
64A49
  8
S-OBRYS
  6
CONTINUOUS
 62
     0
 10
9098.3048119277155
 20
398530.7990787715
 30
0.0
 11
9026.3048119277155
 21
398530.7990787715
 31
0.0
  0
LINE
  5
64A4A
  8
S-OBRYS
  6
CONTINUOUS
 62
     0
 10
8926.3048119277155
 20
398530.7990787715
 30
0.0
 11
8570.5905262134293
 21
398530.7990787715
 31
0.0
  0
INSERT
  5
64A4B
  8
S-OBRYS
  6
CONTINUOUS
 62
     0
  2
_OPEN
 10
9198.3048119277155
 20
398530.7990787715
 30
0.0
 41
100.0
 42
100.0
 43
100.0
  0
INSERT
  5
64A4C
  8
S-OBRYS
  6
CONTINUOUS
 62
     0
  2
_OPEN
 10
8926.3048119277155
 20
398530.7990787715
 30
0.0
 41
100.0
 42
100.0
 43
100.0
 50
180.0
  0
INSERT
  5
64A4D
  8
S-OBRYS
  6
CONTINUOUS
  2
*U215
 10
0.0
 20
0.0
 30
0.0
  0
POINT
  5
64A4E
  8
DEFPOINTS
  6
CONTINUOUS
 62
     0
 10
8926.3048119277155
 20
397945.46505504608
 30
0.0
  0
POINT
  5
64A4F
  8
DEFPOINTS
  6
CONTINUOUS
 62
     0
 10
9198.3048119277155
 20
398140.26918939839
 30
0.0
  0
POINT
  5
64A50
  8
DEFPOINTS
  6
CONTINUOUS
 62
     0
 10
9198.3048119277155
 20
398530.7990787715
 30
0.0
  0
ENDBLK
  5
6409B
  8
0
  0
BLOCK
  8
0
  2
*D62
 70
     1
 10
0.0
 20
0.0
 30
0.0
  3
*D62
  1

  0
LINE
  5
64A51
  8
S-OBRYS
  6
CONTINUOUS
 62
     0
 10
6575.2290381267567
 20
397430.37475363549
 30
0.0
 11
6575.2290381267567
 21
397221.31025329529
 31
0.0
  0
LINE
  5
64A52
  8
S-OBRYS
  6
CONTINUOUS
 62
     0
 10
7285.2290381267539
 20
397430.37475363549
 30
0.0
 11
7285.2290381267539
 21
397221.31025329529
 31
0.0
  0
LINE
  5
64A53
  8
S-OBRYS
  6
CONTINUOUS
 62
     0
 10
6675.2290381267567
 20
397231.31025329529
 30
0.0
 11
7185.229038126753
 21
397231.31025329529
 31
0.0
  0
INSERT
  5
64A54
  8
S-OBRYS
  6
CONTINUOUS
 62
     0
  2
_OPEN
 10
6575.2290381267567
 20
397231.31025329529
 30
0.0
 41
100.0
 42
100.0
 43
100.0
 50
180.0
  0
INSERT
  5
64A55
  8
S-OBRYS
  6
CONTINUOUS
 62
     0
  2
_OPEN
 10
7285.2290381267539
 20
397231.31025329529
 30
0.0
 41
100.0
 42
100.0
 43
100.0
  0
INSERT
  5
64A56
  8
S-OBRYS
  6
CONTINUOUS
  2
*U216
 10
0.0
 20
0.0
 30
0.0
  0
POINT
  5
64A57
  8
DEFPOINTS
  6
CONTINUOUS
 62
     0
 10
6575.2290381267567
 20
397433.52475363552
 30
0.0
  0
POINT
  5
64A58
  8
DEFPOINTS
  6
CONTINUOUS
 62
     0
 10
7285.2290381267539
 20
397433.52475363552
 30
0.0
  0
POINT
  5
64A59
  8
DEFPOINTS
  6
CONTINUOUS
 62
     0
 10
7285.2290381267539
 20
397231.31025329529
 30
0.0
  0
ENDBLK
  5
640A7
  8
0
  0
BLOCK
  8
0
  2
*D63
 70
     1
 10
0.0
 20
0.0
 30
0.0
  3
*D63
  1

  0
LINE
  5
64A5A
  8
S-OBRYS
  6
CONTINUOUS
 62
     0
 10
9111.3048119277173
 20
405327.6150550461
 30
0.0
 11
9111.3048119277173
 21
405584.93444060051
 31
0.0
  0
LINE
  5
64A5B
  8
S-OBRYS
  6
CONTINUOUS
 62
     0
 10
9285.3048119277155
 20
405327.6150550461
 30
0.0
 11
9285.3048119277155
 21
405584.93444060051
 31
0.0
  0
LINE
  5
64A5C
  8
S-OBRYS
  6
CONTINUOUS
 62
     0
 10
9011.3048119277173
 20
405574.93444060051
 30
0.0
 11
8911.3048119277191
 21
405574.93444060051
 31
0.0
  0
LINE
  5
64A5D
  8
S-OBRYS
  6
CONTINUOUS
 62
     0
 10
9385.3048119277155
 20
405574.93444060051
 30
0.0
 11
9733.400050022954
 21
405574.93444060051
 31
0.0
  0
LINE
  5
64A5E
  8
S-OBRYS
  6
CONTINUOUS
 62
     0
 10
9111.3048119277173
 20
405574.93444060051
 30
0.0
 11
9285.3048119277155
 21
405574.93444060051
 31
0.0
  0
INSERT
  5
64A5F
  8
S-OBRYS
  6
CONTINUOUS
 62
     0
  2
_OPEN
 10
9111.3048119277173
 20
405574.93444060051
 30
0.0
 41
100.0
 42
100.0
 43
100.0
  0
INSERT
  5
64A60
  8
S-OBRYS
  6
CONTINUOUS
 62
     0
  2
_OPEN
 10
9285.3048119277155
 20
405574.93444060051
 30
0.0
 41
100.0
 42
100.0
 43
100.0
 50
180.0
  0
INSERT
  5
64A61
  8
S-OBRYS
  6
CONTINUOUS
  2
*U217
 10
0.0
 20
0.0
 30
0.0
  0
POINT
  5
64A62
  8
DEFPOINTS
  6
CONTINUOUS
 62
     0
 10
9111.3048119277173
 20
405324.46505504602
 30
0.0
  0
POINT
  5
64A63
  8
DEFPOINTS
  6
CONTINUOUS
 62
     0
 10
9285.3048119277155
 20
405324.46505504602
 30
0.0
  0
POINT
  5
64A64
  8
DEFPOINTS
  6
CONTINUOUS
 62
     0
 10
9285.3048119277155
 20
405574.93444060051
 30
0.0
  0
ENDBLK
  5
640B5
  8
0
  0
BLOCK
  8
0
  2
*D64
 70
     1
 10
0.0
 20
0.0
 30
0.0
  3
*D64
  1

  0
LINE
  5
64A65
  8
S-OBRYS
  6
CONTINUOUS
 62
     0
 10
12489.67486365874
 20
401323.17650666699
 30
0.0
 11
13000.91283385182
 21
401323.17650666699
 31
0.0
  0
LINE
  5
64A66
  8
S-OBRYS
  6
CONTINUOUS
 62
     0
 10
12489.67486365874
 20
401497.17650666711
 30
0.0
 11
13000.91283385182
 21
401497.17650666711
 31
0.0
  0
LINE
  5
64A67
  8
S-OBRYS
  6
CONTINUOUS
 62
     0
 10
12990.91283385182
 20
401223.17650666711
 30
0.0
 11
12990.91283385182
 21
401123.17650666699
 31
0.0
  0
LINE
  5
64A68
  8
S-OBRYS
  6
CONTINUOUS
 62
     0
 10
12990.91283385182
 20
401597.17650666699
 30
0.0
 11
12990.91283385182
 21
401945.27174476231
 31
0.0
  0
LINE
  5
64A69
  8
S-OBRYS
  6
CONTINUOUS
 62
     0
 10
12990.91283385182
 20
401323.17650666699
 30
0.0
 11
12990.91283385182
 21
401497.17650666711
 31
0.0
  0
INSERT
  5
64A6A
  8
S-OBRYS
  6
CONTINUOUS
 62
     0
  2
_OPEN
 10
12990.91283385182
 20
401323.17650666699
 30
0.0
 41
100.0
 42
100.0
 43
100.0
 50
90.0
  0
INSERT
  5
64A6B
  8
S-OBRYS
  6
CONTINUOUS
 62
     0
  2
_OPEN
 10
12990.91283385182
 20
401497.17650666711
 30
0.0
 41
100.0
 42
100.0
 43
100.0
 50
270.0
  0
INSERT
  5
64A6C
  8
S-OBRYS
  6
CONTINUOUS
  2
*U218
 10
0.0
 20
0.0
 30
0.0
  0
POINT
  5
64A6D
  8
DEFPOINTS
  6
CONTINUOUS
 62
     0
 10
12486.52486365874
 20
401323.17650666699
 30
0.0
  0
POINT
  5
64A6E
  8
DEFPOINTS
  6
CONTINUOUS
 62
     0
 10
12486.52486365874
 20
401497.17650666711
 30
0.0
  0
POINT
  5
64A6F
  8
DEFPOINTS
  6
CONTINUOUS
 62
     0
 10
12990.91283385182
 20
401497.17650666711
 30
0.0
  0
ENDBLK
  5
640C3
  8
0
  0
BLOCK
  8
0
  2
*D65
 70
     1
 10
0.0
 20
0.0
 30
0.0
  3
*D65
  1

  0
LINE
  5
64A70
  8
S-OBRYS
  6
CONTINUOUS
 62
     0
 10
11270.52486365874
 20
401500.32650666701
 30
0.0
 11
11270.52486365874
 21
401908.07429579488
 31
0.0
  0
LINE
  5
64A71
  8
S-OBRYS
  6
CONTINUOUS
 62
     0
 10
12486.52486365874
 20
401500.32650666701
 30
0.0
 11
12486.52486365874
 21
401908.07429579488
 31
0.0
  0
LINE
  5
64A72
  8
S-OBRYS
  6
CONTINUOUS
 62
     0
 10
11370.52486365874
 20
401898.07429579488
 30
0.0
 11
12386.52486365874
 21
401898.07429579488
 31
0.0
  0
INSERT
  5
64A73
  8
S-OBRYS
  6
CONTINUOUS
 62
     0
  2
_OPEN
 10
11270.52486365874
 20
401898.07429579488
 30
0.0
 41
100.0
 42
100.0
 43
100.0
 50
180.0
  0
INSERT
  5
64A74
  8
S-OBRYS
  6
CONTINUOUS
 62
     0
  2
_OPEN
 10
12486.52486365874
 20
401898.07429579488
 30
0.0
 41
100.0
 42
100.0
 43
100.0
  0
INSERT
  5
64A75
  8
S-OBRYS
  6
CONTINUOUS
  2
*U219
 10
0.0
 20
0.0
 30
0.0
  0
POINT
  5
64A76
  8
DEFPOINTS
  6
CONTINUOUS
 62
     0
 10
11270.52486365874
 20
401497.17650666711
 30
0.0
  0
POINT
  5
64A77
  8
DEFPOINTS
  6
CONTINUOUS
 62
     0
 10
12486.52486365874
 20
401497.17650666711
 30
0.0
  0
POINT
  5
64A78
  8
DEFPOINTS
  6
CONTINUOUS
 62
     0
 10
12486.52486365874
 20
401898.07429579488
 30
0.0
  0
ENDBLK
  5
640CF
  8
0
  0
BLOCK
  8
0
  2
*D66
 70
     1
 10
0.0
 20
0.0
 30
0.0
  3
*D66
  1

  0
LINE
  5
64A79
  8
S-OBRYS
  6
CONTINUOUS
 62
     0
 10
11668.48249830338
 20
405446.49179543171
 30
0.0
 11
11668.48249830338
 21
405584.93444060051
 31
0.0
  0
LINE
  5
64A7A
  8
S-OBRYS
  6
CONTINUOUS
 62
     0
 10
12068.48249830338
 20
405446.49179543171
 30
0.0
 11
12068.48249830338
 21
405584.93444060051
 31
0.0
  0
LINE
  5
64A7B
  8
S-OBRYS
  6
CONTINUOUS
 62
     0
 10
11768.48249830338
 20
405574.93444060051
 30
0.0
 11
11968.48249830338
 21
405574.93444060051
 31
0.0
  0
INSERT
  5
64A7C
  8
S-OBRYS
  6
CONTINUOUS
 62
     0
  2
_OPEN
 10
11668.48249830338
 20
405574.93444060051
 30
0.0
 41
100.0
 42
100.0
 43
100.0
 50
180.0
  0
INSERT
  5
64A7D
  8
S-OBRYS
  6
CONTINUOUS
 62
     0
  2
_OPEN
 10
12068.48249830338
 20
405574.93444060051
 30
0.0
 41
100.0
 42
100.0
 43
100.0
  0
INSERT
  5
64A7E
  8
S-OBRYS
  6
CONTINUOUS
  2
*U220
 10
0.0
 20
0.0
 30
0.0
  0
POINT
  5
64A7F
  8
DEFPOINTS
  6
CONTINUOUS
 62
     0
 10
11668.48249830338
 20
405443.34179543162
 30
0.0
  0
POINT
  5
64A80
  8
DEFPOINTS
  6
CONTINUOUS
 62
     0
 10
12068.48249830338
 20
405443.34179543162
 30
0.0
  0
POINT
  5
64A81
  8
DEFPOINTS
  6
CONTINUOUS
 62
     0
 10
12068.48249830338
 20
405574.93444060051
 30
0.0
  0
ENDBLK
  5
640DB
  8
0
  0
BLOCK
  8
0
  2
*D67
 70
     1
 10
0.0
 20
0.0
 30
0.0
  3
*D67
  1

  0
LINE
  5
64A82
  8
S-OBRYS
  6
CONTINUOUS
 62
     0
 10
11687.77888089887
 20
404064.34179543162
 30
0.0
 11
10922.32105614405
 21
404064.34179543162
 31
0.0
  0
LINE
  5
64A83
  8
S-OBRYS
  6
CONTINUOUS
 62
     0
 10
11653.70714315365
 20
405443.34179543162
 30
0.0
 11
10922.32105614405
 21
405443.34179543162
 31
0.0
  0
LINE
  5
64A84
  8
S-OBRYS
  6
CONTINUOUS
 62
     0
 10
10932.32105614405
 20
404164.34179543168
 30
0.0
 11
10932.32105614405
 21
405343.34179543168
 31
0.0
  0
INSERT
  5
64A85
  8
S-OBRYS
  6
CONTINUOUS
 62
     0
  2
_OPEN
 10
10932.32105614405
 20
404064.34179543162
 30
0.0
 41
100.0
 42
100.0
 43
100.0
 50
270.0
  0
INSERT
  5
64A86
  8
S-OBRYS
  6
CONTINUOUS
 62
     0
  2
_OPEN
 10
10932.32105614405
 20
405443.34179543162
 30
0.0
 41
100.0
 42
100.0
 43
100.0
 50
90.0
  0
INSERT
  5
64A87
  8
S-OBRYS
  6
CONTINUOUS
  2
*U221
 10
0.0
 20
0.0
 30
0.0
  0
POINT
  5
64A88
  8
DEFPOINTS
  6
CONTINUOUS
 62
     0
 10
11690.928880898869
 20
404064.34179543162
 30
0.0
  0
POINT
  5
64A89
  8
DEFPOINTS
  6
CONTINUOUS
 62
     0
 10
11656.857143153649
 20
405443.34179543162
 30
0.0
  0
POINT
  5
64A8A
  8
DEFPOINTS
  6
CONTINUOUS
 62
     0
 10
10932.32105614405
 20
405443.34179543162
 30
0.0
  0
ENDBLK
  5
640E7
  8
0
  0
BLOCK
  8
0
  2
*D68
 70
     1
 10
0.0
 20
0.0
 30
0.0
  3
*D68
  1

  0
LINE
  5
64A8B
  8
S-OBRYS
  6
CONTINUOUS
 62
     0
 10
12754.928880898869
 20
403711.1917954316
 30
0.0
 11
12754.928880898869
 21
403500.61045962293
 31
0.0
  0
LINE
  5
64A8C
  8
S-OBRYS
  6
CONTINUOUS
 62
     0
 10
12906.928880898869
 20
403711.1917954316
 30
0.0
 11
12906.928880898869
 21
403500.61045962293
 31
0.0
  0
LINE
  5
64A8D
  8
S-OBRYS
  6
CONTINUOUS
 62
     0
 10
12654.928880898869
 20
403510.61045962293
 30
0.0
 11
12554.928880898869
 21
403510.61045962293
 31
0.0
  0
LINE
  5
64A8E
  8
S-OBRYS
  6
CONTINUOUS
 62
     0
 10
13006.928880898869
 20
403510.61045962293
 30
0.0
 11
13435.024118994101
 21
403510.61045962293
 31
0.0
  0
LINE
  5
64A8F
  8
S-OBRYS
  6
CONTINUOUS
 62
     0
 10
12754.928880898869
 20
403510.61045962293
 30
0.0
 11
12906.928880898869
 21
403510.61045962293
 31
0.0
  0
INSERT
  5
64A90
  8
S-OBRYS
  6
CONTINUOUS
 62
     0
  2
_OPEN
 10
12754.928880898869
 20
403510.61045962293
 30
0.0
 41
100.0
 42
100.0
 43
100.0
  0
INSERT
  5
64A91
  8
S-OBRYS
  6
CONTINUOUS
 62
     0
  2
_OPEN
 10
12906.928880898869
 20
403510.61045962293
 30
0.0
 41
100.0
 42
100.0
 43
100.0
 50
180.0
  0
INSERT
  5
64A92
  8
S-OBRYS
  6
CONTINUOUS
  2
*U222
 10
0.0
 20
0.0
 30
0.0
  0
POINT
  5
64A93
  8
DEFPOINTS
  6
CONTINUOUS
 62
     0
 10
12754.928880898869
 20
403714.34179543168
 30
0.0
  0
POINT
  5
64A94
  8
DEFPOINTS
  6
CONTINUOUS
 62
     0
 10
12906.928880898869
 20
403714.34179543168
 30
0.0
  0
POINT
  5
64A95
  8
DEFPOINTS
  6
CONTINUOUS
 62
     0
 10
12906.928880898869
 20
403510.61045962293
 30
0.0
  0
ENDBLK
  5
640F5
  8
0
  0
BLOCK
  8
0
  2
*D69
 70
     1
 10
0.0
 20
0.0
 30
0.0
  3
*D69
  1

  0
LINE
  5
64A96
  8
S-OBRYS
  6
CONTINUOUS
 62
     0
 10
11687.77888089887
 20
404064.34179543162
 30
0.0
 11
11193.731590152091
 21
404064.34179543162
 31
0.0
  0
LINE
  5
64A97
  8
S-OBRYS
  6
CONTINUOUS
 62
     0
 10
12088.816305737409
 20
404983.29550315673
 30
0.0
 11
11193.731590152091
 21
404983.29550315673
 31
0.0
  0
LINE
  5
64A98
  8
S-OBRYS
  6
CONTINUOUS
 62
     0
 10
11203.731590152091
 20
404164.34179543168
 30
0.0
 11
11203.731590152091
 21
404883.29550315678
 31
0.0
  0
INSERT
  5
64A99
  8
S-OBRYS
  6
CONTINUOUS
 62
     0
  2
_OPEN
 10
11203.731590152091
 20
404064.34179543162
 30
0.0
 41
100.0
 42
100.0
 43
100.0
 50
270.0
  0
INSERT
  5
64A9A
  8
S-OBRYS
  6
CONTINUOUS
 62
     0
  2
_OPEN
 10
11203.731590152091
 20
404983.29550315673
 30
0.0
 41
100.0
 42
100.0
 43
100.0
 50
90.0
  0
INSERT
  5
64A9B
  8
S-OBRYS
  6
CONTINUOUS
  2
*U223
 10
0.0
 20
0.0
 30
0.0
  0
POINT
  5
64A9C
  8
DEFPOINTS
  6
CONTINUOUS
 62
     0
 10
11690.928880898869
 20
404064.34179543162
 30
0.0
  0
POINT
  5
64A9D
  8
DEFPOINTS
  6
CONTINUOUS
 62
     0
 10
12091.966305737409
 20
404983.29550315673
 30
0.0
  0
POINT
  5
64A9E
  8
DEFPOINTS
  6
CONTINUOUS
 62
     0
 10
11203.731590152091
 20
404983.29550315673
 30
0.0
  0
ENDBLK
  5
64101
  8
0
  0
BLOCK
  8
0
  2
*D70
 70
     1
 10
0.0
 20
0.0
 30
0.0
  3
*D70
  1

  0
LINE
  5
64A9F
  8
S-OBRYS
  6
CONTINUOUS
 62
     0
 10
12906.928880898869
 20
403711.1917954316
 30
0.0
 11
12906.928880898869
 21
403275.46254176687
 31
0.0
  0
LINE
  5
64AA0
  8
S-OBRYS
  6
CONTINUOUS
 62
     0
 10
12045.928880898869
 20
404061.19179543172
 30
0.0
 11
12045.928880898869
 21
403275.46254176687
 31
0.0
  0
LINE
  5
64AA1
  8
S-OBRYS
  6
CONTINUOUS
 62
     0
 10
12806.928880898869
 20
403285.46254176687
 30
0.0
 11
12145.928880898869
 21
403285.46254176687
 31
0.0
  0
INSERT
  5
64AA2
  8
S-OBRYS
  6
CONTINUOUS
 62
     0
  2
_OPEN
 10
12906.928880898869
 20
403285.46254176687
 30
0.0
 41
100.0
 42
100.0
 43
100.0
  0
INSERT
  5
64AA3
  8
S-OBRYS
  6
CONTINUOUS
 62
     0
  2
_OPEN
 10
12045.928880898869
 20
403285.46254176687
 30
0.0
 41
100.0
 42
100.0
 43
100.0
 50
180.0
  0
INSERT
  5
64AA4
  8
S-OBRYS
  6
CONTINUOUS
  2
*U224
 10
0.0
 20
0.0
 30
0.0
  0
POINT
  5
64AA5
  8
DEFPOINTS
  6
CONTINUOUS
 62
     0
 10
12906.928880898869
 20
403714.34179543168
 30
0.0
  0
POINT
  5
64AA6
  8
DEFPOINTS
  6
CONTINUOUS
 62
     0
 10
12045.928880898869
 20
404064.34179543162
 30
0.0
  0
POINT
  5
64AA7
  8
DEFPOINTS
  6
CONTINUOUS
 62
     0
 10
12045.928880898869
 20
403285.46254176687
 30
0.0
  0
ENDBLK
  5
6410D
  8
0
  0
BLOCK
  8
0
  2
*D71
 70
     1
 10
0.0
 20
0.0
 30
0.0
  3
*D71
  1

  0
LINE
  5
64AA8
  8
S-OBRYS
  6
CONTINUOUS
 62
     0
 10
9059.3048119277155
 20
397402.31505504611
 30
0.0
 11
9059.3048119277155
 21
397002.66056356521
 31
0.0
  0
LINE
  5
64AA9
  8
S-OBRYS
  6
CONTINUOUS
 62
     0
 10
9337.3048119277155
 20
397402.31505504611
 30
0.0
 11
9337.3048119277155
 21
397002.66056356521
 31
0.0
  0
LINE
  5
64AAA
  8
S-OBRYS
  6
CONTINUOUS
 62
     0
 10
9159.3048119277155
 20
397012.66056356532
 30
0.0
 11
9237.3048119277155
 21
397012.66056356532
 31
0.0
  0
INSERT
  5
64AAB
  8
S-OBRYS
  6
CONTINUOUS
 62
     0
  2
_OPEN
 10
9059.3048119277155
 20
397012.66056356532
 30
0.0
 41
100.0
 42
100.0
 43
100.0
 50
180.0
  0
INSERT
  5
64AAC
  8
S-OBRYS
  6
CONTINUOUS
 62
     0
  2
_OPEN
 10
9337.3048119277155
 20
397012.66056356532
 30
0.0
 41
100.0
 42
100.0
 43
100.0
  0
INSERT
  5
64AAD
  8
S-OBRYS
  6
CONTINUOUS
  2
*U225
 10
0.0
 20
0.0
 30
0.0
  0
POINT
  5
64AAE
  8
DEFPOINTS
  6
CONTINUOUS
 62
     0
 10
9059.3048119277155
 20
397405.46505504608
 30
0.0
  0
POINT
  5
64AAF
  8
DEFPOINTS
  6
CONTINUOUS
 62
     0
 10
9337.3048119277155
 20
397405.46505504608
 30
0.0
  0
POINT
  5
64AB0
  8
DEFPOINTS
  6
CONTINUOUS
 62
     0
 10
9337.3048119277155
 20
397012.66056356532
 30
0.0
  0
ENDBLK
  5
64119
  8
0
  0
BLOCK
  8
0
  2
*D72
 70
     1
 10
0.0
 20
0.0
 30
0.0
  3
*D72
  1

  0
LINE
  5
64AB1
  8
S-OBRYS
  6
CONTINUOUS
 62
     0
 10
6569.079038126758
 20
398433.52475363552
 30
0.0
 11
5953.0346311155799
 21
398433.52475363552
 31
0.0
  0
LINE
  5
64AB2
  8
S-OBRYS
  6
CONTINUOUS
 62
     0
 10
6540.5790381267589
 20
400433.52475363557
 30
0.0
 11
5953.0346311155809
 21
400433.52475363557
 31
0.0
  0
LINE
  5
64AB3
  8
S-OBRYS
  6
CONTINUOUS
 62
     0
 10
5963.034631115579
 20
398533.52475363552
 30
0.0
 11
5963.0346311155809
 21
400333.5247536354
 31
0.0
  0
INSERT
  5
64AB4
  8
S-OBRYS
  6
CONTINUOUS
 62
     0
  2
_OPEN
 10
5963.034631115579
 20
398433.52475363552
 30
0.0
 41
100.0
 42
100.0
 43
100.0
 50
270.0
  0
INSERT
  5
64AB5
  8
S-OBRYS
  6
CONTINUOUS
 62
     0
  2
_OPEN
 10
5963.0346311155809
 20
400433.52475363557
 30
0.0
 41
100.0
 42
100.0
 43
100.0
 50
90.0
  0
INSERT
  5
64AB6
  8
S-OBRYS
  6
CONTINUOUS
  2
*U226
 10
0.0
 20
0.0
 30
0.0
  0
POINT
  5
64AB7
  8
DEFPOINTS
  6
CONTINUOUS
 62
     0
 10
6572.2290381267576
 20
398433.52475363552
 30
0.0
  0
POINT
  5
64AB8
  8
DEFPOINTS
  6
CONTINUOUS
 62
     0
 10
6543.7290381267594
 20
400433.52475363557
 30
0.0
  0
POINT
  5
64AB9
  8
DEFPOINTS
  6
CONTINUOUS
 62
     0
 10
5963.0346311155809
 20
400433.52475363557
 30
0.0
  0
ENDBLK
  5
64125
  8
0
  0
BLOCK
  8
0
  2
*D73
 70
     1
 10
0.0
 20
0.0
 30
0.0
  3
*D73
  1

  0
LINE
  5
64ABA
  8
S-OBRYS
  6
CONTINUOUS
 62
     0
 10
6540.5790381267589
 20
400433.52475363557
 30
0.0
 11
5953.2239215966183
 21
400433.52475363557
 31
0.0
  0
LINE
  5
64ABB
  8
S-OBRYS
  6
CONTINUOUS
 62
     0
 10
6540.5790381267589
 20
402433.52475363552
 30
0.0
 11
5953.2239215966183
 21
402433.52475363552
 31
0.0
  0
LINE
  5
64ABC
  8
S-OBRYS
  6
CONTINUOUS
 62
     0
 10
5963.2239215966183
 20
400533.52475363552
 30
0.0
 11
5963.2239215966183
 21
402333.52475363552
 31
0.0
  0
INSERT
  5
64ABD
  8
S-OBRYS
  6
CONTINUOUS
 62
     0
  2
_OPEN
 10
5963.2239215966183
 20
400433.52475363557
 30
0.0
 41
100.0
 42
100.0
 43
100.0
 50
270.0
  0
INSERT
  5
64ABE
  8
S-OBRYS
  6
CONTINUOUS
 62
     0
  2
_OPEN
 10
5963.2239215966183
 20
402433.52475363552
 30
0.0
 41
100.0
 42
100.0
 43
100.0
 50
90.0
  0
INSERT
  5
64ABF
  8
S-OBRYS
  6
CONTINUOUS
  2
*U227
 10
0.0
 20
0.0
 30
0.0
  0
POINT
  5
64AC0
  8
DEFPOINTS
  6
CONTINUOUS
 62
     0
 10
6543.7290381267594
 20
400433.52475363557
 30
0.0
  0
POINT
  5
64AC1
  8
DEFPOINTS
  6
CONTINUOUS
 62
     0
 10
6543.7290381267594
 20
402433.52475363552
 30
0.0
  0
POINT
  5
64AC2
  8
DEFPOINTS
  6
CONTINUOUS
 62
     0
 10
5963.2239215966183
 20
402433.52475363552
 30
0.0
  0
ENDBLK
  5
64131
  8
0
  0
BLOCK
  8
0
  2
*D74
 70
     1
 10
0.0
 20
0.0
 30
0.0
  3
*D74
  1

  0
LINE
  5
64AC3
  8
S-OBRYS
  6
CONTINUOUS
 62
     0
 10
6540.5790381267589
 20
402433.52475363552
 30
0.0
 11
5955.8108136067876
 21
402433.52475363552
 31
0.0
  0
LINE
  5
64AC4
  8
S-OBRYS
  6
CONTINUOUS
 62
     0
 10
6569.079038126758
 20
404433.52475363552
 30
0.0
 11
5955.8108136067895
 21
404433.52475363552
 31
0.0
  0
LINE
  5
64AC5
  8
S-OBRYS
  6
CONTINUOUS
 62
     0
 10
5965.8108136067895
 20
402533.52475363552
 30
0.0
 11
5965.8108136067904
 21
404333.52475363552
 31
0.0
  0
INSERT
  5
64AC6
  8
S-OBRYS
  6
CONTINUOUS
 62
     0
  2
_OPEN
 10
5965.8108136067895
 20
402433.52475363552
 30
0.0
 41
100.0
 42
100.0
 43
100.0
 50
270.0
  0
INSERT
  5
64AC7
  8
S-OBRYS
  6
CONTINUOUS
 62
     0
  2
_OPEN
 10
5965.8108136067904
 20
404433.52475363552
 30
0.0
 41
100.0
 42
100.0
 43
100.0
 50
90.0
  0
INSERT
  5
64AC8
  8
S-OBRYS
  6
CONTINUOUS
  2
*U228
 10
0.0
 20
0.0
 30
0.0
  0
POINT
  5
64AC9
  8
DEFPOINTS
  6
CONTINUOUS
 62
     0
 10
6543.7290381267594
 20
402433.52475363552
 30
0.0
  0
POINT
  5
64ACA
  8
DEFPOINTS
  6
CONTINUOUS
 62
     0
 10
6572.2290381267576
 20
404433.52475363552
 30
0.0
  0
POINT
  5
64ACB
  8
DEFPOINTS
  6
CONTINUOUS
 62
     0
 10
5965.8108136067904
 20
404433.52475363552
 30
0.0
  0
ENDBLK
  5
6413D
  8
0
  0
BLOCK
  8
0
  2
*D75
 70
     1
 10
0.0
 20
0.0
 30
0.0
  3
*D75
  1

  0
LINE
  5
64ACC
  8
S-OBRYS
  6
CONTINUOUS
 62
     0
 10
11983.029905946139
 20
398530.43090934859
 30
0.0
 11
11983.029905946139
 21
398172.65558869822
 31
0.0
  0
LINE
  5
64ACD
  8
S-OBRYS
  6
CONTINUOUS
 62
     0
 10
12583.02990594615
 20
398530.43090934859
 30
0.0
 11
12583.02990594615
 21
398172.65558869822
 31
0.0
  0
LINE
  5
64ACE
  8
S-OBRYS
  6
CONTINUOUS
 62
     0
 10
12083.029905946139
 20
398182.65558869822
 30
0.0
 11
12483.02990594615
 21
398182.65558869822
 31
0.0
  0
INSERT
  5
64ACF
  8
S-OBRYS
  6
CONTINUOUS
 62
     0
  2
_OPEN
 10
11983.029905946139
 20
398182.65558869822
 30
0.0
 41
100.0
 42
100.0
 43
100.0
 50
180.0
  0
INSERT
  5
64AD0
  8
S-OBRYS
  6
CONTINUOUS
 62
     0
  2
_OPEN
 10
12583.02990594615
 20
398182.65558869822
 30
0.0
 41
100.0
 42
100.0
 43
100.0
  0
INSERT
  5
64AD1
  8
S-OBRYS
  6
CONTINUOUS
  2
*U229
 10
0.0
 20
0.0
 30
0.0
  0
POINT
  5
64AD2
  8
DEFPOINTS
  6
CONTINUOUS
 62
     0
 10
11983.029905946139
 20
398533.58090934862
 30
0.0
  0
POINT
  5
64AD3
  8
DEFPOINTS
  6
CONTINUOUS
 62
     0
 10
12583.02990594615
 20
398533.58090934862
 30
0.0
  0
POINT
  5
64AD4
  8
DEFPOINTS
  6
CONTINUOUS
 62
     0
 10
12583.02990594615
 20
398182.65558869822
 30
0.0
  0
ENDBLK
  5
64149
  8
0
  0
BLOCK
  8
0
  2
*D76
 70
     1
 10
0.0
 20
0.0
 30
0.0
  3
*D76
  1

  0
LINE
  5
64AD5
  8
S-OBRYS
  6
CONTINUOUS
 62
     0
 10
12643.06722670089
 20
398590.46823010338
 30
0.0
 11
12974.218306113909
 21
398590.46823010338
 31
0.0
  0
LINE
  5
64AD6
  8
S-OBRYS
  6
CONTINUOUS
 62
     0
 10
12643.06722670089
 20
398810.46823010338
 30
0.0
 11
12974.218306113909
 21
398810.46823010338
 31
0.0
  0
LINE
  5
64AD7
  8
S-OBRYS
  6
CONTINUOUS
 62
     0
 10
12964.218306113909
 20
398490.46823010338
 30
0.0
 11
12964.218306113909
 21
398390.46823010338
 31
0.0
  0
LINE
  5
64AD8
  8
S-OBRYS
  6
CONTINUOUS
 62
     0
 10
12964.218306113909
 20
398910.46823010338
 30
0.0
 11
12964.218306113909
 21
399266.18251581758
 31
0.0
  0
LINE
  5
64AD9
  8
S-OBRYS
  6
CONTINUOUS
 62
     0
 10
12964.218306113909
 20
398590.46823010338
 30
0.0
 11
12964.218306113909
 21
398810.46823010338
 31
0.0
  0
INSERT
  5
64ADA
  8
S-OBRYS
  6
CONTINUOUS
 62
     0
  2
_OPEN
 10
12964.218306113909
 20
398590.46823010338
 30
0.0
 41
100.0
 42
100.0
 43
100.0
 50
90.0
  0
INSERT
  5
64ADB
  8
S-OBRYS
  6
CONTINUOUS
 62
     0
  2
_OPEN
 10
12964.218306113909
 20
398810.46823010338
 30
0.0
 41
100.0
 42
100.0
 43
100.0
 50
270.0
  0
INSERT
  5
64ADC
  8
S-OBRYS
  6
CONTINUOUS
  2
*U230
 10
0.0
 20
0.0
 30
0.0
  0
POINT
  5
64ADD
  8
DEFPOINTS
  6
CONTINUOUS
 62
     0
 10
12639.91722670088
 20
398590.46823010338
 30
0.0
  0
POINT
  5
64ADE
  8
DEFPOINTS
  6
CONTINUOUS
 62
     0
 10
12639.91722670088
 20
398810.46823010338
 30
0.0
  0
POINT
  5
64ADF
  8
DEFPOINTS
  6
CONTINUOUS
 62
     0
 10
12964.218306113909
 20
398810.46823010338
 30
0.0
  0
ENDBLK
  5
64157
  8
0
  0
BLOCK
  8
0
  2
*D77
 70
     1
 10
0.0
 20
0.0
 30
0.0
  3
*D77
  1

  0
LINE
  5
64AE0
  8
S-OBRYS
  6
CONTINUOUS
 62
     0
 10
7288.3790381267518
 20
397433.52475363552
 30
0.0
 11
7893.6739857925568
 21
397433.52475363552
 31
0.0
  0
LINE
  5
64AE1
  8
S-OBRYS
  6
CONTINUOUS
 62
     0
 10
7578.3790381267554
 20
398383.52475363557
 30
0.0
 11
7893.6739857925568
 21
398383.52475363557
 31
0.0
  0
LINE
  5
64AE2
  8
S-OBRYS
  6
CONTINUOUS
 62
     0
 10
7883.6739857925559
 20
397533.52475363557
 30
0.0
 11
7883.6739857925559
 21
398283.52475363552
 31
0.0
  0
INSERT
  5
64AE3
  8
S-OBRYS
  6
CONTINUOUS
 62
     0
  2
_OPEN
 10
7883.6739857925559
 20
397433.52475363552
 30
0.0
 41
100.0
 42
100.0
 43
100.0
 50
270.0
  0
INSERT
  5
64AE4
  8
S-OBRYS
  6
CONTINUOUS
 62
     0
  2
_OPEN
 10
7883.6739857925559
 20
398383.52475363557
 30
0.0
 41
100.0
 42
100.0
 43
100.0
 50
90.0
  0
INSERT
  5
64AE5
  8
S-OBRYS
  6
CONTINUOUS
  2
*U231
 10
0.0
 20
0.0
 30
0.0
  0
POINT
  5
64AE6
  8
DEFPOINTS
  6
CONTINUOUS
 62
     0
 10
7285.2290381267521
 20
397433.52475363552
 30
0.0
  0
POINT
  5
64AE7
  8
DEFPOINTS
  6
CONTINUOUS
 62
     0
 10
7575.2290381267558
 20
398383.52475363557
 30
0.0
  0
POINT
  5
64AE8
  8
DEFPOINTS
  6
CONTINUOUS
 62
     0
 10
7883.6739857925559
 20
398383.52475363557
 30
0.0
  0
ENDBLK
  5
64336
  8
0
  0
BLOCK
  8
0
  2
*D78
 70
     1
 10
0.0
 20
0.0
 30
0.0
  3
*D78
  1

  0
LINE
  5
64AE9
  8
S-OBRYS
  6
CONTINUOUS
 62
     0
 10
6927.0790381267589
 20
405352.52475363552
 30
0.0
 11
5955.8108136067895
 21
405352.52475363552
 31
0.0
  0
LINE
  5
64AEA
  8
S-OBRYS
  6
CONTINUOUS
 62
     0
 10
6572.0790381267561
 20
404433.52475363552
 30
0.0
 11
5955.8108136067895
 21
404433.52475363552
 31
0.0
  0
LINE
  5
64AEB
  8
S-OBRYS
  6
CONTINUOUS
 62
     0
 10
5965.8108136067904
 20
405252.52475363552
 30
0.0
 11
5965.8108136067904
 21
404533.52475363552
 31
0.0
  0
INSERT
  5
64AEC
  8
S-OBRYS
  6
CONTINUOUS
 62
     0
  2
_OPEN
 10
5965.8108136067904
 20
405352.52475363552
 30
0.0
 41
100.0
 42
100.0
 43
100.0
 50
90.0
  0
INSERT
  5
64AED
  8
S-OBRYS
  6
CONTINUOUS
 62
     0
  2
_OPEN
 10
5965.8108136067904
 20
404433.52475363552
 30
0.0
 41
100.0
 42
100.0
 43
100.0
 50
270.0
  0
INSERT
  5
64AEE
  8
S-OBRYS
  6
CONTINUOUS
  2
*U232
 10
0.0
 20
0.0
 30
0.0
  0
POINT
  5
64AEF
  8
DEFPOINTS
  6
CONTINUOUS
 62
     0
 10
6930.2290381267576
 20
405352.52475363552
 30
0.0
  0
POINT
  5
64AF0
  8
DEFPOINTS
  6
CONTINUOUS
 62
     0
 10
6575.2290381267558
 20
404433.52475363552
 30
0.0
  0
POINT
  5
64AF1
  8
DEFPOINTS
  6
CONTINUOUS
 62
     0
 10
5965.8108136067904
 20
404433.52475363552
 30
0.0
  0
ENDBLK
  5
64419
  8
0
  0
BLOCK
  8
0
  2
*D79
 70
     1
 10
0.0
 20
0.0
 30
0.0
  3
*D79
  1

  0
LINE
  5
64AF2
  8
S-OBRYS
  6
CONTINUOUS
 62
     0
 10
9438.4197106896445
 20
404931.40606084687
 30
0.0
 11
9784.6880139026634
 21
404931.40606084687
 31
0.0
  0
LINE
  5
64AF3
  8
S-OBRYS
  6
CONTINUOUS
 62
     0
 10
9438.4197106896445
 20
404881.40606084687
 30
0.0
 11
9784.6880139026634
 21
404881.40606084687
 31
0.0
  0
LINE
  5
64AF4
  8
S-OBRYS
  6
CONTINUOUS
 62
     0
 10
9774.6880139026616
 20
405031.40606084687
 30
0.0
 11
9774.6880139026616
 21
405131.40606084681
 31
0.0
  0
LINE
  5
64AF5
  8
S-OBRYS
  6
CONTINUOUS
 62
     0
 10
9774.6880139026616
 20
404781.40606084687
 30
0.0
 11
9774.6880139026616
 21
404429.50129894208
 31
0.0
  0
LINE
  5
64AF6
  8
S-OBRYS
  6
CONTINUOUS
 62
     0
 10
9774.6880139026616
 20
404931.40606084687
 30
0.0
 11
9774.6880139026616
 21
404881.40606084687
 31
0.0
  0
INSERT
  5
64AF7
  8
S-OBRYS
  6
CONTINUOUS
 62
     0
  2
_OPEN
 10
9774.6880139026616
 20
404931.40606084687
 30
0.0
 41
100.0
 42
100.0
 43
100.0
 50
270.0
  0
INSERT
  5
64AF8
  8
S-OBRYS
  6
CONTINUOUS
 62
     0
  2
_OPEN
 10
9774.6880139026616
 20
404881.40606084687
 30
0.0
 41
100.0
 42
100.0
 43
100.0
 50
90.0
  0
INSERT
  5
64AF9
  8
S-OBRYS
  6
CONTINUOUS
  2
*U233
 10
0.0
 20
0.0
 30
0.0
  0
POINT
  5
64AFA
  8
DEFPOINTS
  6
CONTINUOUS
 62
     0
 10
9435.2697106896449
 20
404931.40606084687
 30
0.0
  0
POINT
  5
64AFB
  8
DEFPOINTS
  6
CONTINUOUS
 62
     0
 10
9435.2697106896449
 20
404881.40606084687
 30
0.0
  0
POINT
  5
64AFC
  8
DEFPOINTS
  6
CONTINUOUS
 62
     0
 10
9774.6880139026616
 20
404881.40606084687
 30
0.0
  0
ENDBLK
  5
64428
  8
0
  0
BLOCK
  8
0
  2
*D80
 70
     1
 10
0.0
 20
0.0
 30
0.0
  3
*D80
  1

  0
LINE
  5
64AFD
  8
S-OBRYS
  6
CONTINUOUS
 62
     0
 10
6785.2290381267567
 20
401652.5306386443
 30
0.0
 11
6785.2290381267567
 21
401671.81287158391
 31
0.0
  0
LINE
  5
64AFE
  8
S-OBRYS
  6
CONTINUOUS
 62
     0
 10
7075.2290381267567
 20
401652.5306386443
 30
0.0
 11
7075.2290381267567
 21
401671.81287158391
 31
0.0
  0
LINE
  5
64AFF
  8
S-OBRYS
  6
CONTINUOUS
 62
     0
 10
6885.2290381267576
 20
401661.81287158403
 30
0.0
 11
6975.2290381267567
 21
401661.81287158403
 31
0.0
  0
INSERT
  5
64B00
  8
S-OBRYS
  6
CONTINUOUS
 62
     0
  2
_OPEN
 10
6785.2290381267567
 20
401661.81287158403
 30
0.0
 41
100.0
 42
100.0
 43
100.0
 50
180.0
  0
INSERT
  5
64B01
  8
S-OBRYS
  6
CONTINUOUS
 62
     0
  2
_OPEN
 10
7075.2290381267567
 20
401661.81287158403
 30
0.0
 41
100.0
 42
100.0
 43
100.0
  0
INSERT
  5
64B02
  8
S-OBRYS
  6
CONTINUOUS
  2
*U234
 10
0.0
 20
0.0
 30
0.0
  0
POINT
  5
64B03
  8
DEFPOINTS
  6
CONTINUOUS
 62
     0
 10
6785.2290381267567
 20
401649.38063864427
 30
0.0
  0
POINT
  5
64B04
  8
DEFPOINTS
  6
CONTINUOUS
 62
     0
 10
7075.2290381267567
 20
401649.38063864422
 30
0.0
  0
POINT
  5
64B05
  8
DEFPOINTS
  6
CONTINUOUS
 62
     0
 10
7075.2290381267567
 20
401661.81287158403
 30
0.0
  0
ENDBLK
  5
6449A
  8
0
  0
BLOCK
  8
0
  2
*D81
 70
     1
 10
0.0
 20
0.0
 30
0.0
  3
*D81
  1

  0
LINE
  5
64B06
  8
S-OBRYS
  6
CONTINUOUS
 62
     0
 10
7075.2290381267567
 20
401658.66287158377
 30
0.0
 11
7075.2290381267567
 21
401651.8128715838
 31
0.0
  0
LINE
  5
64B07
  8
S-OBRYS
  6
CONTINUOUS
 62
     0
 10
7288.2290381267567
 20
401664.96287158382
 30
0.0
 11
7288.2290381267567
 21
401671.81287158368
 31
0.0
  0
LINE
  5
64B08
  8
S-OBRYS
  6
CONTINUOUS
 62
     0
 10
6975.2290381267567
 20
401661.8128715838
 30
0.0
 11
6875.2290381267567
 21
401661.8128715838
 31
0.0
  0
LINE
  5
64B09
  8
S-OBRYS
  6
CONTINUOUS
 62
     0
 10
7388.2290381267558
 20
401661.8128715838
 30
0.0
 11
7743.9433238410411
 21
401661.8128715838
 31
0.0
  0
LINE
  5
64B0A
  8
S-OBRYS
  6
CONTINUOUS
 62
     0
 10
7075.2290381267567
 20
401661.8128715838
 30
0.0
 11
7288.2290381267567
 21
401661.8128715838
 31
0.0
  0
INSERT
  5
64B0B
  8
S-OBRYS
  6
CONTINUOUS
 62
     0
  2
_OPEN
 10
7075.2290381267567
 20
401661.8128715838
 30
0.0
 41
100.0
 42
100.0
 43
100.0
  0
INSERT
  5
64B0C
  8
S-OBRYS
  6
CONTINUOUS
 62
     0
  2
_OPEN
 10
7288.2290381267567
 20
401661.8128715838
 30
0.0
 41
100.0
 42
100.0
 43
100.0
 50
180.0
  0
INSERT
  5
64B0D
  8
S-OBRYS
  6
CONTINUOUS
  2
*U235
 10
0.0
 20
0.0
 30
0.0
  0
POINT
  5
64B0E
  8
DEFPOINTS
  6
CONTINUOUS
 62
     0
 10
7075.2290381267567
 20
401661.81287158391
 30
0.0
  0
POINT
  5
64B0F
  8
DEFPOINTS
  6
CONTINUOUS
 62
     0
 10
7288.2290381267567
 20
401661.8128715838
 30
0.0
  0
POINT
  5
64B10
  8
DEFPOINTS
  6
CONTINUOUS
 62
     0
 10
7288.2290381267567
 20
401661.8128715838
 30
0.0
  0
ENDBLK
  5
644A9
  8
0
  0
BLOCK
  8
0
  2
*D82
 70
     1
 10
0.0
 20
0.0
 30
0.0
  3
*D82
  1

  0
LINE
  5
64B11
  8
S-OBRYS
  6
CONTINUOUS
 62
     0
 10
9116.8048119277155
 20
401664.96287158382
 30
0.0
 11
9116.8048119277155
 21
401671.81287158368
 31
0.0
  0
LINE
  5
64B12
  8
S-OBRYS
  6
CONTINUOUS
 62
     0
 10
9279.8048119277155
 20
401664.96287158382
 30
0.0
 11
9279.8048119277155
 21
401671.81287158368
 31
0.0
  0
LINE
  5
64B13
  8
S-OBRYS
  6
CONTINUOUS
 62
     0
 10
9016.8048119277155
 20
401661.8128715838
 30
0.0
 11
8916.8048119277173
 21
401661.8128715838
 31
0.0
  0
LINE
  5
64B14
  8
S-OBRYS
  6
CONTINUOUS
 62
     0
 10
9379.8048119277155
 20
401661.8128715838
 30
0.0
 11
9724.0905262134293
 21
401661.8128715838
 31
0.0
  0
LINE
  5
64B15
  8
S-OBRYS
  6
CONTINUOUS
 62
     0
 10
9116.8048119277155
 20
401661.8128715838
 30
0.0
 11
9279.8048119277155
 21
401661.8128715838
 31
0.0
  0
INSERT
  5
64B16
  8
S-OBRYS
  6
CONTINUOUS
 62
     0
  2
_OPEN
 10
9116.8048119277155
 20
401661.8128715838
 30
0.0
 41
100.0
 42
100.0
 43
100.0
  0
INSERT
  5
64B17
  8
S-OBRYS
  6
CONTINUOUS
 62
     0
  2
_OPEN
 10
9279.8048119277155
 20
401661.8128715838
 30
0.0
 41
100.0
 42
100.0
 43
100.0
 50
180.0
  0
INSERT
  5
64B18
  8
S-OBRYS
  6
CONTINUOUS
  2
*U236
 10
0.0
 20
0.0
 30
0.0
  0
POINT
  5
64B19
  8
DEFPOINTS
  6
CONTINUOUS
 62
     0
 10
9116.8048119277155
 20
401661.8128715838
 30
0.0
  0
POINT
  5
64B1A
  8
DEFPOINTS
  6
CONTINUOUS
 62
     0
 10
9279.8048119277155
 20
401661.8128715838
 30
0.0
  0
POINT
  5
64B1B
  8
DEFPOINTS
  6
CONTINUOUS
 62
     0
 10
9279.8048119277155
 20
401661.8128715838
 30
0.0
  0
ENDBLK
  5
644B8
  8
0
  0
BLOCK
  8
0
  2
*U195
 70
     1
 10
0.0
 20
0.0
 30
0.0
  3
*U195
  1

  0
TEXT
  5
66F19
  8
S-OBRYS
  6
CONTINUOUS
 10
-16.449777305735289
 20
47.447339193138752
 30
0.0
 40
80.0
  1
1b
  7
R
  0
ENDBLK
  5
66F1B
  8
0
  0
BLOCK
  8
0
  2
*U196
 70
     1
 10
0.0
 20
0.0
 30
0.0
  3
*U196
  1

  0
TEXT
  5
66F1D
  8
S-OBRYS
  6
CONTINUOUS
 10
23.348488544496441
 20
49.591841048852068
 30
0.0
 40
20.0
  1
1a
  7
R
  0
ENDBLK
  5
66F1F
  8
0
  0
BLOCK
  8
0
  2
*U197
 70
     1
 10
0.0
 20
0.0
 30
0.0
  3
*U197
  1

  0
TEXT
  5
66F21
  8
S-OBRYS
  6
CONTINUOUS
 10
-3.9222036020662499
 20
557.31871110200882
 30
0.0
 40
100.0
  1
příruba prosévačka
  7
R
  0
ENDBLK
  5
66F23
  8
0
  0
BLOCK
  8
0
  2
*U198
 70
     1
 10
0.0
 20
0.0
 30
0.0
  3
*U198
  1

  0
SOLID
  5
670FB
  8
S-OBRYS
  6
CONTINUOUS
 10
0.0000000000009095
 20
139.99744886101851
 30
0.0
 11
-18.32564214838867
 21
132.40671934395951
 31
0.0
 12
0.0000000000008972
 22
132.40671934395951
 32
0.0
 13
0.0000000000008972
 23
132.40671934395951
 33
0.0
210
0.0
220
0.0
230
1.0
  0
SOLID
  5
670FC
  8
S-OBRYS
  6
CONTINUOUS
 10
0.0000000000009332
 20
139.99744886101851
 30
0.0
 11
0.0000000000009263
 21
132.40671934395951
 31
0.0
 12
45.472905011396342
 22
132.40671934395951
 32
0.0
 13
45.472905011396342
 23
132.40671934395951
 33
0.0
210
0.0
220
0.0
230
1.0
  0
SOLID
  5
670FD
  8
S-OBRYS
  6
CONTINUOUS
 10
-18.32564214838867
 20
132.40671934395951
 30
0.0
 11
-51.120036686711217
 21
118.82283635637209
 31
0.0
 12
0.0000000000008752
 22
118.82283635637209
 32
0.0
 13
0.0000000000008752
 23
118.82283635637209
 33
0.0
  0
SOLID
  5
670FE
  8
S-OBRYS
  6
CONTINUOUS
 10
18.32564214838867
 20
132.40671934395951
 30
0.0
 11
-0.0000000000008972
 21
132.40671934395951
 31
0.0
 12
-0.0000000000008752
 22
118.82283635637209
 32
0.0
 13
-0.0000000000008752
 23
118.82283635637209
 33
0.0
210
0.0
220
0.0
230
-1.0
  0
SOLID
  5
670FF
  8
S-OBRYS
  6
CONTINUOUS
 10
0.0000000000009263
 20
132.40671934395951
 30
0.0
 11
0.0000000000009141
 21
118.82283635637209
 31
0.0
 12
70.563549776822697
 22
118.82283635637209
 32
0.0
 13
70.563549776822697
 23
118.82283635637209
 33
0.0
  0
SOLID
  5
67100
  8
S-OBRYS
  6
CONTINUOUS
 10
-0.0000000000009263
 20
132.40671934395951
 30
0.0
 11
-45.472905011396342
 21
132.40671934395951
 31
0.0
 12
-70.563549776822697
 22
118.82283635637209
 32
0.0
 13
-70.563549776822697
 23
118.82283635637209
 33
0.0
210
0.0
220
0.0
230
-1.0
  0
SOLID
  5
67101
  8
S-OBRYS
  6
CONTINUOUS
 10
-51.120036686711217
 20
118.82283635637209
 30
0.0
 11
-63.634272730830311
 21
113.6392700641597
 31
0.0
 12
0.0000000000008669
 22
113.6392700641597
 32
0.0
 13
0.0000000000008669
 23
113.6392700641597
 33
0.0
210
0.0
220
0.0
230
1.0
  0
SOLID
  5
67102
  8
S-OBRYS
  6
CONTINUOUS
 10
51.120036686711217
 20
118.82283635637209
 30
0.0
 11
-0.0000000000008752
 21
118.82283635637209
 31
0.0
 12
-0.0000000000008669
 22
113.6392700641597
 32
0.0
 13
-0.0000000000008669
 23
113.6392700641597
 33
0.0
210
0.0
220
0.0
230
-1.0
  0
SOLID
  5
67103
  8
S-OBRYS
  6
CONTINUOUS
 10
-0.0000000000009141
 20
118.82283635637209
 30
0.0
 11
-43.257964790378153
 21
118.82283635637209
 31
0.0
 12
-0.0000000000008669
 22
113.6392700641597
 32
0.0
 13
-0.0000000000008669
 23
113.6392700641597
 33
0.0
210
0.0
220
0.0
230
-1.0
  0
SOLID
  5
67104
  8
S-OBRYS
  6
CONTINUOUS
 10
43.257964790378153
 20
118.82283635637209
 30
0.0
 11
69.752660745180563
 21
113.6392700641597
 31
0.0
 12
80.138059552472512
 22
113.6392700641597
 32
0.0
 13
80.138059552472512
 23
113.6392700641597
 33
0.0
210
0.0
220
0.0
230
1.0
  0
SOLID
  5
67105
  8
S-OBRYS
  6
CONTINUOUS
 10
-43.257964790378153
 20
118.82283635637209
 30
0.0
 11
-70.563549776822697
 21
118.82283635637209
 31
0.0
 12
-80.138059552472512
 22
113.6392700641597
 32
0.0
 13
-80.138059552472512
 23
113.6392700641597
 33
0.0
210
0.0
220
0.0
230
-1.0
  0
SOLID
  5
67106
  8
S-OBRYS
  6
CONTINUOUS
 10
-63.634272730830311
 20
113.6392700641597
 30
0.0
 11
-71.315354411059985
 21
110.45766185851311
 31
0.0
 12
-5.0574841518304217
 22
110.45766185851311
 32
0.0
 13
-5.0574841518304217
 23
110.45766185851311
 33
0.0
210
0.0
220
0.0
230
1.0
  0
SOLID
  5
67107
  8
S-OBRYS
  6
CONTINUOUS
 10
63.634272730830311
 20
113.6392700641597
 30
0.0
 11
-0.0000000000009095
 21
113.6392700641597
 31
0.0
 12
5.0574841518304217
 22
110.45766185851311
 32
0.0
 13
5.0574841518304217
 23
110.45766185851311
 33
0.0
210
0.0
220
0.0
230
-1.0
  0
SOLID
  5
67108
  8
S-OBRYS
  6
CONTINUOUS
 10
-69.752660745180563
 20
113.6392700641597
 30
0.0
 11
-80.138059552472512
 21
113.6392700641597
 31
0.0
 12
-86.014773989985784
 22
110.45766185851311
 32
0.0
 13
-86.014773989985784
 23
110.45766185851311
 33
0.0
210
0.0
220
0.0
230
-1.0
  0
SOLID
  5
67109
  8
S-OBRYS
  6
CONTINUOUS
 10
-71.315354411059985
 20
110.45766185851311
 30
0.0
 11
-98.994949366115677
 21
98.992398227135112
 31
0.0
 12
-23.282666312648029
 22
98.992398227135112
 32
0.0
 13
-23.282666312648029
 23
98.992398227135112
 33
0.0
210
0.0
220
0.0
230
1.0
  0
SOLID
  5
6710A
  8
S-OBRYS
  6
CONTINUOUS
 10
71.315354411059985
 20
110.45766185851311
 30
0.0
 11
5.0574841518304217
 21
110.45766185851311
 31
0.0
 12
23.282666312648029
 22
98.992398227135112
 32
0.0
 13
23.282666312648029
 23
98.992398227135112
 33
0.0
210
0.0
220
0.0
230
-1.0
  0
SOLID
  5
6710B
  8
S-OBRYS
  6
CONTINUOUS
 10
-98.994949366115677
 20
98.992398227135112
 30
0.0
 11
-110.3533115346694
 21
71.570886233467292
 31
0.0
 12
-66.871899607022399
 22
71.570886233467292
 32
0.0
 13
-66.871899607022399
 23
71.570886233467292
 33
0.0
210
0.0
220
0.0
230
1.0
  0
SOLID
  5
6710C
  8
S-OBRYS
  6
CONTINUOUS
 10
98.994949366115677
 20
98.992398227135112
 30
0.0
 11
23.282666312648029
 21
98.992398227135112
 31
0.0
 12
66.871899607022399
 22
71.570886233467292
 32
0.0
 13
66.871899607022399
 23
71.570886233467292
 33
0.0
210
0.0
220
0.0
230
-1.0
  0
SOLID
  5
6710D
  8
S-OBRYS
  6
CONTINUOUS
 10
-110.3533115346694
 20
71.570886233467292
 30
0.0
 11
-139.99999999999909
 21
-0.0025511389815165
 31
0.0
 12
-100.3210092793351
 22
-0.0025511389815165
 32
0.0
 13
-100.3210092793351
 23
-0.0025511389815165
 33
0.0
210
0.0
220
0.0
230
1.0
  0
SOLID
  5
6710E
  8
S-OBRYS
  6
CONTINUOUS
 10
110.3533115346694
 20
71.570886233467292
 30
0.0
 11
66.871899607022399
 21
71.570886233467292
 31
0.0
 12
100.3210092793351
 22
-0.0025511389815165
 32
0.0
 13
100.3210092793351
 23
-0.0025511389815165
 33
0.0
210
0.0
220
0.0
230
-1.0
  0
SOLID
  5
6710F
  8
S-OBRYS
  6
CONTINUOUS
 10
-139.99999999999909
 20
-0.0025511389815165
 30
0.0
 11
-139.99999999999909
 21
-0.0025511389815165
 31
0.0
 12
-100.3210092793351
 22
-0.0025511389815165
 32
0.0
 13
-100.3210092793351
 23
-0.0025511389815165
 33
0.0
210
0.0
220
0.0
230
1.0
  0
SOLID
  5
67110
  8
S-OBRYS
  6
CONTINUOUS
 10
-139.99999999999909
 20
-0.0025511389815165
 30
0.0
 11
-139.99999999999909
 21
-0.0025511389815165
 31
0.0
 12
-100.3210092793351
 22
-0.0025511389815165
 32
0.0
 13
-100.3210092793351
 23
-0.0025511389815165
 33
0.0
210
0.0
220
0.0
230
1.0
  0
SOLID
  5
67111
  8
S-OBRYS
  6
CONTINUOUS
 10
-139.99999999999909
 20
-0.0025511389815165
 30
0.0
 11
-117.02828563153059
 21
-72.883147809960434
 31
0.0
 12
-91.980753483793407
 22
-72.883147809960434
 32
0.0
 13
-91.980753483793407
 23
-72.883147809960434
 33
0.0
210
0.0
220
0.0
230
1.0
  0
SOLID
  5
67112
  8
S-OBRYS
  6
CONTINUOUS
 10
139.99999999999909
 20
-0.0025511389815165
 30
0.0
 11
100.3210092793351
 21
-0.0025511389815165
 31
0.0
 12
91.980753483793407
 22
-72.883147809960434
 32
0.0
 13
91.980753483793407
 23
-72.883147809960434
 33
0.0
210
0.0
220
0.0
230
-1.0
  0
SOLID
  5
67113
  8
S-OBRYS
  6
CONTINUOUS
 10
-117.02828563153059
 20
-72.883147809960434
 30
0.0
 11
-114.69621614817829
 21
-80.281925833171329
 31
0.0
 12
-86.424720604643284
 22
-80.281925833171329
 32
0.0
 13
-86.424720604643284
 23
-80.281925833171329
 33
0.0
  0
SOLID
  5
67114
  8
S-OBRYS
  6
CONTINUOUS
 10
117.02828563153059
 20
-72.883147809960434
 30
0.0
 11
91.980753483793407
 21
-72.883147809960434
 31
0.0
 12
86.424720604643284
 22
-80.281925833171329
 32
0.0
 13
86.424720604643284
 23
-80.281925833171329
 33
0.0
210
0.0
220
0.0
230
-1.0
  0
SOLID
  5
67115
  8
S-OBRYS
  6
CONTINUOUS
 10
114.69621614817829
 20
-80.281925833171329
 30
0.0
 11
86.424720604643284
 21
-80.281925833171329
 31
0.0
 12
47.931742838711259
 22
-131.54170131277371
 32
0.0
 13
47.931742838711259
 23
-131.54170131277371
 33
0.0
210
0.0
220
0.0
230
-1.0
  0
LINE
  5
67116
  8
S-OBRYS
  6
CONTINUOUS
 10
0.0000000000008972
 20
132.40671934395951
 30
0.0
 11
0.0000000000009095
 21
139.99744886101851
 31
0.0
  0
LINE
  5
67117
  8
S-OBRYS
  6
CONTINUOUS
 10
0.0000000000009332
 20
139.99744886101851
 30
0.0
 11
0.0000000000009263
 21
132.40671934395951
 31
0.0
  0
LINE
  5
67118
  8
S-OBRYS
  6
CONTINUOUS
 10
-18.32564214838867
 20
132.40671934395951
 30
0.0
 11
-51.120036686711217
 21
118.82283635637209
 31
0.0
  0
LINE
  5
67119
  8
S-OBRYS
  6
CONTINUOUS
 10
0.0000000000008972
 20
132.40671934395951
 30
0.0
 11
0.0000000000008752
 21
118.82283635637209
 31
0.0
  0
LINE
  5
6711A
  8
S-OBRYS
  6
CONTINUOUS
 10
0.0000000000009263
 20
132.40671934395951
 30
0.0
 11
0.0000000000009141
 21
118.82283635637209
 31
0.0
  0
LINE
  5
6711B
  8
S-OBRYS
  6
CONTINUOUS
 10
45.472905011396342
 20
132.40671934395951
 30
0.0
 11
70.563549776822697
 21
118.82283635637209
 31
0.0
  0
LINE
  5
6711C
  8
S-OBRYS
  6
CONTINUOUS
 10
-51.120036686711217
 20
118.82283635637209
 30
0.0
 11
-63.634272730830311
 21
113.6392700641597
 31
0.0
  0
LINE
  5
6711D
  8
S-OBRYS
  6
CONTINUOUS
 10
43.257964790378153
 20
118.82283635637209
 30
0.0
 11
0.0000000000008669
 21
113.6392700641597
 31
0.0
  0
LINE
  5
6711E
  8
S-OBRYS
  6
CONTINUOUS
 10
0.0000000000008669
 20
113.6392700641597
 30
0.0
 11
0.0000000000009141
 21
118.82283635637209
 31
0.0
  0
LINE
  5
6711F
  8
S-OBRYS
  6
CONTINUOUS
 10
70.563549776822697
 20
118.82283635637209
 30
0.0
 11
80.138059552472512
 21
113.6392700641597
 31
0.0
  0
LINE
  5
67120
  8
S-OBRYS
  6
CONTINUOUS
 10
-63.634272730830311
 20
113.6392700641597
 30
0.0
 11
-71.315354411059985
 21
110.45766185851311
 31
0.0
  0
LINE
  5
67121
  8
S-OBRYS
  6
CONTINUOUS
 10
0.0000000000009095
 20
113.6392700641597
 30
0.0
 11
-5.0574841518304217
 21
110.45766185851311
 31
0.0
  0
LINE
  5
67122
  8
S-OBRYS
  6
CONTINUOUS
 10
80.138059552472512
 20
113.6392700641597
 30
0.0
 11
86.014773989985784
 21
110.45766185851311
 31
0.0
  0
LINE
  5
67123
  8
S-OBRYS
  6
CONTINUOUS
 10
86.014773989985784
 20
110.45766185851311
 30
0.0
 11
69.752660745180563
 21
113.6392700641597
 31
0.0
  0
LINE
  5
67124
  8
S-OBRYS
  6
CONTINUOUS
 10
-71.315354411059985
 20
110.45766185851311
 30
0.0
 11
-98.994949366115677
 21
98.992398227135112
 31
0.0
  0
LINE
  5
67125
  8
S-OBRYS
  6
CONTINUOUS
 10
-5.0574841518304217
 20
110.45766185851311
 30
0.0
 11
-23.282666312648029
 21
98.992398227135112
 31
0.0
  0
LINE
  5
67126
  8
S-OBRYS
  6
CONTINUOUS
 10
-98.994949366115677
 20
98.992398227135112
 30
0.0
 11
-110.3533115346694
 21
71.570886233467292
 31
0.0
  0
LINE
  5
67127
  8
S-OBRYS
  6
CONTINUOUS
 10
-23.282666312648029
 20
98.992398227135112
 30
0.0
 11
-66.871899607022399
 21
71.570886233467292
 31
0.0
  0
LINE
  5
67128
  8
S-OBRYS
  6
CONTINUOUS
 10
-110.3533115346694
 20
71.570886233467292
 30
0.0
 11
-139.99999999999909
 21
-0.0025511389815165
 31
0.0
  0
LINE
  5
67129
  8
S-OBRYS
  6
CONTINUOUS
 10
-66.871899607022399
 20
71.570886233467292
 30
0.0
 11
-100.3210092793351
 21
-0.0025511389815165
 31
0.0
  0
LINE
  5
6712A
  8
S-OBRYS
  6
CONTINUOUS
 10
-139.99999999999909
 20
-0.0025511389815165
 30
0.0
 11
-100.3210092793351
 21
-0.0025511389815165
 31
0.0
  0
LINE
  5
6712B
  8
S-OBRYS
  6
CONTINUOUS
 10
-139.99999999999909
 20
-0.0025511389815165
 30
0.0
 11
-100.3210092793351
 21
-0.0025511389815165
 31
0.0
  0
LINE
  5
6712C
  8
S-OBRYS
  6
CONTINUOUS
 10
-139.99999999999909
 20
-0.0025511389815165
 30
0.0
 11
-117.02828563153059
 21
-72.883147809960434
 31
0.0
  0
LINE
  5
6712D
  8
S-OBRYS
  6
CONTINUOUS
 10
-100.3210092793351
 20
-0.0025511389815165
 30
0.0
 11
-91.980753483793407
 21
-72.883147809960434
 31
0.0
  0
LINE
  5
6712E
  8
S-OBRYS
  6
CONTINUOUS
 10
-117.02828563153059
 20
-72.883147809960434
 30
0.0
 11
-114.69621614817829
 21
-80.281925833171329
 31
0.0
  0
LINE
  5
6712F
  8
S-OBRYS
  6
CONTINUOUS
 10
-91.980753483793407
 20
-72.883147809960434
 30
0.0
 11
-86.424720604643284
 21
-80.281925833171329
 31
0.0
  0
LINE
  5
67130
  8
S-OBRYS
  6
CONTINUOUS
 10
-86.424720604643284
 20
-80.281925833171329
 30
0.0
 11
-47.931742838711259
 21
-131.54170131277371
 31
0.0
  0
LINE
  5
67131
  8
S-OBRYS
  6
CONTINUOUS
 10
-47.931742838711259
 20
-131.54170131277371
 30
0.0
 11
-114.69621614817829
 21
-80.281925833171329
 31
0.0
  0
ENDBLK
  5
67133
  8
0
  0
BLOCK
  8
0
  2
*U199
 70
     1
 10
0.0
 20
0.0
 30
0.0
  3
*U199
  1

  0
SOLID
  5
6713E
  8
S-OBRYS
  6
CONTINUOUS
 10
2000.0000000000421
 20
549.9974488602569
 30
0.0
 11
2000.0000000000421
 21
-0.0025511389934536
 31
0.0
 12
2012.2676761359601
 22
-0.0025511389934536
 32
0.0
 13
2012.2676761359601
 23
-0.0025511389934536
 33
0.0
210
0.0
220
0.0
230
1.0
  0
SOLID
  5
6713F
  8
S-OBRYS
  6
CONTINUOUS
 10
2000.0000000000421
 20
-0.0025511389934536
 30
0.0
 11
2000.0000000000421
 21
-0.0025511389934536
 31
0.0
 12
2012.2676761359601
 22
-0.0025511389934536
 32
0.0
 13
2012.2676761359601
 23
-0.0025511389934536
 33
0.0
210
0.0
220
0.0
230
1.0
  0
SOLID
  5
67140
  8
S-OBRYS
  6
CONTINUOUS
 10
2000.0000000000421
 20
-0.0025511389934536
 30
0.0
 11
2000.0000000000421
 21
-0.0025511389934536
 31
0.0
 12
2012.2676761359601
 22
-0.0025511389934536
 32
0.0
 13
2012.2676761359601
 23
-0.0025511389934536
 33
0.0
210
0.0
220
0.0
230
1.0
  0
SOLID
  5
67141
  8
S-OBRYS
  6
CONTINUOUS
 10
2000.0000000000421
 20
-0.0025511389934536
 30
0.0
 11
2000.0000000000421
 21
-526.00255113898993
 31
0.0
 12
2024.0000354950589
 22
-526.00255113898993
 32
0.0
 13
2024.0000354950589
 23
-526.00255113898993
 33
0.0
210
0.0
220
0.0
230
1.0
  0
SOLID
  5
67142
  8
S-OBRYS
  6
CONTINUOUS
 10
-2000.0000000000421
 20
-0.0025511389934536
 30
0.0
 11
-2012.2676761359601
 21
-0.0025511389934536
 31
0.0
 12
-2024.0000354950589
 22
-526.00255113898993
 32
0.0
 13
-2024.0000354950589
 23
-526.00255113898993
 33
0.0
210
0.0
220
0.0
230
-1.0
  0
SOLID
  5
67143
  8
S-OBRYS
  6
CONTINUOUS
 10
2000.0000000000421
 20
-526.00255113898993
 30
0.0
 11
2000.0000000000421
 21
-545.98193239837519
 31
0.0
 12
2670.0000000000268
 22
-545.98193239837519
 32
0.0
 13
2670.0000000000268
 23
-545.98193239837519
 33
0.0
  0
SOLID
  5
67144
  8
S-OBRYS
  6
CONTINUOUS
 10
-2000.0000000000421
 20
-526.00255113898993
 30
0.0
 11
-2024.0000354950589
 21
-526.00255113898993
 31
0.0
 12
-2670.0000000000268
 22
-545.98193239837519
 32
0.0
 13
-2670.0000000000268
 23
-545.98193239837519
 33
0.0
210
0.0
220
0.0
230
-1.0
  0
SOLID
  5
67145
  8
S-OBRYS
  6
CONTINUOUS
 10
2000.0000000000421
 20
-545.98193239837519
 30
0.0
 11
2000.0000000000421
 21
-550.00255113897902
 31
0.0
 12
2670.0000000000268
 22
-550.00255113897902
 32
0.0
 13
2670.0000000000268
 23
-550.00255113897902
 33
0.0
  0
SOLID
  5
67146
  8
S-OBRYS
  6
CONTINUOUS
 10
-2000.0000000000421
 20
-545.98193239837519
 30
0.0
 11
-2669.9999999999241
 21
-545.98193239837519
 31
0.0
 12
-2670.0000000000268
 22
-550.00255113897902
 32
0.0
 13
-2670.0000000000268
 23
-550.00255113897902
 33
0.0
210
0.0
220
0.0
230
-1.0
  0
SOLID
  5
67147
  8
S-OBRYS
  6
CONTINUOUS
 10
2670.0000000000268
 20
-545.98193239837519
 30
0.0
 11
2670.0000000000418
 21
-550.00255113897902
 31
0.0
 12
2800.0000000000568
 22
-550.00255113897902
 32
0.0
 13
2800.0000000000568
 23
-550.00255113897902
 33
0.0
  0
SOLID
  5
67148
  8
S-OBRYS
  6
CONTINUOUS
 10
2000.0000000000421
 20
-550.00255113897902
 30
0.0
 11
2000.0000000000421
 21
-550.00255113897902
 31
0.0
 12
2670.0000000000268
 22
-550.00255113897902
 32
0.0
 13
2670.0000000000268
 23
-550.00255113897902
 33
0.0
210
0.0
220
0.0
230
1.0
  0
SOLID
  5
67149
  8
S-OBRYS
  6
CONTINUOUS
 10
2670.0000000000418
 20
-550.00255113897902
 30
0.0
 11
2670.0000000000418
 21
-550.00255113897902
 31
0.0
 12
2800.0000000000568
 22
-550.00255113897902
 32
0.0
 13
2800.0000000000568
 23
-550.00255113897902
 33
0.0
210
0.0
220
0.0
230
1.0
  0
LINE
  5
6714A
  8
S-OBRYS
  6
CONTINUOUS
 10
2000.0000000000421
 20
549.9974488602569
 30
0.0
 11
2000.0000000000421
 21
-0.0025511389934536
 31
0.0
  0
LINE
  5
6714B
  8
S-OBRYS
  6
CONTINUOUS
 10
2012.2676761359601
 20
-0.0025511389934536
 30
0.0
 11
2000.0000000000421
 21
549.9974488602569
 31
0.0
  0
LINE
  5
6714C
  8
S-OBRYS
  6
CONTINUOUS
 10
2000.0000000000421
 20
-0.0025511389934536
 30
0.0
 11
2012.2676761359601
 21
-0.0025511389934536
 31
0.0
  0
LINE
  5
6714D
  8
S-OBRYS
  6
CONTINUOUS
 10
2000.0000000000421
 20
-0.0025511389934536
 30
0.0
 11
2012.2676761359601
 21
-0.0025511389934536
 31
0.0
  0
LINE
  5
6714E
  8
S-OBRYS
  6
CONTINUOUS
 10
2000.0000000000421
 20
-0.0025511389934536
 30
0.0
 11
2000.0000000000421
 21
-526.00255113898993
 31
0.0
  0
LINE
  5
6714F
  8
S-OBRYS
  6
CONTINUOUS
 10
2012.2676761359601
 20
-0.0025511389934536
 30
0.0
 11
2024.0000354950589
 21
-526.00255113898993
 31
0.0
  0
LINE
  5
67150
  8
S-OBRYS
  6
CONTINUOUS
 10
2000.0000000000421
 20
-526.00255113898993
 30
0.0
 11
2000.0000000000421
 21
-545.98193239837519
 31
0.0
  0
LINE
  5
67151
  8
S-OBRYS
  6
CONTINUOUS
 10
2024.0000354950589
 20
-526.00255113898993
 30
0.0
 11
2670.0000000000268
 21
-545.98193239837519
 31
0.0
  0
LINE
  5
67152
  8
S-OBRYS
  6
CONTINUOUS
 10
2000.0000000000421
 20
-545.98193239837519
 30
0.0
 11
2000.0000000000421
 21
-550.00255113897902
 31
0.0
  0
LINE
  5
67153
  8
S-OBRYS
  6
CONTINUOUS
 10
2670.0000000000268
 20
-545.98193239837519
 30
0.0
 11
2670.0000000000418
 21
-550.00255113897902
 31
0.0
  0
LINE
  5
67154
  8
S-OBRYS
  6
CONTINUOUS
 10
2000.0000000000421
 20
-550.00255113897902
 30
0.0
 11
2670.0000000000268
 21
-550.00255113897902
 31
0.0
  0
LINE
  5
67155
  8
S-OBRYS
  6
CONTINUOUS
 10
2670.0000000000418
 20
-550.00255113897902
 30
0.0
 11
2800.0000000000568
 21
-550.00255113897902
 31
0.0
  0
ENDBLK
  5
67157
  8
0
  0
BLOCK
  8
0
  2
*X200
 70
     1
 10
0.0
 20
0.0
 30
0.0
  3
*X200
  1

  0
LINE
  5
6715E
  8
0
  6
CONTINUOUS
 62
     0
 10
2800.00000000004
 20
654.33382523685566
 30
0.0
 11
2754.3363763758612
 21
699.99744886103508
 31
0.0
  0
LINE
  5
6715F
  8
0
  6
CONTINUOUS
 62
     0
 10
2740.0000000000368
 20
624.53126402616181
 30
0.0
 11
2670.00000000004
 21
694.53126402615806
 31
0.0
  0
LINE
  5
67160
  8
0
  6
CONTINUOUS
 62
     0
 10
2670.00000000004
 20
694.53126402615806
 30
0.0
 11
2664.5338151651781
 21
699.99744886102053
 31
0.0
  0
LINE
  5
67161
  8
0
  6
CONTINUOUS
 62
     0
 10
2741.5338151651699
 20
622.99744886102405
 30
0.0
 11
2740.0000000000368
 21
624.53126402616181
 31
0.0
  0
LINE
  5
67162
  8
0
  6
CONTINUOUS
 62
     0
 10
2603.2868620971822
 20
671.44184071832569
 30
0.0
 11
2600.0000000000332
 21
674.72870281547512
 31
0.0
  0
LINE
  5
67163
  8
0
  6
CONTINUOUS
 62
     0
 10
2600.0000000000332
 20
674.72870281547512
 30
0.0
 11
2574.7312539544769
 21
699.99744886103144
 31
0.0
  0
LINE
  5
67164
  8
0
  6
CONTINUOUS
 62
     0
 10
2651.7312539544769
 20
622.99744886103144
 30
0.0
 11
2609.4443918573311
 21
665.28431095817723
 31
0.0
  0
LINE
  5
67165
  8
0
  6
CONTINUOUS
 62
     0
 10
2561.9286927437902
 20
622.99744886103497
 30
0.0
 11
2540.0000000000359
 21
644.92614160478468
 31
0.0
  0
LINE
  5
67166
  8
0
  6
CONTINUOUS
 62
     0
 10
2740.00000000004
 20
-632.70459292351734
 30
0.0
 11
2730.2979582154881
 21
-623.00255113896492
 31
0.0
  0
LINE
  5
67167
  8
0
  6
CONTINUOUS
 62
     0
 10
2800.0000000000441
 20
-692.70459292352098
 30
0.0
 11
2740.00000000004
 21
-632.70459292351734
 31
0.0
  0
LINE
  5
67168
  8
0
  6
CONTINUOUS
 62
     0
 10
2670.00000000004
 20
-652.50715413421494
 30
0.0
 11
2640.495397004805
 21
-623.00255113897936
 31
0.0
  0
LINE
  5
67169
  8
0
  6
CONTINUOUS
 62
     0
 10
2717.4953970047859
 20
-700.00255113896492
 30
0.0
 11
2670.00000000004
 21
-652.50715413421494
 31
0.0
  0
LINE
  5
6716A
  8
0
  6
CONTINUOUS
 62
     0
 10
2600.00000000004
 20
-672.30971534490516
 30
0.0
 11
2598.593417944765
 21
-670.9031332896302
 31
0.0
  0
LINE
  5
6716B
  8
0
  6
CONTINUOUS
 62
     0
 10
2590.0994178493752
 20
-662.40913319423987
 30
0.0
 11
2550.6928357941042
 21
-623.00255113896856
 31
0.0
  0
LINE
  5
6716C
  8
0
  6
CONTINUOUS
 62
     0
 10
2627.6928357941042
 20
-700.00255113896856
 30
0.0
 11
2600.00000000004
 21
-672.30971534490516
 31
0.0
  0
ENDBLK
  5
6716E
  8
0
  0
BLOCK
  8
0
  2
*X201
 70
     1
 10
0.0
 20
0.0
 30
0.0
  3
*X201
  1

  0
LINE
  5
67170
  8
0
  6
CONTINUOUS
 62
     0
 10
450.00000000003268
 20
-657.76862319080817
 30
0.0
 11
414.23392794820018
 21
-622.00255113897583
 31
0.0
  0
LINE
  5
67171
  8
0
  6
CONTINUOUS
 62
     0
 10
388.00000000003638
 20
-685.57118440149861
 30
0.0
 11
324.43136673751718
 21
-622.00255113897947
 31
0.0
  0
LINE
  5
67172
  8
0
  6
CONTINUOUS
 62
     0
 10
402.43136673751718
 20
-700.00255113897583
 30
0.0
 11
388.00000000003638
 21
-685.57118440149861
 31
0.0
  0
LINE
  5
67173
  8
0
  6
CONTINUOUS
 62
     0
 10
312.62880552682691
 20
-700.00255113897583
 30
0.0
 11
234.62880552682691
 21
-622.00255113897583
 31
0.0
  0
LINE
  5
67174
  8
0
  6
CONTINUOUS
 62
     0
 10
222.82624431612561
 20
-700.00255113897583
 30
0.0
 11
144.82624431612561
 21
-622.00255113897583
 31
0.0
  0
LINE
  5
67175
  8
0
  6
CONTINUOUS
 62
     0
 10
88.000000000032742
 20
-654.97886803356948
 30
0.0
 11
55.023683105442622
 21
-622.00255113897947
 31
0.0
  0
LINE
  5
67176
  8
0
  6
CONTINUOUS
 62
     0
 10
133.02368310544259
 20
-700.00255113897583
 30
0.0
 11
88.000000000032742
 21
-654.97886803356948
 31
0.0
  0
LINE
  5
67177
  8
0
  6
CONTINUOUS
 62
     0
 10
43.221121894745011
 20
-700.00255113896856
 30
0.0
 11
0.0000000000400178
 21
-656.78142924426345
 31
0.0
  0
ENDBLK
  5
67179
  8
0
  0
BLOCK
  8
0
  2
*X202
 70
     1
 10
0.0
 20
0.0
 30
0.0
  3
*X202
  1

  0
LINE
  5
6717B
  8
0
  6
CONTINUOUS
 62
     0
 10
450.00000000003268
 20
664.2313768091916
 30
0.0
 11
414.23392794820018
 21
699.99744886102405
 31
0.0
  0
LINE
  5
6717C
  8
0
  6
CONTINUOUS
 62
     0
 10
388.00000000003638
 20
636.42881559850139
 30
0.0
 11
324.43136673751718
 21
699.99744886102053
 31
0.0
  0
LINE
  5
6717D
  8
0
  6
CONTINUOUS
 62
     0
 10
402.43136673751718
 20
621.99744886102405
 30
0.0
 11
388.00000000003638
 21
636.42881559850139
 31
0.0
  0
LINE
  5
6717E
  8
0
  6
CONTINUOUS
 62
     0
 10
312.62880552682691
 20
621.99744886102405
 30
0.0
 11
234.62880552682691
 21
699.99744886102405
 31
0.0
  0
LINE
  5
6717F
  8
0
  6
CONTINUOUS
 62
     0
 10
222.82624431612561
 20
621.99744886102405
 30
0.0
 11
144.82624431612561
 21
699.99744886102405
 31
0.0
  0
LINE
  5
67180
  8
0
  6
CONTINUOUS
 62
     0
 10
88.000000000032742
 20
667.0211319664304
 30
0.0
 11
55.023683105442622
 21
699.99744886102053
 31
0.0
  0
LINE
  5
67181
  8
0
  6
CONTINUOUS
 62
     0
 10
133.02368310544259
 20
621.99744886102405
 30
0.0
 11
88.000000000032742
 21
667.0211319664304
 31
0.0
  0
LINE
  5
67182
  8
0
  6
CONTINUOUS
 62
     0
 10
43.221121894745011
 20
621.99744886103144
 30
0.0
 11
0.0000000000400178
 21
665.21857075573644
 31
0.0
  0
ENDBLK
  5
67184
  8
0
  0
BLOCK
  8
0
  2
*U203
 70
     1
 10
0.0
 20
0.0
 30
0.0
  3
*U203
  1

  0
SOLID
  5
671AE
  8
S-OBRYS
  6
CONTINUOUS
 10
-7.4303002125019191
 20
199.86193804923201
 30
0.0
 11
-106.0799013385006
 21
154.63598606144831
 31
0.0
 12
114.36798504699919
 22
154.63598606144831
 32
0.0
 13
114.36798504699919
 23
154.63598606144831
 33
0.0
210
0.0
220
0.0
230
1.0
  0
SOLID
  5
671AF
  8
S-OBRYS
  6
CONTINUOUS
 10
-106.0799013385006
 20
154.63598606144831
 30
0.0
 11
-123.65704524996811
 21
146.5777368891373
 31
0.0
 12
-7.9187739383873028
 22
146.5777368891373
 32
0.0
 13
-7.9187739383873028
 23
146.5777368891373
 33
0.0
210
0.0
220
0.0
230
1.0
  0
SOLID
  5
671B0
  8
S-OBRYS
  6
CONTINUOUS
 10
106.0799013385006
 20
154.63598606144831
 30
0.0
 11
-6.5672195654881156
 21
154.63598606144831
 31
0.0
 12
7.9187739383873028
 22
146.5777368891373
 32
0.0
 13
7.9187739383873028
 23
146.5777368891373
 33
0.0
210
0.0
220
0.0
230
-1.0
  0
SOLID
  5
671B1
  8
S-OBRYS
  6
CONTINUOUS
 10
6.5672195654881156
 20
154.63598606144831
 30
0.0
 11
72.201549540798865
 21
146.5777368891373
 31
0.0
 12
136.06970470668469
 22
146.5777368891373
 32
0.0
 13
136.06970470668469
 23
146.5777368891373
 33
0.0
210
0.0
220
0.0
230
1.0
  0
SOLID
  5
671B2
  8
S-OBRYS
  6
CONTINUOUS
 10
-6.5672195654881156
 20
154.63598606144831
 30
0.0
 11
-114.36798504699919
 21
154.63598606144831
 31
0.0
 12
-136.06970470668469
 22
146.5777368891373
 32
0.0
 13
-136.06970470668469
 23
146.5777368891373
 33
0.0
210
0.0
220
0.0
230
-1.0
  0
SOLID
  5
671B3
  8
S-OBRYS
  6
CONTINUOUS
 10
-123.65704524996811
 20
146.5777368891373
 30
0.0
 11
-139.0112327472724
 21
139.5386030392437
 31
0.0
 12
-20.572744427763961
 22
139.5386030392437
 32
0.0
 13
-20.572744427763961
 23
139.5386030392437
 33
0.0
210
0.0
220
0.0
230
1.0
  0
SOLID
  5
671B4
  8
S-OBRYS
  6
CONTINUOUS
 10
123.65704524996811
 20
146.5777368891373
 30
0.0
 11
7.9187739383873028
 21
146.5777368891373
 31
0.0
 12
20.572744427763961
 22
139.5386030392437
 32
0.0
 13
20.572744427763961
 23
139.5386030392437
 33
0.0
210
0.0
220
0.0
230
-1.0
  0
SOLID
  5
671B5
  8
S-OBRYS
  6
CONTINUOUS
 10
-72.201549540798865
 20
146.5777368891373
 30
0.0
 11
-136.0697047066846
 21
146.5777368891373
 31
0.0
 12
-129.53519906752251
 22
139.5386030392437
 32
0.0
 13
-129.53519906752251
 23
139.5386030392437
 33
0.0
210
0.0
220
0.0
230
-1.0
  0
SOLID
  5
671B6
  8
S-OBRYS
  6
CONTINUOUS
 10
136.0697047066846
 20
146.5777368891373
 30
0.0
 11
129.5351990675228
 21
139.5386030392437
 31
0.0
 12
143.09108860080289
 22
139.5386030392437
 32
0.0
 13
143.09108860080289
 23
139.5386030392437
 33
0.0
210
0.0
220
0.0
230
1.0
  0
SOLID
  5
671B7
  8
S-OBRYS
  6
CONTINUOUS
 10
-139.0112327472724
 20
139.5386030392437
 30
0.0
 11
-146.577746761573
 21
136.06973144098379
 31
0.0
 12
-26.808596703322301
 22
136.06973144098379
 32
0.0
 13
-26.808596703322301
 23
136.06973144098379
 33
0.0
210
0.0
220
0.0
230
1.0
  0
SOLID
  5
671B8
  8
S-OBRYS
  6
CONTINUOUS
 10
139.0112327472724
 20
139.5386030392437
 30
0.0
 11
20.572744427763961
 21
139.5386030392437
 31
0.0
 12
26.808596703322301
 22
136.06973144098379
 32
0.0
 13
26.808596703322301
 23
136.06973144098379
 33
0.0
210
0.0
220
0.0
230
-1.0
  0
SOLID
  5
671B9
  8
S-OBRYS
  6
CONTINUOUS
 10
129.53519906752311
 20
139.5386030392437
 30
0.0
 11
136.25658556636
 21
136.06973144098379
 31
0.0
 12
146.55121305505739
 22
136.06973144098379
 32
0.0
 13
146.55121305505739
 23
136.06973144098379
 33
0.0
210
0.0
220
0.0
230
1.0
  0
SOLID
  5
671BA
  8
S-OBRYS
  6
CONTINUOUS
 10
-129.53519906752311
 20
139.5386030392437
 30
0.0
 11
-143.09108860080289
 21
139.5386030392437
 31
0.0
 12
-146.55121305505739
 22
136.06973144098379
 32
0.0
 13
-146.55121305505739
 23
136.06973144098379
 33
0.0
210
0.0
220
0.0
230
-1.0
  0
SOLID
  5
671BB
  8
S-OBRYS
  6
CONTINUOUS
 10
-146.577746761573
 20
136.06973144098379
 30
0.0
 11
-146.71532458895959
 21
135.69921976065609
 31
0.0
 12
-146.17862225930841
 22
135.69921976065609
 32
0.0
 13
-146.17862225930841
 23
135.69921976065609
 33
0.0
  0
SOLID
  5
671BC
  8
S-OBRYS
  6
CONTINUOUS
 10
-146.577746761573
 20
136.06973144098379
 30
0.0
 11
-146.1786222593083
 21
135.69921976065609
 31
0.0
 12
-27.47465079020499
 22
135.69921976065609
 32
0.0
 13
-27.47465079020499
 23
135.69921976065609
 33
0.0
210
0.0
220
0.0
230
1.0
  0
SOLID
  5
671BD
  8
S-OBRYS
  6
CONTINUOUS
 10
146.577746761573
 20
136.06973144098379
 30
0.0
 11
26.808596703322301
 21
136.06973144098379
 31
0.0
 12
27.47465079020499
 22
135.69921976065609
 32
0.0
 13
27.47465079020499
 23
135.69921976065609
 33
0.0
210
0.0
220
0.0
230
-1.0
  0
SOLID
  5
671BE
  8
S-OBRYS
  6
CONTINUOUS
 10
136.25658556636
 20
136.06973144098379
 30
0.0
 11
136.9744997742728
 21
135.69921976065609
 31
0.0
 12
146.92079044913899
 22
135.69921976065609
 32
0.0
 13
146.92079044913899
 23
135.69921976065609
 33
0.0
  0
SOLID
  5
671BF
  8
S-OBRYS
  6
CONTINUOUS
 10
-136.25658556636
 20
136.06973144098379
 30
0.0
 11
-146.55121305505739
 21
136.06973144098379
 31
0.0
 12
-146.92079044913899
 22
135.69921976065609
 32
0.0
 13
-146.92079044913899
 23
135.69921976065609
 33
0.0
210
0.0
220
0.0
230
-1.0
  0
SOLID
  5
671C0
  8
S-OBRYS
  6
CONTINUOUS
 10
-146.71532458895959
 20
135.69921976065609
 30
0.0
 11
-147.97074803455669
 21
132.3182312744525
 31
0.0
 12
-142.53653641325681
 22
132.3182312744525
 32
0.0
 13
-142.53653641325681
 23
132.3182312744525
 33
0.0
  0
SOLID
  5
671C1
  8
S-OBRYS
  6
CONTINUOUS
 10
146.71532458895959
 20
135.69921976065609
 30
0.0
 11
146.17862225930841
 21
135.69921976065609
 31
0.0
 12
142.53653641325681
 22
132.3182312744525
 32
0.0
 13
142.53653641325681
 23
132.3182312744525
 33
0.0
210
0.0
220
0.0
230
-1.0
  0
SOLID
  5
671C2
  8
S-OBRYS
  6
CONTINUOUS
 10
-146.1786222593083
 20
135.69921976065609
 30
0.0
 11
-142.5365364132567
 21
132.3182312744525
 31
0.0
 12
-33.552519096401468
 22
132.3182312744525
 32
0.0
 13
-33.552519096401468
 23
132.3182312744525
 33
0.0
  0
SOLID
  5
671C3
  8
S-OBRYS
  6
CONTINUOUS
 10
146.1786222593083
 20
135.69921976065609
 30
0.0
 11
27.47465079020499
 21
135.69921976065609
 31
0.0
 12
33.552519096401468
 22
132.3182312744525
 32
0.0
 13
33.552519096401468
 23
132.3182312744525
 33
0.0
210
0.0
220
0.0
230
-1.0
  0
SOLID
  5
671C4
  8
S-OBRYS
  6
CONTINUOUS
 10
136.9744997742728
 20
135.69921976065609
 30
0.0
 11
143.5256013991617
 21
132.3182312744525
 31
0.0
 12
149.81095848922959
 22
132.3182312744525
 32
0.0
 13
149.81095848922959
 23
132.3182312744525
 33
0.0
210
0.0
220
0.0
230
1.0
  0
SOLID
  5
671C5
  8
S-OBRYS
  6
CONTINUOUS
 10
-136.9744997742728
 20
135.69921976065609
 30
0.0
 11
-146.92079044913899
 21
135.69921976065609
 31
0.0
 12
-149.81095848922959
 22
132.3182312744525
 32
0.0
 13
-149.81095848922959
 23
132.3182312744525
 33
0.0
210
0.0
220
0.0
230
-1.0
  0
SOLID
  5
671C6
  8
S-OBRYS
  6
CONTINUOUS
 10
-147.97074803455669
 20
132.3182312744525
 30
0.0
 11
-151.0521169139048
 21
124.0197780797475
 31
0.0
 12
-133.5972338844588
 22
124.0197780797475
 32
0.0
 13
-133.5972338844588
 23
124.0197780797475
 33
0.0
210
0.0
220
0.0
230
1.0
  0
SOLID
  5
671C7
  8
S-OBRYS
  6
CONTINUOUS
 10
147.97074803455669
 20
132.3182312744525
 30
0.0
 11
142.53653641325681
 21
132.3182312744525
 31
0.0
 12
133.5972338844588
 22
124.0197780797475
 32
0.0
 13
133.5972338844588
 23
124.0197780797475
 33
0.0
210
0.0
220
0.0
230
-1.0
  0
SOLID
  5
671C8
  8
S-OBRYS
  6
CONTINUOUS
 10
-142.5365364132567
 20
132.3182312744525
 30
0.0
 11
-133.59723388445869
 21
124.0197780797475
 31
0.0
 12
-48.470317801828479
 22
124.0197780797475
 32
0.0
 13
-48.470317801828479
 23
124.0197780797475
 33
0.0
210
0.0
220
0.0
230
1.0
  0
SOLID
  5
671C9
  8
S-OBRYS
  6
CONTINUOUS
 10
142.5365364132567
 20
132.3182312744525
 30
0.0
 11
33.552519096401468
 21
132.3182312744525
 31
0.0
 12
48.470317801828479
 22
124.0197780797475
 32
0.0
 13
48.470317801828479
 23
124.0197780797475
 33
0.0
210
0.0
220
0.0
230
-1.0
  0
SOLID
  5
671CA
  8
S-OBRYS
  6
CONTINUOUS
 10
-143.5256013991617
 20
132.3182312744525
 30
0.0
 11
-149.81095848922959
 21
132.3182312744525
 31
0.0
 12
-156.90471947167379
 22
124.0197780797475
 32
0.0
 13
-156.90471947167379
 23
124.0197780797475
 33
0.0
210
0.0
220
0.0
230
-1.0
  0
SOLID
  5
671CB
  8
S-OBRYS
  6
CONTINUOUS
 10
-151.0521169139048
 20
124.0197780797475
 30
0.0
 11
-162.0470583125522
 21
94.409234795978335
 31
0.0
 12
-101.7000118064241
 22
94.409234795978335
 32
0.0
 13
-101.7000118064241
 23
94.409234795978335
 33
0.0
210
0.0
220
0.0
230
1.0
  0
SOLID
  5
671CC
  8
S-OBRYS
  6
CONTINUOUS
 10
151.0521169139048
 20
124.0197780797475
 30
0.0
 11
133.5972338844588
 21
124.0197780797475
 31
0.0
 12
101.7000118064241
 22
94.409234795978335
 32
0.0
 13
101.7000118064241
 23
94.409234795978335
 33
0.0
210
0.0
220
0.0
230
-1.0
  0
SOLID
  5
671CD
  8
S-OBRYS
  6
CONTINUOUS
 10
133.59723388445869
 20
124.0197780797475
 30
0.0
 11
48.470317801828479
 21
124.0197780797475
 31
0.0
 12
101.7000118064241
 22
94.409234795978335
 32
0.0
 13
101.7000118064241
 23
94.409234795978335
 33
0.0
210
0.0
220
0.0
230
-1.0
  0
SOLID
  5
671CE
  8
S-OBRYS
  6
CONTINUOUS
 10
-162.0470583125522
 20
94.409234795978335
 30
0.0
 11
-199.8619479216687
 21
-7.4302734782037438
 31
0.0
 12
-148.81695672466711
 22
-7.4302734782037438
 32
0.0
 13
-148.81695672466711
 23
-7.4302734782037438
 33
0.0
210
0.0
220
0.0
230
1.0
  0
SOLID
  5
671CF
  8
S-OBRYS
  6
CONTINUOUS
 10
162.0470583125522
 20
94.409234795978335
 30
0.0
 11
101.7000118064241
 21
94.409234795978335
 31
0.0
 12
148.81695672466711
 22
-7.4302734782037438
 32
0.0
 13
148.81695672466711
 23
-7.4302734782037438
 33
0.0
210
0.0
220
0.0
230
-1.0
  0
SOLID
  5
671D0
  8
S-OBRYS
  6
CONTINUOUS
 10
-199.8619479216687
 20
-7.4302734782037438
 30
0.0
 11
-195.00201376120179
 21
-18.031057880888518
 31
0.0
 12
-153.72150293915519
 22
-18.031057880888518
 32
0.0
 13
-153.72150293915519
 23
-18.031057880888518
 33
0.0
210
0.0
220
0.0
230
1.0
  0
SOLID
  5
671D1
  8
S-OBRYS
  6
CONTINUOUS
 10
199.8619479216687
 20
-7.4302734782037438
 30
0.0
 11
148.81695672466711
 21
-7.4302734782037438
 31
0.0
 12
153.72150293915519
 22
-18.031057880888518
 32
0.0
 13
153.72150293915519
 23
-18.031057880888518
 33
0.0
210
0.0
220
0.0
230
-1.0
  0
SOLID
  5
671D2
  8
S-OBRYS
  6
CONTINUOUS
 10
-195.00201376120179
 20
-18.031057880888518
 30
0.0
 11
-139.29683524889569
 21
-139.53858617738231
 31
0.0
 12
-129.53523567425751
 22
-139.53858617738231
 32
0.0
 13
-129.53523567425751
 23
-139.53858617738231
 33
0.0
210
0.0
220
0.0
230
1.0
  0
SOLID
  5
671D3
  8
S-OBRYS
  6
CONTINUOUS
 10
195.00201376120179
 20
-18.031057880888518
 30
0.0
 11
153.72150293915519
 21
-18.031057880888518
 31
0.0
 12
129.53523567425751
 22
-139.53858617738231
 32
0.0
 13
129.53523567425751
 23
-139.53858617738231
 33
0.0
210
0.0
220
0.0
230
-1.0
  0
SOLID
  5
671D4
  8
S-OBRYS
  6
CONTINUOUS
 10
139.29683524889569
 20
-139.53858617738231
 30
0.0
 11
129.53523567425759
 21
-139.53858617738231
 31
0.0
 12
136.0697413134194
 22
-146.57772002727569
 32
0.0
 13
136.0697413134194
 23
-146.57772002727569
 33
0.0
210
0.0
220
0.0
230
-1.0
  0
SOLID
  5
671D5
  8
S-OBRYS
  6
CONTINUOUS
 10
-129.53523567425751
 20
-139.53858617738231
 30
0.0
 11
-136.0697413134194
 21
-146.57772002727569
 31
0.0
 12
-125.2121400426451
 22
-146.57772002727569
 32
0.0
 13
-125.2121400426451
 23
-146.57772002727569
 33
0.0
210
0.0
220
0.0
230
1.0
  0
SOLID
  5
671D6
  8
S-OBRYS
  6
CONTINUOUS
 10
-136.0697413134194
 20
-146.57772002727569
 30
0.0
 11
-128.64834715820271
 21
-152.9542450331025
 31
0.0
 12
-121.2959867224501
 22
-152.9542450331025
 32
0.0
 13
-121.2959867224501
 23
-152.9542450331025
 33
0.0
210
0.0
220
0.0
230
1.0
  0
SOLID
  5
671D7
  8
S-OBRYS
  6
CONTINUOUS
 10
136.0697413134194
 20
-146.57772002727569
 30
0.0
 11
125.2121400426451
 21
-146.57772002727569
 31
0.0
 12
121.2959867224501
 22
-152.9542450331025
 32
0.0
 13
121.2959867224501
 23
-152.9542450331025
 33
0.0
210
0.0
220
0.0
230
-1.0
  0
SOLID
  5
671D8
  8
S-OBRYS
  6
CONTINUOUS
 10
-128.64834715820271
 20
-152.9542450331025
 30
0.0
 11
-124.4155441826761
 21
-156.5911053660374
 31
0.0
 12
-118.6470868850928
 22
-156.5911053660374
 32
0.0
 13
-118.6470868850928
 23
-156.5911053660374
 33
0.0
210
0.0
220
0.0
230
1.0
  0
SOLID
  5
671D9
  8
S-OBRYS
  6
CONTINUOUS
 10
128.64834715820271
 20
-152.9542450331025
 30
0.0
 11
121.2959867224501
 21
-152.9542450331025
 31
0.0
 12
118.6470868850928
 22
-156.5911053660374
 32
0.0
 13
118.6470868850928
 23
-156.5911053660374
 33
0.0
210
0.0
220
0.0
230
-1.0
  0
SOLID
  5
671DA
  8
S-OBRYS
  6
CONTINUOUS
 10
124.4155441826761
 20
-156.5911053660374
 30
0.0
 11
118.6470868850928
 21
-156.5911053660374
 31
0.0
 12
112.0270211232598
 22
-165.6802578628913
 32
0.0
 13
112.0270211232598
 23
-165.6802578628913
 33
0.0
210
0.0
220
0.0
230
-1.0
  0
LINE
  5
671DB
  8
S-OBRYS
  6
CONTINUOUS
 10
-7.4303002125019191
 20
199.86193804923201
 30
0.0
 11
-106.0799013385006
 21
154.63598606144831
 31
0.0
  0
LINE
  5
671DC
  8
S-OBRYS
  6
CONTINUOUS
 10
114.36798504699919
 20
154.63598606144831
 30
0.0
 11
-7.4303002125019191
 21
199.86193804923201
 31
0.0
  0
LINE
  5
671DD
  8
S-OBRYS
  6
CONTINUOUS
 10
-106.0799013385006
 20
154.63598606144831
 30
0.0
 11
-123.65704524996811
 21
146.5777368891373
 31
0.0
  0
LINE
  5
671DE
  8
S-OBRYS
  6
CONTINUOUS
 10
114.36798504699919
 20
154.63598606144831
 30
0.0
 11
136.06970470668469
 21
146.5777368891373
 31
0.0
  0
LINE
  5
671DF
  8
S-OBRYS
  6
CONTINUOUS
 10
-123.65704524996811
 20
146.5777368891373
 30
0.0
 11
-139.0112327472724
 21
139.5386030392437
 31
0.0
  0
LINE
  5
671E0
  8
S-OBRYS
  6
CONTINUOUS
 10
-7.9187739383873028
 20
146.5777368891373
 30
0.0
 11
-20.572744427763961
 21
139.5386030392437
 31
0.0
  0
LINE
  5
671E1
  8
S-OBRYS
  6
CONTINUOUS
 10
136.0697047066846
 20
146.5777368891373
 30
0.0
 11
129.53519906752251
 21
139.5386030392437
 31
0.0
  0
LINE
  5
671E2
  8
S-OBRYS
  6
CONTINUOUS
 10
129.53519906752251
 20
139.5386030392437
 30
0.0
 11
72.201549540798865
 21
146.5777368891373
 31
0.0
  0
LINE
  5
671E3
  8
S-OBRYS
  6
CONTINUOUS
 10
136.0697047066846
 20
146.5777368891373
 30
0.0
 11
129.5351990675228
 21
139.5386030392437
 31
0.0
  0
LINE
  5
671E4
  8
S-OBRYS
  6
CONTINUOUS
 10
143.09108860080289
 20
139.5386030392437
 30
0.0
 11
136.0697047066846
 21
146.5777368891373
 31
0.0
  0
LINE
  5
671E5
  8
S-OBRYS
  6
CONTINUOUS
 10
-139.0112327472724
 20
139.5386030392437
 30
0.0
 11
-146.577746761573
 21
136.06973144098379
 31
0.0
  0
LINE
  5
671E6
  8
S-OBRYS
  6
CONTINUOUS
 10
-20.572744427763961
 20
139.5386030392437
 30
0.0
 11
-26.808596703322301
 21
136.06973144098379
 31
0.0
  0
LINE
  5
671E7
  8
S-OBRYS
  6
CONTINUOUS
 10
129.53519906752311
 20
139.5386030392437
 30
0.0
 11
136.25658556636
 21
136.06973144098379
 31
0.0
  0
LINE
  5
671E8
  8
S-OBRYS
  6
CONTINUOUS
 10
143.09108860080289
 20
139.5386030392437
 30
0.0
 11
146.55121305505739
 21
136.06973144098379
 31
0.0
  0
LINE
  5
671E9
  8
S-OBRYS
  6
CONTINUOUS
 10
-146.577746761573
 20
136.06973144098379
 30
0.0
 11
-146.71532458895959
 21
135.69921976065609
 31
0.0
  0
LINE
  5
671EA
  8
S-OBRYS
  6
CONTINUOUS
 10
-146.17862225930841
 20
135.69921976065609
 30
0.0
 11
-146.577746761573
 21
136.06973144098379
 31
0.0
  0
LINE
  5
671EB
  8
S-OBRYS
  6
CONTINUOUS
 10
-146.577746761573
 20
136.06973144098379
 30
0.0
 11
-146.1786222593083
 21
135.69921976065609
 31
0.0
  0
LINE
  5
671EC
  8
S-OBRYS
  6
CONTINUOUS
 10
-26.808596703322301
 20
136.06973144098379
 30
0.0
 11
-27.47465079020499
 21
135.69921976065609
 31
0.0
  0
LINE
  5
671ED
  8
S-OBRYS
  6
CONTINUOUS
 10
136.25658556636
 20
136.06973144098379
 30
0.0
 11
136.9744997742728
 21
135.69921976065609
 31
0.0
  0
LINE
  5
671EE
  8
S-OBRYS
  6
CONTINUOUS
 10
146.55121305505739
 20
136.06973144098379
 30
0.0
 11
146.92079044913899
 21
135.69921976065609
 31
0.0
  0
LINE
  5
671EF
  8
S-OBRYS
  6
CONTINUOUS
 10
-146.71532458895959
 20
135.69921976065609
 30
0.0
 11
-147.97074803455669
 21
132.3182312744525
 31
0.0
  0
LINE
  5
671F0
  8
S-OBRYS
  6
CONTINUOUS
 10
-146.17862225930841
 20
135.69921976065609
 30
0.0
 11
-142.53653641325681
 21
132.3182312744525
 31
0.0
  0
LINE
  5
671F1
  8
S-OBRYS
  6
CONTINUOUS
 10
-146.1786222593083
 20
135.69921976065609
 30
0.0
 11
-142.5365364132567
 21
132.3182312744525
 31
0.0
  0
LINE
  5
671F2
  8
S-OBRYS
  6
CONTINUOUS
 10
-27.47465079020499
 20
135.69921976065609
 30
0.0
 11
-33.552519096401468
 21
132.3182312744525
 31
0.0
  0
LINE
  5
671F3
  8
S-OBRYS
  6
CONTINUOUS
 10
136.9744997742728
 20
135.69921976065609
 30
0.0
 11
143.5256013991617
 21
132.3182312744525
 31
0.0
  0
LINE
  5
671F4
  8
S-OBRYS
  6
CONTINUOUS
 10
146.92079044913899
 20
135.69921976065609
 30
0.0
 11
149.81095848922959
 21
132.3182312744525
 31
0.0
  0
LINE
  5
671F5
  8
S-OBRYS
  6
CONTINUOUS
 10
-147.97074803455669
 20
132.3182312744525
 30
0.0
 11
-151.0521169139048
 21
124.0197780797475
 31
0.0
  0
LINE
  5
671F6
  8
S-OBRYS
  6
CONTINUOUS
 10
-142.53653641325681
 20
132.3182312744525
 30
0.0
 11
-133.5972338844588
 21
124.0197780797475
 31
0.0
  0
LINE
  5
671F7
  8
S-OBRYS
  6
CONTINUOUS
 10
-142.5365364132567
 20
132.3182312744525
 30
0.0
 11
-133.59723388445869
 21
124.0197780797475
 31
0.0
  0
LINE
  5
671F8
  8
S-OBRYS
  6
CONTINUOUS
 10
-33.552519096401468
 20
132.3182312744525
 30
0.0
 11
-48.470317801828479
 21
124.0197780797475
 31
0.0
  0
LINE
  5
671F9
  8
S-OBRYS
  6
CONTINUOUS
 10
149.81095848922959
 20
132.3182312744525
 30
0.0
 11
156.90471947167379
 21
124.0197780797475
 31
0.0
  0
LINE
  5
671FA
  8
S-OBRYS
  6
CONTINUOUS
 10
156.90471947167379
 20
124.0197780797475
 30
0.0
 11
143.5256013991617
 21
132.3182312744525
 31
0.0
  0
LINE
  5
671FB
  8
S-OBRYS
  6
CONTINUOUS
 10
-151.0521169139048
 20
124.0197780797475
 30
0.0
 11
-162.0470583125522
 21
94.409234795978335
 31
0.0
  0
LINE
  5
671FC
  8
S-OBRYS
  6
CONTINUOUS
 10
-48.470317801828479
 20
124.0197780797475
 30
0.0
 11
-101.7000118064241
 21
94.409234795978335
 31
0.0
  0
LINE
  5
671FD
  8
S-OBRYS
  6
CONTINUOUS
 10
-101.7000118064241
 20
94.409234795978335
 30
0.0
 11
-133.59723388445869
 21
124.0197780797475
 31
0.0
  0
LINE
  5
671FE
  8
S-OBRYS
  6
CONTINUOUS
 10
-162.0470583125522
 20
94.409234795978335
 30
0.0
 11
-199.8619479216687
 21
-7.4302734782037438
 31
0.0
  0
LINE
  5
671FF
  8
S-OBRYS
  6
CONTINUOUS
 10
-101.7000118064241
 20
94.409234795978335
 30
0.0
 11
-148.81695672466711
 21
-7.4302734782037438
 31
0.0
  0
LINE
  5
67200
  8
S-OBRYS
  6
CONTINUOUS
 10
-199.8619479216687
 20
-7.4302734782037438
 30
0.0
 11
-195.00201376120179
 21
-18.031057880888518
 31
0.0
  0
LINE
  5
67201
  8
S-OBRYS
  6
CONTINUOUS
 10
-148.81695672466711
 20
-7.4302734782037438
 30
0.0
 11
-153.72150293915519
 21
-18.031057880888518
 31
0.0
  0
LINE
  5
67202
  8
S-OBRYS
  6
CONTINUOUS
 10
-195.00201376120179
 20
-18.031057880888518
 30
0.0
 11
-139.29683524889569
 21
-139.53858617738231
 31
0.0
  0
LINE
  5
67203
  8
S-OBRYS
  6
CONTINUOUS
 10
-153.72150293915519
 20
-18.031057880888518
 30
0.0
 11
-129.53523567425751
 21
-139.53858617738231
 31
0.0
  0
LINE
  5
67204
  8
S-OBRYS
  6
CONTINUOUS
 10
-129.53523567425759
 20
-139.53858617738231
 30
0.0
 11
-136.0697413134194
 21
-146.57772002727569
 31
0.0
  0
LINE
  5
67205
  8
S-OBRYS
  6
CONTINUOUS
 10
-125.2121400426451
 20
-146.57772002727569
 30
0.0
 11
-129.53523567425751
 21
-139.53858617738231
 31
0.0
  0
LINE
  5
67206
  8
S-OBRYS
  6
CONTINUOUS
 10
-136.0697413134194
 20
-146.57772002727569
 30
0.0
 11
-128.64834715820271
 21
-152.9542450331025
 31
0.0
  0
LINE
  5
67207
  8
S-OBRYS
  6
CONTINUOUS
 10
-125.2121400426451
 20
-146.57772002727569
 30
0.0
 11
-121.2959867224501
 21
-152.9542450331025
 31
0.0
  0
LINE
  5
67208
  8
S-OBRYS
  6
CONTINUOUS
 10
-128.64834715820271
 20
-152.9542450331025
 30
0.0
 11
-124.4155441826761
 21
-156.5911053660374
 31
0.0
  0
LINE
  5
67209
  8
S-OBRYS
  6
CONTINUOUS
 10
-121.2959867224501
 20
-152.9542450331025
 30
0.0
 11
-118.6470868850928
 21
-156.5911053660374
 31
0.0
  0
LINE
  5
6720A
  8
S-OBRYS
  6
CONTINUOUS
 10
-118.6470868850928
 20
-156.5911053660374
 30
0.0
 11
-112.0270211232598
 21
-165.6802578628913
 31
0.0
  0
LINE
  5
6720B
  8
S-OBRYS
  6
CONTINUOUS
 10
-112.0270211232598
 20
-165.6802578628913
 30
0.0
 11
-124.4155441826761
 21
-156.5911053660374
 31
0.0
  0
ENDBLK
  5
6720D
  8
0
  0
BLOCK
  8
0
  2
*U204
 70
     1
 10
0.0
 20
0.0
 30
0.0
  3
*U204
  1

  0
TEXT
  5
6720F
  8
OBRYS
  6
CONTINUOUS
 10
5198.9145316311069
 20
406798.165204675
 30
0.0
 40
400.0
  1
Korečkový elevátor EK 100
  7
R
  0
ENDBLK
  5
67211
  8
0
  0
BLOCK
  8
0
  2
*U205
 70
     1
 10
0.0
 20
0.0
 30
0.0
  3
*U205
  1

  0
TEXT
  5
67213
  8
0
  6
CONTINUOUS
 62
     0
 10
1643.176848860981
 20
1632.0222275366939
 30
0.0
 40
100.0
  1
950
 50
90.0
 41
0.8
  0
ENDBLK
  5
67215
  8
0
  0
BLOCK
  8
0
  2
*U206
 70
     1
 10
0.0
 20
0.0
 30
0.0
  3
*U206
  1

  0
LINE
  5
6723F
  8
S-OBRYS
  6
CONTINUOUS
 10
11415.46167792803
 20
399418.08682886692
 30
0.0
 11
13426.8902493566
 21
399418.08682886692
 31
0.0
  0
TEXT
  5
67240
  8
S-OBRYS
  6
CONTINUOUS
 10
11415.46167792803
 20
399448.08682886692
 30
0.0
 40
150.0
  1
Kotvení spodní hlavy
 41
0.8
  0
ENDBLK
  5
67242
  8
0
  0
BLOCK
  8
0
  2
*U207
 70
     1
 10
0.0
 20
0.0
 30
0.0
  3
*U207
  1

  0
INSERT
  5
67244
  8
S-OBRYS
  6
CONTINUOUS
  2
_OPEN
 10
11978.22715407734
 20
398585.37572831282
 30
0.0
 41
100.0
 42
100.0
 43
100.0
 50
78.129590234048308
  0
POLYLINE
  5
67245
  8
S-OBRYS
  6
CONTINUOUS
 66
     1
 10
0.0
 20
0.0
 30
0.0
  0
VERTEX
  5
67246
  8
S-OBRYS
  6
CONTINUOUS
 10
11957.65727308936
 20
398487.51419349888
 30
0.0
  0
VERTEX
  5
67247
  8
S-OBRYS
  6
CONTINUOUS
 10
11893.331450123031
 20
398181.48307123157
 30
0.0
  0
VERTEX
  5
67248
  8
S-OBRYS
  6
CONTINUOUS
 10
11562.617164408741
 20
398181.48307123157
 30
0.0
  0
SEQEND
  5
67249
  8
S-OBRYS
  6
CONTINUOUS
  0
ENDBLK
  5
6724B
  8
0
  0
BLOCK
  8
0
  2
*U208
 70
     1
 10
0.0
 20
0.0
 30
0.0
  3
*U208
  1

  0
TEXT
  5
6724D
  8
S-OBRYS
  6
CONTINUOUS
 10
11551.18859298017
 20
398206.48307123157
 30
0.0
 40
100.0
  1
\U+220514
 41
0.8
  0
ENDBLK
  5
6724F
  8
0
  0
BLOCK
  8
0
  2
*U209
 70
     1
 10
0.0
 20
0.0
 30
0.0
  3
*U209
  1

  0
TEXT
  5
67279
  8
S-OBRYS
  6
CONTINUOUS
 62
     7
 10
6772.1338000315172
 20
397049.47386231582
 30
0.0
 40
100.0
  1
1290
 41
0.8
  0
ENDBLK
  5
6727B
  8
0
  0
BLOCK
  8
0
  2
*U210
 70
     1
 10
0.0
 20
0.0
 30
0.0
  3
*U210
  1

  0
TEXT
  5
6727D
  8
S-OBRYS
  6
CONTINUOUS
 62
     7
 10
5935.3312894104247
 20
397775.42951554031
 30
0.0
 40
100.0
  1
1000
 50
90.0
 41
0.8
  0
ENDBLK
  5
6727F
  8
0
  0
BLOCK
  8
0
  2
*U211
 70
     1
 10
0.0
 20
0.0
 30
0.0
  3
*U211
  1

  0
TEXT
  5
67281
  8
S-OBRYS
  6
CONTINUOUS
 62
     7
 10
7858.673985792494
 20
397794.23903934972
 30
0.0
 40
100.0
  1
950
 50
90.0
 41
0.8
  0
ENDBLK
  5
67283
  8
0
  0
BLOCK
  8
0
  2
*U212
 70
     1
 10
0.0
 20
0.0
 30
0.0
  3
*U212
  1

  0
TEXT
  5
67285
  8
S-OBRYS
  6
CONTINUOUS
 62
     7
 10
7025.1338000315154
 20
405629.94555959431
 30
0.0
 40
100.0
  1
1216
 41
0.8
  0
ENDBLK
  5
67287
  8
0
  0
BLOCK
  8
0
  2
*U213
 70
     1
 10
0.0
 20
0.0
 30
0.0
  3
*U213
  1

  0
TEXT
  5
67289
  8
S-OBRYS
  6
CONTINUOUS
 62
     7
 10
8110.4265441097377
 20
404144.23903934972
 30
0.0
 40
100.0
  1
350
 50
90.0
 41
0.8
  0
ENDBLK
  5
6728B
  8
0
  0
BLOCK
  8
0
  2
*U214
 70
     1
 10
0.0
 20
0.0
 30
0.0
  3
*U214
  1

  0
TEXT
  5
6728D
  8
S-OBRYS
  6
CONTINUOUS
 62
     7
 10
6330.9464848431808
 20
404560.64380125463
 30
0.0
 40
100.0
  1
479
 50
90.0
 41
0.8
  0
ENDBLK
  5
6728F
  8
0
  0
BLOCK
  8
0
  2
*U215
 70
     1
 10
0.0
 20
0.0
 30
0.0
  3
*U215
  1

  0
TEXT
  5
67291
  8
S-OBRYS
  6
CONTINUOUS
 62
     7
 10
8584.1619547848586
 20
398555.7990787715
 30
0.0
 40
100.0
  1
272
 41
0.8
  0
ENDBLK
  5
67293
  8
0
  0
BLOCK
  8
0
  2
*U216
 70
     1
 10
0.0
 20
0.0
 30
0.0
  3
*U216
  1

  0
TEXT
  5
67295
  8
S-OBRYS
  6
CONTINUOUS
 62
     7
 10
6815.9433238410402
 20
397256.31025329541
 30
0.0
 40
100.0
  1
710
 41
0.8
  0
ENDBLK
  5
67297
  8
0
  0
BLOCK
  8
0
  2
*U217
 70
     1
 10
0.0
 20
0.0
 30
0.0
  3
*U217
  1

  0
TEXT
  5
67299
  8
S-OBRYS
  6
CONTINUOUS
 62
     7
 10
9487.4476690705724
 20
405599.93444060039
 30
0.0
 40
100.0
  1
174
 41
0.8
  0
ENDBLK
  5
6729B
  8
0
  0
BLOCK
  8
0
  2
*U218
 70
     1
 10
0.0
 20
0.0
 30
0.0
  3
*U218
  1

  0
TEXT
  5
6729D
  8
S-OBRYS
  6
CONTINUOUS
 62
     7
 10
12965.91283385176
 20
401699.31936380989
 30
0.0
 40
100.0
  1
174
 50
90.0
 41
0.8
  0
ENDBLK
  5
6729F
  8
0
  0
BLOCK
  8
0
  2
*U219
 70
     1
 10
0.0
 20
0.0
 30
0.0
  3
*U219
  1

  0
TEXT
  5
672A1
  8
S-OBRYS
  6
CONTINUOUS
 62
     7
 10
11720.4296255635
 20
401923.07429579488
 30
0.0
 40
100.0
  1
1216
 41
0.8
  0
ENDBLK
  5
672A3
  8
0
  0
BLOCK
  8
0
  2
*U220
 70
     1
 10
0.0
 20
0.0
 30
0.0
  3
*U220
  1

  0
TEXT
  5
672A5
  8
S-OBRYS
  6
CONTINUOUS
 62
     7
 10
11718.006307827191
 20
405599.93444060039
 30
0.0
 40
100.0
  1
\U+2205400
 41
0.8
  0
ENDBLK
  5
672A7
  8
0
  0
BLOCK
  8
0
  2
*U221
 70
     1
 10
0.0
 20
0.0
 30
0.0
  3
*U221
  1

  0
TEXT
  5
672A9
  8
S-OBRYS
  6
CONTINUOUS
 62
     7
 10
10907.321056143979
 20
404612.73719150427
 30
0.0
 40
100.0
  1
1379
 50
90.0
 41
0.8
  0
ENDBLK
  5
672AB
  8
0
  0
BLOCK
  8
0
  2
*U222
 70
     1
 10
0.0
 20
0.0
 30
0.0
  3
*U222
  1

  0
TEXT
  5
672AD
  8
S-OBRYS
  6
CONTINUOUS
 62
     7
 10
13120.500309470301
 20
403535.61045962281
 30
0.0
 40
100.0
  1
\U+2205152
 41
0.8
  0
ENDBLK
  5
672AF
  8
0
  0
BLOCK
  8
0
  2
*U223
 70
     1
 10
0.0
 20
0.0
 30
0.0
  3
*U223
  1

  0
TEXT
  5
672B1
  8
S-OBRYS
  6
CONTINUOUS
 62
     7
 10
11178.731590152031
 20
404411.4376969132
 30
0.0
 40
100.0
  1
919
 50
90.0
 41
0.8
  0
ENDBLK
  5
672B3
  8
0
  0
BLOCK
  8
0
  2
*U224
 70
     1
 10
0.0
 20
0.0
 30
0.0
  3
*U224
  1

  0
TEXT
  5
672B5
  8
S-OBRYS
  6
CONTINUOUS
 62
     7
 10
12373.57173804173
 20
403310.46254176687
 30
0.0
 40
100.0
  1
861
 41
0.8
  0
ENDBLK
  5
672B7
  8
0
  0
BLOCK
  8
0
  2
*U225
 70
     1
 10
0.0
 20
0.0
 30
0.0
  3
*U225
  1

  0
TEXT
  5
672B9
  8
S-OBRYS
  6
CONTINUOUS
 62
     7
 10
9053.7600846529494
 20
397037.66056356532
 30
0.0
 40
100.0
  1
278
 41
0.8
  0
ENDBLK
  5
672BB
  8
0
  0
BLOCK
  8
0
  2
*U226
 70
     1
 10
0.0
 20
0.0
 30
0.0
  3
*U226
  1

  0
TEXT
  5
672BD
  8
S-OBRYS
  6
CONTINUOUS
 62
     7
 10
5938.0346311155172
 20
399281.14380125463
 30
0.0
 40
100.0
  1
2000
 50
90.0
 41
0.8
  0
ENDBLK
  5
672BF
  8
0
  0
BLOCK
  8
0
  2
*U227
 70
     1
 10
0.0
 20
0.0
 30
0.0
  3
*U227
  1

  0
TEXT
  5
672C1
  8
S-OBRYS
  6
CONTINUOUS
 62
     7
 10
5938.2239215965537
 20
401281.14380125463
 30
0.0
 40
100.0
  1
2000
 50
90.0
 41
0.8
  0
ENDBLK
  5
672C3
  8
0
  0
BLOCK
  8
0
  2
*U228
 70
     1
 10
0.0
 20
0.0
 30
0.0
  3
*U228
  1

  0
TEXT
  5
672C5
  8
S-OBRYS
  6
CONTINUOUS
 62
     7
 10
5940.810813606724
 20
403281.14380125451
 30
0.0
 40
100.0
  1
2000
 50
90.0
 41
0.8
  0
ENDBLK
  5
672C7
  8
0
  0
BLOCK
  8
0
  2
*U229
 70
     1
 10
0.0
 20
0.0
 30
0.0
  3
*U229
  1

  0
TEXT
  5
672C9
  8
S-OBRYS
  6
CONTINUOUS
 62
     7
 10
12166.83942975567
 20
398207.65558869822
 30
0.0
 40
100.0
  1
600
 41
0.8
  0
ENDBLK
  5
672CB
  8
0
  0
BLOCK
  8
0
  2
*U230
 70
     1
 10
0.0
 20
0.0
 30
0.0
  3
*U230
  1

  0
TEXT
  5
672CD
  8
S-OBRYS
  6
CONTINUOUS
 62
     7
 10
12939.218306113849
 20
399024.0396586748
 30
0.0
 40
100.0
  1
220
 50
90.0
 41
0.8
  0
ENDBLK
  5
672CF
  8
0
  0
BLOCK
  8
0
  2
*U231
 70
     1
 10
0.0
 20
0.0
 30
0.0
  3
*U231
  1

  0
TEXT
  5
672D1
  8
S-OBRYS
  6
CONTINUOUS
 62
     7
 10
7858.673985792494
 20
397794.23903934972
 30
0.0
 40
100.0
  1
950
 50
90.0
 41
0.8
  0
ENDBLK
  5
672D3
  8
0
  0
BLOCK
  8
0
  2
*U232
 70
     1
 10
0.0
 20
0.0
 30
0.0
  3
*U232
  1

  0
TEXT
  5
672D5
  8
S-OBRYS
  6
CONTINUOUS
 62
     7
 10
5940.810813606724
 20
404780.64380125451
 30
0.0
 40
100.0
  1
919
 50
90.0
 41
0.8
  0
ENDBLK
  5
672D7
  8
0
  0
BLOCK
  8
0
  2
*U233
 70
     1
 10
0.0
 20
0.0
 30
0.0
  3
*U233
  1

  0
TEXT
  5
672D9
  8
S-OBRYS
  6
CONTINUOUS
 62
     7
 10
9749.688013902598
 20
404443.07272751362
 30
0.0
 40
100.0
  1
\U+220550
 50
90.0
 41
0.8
  0
ENDBLK
  5
672DB
  8
0
  0
BLOCK
  8
0
  2
*U234
 70
     1
 10
0.0
 20
0.0
 30
0.0
  3
*U234
  1

  0
TEXT
  5
672DD
  8
S-OBRYS
  6
CONTINUOUS
 62
     7
 10
6815.9433238410429
 20
401686.81287158391
 30
0.0
 40
100.0
  1
290
 41
0.8
  0
ENDBLK
  5
672DF
  8
0
  0
BLOCK
  8
0
  2
*U235
 70
     1
 10
0.0
 20
0.0
 30
0.0
  3
*U235
  1

  0
TEXT
  5
672E1
  8
S-OBRYS
  6
CONTINUOUS
 62
     7
 10
7501.8004666981851
 20
401686.81287158368
 30
0.0
 40
100.0
  1
213
 41
0.8
  0
ENDBLK
  5
672E3
  8
0
  0
BLOCK
  8
0
  2
*U236
 70
     1
 10
0.0
 20
0.0
 30
0.0
  3
*U236
  1

  0
TEXT
  5
672E5
  8
S-OBRYS
  6
CONTINUOUS
 62
     7
 10
9481.9476690705724
 20
401686.81287158368
 30
0.0
 40
100.0
  1
163
 41
0.8
  0
ENDBLK
  5
672E7
  8
0
  0
BLOCK
  8
0
  2
*U237
 70
     1
 10
0.0
 20
0.0
 30
0.0
  3
*U237
  1

  0
TEXT
  5
672E9
  8
S-OBRYS
  6
CONTINUOUS
 62
     7
 10
18877.298964770489
 20
400905.27402162278
 30
0.0
 40
100.0
  1
407
 41
0.8
  0
ENDBLK
  5
672EB
  8
0
  0
BLOCK
  8
0
  2
*U238
 70
     1
 10
0.0
 20
0.0
 30
0.0
  3
*U238
  1

  0
TEXT
  5
672ED
  8
S-OBRYS
  6
CONTINUOUS
 62
     7
 10
19611.656107627641
 20
400905.2740216229
 30
0.0
 40
100.0
  1
303
 41
0.8
  0
ENDBLK
  5
672EF
  8
0
  0
BLOCK
  8
0
  2
*U239
 70
     1
 10
0.0
 20
0.0
 30
0.0
  3
*U239
  1

  0
TEXT
  5
672F1
  8
S-OBRYS
  6
CONTINUOUS
 62
     7
 10
18833.489440960959
 20
396839.72457099421
 30
0.0
 40
100.0
  1
1013
 41
0.8
  0
ENDBLK
  5
672F3
  8
0
  0
BLOCK
  8
0
  2
*U240
 70
     1
 10
0.0
 20
0.0
 30
0.0
  3
*U240
  1

  0
TEXT
  5
672F5
  8
S-OBRYS
  6
CONTINUOUS
 62
     7
 10
18048.705630240271
 20
397531.2711845843
 30
0.0
 40
100.0
  1
1180
 50
90.0
 41
0.8
  0
ENDBLK
  5
672F7
  8
0
  0
BLOCK
  8
0
  2
*U241
 70
     1
 10
0.0
 20
0.0
 30
0.0
  3
*U241
  1

  0
TEXT
  5
672F9
  8
S-OBRYS
  6
CONTINUOUS
 62
     7
 10
18048.705630240271
 20
399126.98547029862
 30
0.0
 40
100.0
  1
2000
 50
90.0
 41
0.8
  0
ENDBLK
  5
672FB
  8
0
  0
BLOCK
  8
0
  2
*U242
 70
     1
 10
0.0
 20
0.0
 30
0.0
  3
*U242
  1

  0
TEXT
  5
672FD
  8
S-OBRYS
  6
CONTINUOUS
 62
     7
 10
18048.70563024026
 20
401126.98547029868
 30
0.0
 40
100.0
  1
2000
 50
90.0
 41
0.8
  0
ENDBLK
  5
672FF
  8
0
  0
BLOCK
  8
0
  2
*U243
 70
     1
 10
0.0
 20
0.0
 30
0.0
  3
*U243
  1

  0
TEXT
  5
67301
  8
S-OBRYS
  6
CONTINUOUS
 62
     7
 10
18048.70563024026
 20
403113.77118458418
 30
0.0
 40
100.0
  1
1985
 50
90.0
 41
0.8
  0
ENDBLK
  5
67303
  8
0
  0
BLOCK
  8
0
  2
*U244
 70
     1
 10
0.0
 20
0.0
 30
0.0
  3
*U244
  1

  0
TEXT
  5
67305
  8
S-OBRYS
  6
CONTINUOUS
 62
     7
 10
20634.562437432029
 20
398579.70044640498
 30
0.0
 40
100.0
  1
272
 41
0.8
  0
ENDBLK
  5
67307
  8
0
  0
BLOCK
  8
0
  2
*U245
 70
     1
 10
0.0
 20
0.0
 30
0.0
  3
*U245
  1

  0
TEXT
  5
67309
  8
S-OBRYS
  6
CONTINUOUS
 62
     7
 10
21104.160567300129
 20
397061.5619311987
 30
0.0
 40
100.0
  1
278
 41
0.8
  0
ENDBLK
  5
6730B
  8
0
  0
BLOCK
  8
0
  2
*U246
 70
     1
 10
0.0
 20
0.0
 30
0.0
  3
*U246
  1

  0
TEXT
  5
6730D
  8
S-OBRYS
  6
CONTINUOUS
 62
     7
 10
21532.34815171775
 20
401710.71423921722
 30
0.0
 40
100.0
  1
163
 41
0.8
  0
ENDBLK
  5
6730F
  8
0
  0
BLOCK
  8
0
  2
*U247
 70
     1
 10
0.0
 20
0.0
 30
0.0
  3
*U247
  1

  0
TEXT
  5
67311
  8
S-OBRYS
  6
CONTINUOUS
 62
     7
 10
26017.014334489209
 20
401699.31936380989
 30
0.0
 40
100.0
  1
174
 50
90.0
 41
0.8
  0
ENDBLK
  5
67313
  8
0
  0
BLOCK
  8
0
  2
*U248
 70
     1
 10
0.0
 20
0.0
 30
0.0
  3
*U248
  1

  0
TEXT
  5
67315
  8
S-OBRYS
  6
CONTINUOUS
 62
     7
 10
24771.531126200949
 20
401923.07429579488
 30
0.0
 40
100.0
  1
1216
 41
0.8
  0
ENDBLK
  5
67317
  8
0
  0
BLOCK
  8
0
  2
*U249
 70
     1
 10
0.0
 20
0.0
 30
0.0
  3
*U249
  1

  0
TEXT
  5
67319
  8
S-OBRYS
  6
CONTINUOUS
 62
     7
 10
24769.10780846464
 20
405599.93444060039
 30
0.0
 40
100.0
  1
\U+2205400
 41
0.8
  0
ENDBLK
  5
6731B
  8
0
  0
BLOCK
  8
0
  2
*U250
 70
     1
 10
0.0
 20
0.0
 30
0.0
  3
*U250
  1

  0
TEXT
  5
6731D
  8
S-OBRYS
  6
CONTINUOUS
 62
     7
 10
23958.422556781439
 20
404612.73719150427
 30
0.0
 40
100.0
  1
1379
 50
90.0
 41
0.8
  0
ENDBLK
  5
6731F
  8
0
  0
BLOCK
  8
0
  2
*U251
 70
     1
 10
0.0
 20
0.0
 30
0.0
  3
*U251
  1

  0
TEXT
  5
67321
  8
S-OBRYS
  6
CONTINUOUS
 62
     7
 10
26171.60181010775
 20
403535.61045962281
 30
0.0
 40
100.0
  1
\U+2205152
 41
0.8
  0
ENDBLK
  5
67323
  8
0
  0
BLOCK
  8
0
  2
*U252
 70
     1
 10
0.0
 20
0.0
 30
0.0
  3
*U252
  1

  0
TEXT
  5
67325
  8
S-OBRYS
  6
CONTINUOUS
 62
     7
 10
24229.833090789482
 20
404411.4376969132
 30
0.0
 40
100.0
  1
919
 50
90.0
 41
0.8
  0
ENDBLK
  5
67327
  8
0
  0
BLOCK
  8
0
  2
*U253
 70
     1
 10
0.0
 20
0.0
 30
0.0
  3
*U253
  1

  0
TEXT
  5
67329
  8
S-OBRYS
  6
CONTINUOUS
 62
     7
 10
25424.673238679181
 20
403310.46254176687
 30
0.0
 40
100.0
  1
861
 41
0.8
  0
ENDBLK
  5
6732B
  8
0
  0
BLOCK
  8
0
  2
*U254
 70
     1
 10
0.0
 20
0.0
 30
0.0
  3
*U254
  1

  0
TEXT
  5
6732D
  8
S-OBRYS
  6
CONTINUOUS
 62
     7
 10
25217.940930393121
 20
398207.65558869822
 30
0.0
 40
100.0
  1
600
 41
0.8
  0
ENDBLK
  5
6732F
  8
0
  0
BLOCK
  8
0
  2
*U255
 70
     1
 10
0.0
 20
0.0
 30
0.0
  3
*U255
  1

  0
TEXT
  5
67331
  8
S-OBRYS
  6
CONTINUOUS
 62
     7
 10
25990.3198067513
 20
399024.0396586748
 30
0.0
 40
100.0
  1
220
 50
90.0
 41
0.8
  0
ENDBLK
  5
67333
  8
0
  0
BLOCK
  8
0
  2
*U256
 70
     1
 10
0.0
 20
0.0
 30
0.0
  3
*U256
  1

  0
TEXT
  5
67335
  8
S-OBRYS
  6
CONTINUOUS
 62
     7
 10
24138.525862631039
 20
400747.08126857178
 30
0.0
 40
100.0
  1
1440
 50
90.0
 41
0.8
  0
ENDBLK
  5
67337
  8
0
  0
BLOCK
  8
0
  2
*U257
 70
     1
 10
0.0
 20
0.0
 30
0.0
  3
*U257
  1

  0
TEXT
  5
67339
  8
S-OBRYS
  6
CONTINUOUS
 62
     7
 10
21595.957051816629
 20
405783.72807544091
 30
0.0
 40
100.0
  1
1440
 41
0.8
  0
ENDBLK
  5
6733B
  8
0
  0
BLOCK
  8
0
  2
*U258
 70
     1
 10
0.0
 20
0.0
 30
0.0
  3
*U258
  1

  0
TEXT
  5
6733D
  8
S-OBRYS
  6
CONTINUOUS
 62
     7
 10
18364.50463353506
 20
404395.17594648909
 30
0.0
 40
100.0
  1
494
 50
90.0
 41
0.8
  0
ENDBLK
  5
6733F
  8
0
  0
BLOCK
  8
0
  2
*U259
 70
     1
 10
0.0
 20
0.0
 30
0.0
  3
*U259
  1

  0
TEXT
  5
67341
  8
S-OBRYS
  6
CONTINUOUS
 62
     7
 10
18048.70563024026
 20
404646.36642267962
 30
0.0
 40
100.0
  1
1084
 50
90.0
 41
0.8
  0
ENDBLK
  5
67343
  8
0
  0
BLOCK
  8
0
  2
*U260
 70
     1
 10
0.0
 20
0.0
 30
0.0
  3
*U260
  1

  0
TEXT
  5
67345
  8
S-OBRYS
  6
CONTINUOUS
 62
     7
 10
19084.98944096097
 20
405639.07763375249
 30
0.0
 40
100.0
  1
1516
 41
0.8
  0
ENDBLK
  5
67347
  8
0
  0
BLOCK
  8
0
  2
*U261
 70
     1
 10
0.0
 20
0.0
 30
0.0
  3
*U261
  1

  0
TEXT
  5
67349
  8
S-OBRYS
  6
CONTINUOUS
 62
     7
 10
20250.660161222891
 20
403980.08070839371
 30
0.0
 40
100.0
  1
370
 50
90.0
 41
0.8
  0
ENDBLK
  5
6734B
  8
0
  0
BLOCK
  8
0
  2
*U262
 70
     1
 10
0.0
 20
0.0
 30
0.0
  3
*U262
  1

  0
TEXT
  5
6734D
  8
S-OBRYS
  6
CONTINUOUS
 62
     7
 10
-5575.3063949211237
 20
403968.164114477
 30
0.0
 40
100.0
  1
370
 50
90.0
 41
0.8
  0
ENDBLK
  5
6734F
  8
0
  0
BLOCK
  8
0
  2
*U263
 70
     1
 10
0.0
 20
0.0
 30
0.0
  3
*U263
  1

  0
TEXT
  5
67351
  8
S-OBRYS
  6
CONTINUOUS
 62
     7
 10
-4164.7204005663561
 20
405836.5878203031
 30
0.0
 40
100.0
  1
240
 41
0.8
  0
ENDBLK
  5
67353
  8
0
  0
BLOCK
  8
0
  2
*U264
 70
     1
 10
0.0
 20
0.0
 30
0.0
  3
*U264
  1

  0
TEXT
  5
67355
  8
S-OBRYS
  6
CONTINUOUS
 62
     7
 10
-6740.9771151830419
 20
405835.92036642501
 30
0.0
 40
100.0
  1
1516
 41
0.8
  0
ENDBLK
  5
67357
  8
0
  0
BLOCK
  8
0
  2
*U265
 70
     1
 10
0.0
 20
0.0
 30
0.0
  3
*U265
  1

  0
TEXT
  5
67359
  8
S-OBRYS
  6
CONTINUOUS
 62
     7
 10
-7777.2609259037481
 20
404634.44982876268
 30
0.0
 40
100.0
  1
1084
 50
90.0
 41
0.8
  0
ENDBLK
  5
6735B
  8
0
  0
BLOCK
  8
0
  2
*U266
 70
     1
 10
0.0
 20
0.0
 30
0.0
  3
*U266
  1

  0
TEXT
  5
6735D
  8
S-OBRYS
  6
CONTINUOUS
 62
     7
 10
-7461.4619226089562
 20
404383.25935257232
 30
0.0
 40
100.0
  1
494
 50
90.0
 41
0.8
  0
ENDBLK
  5
6735F
  8
0
  0
BLOCK
  8
0
  2
*U267
 70
     1
 10
0.0
 20
0.0
 30
0.0
  3
*U267
  1

  0
TEXT
  5
67361
  8
S-OBRYS
  6
CONTINUOUS
 62
     7
 10
-1085.9632529049959
 20
397747.69823080988
 30
0.0
 40
100.0
  1
800
 41
0.8
  0
ENDBLK
  5
67363
  8
0
  0
BLOCK
  8
0
  2
*U268
 70
     1
 10
0.0
 20
0.0
 30
0.0
  3
*U268
  1

  0
TEXT
  5
67365
  8
S-OBRYS
  6
CONTINUOUS
 62
     7
 10
-201.7856127152904
 20
398162.28675532271
 30
0.0
 40
100.0
  1
294
 50
90.0
 41
0.8
  0
ENDBLK
  5
67367
  8
0
  0
BLOCK
  8
0
  2
*U269
 70
     1
 10
0.0
 20
0.0
 30
0.0
  3
*U269
  1

  0
TEXT
  5
67369
  8
S-OBRYS
  6
CONTINUOUS
 62
     7
 10
-1252.5954780089451
 20
403531.84837743349
 30
0.0
 40
100.0
  1
1516
 41
0.8
  0
ENDBLK
  5
6736B
  8
0
  0
BLOCK
  8
0
  2
*U270
 70
     1
 10
0.0
 20
0.0
 30
0.0
  3
*U270
  1

  0
TEXT
  5
6736D
  8
S-OBRYS
  6
CONTINUOUS
 62
     7
 10
-6948.667591373528
 20
400893.35742770589
 30
0.0
 40
100.0
  1
407
 41
0.8
  0
ENDBLK
  5
6736F
  8
0
  0
BLOCK
  8
0
  2
*U271
 70
     1
 10
0.0
 20
0.0
 30
0.0
  3
*U271
  1

  0
TEXT
  5
67371
  8
S-OBRYS
  6
CONTINUOUS
 62
     7
 10
-6214.3104485163803
 20
400893.35742770601
 30
0.0
 40
100.0
  1
303
 41
0.8
  0
ENDBLK
  5
67373
  8
0
  0
BLOCK
  8
0
  2
*U272
 70
     1
 10
0.0
 20
0.0
 30
0.0
  3
*U272
  1

  0
TEXT
  5
67375
  8
S-OBRYS
  6
CONTINUOUS
 62
     7
 10
-6992.4771151830528
 20
396699.40878438362
 30
0.0
 40
100.0
  1
1013
 41
0.8
  0
ENDBLK
  5
67377
  8
0
  0
BLOCK
  8
0
  2
*U273
 70
     1
 10
0.0
 20
0.0
 30
0.0
  3
*U273
  1

  0
TEXT
  5
67379
  8
S-OBRYS
  6
CONTINUOUS
 62
     7
 10
-7777.2609259037481
 20
397519.35459066753
 30
0.0
 40
100.0
  1
1180
 50
90.0
 41
0.8
  0
ENDBLK
  5
6737B
  8
0
  0
BLOCK
  8
0
  2
*U274
 70
     1
 10
0.0
 20
0.0
 30
0.0
  3
*U274
  1

  0
TEXT
  5
6737D
  8
S-OBRYS
  6
CONTINUOUS
 62
     7
 10
-7777.2609259037481
 20
399115.06887638179
 30
0.0
 40
100.0
  1
2000
 50
90.0
 41
0.8
  0
ENDBLK
  5
6737F
  8
0
  0
BLOCK
  8
0
  2
*U275
 70
     1
 10
0.0
 20
0.0
 30
0.0
  3
*U275
  1

  0
TEXT
  5
67381
  8
S-OBRYS
  6
CONTINUOUS
 62
     7
 10
-7777.2609259037481
 20
401115.06887638179
 30
0.0
 40
100.0
  1
2000
 50
90.0
 41
0.8
  0
ENDBLK
  5
67383
  8
0
  0
BLOCK
  8
0
  2
*U276
 70
     1
 10
0.0
 20
0.0
 30
0.0
  3
*U276
  1

  0
TEXT
  5
67385
  8
S-OBRYS
  6
CONTINUOUS
 62
     7
 10
-7777.2609259037481
 20
403101.85459066741
 30
0.0
 40
100.0
  1
1985
 50
90.0
 41
0.8
  0
ENDBLK
  5
67387
  8
0
  0
BLOCK
  8
0
  2
*U277
 70
     1
 10
0.0
 20
0.0
 30
0.0
  3
*U277
  1

  0
TEXT
  5
67389
  8
S-OBRYS
  6
CONTINUOUS
 62
     7
 10
-4168.2204005663571
 20
400881.31740101782
 30
0.0
 40
100.0
  1
233
 41
0.8
  0
ENDBLK
  5
6738B
  8
0
  0
BLOCK
  8
0
  2
*U278
 70
     1
 10
0.0
 20
0.0
 30
0.0
  3
*U278
  1

  0
TEXT
  5
6738D
  8
S-OBRYS
  6
CONTINUOUS
 62
     7
 10
-3928.7356190095379
 20
404283.11649542942
 30
0.0
 40
100.0
  1
\U+220550
 50
90.0
 41
0.8
  0
ENDBLK
  5
6738F
  8
0
  0
BLOCK
  8
0
  2
*U279
 70
     1
 10
0.0
 20
0.0
 30
0.0
  3
*U279
  1

  0
TEXT
  5
67391
  8
S-OBRYS
  6
CONTINUOUS
 62
     7
 10
-4612.5775434235002
 20
396715.67991193279
 30
0.0
 40
100.0
  1
352
 41
0.8
  0
ENDBLK
  5
67393
  8
0
  0
BLOCK
  8
0
  2
*U280
 70
     1
 10
0.0
 20
0.0
 30
0.0
  3
*U280
  1

  0
TEXT
  5
67395
  8
S-OBRYS
  6
CONTINUOUS
 62
     7
 10
-111.6501118806836
 20
401057.50498639792
 30
0.0
 40
100.0
  1
240
 50
90.0
 41
0.8
  0
ENDBLK
  5
67397
  8
0
  0
BLOCK
  8
0
  2
*U281
 70
     1
 10
0.0
 20
0.0
 30
0.0
  3
*U281
  1

  0
TEXT
  5
67399
  8
S-OBRYS
  6
CONTINUOUS
 62
     7
 10
-5016.1089844165581
 20
404146.1987278926
 30
0.0
 40
100.0
  1
370
 50
90.0
 41
0.8
  0
ENDBLK
  5
6739B
  8
0
  0
BLOCK
  8
0
  2
*U282
 70
     1
 10
0.0
 20
0.0
 30
0.0
  3
*U282
  1

  0
TEXT
  5
6739D
  8
S-OBRYS
  6
CONTINUOUS
 62
     7
 10
-3605.5229900617901
 20
406014.6224337187
 30
0.0
 40
100.0
  1
240
 41
0.8
  0
ENDBLK
  5
6739F
  8
0
  0
BLOCK
  8
0
  2
*U283
 70
     1
 10
0.0
 20
0.0
 30
0.0
  3
*U283
  1

  0
TEXT
  5
673A1
  8
S-OBRYS
  6
CONTINUOUS
 62
     7
 10
-6181.7797046784763
 20
406013.95497984061
 30
0.0
 40
100.0
  1
1516
 41
0.8
  0
ENDBLK
  5
673A3
  8
0
  0
BLOCK
  8
0
  2
*U284
 70
     1
 10
0.0
 20
0.0
 30
0.0
  3
*U284
  1

  0
TEXT
  5
673A5
  8
S-OBRYS
  6
CONTINUOUS
 62
     7
 10
-7218.0635153991807
 20
404812.48444217828
 30
0.0
 40
100.0
  1
1084
 50
90.0
 41
0.8
  0
ENDBLK
  5
673A7
  8
0
  0
BLOCK
  8
0
  2
*U285
 70
     1
 10
0.0
 20
0.0
 30
0.0
  3
*U285
  1

  0
TEXT
  5
673A9
  8
S-OBRYS
  6
CONTINUOUS
 62
     7
 10
-6902.2645121043888
 20
404561.29396598792
 30
0.0
 40
100.0
  1
494
 50
90.0
 41
0.8
  0
ENDBLK
  5
673AB
  8
0
  0
BLOCK
  8
0
  2
*U286
 70
     1
 10
0.0
 20
0.0
 30
0.0
  3
*U286
  1

  0
TEXT
  5
673AD
  8
S-OBRYS
  6
CONTINUOUS
 62
     7
 10
-526.76584240042996
 20
397925.73284422548
 30
0.0
 40
100.0
  1
800
 41
0.8
  0
ENDBLK
  5
673AF
  8
0
  0
BLOCK
  8
0
  2
*U287
 70
     1
 10
0.0
 20
0.0
 30
0.0
  3
*U287
  1

  0
TEXT
  5
673B1
  8
S-OBRYS
  6
CONTINUOUS
 62
     7
 10
357.41179778927608
 20
398340.32136873831
 30
0.0
 40
100.0
  1
294
 50
90.0
 41
0.8
  0
ENDBLK
  5
673B3
  8
0
  0
BLOCK
  8
0
  2
*U288
 70
     1
 10
0.0
 20
0.0
 30
0.0
  3
*U288
  1

  0
TEXT
  5
673B5
  8
S-OBRYS
  6
CONTINUOUS
 62
     7
 10
-693.39806750437901
 20
403709.88299084909
 30
0.0
 40
100.0
  1
1516
 41
0.8
  0
ENDBLK
  5
673B7
  8
0
  0
BLOCK
  8
0
  2
*U289
 70
     1
 10
0.0
 20
0.0
 30
0.0
  3
*U289
  1

  0
TEXT
  5
673B9
  8
S-OBRYS
  6
CONTINUOUS
 62
     7
 10
-6389.4701808689606
 20
401071.39204112149
 30
0.0
 40
100.0
  1
407
 41
0.8
  0
ENDBLK
  5
673BB
  8
0
  0
BLOCK
  8
0
  2
*U290
 70
     1
 10
0.0
 20
0.0
 30
0.0
  3
*U290
  1

  0
TEXT
  5
673BD
  8
S-OBRYS
  6
CONTINUOUS
 62
     7
 10
-5655.1130380118138
 20
401071.39204112161
 30
0.0
 40
100.0
  1
303
 41
0.8
  0
ENDBLK
  5
673BF
  8
0
  0
BLOCK
  8
0
  2
*U291
 70
     1
 10
0.0
 20
0.0
 30
0.0
  3
*U291
  1

  0
TEXT
  5
673C1
  8
S-OBRYS
  6
CONTINUOUS
 62
     7
 10
-6433.2797046784863
 20
396877.44339779922
 30
0.0
 40
100.0
  1
1013
 41
0.8
  0
ENDBLK
  5
673C3
  8
0
  0
BLOCK
  8
0
  2
*U292
 70
     1
 10
0.0
 20
0.0
 30
0.0
  3
*U292
  1

  0
TEXT
  5
673C5
  8
S-OBRYS
  6
CONTINUOUS
 62
     7
 10
-7218.0635153991807
 20
397697.38920408313
 30
0.0
 40
100.0
  1
1180
 50
90.0
 41
0.8
  0
ENDBLK
  5
673C7
  8
0
  0
BLOCK
  8
0
  2
*U293
 70
     1
 10
0.0
 20
0.0
 30
0.0
  3
*U293
  1

  0
TEXT
  5
673C9
  8
S-OBRYS
  6
CONTINUOUS
 62
     7
 10
-7218.0635153991807
 20
399293.10348979739
 30
0.0
 40
100.0
  1
2000
 50
90.0
 41
0.8
  0
ENDBLK
  5
673CB
  8
0
  0
BLOCK
  8
0
  2
*U294
 70
     1
 10
0.0
 20
0.0
 30
0.0
  3
*U294
  1

  0
TEXT
  5
673CD
  8
S-OBRYS
  6
CONTINUOUS
 62
     7
 10
-7218.0635153991807
 20
401293.10348979739
 30
0.0
 40
100.0
  1
2000
 50
90.0
 41
0.8
  0
ENDBLK
  5
673CF
  8
0
  0
BLOCK
  8
0
  2
*U295
 70
     1
 10
0.0
 20
0.0
 30
0.0
  3
*U295
  1

  0
TEXT
  5
673D1
  8
S-OBRYS
  6
CONTINUOUS
 62
     7
 10
-7218.0635153991807
 20
403279.88920408313
 30
0.0
 40
100.0
  1
1985
 50
90.0
 41
0.8
  0
ENDBLK
  5
673D3
  8
0
  0
BLOCK
  8
0
  2
*U296
 70
     1
 10
0.0
 20
0.0
 30
0.0
  3
*U296
  1

  0
TEXT
  5
673D5
  8
S-OBRYS
  6
CONTINUOUS
 62
     7
 10
-3609.0229900617919
 20
401059.35201443348
 30
0.0
 40
100.0
  1
233
 41
0.8
  0
ENDBLK
  5
673D7
  8
0
  0
BLOCK
  8
0
  2
*U297
 70
     1
 10
0.0
 20
0.0
 30
0.0
  3
*U297
  1

  0
TEXT
  5
673D9
  8
S-OBRYS
  6
CONTINUOUS
 62
     7
 10
-3369.5382085049719
 20
404461.15110884502
 30
0.0
 40
100.0
  1
\U+220550
 50
90.0
 41
0.8
  0
ENDBLK
  5
673DB
  8
0
  0
BLOCK
  8
0
  2
*U298
 70
     1
 10
0.0
 20
0.0
 30
0.0
  3
*U298
  1

  0
TEXT
  5
673DD
  8
S-OBRYS
  6
CONTINUOUS
 62
     7
 10
-4053.3801329189341
 20
396893.71452534839
 30
0.0
 40
100.0
  1
352
 41
0.8
  0
ENDBLK
  5
673DF
  8
0
  0
BLOCK
  8
0
  2
*U299
 70
     1
 10
0.0
 20
0.0
 30
0.0
  3
*U299
  1

  0
TEXT
  5
673E1
  8
S-OBRYS
  6
CONTINUOUS
 62
     7
 10
447.5472986238828
 20
401235.53959981352
 30
0.0
 40
100.0
  1
240
 50
90.0
 41
0.8
  0
ENDBLK
  5
673E3
  8
0
  0
BLOCK
  8
0
  2
*U300
 70
     1
 10
0.0
 20
0.0
 30
0.0
  3
*U300
  1

  0
TEXT
  5
673E5
  8
S-OBRYS
  6
CONTINUOUS
 62
     7
 10
18524.177943229679
 20
404780.64380125451
 30
0.0
 40
100.0
  1
919
 50
90.0
 41
0.8
  0
ENDBLK
  5
673E7
  8
0
  0
BLOCK
  8
0
  2
*U301
 70
     1
 10
0.0
 20
0.0
 30
0.0
  3
*U301
  1

  0
TEXT
  5
673E9
  8
S-OBRYS
  6
CONTINUOUS
 62
     7
 10
22333.055143525558
 20
404443.07272751362
 30
0.0
 40
100.0
  1
\U+220550
 50
90.0
 41
0.8
  0
ENDBLK
  5
673EB
  8
0
  0
BLOCK
  8
0
  2
*U302
 70
     1
 10
0.0
 20
0.0
 30
0.0
  3
*U302
  1

  0
TEXT
  5
673ED
  8
S-OBRYS
  6
CONTINUOUS
 62
     7
 10
19399.310453464001
 20
401686.81287158391
 30
0.0
 40
100.0
  1
290
 41
0.8
  0
ENDBLK
  5
673EF
  8
0
  0
BLOCK
  8
0
  2
*U303
 70
     1
 10
0.0
 20
0.0
 30
0.0
  3
*U303
  1

  0
TEXT
  5
673F1
  8
S-OBRYS
  6
CONTINUOUS
 62
     7
 10
20085.167596321138
 20
401686.81287158368
 30
0.0
 40
100.0
  1
213
 41
0.8
  0
ENDBLK
  5
673F3
  8
0
  0
BLOCK
  8
0
  2
*U304
 70
     1
 10
0.0
 20
0.0
 30
0.0
  3
*U304
  1

  0
TEXT
  5
673F5
  8
S-OBRYS
  6
CONTINUOUS
 62
     7
 10
22065.31479869354
 20
401686.81287158368
 30
0.0
 40
100.0
  1
163
 41
0.8
  0
ENDBLK
  5
673F7
  8
0
  0
BLOCK
  8
0
  2
*U305
 70
     1
 10
0.0
 20
0.0
 30
0.0
  3
*U305
  1

  0
TEXT
  5
673F9
  8
S-OBRYS
  6
CONTINUOUS
 62
     7
 10
19355.50092965447
 20
397049.47386231582
 30
0.0
 40
100.0
  1
1290
 41
0.8
  0
ENDBLK
  5
673FB
  8
0
  0
BLOCK
  8
0
  2
*U306
 70
     1
 10
0.0
 20
0.0
 30
0.0
  3
*U306
  1

  0
TEXT
  5
673FD
  8
S-OBRYS
  6
CONTINUOUS
 62
     7
 10
18518.698419033379
 20
397775.42951554031
 30
0.0
 40
100.0
  1
1000
 50
90.0
 41
0.8
  0
ENDBLK
  5
673FF
  8
0
  0
BLOCK
  8
0
  2
*U307
 70
     1
 10
0.0
 20
0.0
 30
0.0
  3
*U307
  1

  0
TEXT
  5
67401
  8
S-OBRYS
  6
CONTINUOUS
 62
     7
 10
20442.04111541545
 20
397794.23903934972
 30
0.0
 40
100.0
  1
950
 50
90.0
 41
0.8
  0
ENDBLK
  5
67403
  8
0
  0
BLOCK
  8
0
  2
*U308
 70
     1
 10
0.0
 20
0.0
 30
0.0
  3
*U308
  1

  0
TEXT
  5
67405
  8
S-OBRYS
  6
CONTINUOUS
 62
     7
 10
19608.50092965447
 20
405629.94555959431
 30
0.0
 40
100.0
  1
1216
 41
0.8
  0
ENDBLK
  5
67407
  8
0
  0
BLOCK
  8
0
  2
*U309
 70
     1
 10
0.0
 20
0.0
 30
0.0
  3
*U309
  1

  0
TEXT
  5
67409
  8
S-OBRYS
  6
CONTINUOUS
 62
     7
 10
20693.7936737327
 20
404144.23903934972
 30
0.0
 40
100.0
  1
350
 50
90.0
 41
0.8
  0
ENDBLK
  5
6740B
  8
0
  0
BLOCK
  8
0
  2
*U310
 70
     1
 10
0.0
 20
0.0
 30
0.0
  3
*U310
  1

  0
TEXT
  5
6740D
  8
S-OBRYS
  6
CONTINUOUS
 62
     7
 10
18914.31361446614
 20
404560.64380125463
 30
0.0
 40
100.0
  1
479
 50
90.0
 41
0.8
  0
ENDBLK
  5
6740F
  8
0
  0
BLOCK
  8
0
  2
*U311
 70
     1
 10
0.0
 20
0.0
 30
0.0
  3
*U311
  1

  0
TEXT
  5
67411
  8
S-OBRYS
  6
CONTINUOUS
 62
     7
 10
21167.529084407819
 20
398555.7990787715
 30
0.0
 40
100.0
  1
272
 41
0.8
  0
ENDBLK
  5
67413
  8
0
  0
BLOCK
  8
0
  2
*U312
 70
     1
 10
0.0
 20
0.0
 30
0.0
  3
*U312
  1

  0
TEXT
  5
67415
  8
S-OBRYS
  6
CONTINUOUS
 62
     7
 10
19399.310453464001
 20
397256.31025329541
 30
0.0
 40
100.0
  1
710
 41
0.8
  0
ENDBLK
  5
67417
  8
0
  0
BLOCK
  8
0
  2
*U313
 70
     1
 10
0.0
 20
0.0
 30
0.0
  3
*U313
  1

  0
TEXT
  5
67419
  8
S-OBRYS
  6
CONTINUOUS
 62
     7
 10
22070.814798693529
 20
405599.93444060039
 30
0.0
 40
100.0
  1
174
 41
0.8
  0
ENDBLK
  5
6741B
  8
0
  0
BLOCK
  8
0
  2
*U314
 70
     1
 10
0.0
 20
0.0
 30
0.0
  3
*U314
  1

  0
TEXT
  5
6741D
  8
S-OBRYS
  6
CONTINUOUS
 62
     7
 10
25549.27996347471
 20
401699.31936380989
 30
0.0
 40
100.0
  1
174
 50
90.0
 41
0.8
  0
ENDBLK
  5
6741F
  8
0
  0
BLOCK
  8
0
  2
*U315
 70
     1
 10
0.0
 20
0.0
 30
0.0
  3
*U315
  1

  0
TEXT
  5
67421
  8
S-OBRYS
  6
CONTINUOUS
 62
     7
 10
24303.79675518646
 20
401923.07429579488
 30
0.0
 40
100.0
  1
1216
 41
0.8
  0
ENDBLK
  5
67423
  8
0
  0
BLOCK
  8
0
  2
*U316
 70
     1
 10
0.0
 20
0.0
 30
0.0
  3
*U316
  1

  0
TEXT
  5
67425
  8
S-OBRYS
  6
CONTINUOUS
 62
     7
 10
24301.37343745014
 20
405599.93444060039
 30
0.0
 40
100.0
  1
\U+2205400
 41
0.8
  0
ENDBLK
  5
67427
  8
0
  0
BLOCK
  8
0
  2
*U317
 70
     1
 10
0.0
 20
0.0
 30
0.0
  3
*U317
  1

  0
TEXT
  5
67429
  8
S-OBRYS
  6
CONTINUOUS
 62
     7
 10
23490.68818576694
 20
404612.73719150427
 30
0.0
 40
100.0
  1
1379
 50
90.0
 41
0.8
  0
ENDBLK
  5
6742B
  8
0
  0
BLOCK
  8
0
  2
*U318
 70
     1
 10
0.0
 20
0.0
 30
0.0
  3
*U318
  1

  0
TEXT
  5
6742D
  8
S-OBRYS
  6
CONTINUOUS
 62
     7
 10
25703.867439093261
 20
403535.61045962281
 30
0.0
 40
100.0
  1
\U+2205152
 41
0.8
  0
ENDBLK
  5
6742F
  8
0
  0
BLOCK
  8
0
  2
*U319
 70
     1
 10
0.0
 20
0.0
 30
0.0
  3
*U319
  1

  0
TEXT
  5
67431
  8
S-OBRYS
  6
CONTINUOUS
 62
     7
 10
23762.098719774978
 20
404411.4376969132
 30
0.0
 40
100.0
  1
919
 50
90.0
 41
0.8
  0
ENDBLK
  5
67433
  8
0
  0
BLOCK
  8
0
  2
*U320
 70
     1
 10
0.0
 20
0.0
 30
0.0
  3
*U320
  1

  0
TEXT
  5
67435
  8
S-OBRYS
  6
CONTINUOUS
 62
     7
 10
24956.938867664681
 20
403310.46254176687
 30
0.0
 40
100.0
  1
861
 41
0.8
  0
ENDBLK
  5
67437
  8
0
  0
BLOCK
  8
0
  2
*U321
 70
     1
 10
0.0
 20
0.0
 30
0.0
  3
*U321
  1

  0
TEXT
  5
67439
  8
S-OBRYS
  6
CONTINUOUS
 62
     7
 10
21637.127214275912
 20
397037.66056356532
 30
0.0
 40
100.0
  1
278
 41
0.8
  0
ENDBLK
  5
6743B
  8
0
  0
BLOCK
  8
0
  2
*U322
 70
     1
 10
0.0
 20
0.0
 30
0.0
  3
*U322
  1

  0
TEXT
  5
6743D
  8
S-OBRYS
  6
CONTINUOUS
 62
     7
 10
18521.401760738481
 20
399281.14380125463
 30
0.0
 40
100.0
  1
2000
 50
90.0
 41
0.8
  0
ENDBLK
  5
6743F
  8
0
  0
BLOCK
  8
0
  2
*U323
 70
     1
 10
0.0
 20
0.0
 30
0.0
  3
*U323
  1

  0
TEXT
  5
67441
  8
S-OBRYS
  6
CONTINUOUS
 62
     7
 10
18521.591051219511
 20
401281.14380125463
 30
0.0
 40
100.0
  1
2000
 50
90.0
 41
0.8
  0
ENDBLK
  5
67443
  8
0
  0
BLOCK
  8
0
  2
*U324
 70
     1
 10
0.0
 20
0.0
 30
0.0
  3
*U324
  1

  0
TEXT
  5
67445
  8
S-OBRYS
  6
CONTINUOUS
 62
     7
 10
18524.177943229679
 20
403281.14380125451
 30
0.0
 40
100.0
  1
2000
 50
90.0
 41
0.8
  0
ENDBLK
  5
67447
  8
0
  0
BLOCK
  8
0
  2
*U325
 70
     1
 10
0.0
 20
0.0
 30
0.0
  3
*U325
  1

  0
TEXT
  5
67449
  8
S-OBRYS
  6
CONTINUOUS
 62
     7
 10
24750.206559378628
 20
398207.65558869822
 30
0.0
 40
100.0
  1
600
 41
0.8
  0
ENDBLK
  5
6744B
  8
0
  0
BLOCK
  8
0
  2
*U326
 70
     1
 10
0.0
 20
0.0
 30
0.0
  3
*U326
  1

  0
TEXT
  5
6744D
  8
S-OBRYS
  6
CONTINUOUS
 62
     7
 10
25522.585435736812
 20
399024.0396586748
 30
0.0
 40
100.0
  1
220
 50
90.0
 41
0.8
  0
ENDBLK
  5
6744F
  8
0
  0
BLOCK
  8
0
  2
*U327
 70
     1
 10
0.0
 20
0.0
 30
0.0
  3
*U327
  1

  0
TEXT
  5
67451
  8
S-OBRYS
  6
CONTINUOUS
 62
     7
 10
20442.04111541545
 20
397794.23903934972
 30
0.0
 40
100.0
  1
950
 50
90.0
 41
0.8
  0
ENDBLK
  5
67453
  8
0
  0
BLOCK
  8
0
  2
*U328
 70
     1
 10
0.0
 20
0.0
 30
0.0
  3
*U328
  1

  0
TEXT
  5
67455
  8
S-OBRYS
  6
CONTINUOUS
 62
     7
 10
-17296.782367239452
 20
404146.1987278926
 30
0.0
 40
100.0
  1
370
 50
90.0
 41
0.8
  0
ENDBLK
  5
67457
  8
0
  0
BLOCK
  8
0
  2
*U329
 70
     1
 10
0.0
 20
0.0
 30
0.0
  3
*U329
  1

  0
TEXT
  5
67459
  8
S-OBRYS
  6
CONTINUOUS
 62
     7
 10
-15886.19637288468
 20
406014.6224337187
 30
0.0
 40
100.0
  1
240
 41
0.8
  0
ENDBLK
  5
6745B
  8
0
  0
BLOCK
  8
0
  2
*U330
 70
     1
 10
0.0
 20
0.0
 30
0.0
  3
*U330
  1

  0
TEXT
  5
6745D
  8
S-OBRYS
  6
CONTINUOUS
 62
     7
 10
-18462.453087501359
 20
406013.95497984061
 30
0.0
 40
100.0
  1
1516
 41
0.8
  0
ENDBLK
  5
6745F
  8
0
  0
BLOCK
  8
0
  2
*U331
 70
     1
 10
0.0
 20
0.0
 30
0.0
  3
*U331
  1

  0
TEXT
  5
67461
  8
S-OBRYS
  6
CONTINUOUS
 62
     7
 10
-19498.736898222069
 20
404812.48444217828
 30
0.0
 40
100.0
  1
1084
 50
90.0
 41
0.8
  0
ENDBLK
  5
67463
  8
0
  0
BLOCK
  8
0
  2
*U332
 70
     1
 10
0.0
 20
0.0
 30
0.0
  3
*U332
  1

  0
TEXT
  5
67465
  8
S-OBRYS
  6
CONTINUOUS
 62
     7
 10
-19182.93789492728
 20
404561.29396598792
 30
0.0
 40
100.0
  1
494
 50
90.0
 41
0.8
  0
ENDBLK
  5
67467
  8
0
  0
BLOCK
  8
0
  2
*U333
 70
     1
 10
0.0
 20
0.0
 30
0.0
  3
*U333
  1

  0
TEXT
  5
67469
  8
S-OBRYS
  6
CONTINUOUS
 62
     7
 10
-12807.439225223319
 20
397925.73284422548
 30
0.0
 40
100.0
  1
800
 41
0.8
  0
ENDBLK
  5
6746B
  8
0
  0
BLOCK
  8
0
  2
*U334
 70
     1
 10
0.0
 20
0.0
 30
0.0
  3
*U334
  1

  0
TEXT
  5
6746D
  8
S-OBRYS
  6
CONTINUOUS
 62
     7
 10
-11923.26158503361
 20
398340.32136873831
 30
0.0
 40
100.0
  1
294
 50
90.0
 41
0.8
  0
ENDBLK
  5
6746F
  8
0
  0
BLOCK
  8
0
  2
*U335
 70
     1
 10
0.0
 20
0.0
 30
0.0
  3
*U335
  1

  0
TEXT
  5
67471
  8
S-OBRYS
  6
CONTINUOUS
 62
     7
 10
-12974.07145032727
 20
403709.88299084909
 30
0.0
 40
100.0
  1
1516
 41
0.8
  0
ENDBLK
  5
67473
  8
0
  0
BLOCK
  8
0
  2
*U336
 70
     1
 10
0.0
 20
0.0
 30
0.0
  3
*U336
  1

  0
TEXT
  5
67475
  8
S-OBRYS
  6
CONTINUOUS
 62
     7
 10
-18670.14356369185
 20
401071.39204112149
 30
0.0
 40
100.0
  1
407
 41
0.8
  0
ENDBLK
  5
67477
  8
0
  0
BLOCK
  8
0
  2
*U337
 70
     1
 10
0.0
 20
0.0
 30
0.0
  3
*U337
  1

  0
TEXT
  5
67479
  8
S-OBRYS
  6
CONTINUOUS
 62
     7
 10
-17935.786420834698
 20
401071.39204112161
 30
0.0
 40
100.0
  1
303
 41
0.8
  0
ENDBLK
  5
6747B
  8
0
  0
BLOCK
  8
0
  2
*U338
 70
     1
 10
0.0
 20
0.0
 30
0.0
  3
*U338
  1

  0
TEXT
  5
6747D
  8
S-OBRYS
  6
CONTINUOUS
 62
     7
 10
-18713.95308750137
 20
396877.44339779922
 30
0.0
 40
100.0
  1
1013
 41
0.8
  0
ENDBLK
  5
6747F
  8
0
  0
BLOCK
  8
0
  2
*U339
 70
     1
 10
0.0
 20
0.0
 30
0.0
  3
*U339
  1

  0
TEXT
  5
67481
  8
S-OBRYS
  6
CONTINUOUS
 62
     7
 10
-19498.736898222069
 20
397697.38920408313
 30
0.0
 40
100.0
  1
1180
 50
90.0
 41
0.8
  0
ENDBLK
  5
67483
  8
0
  0
BLOCK
  8
0
  2
*U340
 70
     1
 10
0.0
 20
0.0
 30
0.0
  3
*U340
  1

  0
TEXT
  5
67485
  8
S-OBRYS
  6
CONTINUOUS
 62
     7
 10
-19498.736898222069
 20
399293.10348979739
 30
0.0
 40
100.0
  1
2000
 50
90.0
 41
0.8
  0
ENDBLK
  5
67487
  8
0
  0
BLOCK
  8
0
  2
*U341
 70
     1
 10
0.0
 20
0.0
 30
0.0
  3
*U341
  1

  0
TEXT
  5
67489
  8
S-OBRYS
  6
CONTINUOUS
 62
     7
 10
-19498.736898222069
 20
401293.10348979739
 30
0.0
 40
100.0
  1
2000
 50
90.0
 41
0.8
  0
ENDBLK
  5
6748B
  8
0
  0
BLOCK
  8
0
  2
*U342
 70
     1
 10
0.0
 20
0.0
 30
0.0
  3
*U342
  1

  0
TEXT
  5
6748D
  8
S-OBRYS
  6
CONTINUOUS
 62
     7
 10
-19498.736898222069
 20
403279.88920408313
 30
0.0
 40
100.0
  1
1985
 50
90.0
 41
0.8
  0
ENDBLK
  5
6748F
  8
0
  0
BLOCK
  8
0
  2
*U343
 70
     1
 10
0.0
 20
0.0
 30
0.0
  3
*U343
  1

  0
TEXT
  5
67491
  8
S-OBRYS
  6
CONTINUOUS
 62
     7
 10
-15889.69637288468
 20
401059.35201443348
 30
0.0
 40
100.0
  1
233
 41
0.8
  0
ENDBLK
  5
67493
  8
0
  0
BLOCK
  8
0
  2
*U344
 70
     1
 10
0.0
 20
0.0
 30
0.0
  3
*U344
  1

  0
TEXT
  5
67495
  8
S-OBRYS
  6
CONTINUOUS
 62
     7
 10
-15650.211591327859
 20
404461.15110884502
 30
0.0
 40
100.0
  1
\U+220550
 50
90.0
 41
0.8
  0
ENDBLK
  5
67497
  8
0
  0
BLOCK
  8
0
  2
*U345
 70
     1
 10
0.0
 20
0.0
 30
0.0
  3
*U345
  1

  0
TEXT
  5
67499
  8
S-OBRYS
  6
CONTINUOUS
 62
     7
 10
-16334.05351574182
 20
396893.71452534839
 30
0.0
 40
100.0
  1
352
 41
0.8
  0
ENDBLK
  5
6749B
  8
0
  0
BLOCK
  8
0
  2
*U346
 70
     1
 10
0.0
 20
0.0
 30
0.0
  3
*U346
  1

  0
TEXT
  5
6749D
  8
S-OBRYS
  6
CONTINUOUS
 62
     7
 10
-11833.126084199001
 20
401235.53959981352
 30
0.0
 40
100.0
  1
240
 50
90.0
 41
0.8
  0
ENDBLK
  5
6749F
  8
0
  0
ENDSEC
  0
SECTION
  2
ENTITIES
  0
TEXT
  5
2F7A5
  8
KOTY
 10
-393803.77638965531
 20
-299016.15321175661
 30
0.0
 40
150.0
  1

 41
0.7
  7
ROMANT
  0
TEXT
  5
3AD8B
  8
KOTY
 10
-14797.18019204357
 20
454294.55370899959
 30
0.0
 40
150.0
  1

 41
0.7
  7
ROMANT
  0
TEXT
  5
404AD
  8
KOTY
 10
44010.2314385153
 20
465617.23741859582
 30
0.0
 40
92.0
  1

 41
0.7
  7
CYRILLIC
  0
TEXT
  5
404B4
  8
KOTY
 10
39575.071591094718
 20
465613.29777162091
 30
0.0
 40
92.0
  1

 41
0.7
  7
CYRILLIC
  0
TEXT
  5
40B14
  8
KOTY
 10
5856.0590664841584
 20
486921.1132385282
 30
0.0
 40
150.0
  1

 41
0.7
  7
ROMANT
  0
TEXT
  5
40BFC
  8
KOTY
 10
8767.7265956277752
 20
466337.2608060218
 30
0.0
 40
150.0
  1

 41
0.7
  7
ROMANS
  0
TEXT
  5
51A7C
  8
KOTY
 10
-47677.341387967608
 20
395133.71812193602
 30
0.0
 40
150.0
  1

 41
0.7
  7
ROMANS
  0
TEXT
  5
51A94
  8
KOTY
 10
-45176.819295693742
 20
395133.7181219359
 30
0.0
 40
150.0
  1

 41
0.7
  7
ROMANS
  0
TEXT
  5
51A9B
  8
KOTY
 10
-48084.423320344351
 20
397411.27855615731
 30
0.0
 40
150.0
  1

 41
0.7
  7
ROMANT
  0
TEXT
  5
51B05
  8
RAZ
 62
     6
 10
-47365.887544580757
 20
392999.37567832542
 30
0.0
 40
193.54103193599991
  1

 41
0.8
  7
R08
  0
TEXT
  5
51B06
  8
RAZ
 62
     1
 10
-47245.037660778231
 20
393401.77274166199
 30
0.0
 40
125.41458869452801
  1

  7
ROMANS
  0
TEXT
  5
58307
  8
KOTY
 10
22966.528519463162
 20
383405.87475258159
 30
0.0
 40
150.0
  1

 41
0.7
  7
ROMANS
  0
TEXT
  5
58308
  8
KOTY
 10
22966.528519463169
 20
383855.87475258159
 30
0.0
 40
150.0
  1

 41
0.7
  7
ROMANS
  0
TEXT
  5
58315
  8
KOTY
 10
25467.050611737021
 20
383855.87475258141
 30
0.0
 40
150.0
  1

 41
0.7
  7
ROMANS
  0
TEXT
  5
58316
  8
KOTY
 10
25467.050611737021
 20
383405.87475258141
 30
0.0
 40
150.0
  1

 41
0.7
  7
ROMANS
  0
TEXT
  5
5833F
  8
KOTY
 10
22966.528519463162
 20
385205.87475258153
 30
0.0
 40
150.0
  1

 41
0.7
  7
ROMANS
  0
TEXT
  5
58340
  8
KOTY
 10
22966.528519463169
 20
385655.87475258159
 30
0.0
 40
150.0
  1

 41
0.7
  7
ROMANS
  0
TEXT
  5
58354
  8
KOTY
 10
25467.050611737021
 20
385655.87475258141
 30
0.0
 40
150.0
  1

 41
0.7
  7
ROMANS
  0
TEXT
  5
58355
  8
KOTY
 10
25467.050611737021
 20
385205.87475258141
 30
0.0
 40
150.0
  1

 41
0.7
  7
ROMANS
  0
TEXT
  5
58397
  8
KOTY
 10
25467.050611737039
 20
390605.87475258129
 30
0.0
 40
150.0
  1

 41
0.7
  7
ROMANS
  0
TEXT
  5
58398
  8
KOTY
 10
25467.050611737039
 20
391055.87475258141
 30
0.0
 40
150.0
  1

 41
0.7
  7
ROMANS
  0
TEXT
  5
583C1
  8
KOTY
 10
25467.050611737031
 20
389255.87475258141
 30
0.0
 40
150.0
  1

 41
0.7
  7
ROMANS
  0
TEXT
  5
58C84
  8
KOTY
 10
22966.52851946322
 20
387905.87475258153
 30
0.0
 40
150.0
  1

 41
0.7
  7
ROMANS
  0
LINE
  5
5B584
  8
S-OBRYS
  6
CONTINUOUS
 10
3761.3336284104562
 20
393402.81400089961
 30
0.0
 11
14261.333628410461
 21
393402.81400089961
 31
0.0
  0
LINE
  5
5B585
  8
S-OBRYS
  6
CONTINUOUS
 10
14261.333628410461
 20
393402.81400089961
 30
0.0
 11
14261.333628410461
 21
408252.81400089961
 31
0.0
  0
LINE
  5
5B586
  8
S-OBRYS
  6
CONTINUOUS
 10
14261.333628410461
 20
408252.81400089961
 30
0.0
 11
3761.3336284104589
 21
408252.81400089961
 31
0.0
  0
LINE
  5
5B587
  8
S-OBRYS
  6
CONTINUOUS
 10
3761.3336284104589
 20
408252.81400089961
 30
0.0
 11
3761.3336284104562
 21
393402.81400089961
 31
0.0
  0
INSERT
  5
63D6B
  8
S-OBRYS
  6
CONTINUOUS
  2
*U204
 10
0.0
 20
0.0
 30
0.0
  0
DIMENSION
  5
6401D
  8
S-OBRYS
  6
CONTINUOUS
  2
*D55
 10
7575.2290381267567
 20
397024.47386231582
 30
0.0
 11
6930.2290381267549
 21
397099.47386231582
 31
0.0
 70
     0
 13
6285.229038126753
 23
398383.52475363557
 33
0.0
 14
7575.2290381267567
 24
398383.52475363557
 34
0.0
  0
DIMENSION
  5
6401E
  8
S-OBRYS
  6
CONTINUOUS
  2
*D56
 10
5960.3312894104902
 20
398433.52475363552
 30
0.0
 11
5885.3312894104256
 21
397933.52475363557
 31
0.0
 70
     0
 13
6575.2290381267567
 23
397433.52475363552
 33
0.0
 14
6575.2290381267567
 24
398433.52475363552
 34
0.0
 50
90.0
  0
DIMENSION
  5
6401F
  8
S-OBRYS
  6
CONTINUOUS
  2
*D57
 10
7883.6739857925559
 20
398383.52475363557
 30
0.0
 11
7808.673985792494
 21
397908.52475363552
 31
0.0
 70
     0
 13
7285.2290381267539
 23
397433.52475363552
 33
0.0
 14
7575.2290381267567
 24
398383.52475363557
 34
0.0
 50
90.0
  0
DIMENSION
  5
64020
  8
S-OBRYS
  6
CONTINUOUS
  2
*D58
 10
7791.2290381267539
 20
405604.9455595942
 30
0.0
 11
7183.2290381267549
 21
405679.94555959431
 31
0.0
 70
     0
 13
6575.2290381267567
 23
404912.52475363552
 33
0.0
 14
7791.2290381267539
 24
404912.52475363552
 34
0.0
  0
DIMENSION
  5
64021
  8
S-OBRYS
  6
CONTINUOUS
  2
*D59
 10
8135.4265441098032
 20
404433.52475363552
 30
0.0
 11
8060.4265441097377
 21
404258.52475363552
 31
0.0
 70
     0
 13
7791.2290381267539
 23
404083.52475363552
 33
0.0
 14
7791.2290381267539
 24
404433.52475363552
 34
0.0
 50
90.0
  0
DIMENSION
  5
64022
  8
S-OBRYS
  6
CONTINUOUS
  2
*D60
 10
6355.9464848432472
 20
404912.52475363552
 30
0.0
 11
6280.9464848431808
 21
404673.02475363552
 31
0.0
 70
     0
 13
6575.2290381267567
 23
404433.52475363552
 33
0.0
 14
6575.2290381267567
 24
404912.52475363552
 34
0.0
 50
90.0
  0
DIMENSION
  5
64023
  8
S-OBRYS
  6
CONTINUOUS
  2
*D61
 10
9198.3048119277155
 20
398530.7990787715
 30
0.0
 11
8698.4476690705724
 21
398530.7990787715
 31
0.0
 70
   128
 13
8926.3048119277155
 23
397945.46505504608
 33
0.0
 14
9198.3048119277155
 24
398140.26918939839
 34
0.0
  0
DIMENSION
  5
64024
  8
S-OBRYS
  6
CONTINUOUS
  2
*D62
 10
7285.2290381267539
 20
397231.31025329529
 30
0.0
 11
6930.2290381267549
 21
397306.31025329529
 31
0.0
 70
     0
 13
6575.2290381267567
 23
397433.52475363552
 33
0.0
 14
7285.2290381267539
 24
397433.52475363552
 34
0.0
  0
DIMENSION
  5
64025
  8
S-OBRYS
  6
CONTINUOUS
  2
*D63
 10
9285.3048119277155
 20
405574.93444060051
 30
0.0
 11
9609.3524309753338
 21
405649.93444060051
 31
0.0
 70
     0
 13
9111.3048119277173
 23
405324.46505504602
 33
0.0
 14
9285.3048119277155
 24
405324.46505504602
 34
0.0
  0
DIMENSION
  5
64026
  8
S-OBRYS
  6
CONTINUOUS
  2
*D64
 10
12990.91283385182
 20
401497.17650666711
 30
0.0
 11
12915.912833851749
 21
401821.22412571468
 31
0.0
 70
     0
 13
12486.52486365874
 23
401323.17650666699
 33
0.0
 14
12486.52486365874
 24
401497.17650666711
 34
0.0
 50
90.0
  0
DIMENSION
  5
64027
  8
S-OBRYS
  6
CONTINUOUS
  2
*D65
 10
12486.52486365874
 20
401898.07429579488
 30
0.0
 11
11878.52486365874
 21
401898.07429579488
 31
0.0
 70
   128
 13
11270.52486365874
 23
401497.17650666711
 33
0.0
 14
12486.52486365874
 24
401497.17650666711
 34
0.0
  0
DIMENSION
  5
6402A
  8
S-OBRYS
  6
CONTINUOUS
  2
*D66
 10
12068.48249830338
 20
405574.93444060051
 30
0.0
 11
11868.48249830338
 21
405649.93444060051
 31
0.0
 70
     0
  1
%%c<>
 13
11668.48249830338
 23
405443.34179543162
 33
0.0
 14
12068.48249830338
 24
405443.34179543162
 34
0.0
  0
DIMENSION
  5
6402B
  8
S-OBRYS
  6
CONTINUOUS
  2
*D67
 10
10932.32105614405
 20
405443.34179543162
 30
0.0
 11
10932.321056143979
 21
404768.92766769481
 31
0.0
 70
   128
 13
11690.928880898869
 23
404064.34179543162
 33
0.0
 14
11656.857143153649
 24
405443.34179543162
 34
0.0
 50
90.0
  0
DIMENSION
  5
6402C
  8
S-OBRYS
  6
CONTINUOUS
  2
*D68
 10
12906.928880898869
 20
403510.61045962293
 30
0.0
 11
13270.976499946481
 21
403585.61045962293
 31
0.0
 70
     0
  1
%%c<>
 13
12754.928880898869
 23
403714.34179543168
 33
0.0
 14
12906.928880898869
 24
403714.34179543168
 34
0.0
  0
DIMENSION
  5
6402D
  8
S-OBRYS
  6
CONTINUOUS
  2
*D69
 10
11203.731590152091
 20
404983.29550315673
 30
0.0
 11
11128.731590152031
 21
404523.8186492942
 31
0.0
 70
     0
  1
919
 13
11690.928880898869
 23
404064.34179543162
 33
0.0
 14
12091.966305737409
 24
404983.29550315673
 34
0.0
 50
90.0
  0
DIMENSION
  5
6402E
  8
S-OBRYS
  6
CONTINUOUS
  2
*D70
 10
12045.928880898869
 20
403285.46254176687
 30
0.0
 11
12476.428880898869
 21
403360.46254176687
 31
0.0
 70
     0
 13
12906.928880898869
 23
403714.34179543168
 33
0.0
 14
12045.928880898869
 24
404064.34179543162
 34
0.0
  0
DIMENSION
  5
6402F
  8
S-OBRYS
  6
CONTINUOUS
  2
*D71
 10
9337.3048119277155
 20
397012.66056356532
 30
0.0
 11
9168.0457989386632
 21
397012.66056356532
 31
0.0
 70
   128
 13
9059.3048119277155
 23
397405.46505504608
 33
0.0
 14
9337.3048119277155
 24
397405.46505504608
 34
0.0
  0
DIMENSION
  5
64030
  8
S-OBRYS
  6
CONTINUOUS
  2
*D72
 10
5963.0346311155809
 20
400433.52475363557
 30
0.0
 11
5888.0346311155163
 21
399433.52475363552
 31
0.0
 70
     0
 13
6572.2290381267576
 23
398433.52475363552
 33
0.0
 14
6543.7290381267594
 24
400433.52475363557
 34
0.0
 50
90.0
  0
DIMENSION
  5
64031
  8
S-OBRYS
  6
CONTINUOUS
  2
*D73
 10
5963.2239215966183
 20
402433.52475363552
 30
0.0
 11
5888.2239215965537
 21
401433.52475363552
 31
0.0
 70
     0
 13
6543.7290381267594
 23
400433.52475363557
 33
0.0
 14
6543.7290381267594
 24
402433.52475363552
 34
0.0
 50
90.0
  0
DIMENSION
  5
64032
  8
S-OBRYS
  6
CONTINUOUS
  2
*D74
 10
5965.8108136067904
 20
404433.52475363552
 30
0.0
 11
5890.810813606724
 21
403433.52475363552
 31
0.0
 70
     0
 13
6543.7290381267594
 23
402433.52475363552
 33
0.0
 14
6572.2290381267576
 24
404433.52475363552
 34
0.0
 50
90.0
  0
INSERT
  5
64033
  8
S-OBRYS
  6
CONTINUOUS
  2
*U206
 10
0.0
 20
0.0
 30
0.0
  0
LINE
  5
64034
  8
S-OBRYS
  6
CONTINUOUS
 10
11983.029905946139
 20
398647.35555085808
 30
0.0
 11
11983.029905946139
 21
398533.58090934862
 31
0.0
  0
LINE
  5
64035
  8
S-OBRYS
  6
CONTINUOUS
 10
11926.142585191399
 20
398590.46823010338
 30
0.0
 11
12039.91722670088
 21
398590.46823010338
 31
0.0
  0
CIRCLE
  5
64036
  8
S-OBRYS
  6
CONTINUOUS
 10
11983.029905946139
 20
398590.46823010338
 30
0.0
 40
7.0
  0
LINE
  5
64037
  8
S-OBRYS
  6
CONTINUOUS
 10
12526.142585191399
 20
398590.46823010338
 30
0.0
 11
12639.91722670088
 21
398590.46823010338
 31
0.0
  0
LINE
  5
64038
  8
S-OBRYS
  6
CONTINUOUS
 10
12583.02990594615
 20
398647.35555085808
 30
0.0
 11
12583.02990594615
 21
398533.58090934862
 31
0.0
  0
CIRCLE
  5
64039
  8
S-OBRYS
  6
CONTINUOUS
 10
12583.02990594615
 20
398590.46823010338
 30
0.0
 40
7.0
  0
LINE
  5
6403A
  8
S-OBRYS
  6
CONTINUOUS
 10
11926.142585191399
 20
398810.46823010338
 30
0.0
 11
12039.91722670088
 21
398810.46823010338
 31
0.0
  0
LINE
  5
6403B
  8
S-OBRYS
  6
CONTINUOUS
 10
11983.029905946139
 20
398867.35555085819
 30
0.0
 11
11983.029905946139
 21
398753.58090934868
 31
0.0
  0
CIRCLE
  5
6403C
  8
S-OBRYS
  6
CONTINUOUS
 10
11983.029905946139
 20
398810.46823010338
 30
0.0
 40
7.0
  0
CIRCLE
  5
6403D
  8
S-OBRYS
  6
CONTINUOUS
 10
12583.02990594615
 20
398810.46823010338
 30
0.0
 40
7.0
  0
LINE
  5
6403E
  8
S-OBRYS
  6
CONTINUOUS
 10
12526.142585191399
 20
398810.46823010338
 30
0.0
 11
12639.91722670088
 21
398810.46823010338
 31
0.0
  0
LINE
  5
6403F
  8
S-OBRYS
  6
CONTINUOUS
 10
12583.02990594615
 20
398867.35555085819
 30
0.0
 11
12583.02990594615
 21
398753.58090934868
 31
0.0
  0
DIMENSION
  5
64040
  8
S-OBRYS
  6
CONTINUOUS
  2
*D75
 10
12583.02990594615
 20
398182.65558869822
 30
0.0
 11
12283.02990594615
 21
398257.65558869822
 31
0.0
 70
     0
 13
11983.029905946139
 23
398533.58090934862
 33
0.0
 14
12583.02990594615
 24
398533.58090934862
 34
0.0
  0
DIMENSION
  5
64041
  8
S-OBRYS
  6
CONTINUOUS
  2
*D76
 10
12964.218306113909
 20
398810.46823010338
 30
0.0
 11
12889.218306113849
 21
399138.32537296048
 31
0.0
 70
     0
 13
12639.91722670088
 23
398590.46823010338
 33
0.0
 14
12639.91722670088
 24
398810.46823010338
 34
0.0
 50
90.0
  0
INSERT
  5
64042
  8
S-OBRYS
  6
CONTINUOUS
  2
*U207
 10
0.0
 20
0.0
 30
0.0
  0
INSERT
  5
64043
  8
S-OBRYS
  6
CONTINUOUS
  2
*U208
 10
0.0
 20
0.0
 30
0.0
  0
LINE
  5
642A4
  8
S-OBRYS
  6
CONTINUOUS
 10
6678.7290381267621
 20
398433.52475363552
 30
0.0
 11
6678.729038126753
 21
404433.52475363552
 31
0.0
  0
LINE
  5
642A5
  8
S-OBRYS
  6
CONTINUOUS
 10
7181.729038126753
 20
398433.52475363552
 30
0.0
 11
7181.7290381267612
 21
404433.52475363552
 31
0.0
  0
LINE
  5
642A6
  8
S-OBRYS
  6
CONTINUOUS
 10
7288.2290381267576
 20
400463.52475363552
 30
0.0
 11
7288.2290381267576
 21
402403.52475363552
 31
0.0
  0
LINE
  5
642A7
  8
S-OBRYS
  6
CONTINUOUS
 10
7075.2290381267567
 20
400463.52475363552
 30
0.0
 11
7075.2290381267567
 21
402403.52475363552
 31
0.0
  0
LINE
  5
642A8
  8
S-OBRYS
  6
CONTINUOUS
 10
6785.2290381267567
 20
400463.52475363552
 30
0.0
 11
6785.2290381267567
 21
402403.52475363552
 31
0.0
  0
LINE
  5
642A9
  8
S-OBRYS
  6
CONTINUOUS
 10
6572.2290381267576
 20
400463.52475363552
 30
0.0
 11
6572.2290381267576
 21
402403.52475363552
 31
0.0
  0
LINE
  5
642AA
  8
S-OBRYS
  6
CONTINUOUS
 10
6285.2290381267521
 20
398383.52475363557
 30
0.0
 11
6575.2290381267558
 21
398383.52475363557
 31
0.0
  0
LINE
  5
642AB
  8
S-OBRYS
  6
CONTINUOUS
 10
6285.2290381267521
 20
398383.52475363557
 30
0.0
 11
6575.2290381267558
 21
397923.52475363552
 31
0.0
  0
DIMENSION
  5
642AC
  8
S-OBRYS
  6
CONTINUOUS
  2
*D77
 10
7883.6739857925559
 20
398383.52475363557
 30
0.0
 11
7808.673985792494
 21
397908.52475363552
 31
0.0
 70
     0
 13
7285.2290381267521
 23
397433.52475363552
 33
0.0
 14
7575.2290381267558
 24
398383.52475363557
 34
0.0
 50
90.0
  0
LINE
  5
642AD
  8
S-OBRYS
  6
CONTINUOUS
 10
7288.2290381267576
 20
398433.52475363552
 30
0.0
 11
7288.2290381267576
 21
400403.52475363552
 31
0.0
  0
LINE
  5
642AE
  8
S-OBRYS
  6
CONTINUOUS
 10
7075.2290381267567
 20
398433.52475363552
 30
0.0
 11
7075.2290381267567
 21
400403.52475363552
 31
0.0
  0
LINE
  5
642AF
  8
S-OBRYS
  6
CONTINUOUS
 10
6572.2290381267576
 20
398433.52475363552
 30
0.0
 11
6572.2290381267576
 21
400403.52475363552
 31
0.0
  0
LINE
  5
642B0
  8
S-OBRYS
  6
CONTINUOUS
 10
6785.2290381267567
 20
398433.52475363552
 30
0.0
 11
6785.2290381267567
 21
400403.52475363552
 31
0.0
  0
LINE
  5
642B1
  8
S-OBRYS
  6
CONTINUOUS
 10
7072.2290381267576
 20
398463.52475363552
 30
0.0
 11
7285.2290381267594
 21
398463.52475363552
 31
0.0
  0
LINE
  5
642B2
  8
S-OBRYS
  6
CONTINUOUS
 10
7285.2290381267594
 20
397633.52475363557
 30
0.0
 11
7085.2290381267594
 21
397433.52475363552
 31
0.0
  0
POLYLINE
  5
642B3
  8
S-OBRYS
  6
CONTINUOUS
 66
     1
 10
0.0
 20
0.0
 30
0.0
 70
     1
  0
VERTEX
  5
67250
  8
S-OBRYS
  6
CONTINUOUS
 10
7055.2290381267576
 20
397719.55702117458
 30
0.0
  0
VERTEX
  5
67251
  8
S-OBRYS
  6
CONTINUOUS
 10
7055.2290381267576
 20
398349.55702117458
 30
0.0
  0
VERTEX
  5
67252
  8
S-OBRYS
  6
CONTINUOUS
 10
7235.2290381267521
 20
398349.55702117458
 30
0.0
  0
VERTEX
  5
67253
  8
S-OBRYS
  6
CONTINUOUS
 10
7235.2290381267521
 20
397719.55702117458
 30
0.0
  0
SEQEND
  5
67254
  8
S-OBRYS
  6
CONTINUOUS
  0
LINE
  5
642B4
  8
S-OBRYS
  6
CONTINUOUS
 10
7288.2290381267576
 20
398433.52475363552
 30
0.0
 11
6572.2290381267576
 21
398433.52475363552
 31
0.0
  0
LINE
  5
642B5
  8
S-OBRYS
  6
CONTINUOUS
 10
7285.2290381267521
 20
397433.52475363552
 30
0.0
 11
6575.2290381267558
 21
397433.52475363552
 31
0.0
  0
POLYLINE
  5
642B6
  8
S-OBRYS
  6
CONTINUOUS
 66
     1
 10
0.0
 20
0.0
 30
0.0
 70
     1
  0
VERTEX
  5
67255
  8
S-OBRYS
  6
CONTINUOUS
 10
7090.2290381267594
 20
397754.55702117458
 30
0.0
  0
VERTEX
  5
67256
  8
S-OBRYS
  6
CONTINUOUS
 10
7090.2290381267594
 20
398314.55702117458
 30
0.0
  0
VERTEX
  5
67257
  8
S-OBRYS
  6
CONTINUOUS
 10
7200.2290381267494
 20
398314.55702117458
 30
0.0
  0
VERTEX
  5
67258
  8
S-OBRYS
  6
CONTINUOUS
 10
7200.2290381267494
 20
397754.55702117458
 30
0.0
  0
SEQEND
  5
67259
  8
S-OBRYS
  6
CONTINUOUS
  0
CIRCLE
  5
642B7
  8
S-OBRYS
  6
CONTINUOUS
 10
6930.2290381267576
 20
397893.52475363552
 30
0.0
 40
56.575717345868952
  0
CIRCLE
  5
642B8
  8
S-OBRYS
  6
CONTINUOUS
 10
6930.2290381267576
 20
397893.52475363552
 30
0.0
 40
202.53748612397089
  0
LINE
  5
642B9
  8
S-OBRYS
  6
CONTINUOUS
 10
6930.2290381267576
 20
397433.52475363552
 30
0.0
 11
6930.2290381267576
 21
398606.05564428988
 31
0.0
  0
LINE
  5
642BA
  8
S-OBRYS
  6
CONTINUOUS
 10
6992.4790381267576
 20
397433.52475363552
 30
0.0
 11
6992.4790381267576
 21
398433.52475363552
 31
0.0
  0
LINE
  5
642BB
  8
S-OBRYS
  6
CONTINUOUS
 10
6867.9790381267558
 20
397433.52475363552
 30
0.0
 11
6867.9790381267558
 21
398433.52475363552
 31
0.0
  0
LINE
  5
642BC
  8
S-OBRYS
  6
CONTINUOUS
 10
6575.2290381267558
 20
397433.52475363552
 30
0.0
 11
6575.2290381267558
 21
398433.52475363552
 31
0.0
  0
POLYLINE
  5
642BD
  8
S-OBRYS
  6
CONTINUOUS
 66
     1
 10
0.0
 20
0.0
 30
0.0
 70
     1
  0
VERTEX
  5
6725A
  8
S-OBRYS
  6
CONTINUOUS
 10
6770.2290381267539
 20
397754.55702117458
 30
0.0
  0
VERTEX
  5
6725B
  8
S-OBRYS
  6
CONTINUOUS
 10
6770.2290381267539
 20
398314.55702117458
 30
0.0
  0
VERTEX
  5
6725C
  8
S-OBRYS
  6
CONTINUOUS
 10
6660.229038126764
 20
398314.55702117458
 30
0.0
  0
VERTEX
  5
6725D
  8
S-OBRYS
  6
CONTINUOUS
 10
6660.229038126764
 20
397754.55702117458
 30
0.0
  0
SEQEND
  5
6725E
  8
S-OBRYS
  6
CONTINUOUS
  0
POLYLINE
  5
642BE
  8
S-OBRYS
  6
CONTINUOUS
 66
     1
 10
0.0
 20
0.0
 30
0.0
 70
     1
  0
VERTEX
  5
6725F
  8
S-OBRYS
  6
CONTINUOUS
 10
6805.2290381267576
 20
397719.55702117458
 30
0.0
  0
VERTEX
  5
67260
  8
S-OBRYS
  6
CONTINUOUS
 10
6805.2290381267576
 20
398349.55702117458
 30
0.0
  0
VERTEX
  5
67261
  8
S-OBRYS
  6
CONTINUOUS
 10
6625.2290381267612
 20
398349.55702117458
 30
0.0
  0
VERTEX
  5
67262
  8
S-OBRYS
  6
CONTINUOUS
 10
6625.2290381267612
 20
397719.55702117458
 30
0.0
  0
SEQEND
  5
67263
  8
S-OBRYS
  6
CONTINUOUS
  0
LINE
  5
642BF
  8
S-OBRYS
  6
CONTINUOUS
 10
6725.2290381267549
 20
397893.52475363552
 30
0.0
 11
7125.2290381267558
 21
397893.52475363552
 31
0.0
  0
LINE
  5
642C0
  8
S-OBRYS
  6
CONTINUOUS
 10
6575.2290381267558
 20
397633.52475363557
 30
0.0
 11
6775.2290381267558
 21
397433.52475363552
 31
0.0
  0
LINE
  5
642C1
  8
S-OBRYS
  6
CONTINUOUS
 10
6572.2290381267576
 20
398463.52475363552
 30
0.0
 11
6785.2290381267567
 21
398463.52475363552
 31
0.0
  0
LINE
  5
642C2
  8
S-OBRYS
  6
CONTINUOUS
 10
7285.2290381267521
 20
397433.52475363552
 30
0.0
 11
7285.2290381267521
 21
398433.52475363552
 31
0.0
  0
LINE
  5
642C3
  8
S-OBRYS
  6
CONTINUOUS
 10
7575.2290381267558
 20
398383.52475363557
 30
0.0
 11
7285.2290381267521
 21
397923.52475363552
 31
0.0
  0
LINE
  5
642C4
  8
S-OBRYS
  6
CONTINUOUS
 10
7575.2290381267558
 20
398383.52475363557
 30
0.0
 11
7285.2290381267521
 21
398383.52475363557
 31
0.0
  0
LINE
  5
642C5
  8
S-OBRYS
  6
CONTINUOUS
 10
7046.7290381267567
 20
400463.52475363552
 30
0.0
 11
7316.7290381267558
 21
400463.52475363552
 31
0.0
  0
LINE
  5
642C6
  8
S-OBRYS
  6
CONTINUOUS
 10
7046.7290381267567
 20
400403.52475363552
 30
0.0
 11
7316.7290381267558
 21
400403.52475363552
 31
0.0
  0
LINE
  5
642C7
  8
S-OBRYS
  6
CONTINUOUS
 10
6813.7290381267558
 20
400463.52475363552
 30
0.0
 11
6543.7290381267567
 21
400463.52475363552
 31
0.0
  0
LINE
  5
642C8
  8
S-OBRYS
  6
CONTINUOUS
 10
6813.7290381267558
 20
400403.52475363552
 30
0.0
 11
6543.7290381267567
 21
400403.52475363552
 31
0.0
  0
LINE
  5
642C9
  8
S-OBRYS
  6
CONTINUOUS
 10
6543.7290381267567
 20
400403.52475363552
 30
0.0
 11
6543.7290381267567
 21
400463.52475363552
 31
0.0
  0
LINE
  5
642CA
  8
S-OBRYS
  6
CONTINUOUS
 10
6813.7290381267558
 20
400403.52475363552
 30
0.0
 11
6813.7290381267558
 21
400463.52475363552
 31
0.0
  0
LINE
  5
642CB
  8
S-OBRYS
  6
CONTINUOUS
 10
7046.7290381267567
 20
400403.52475363552
 30
0.0
 11
7046.7290381267567
 21
400463.52475363552
 31
0.0
  0
LINE
  5
642CC
  8
S-OBRYS
  6
CONTINUOUS
 10
7316.7290381267558
 20
400403.52475363552
 30
0.0
 11
7316.7290381267558
 21
400463.52475363552
 31
0.0
  0
ARC
  5
642CD
  8
S-OBRYS
  6
CONTINUOUS
 10
7000.5963914411886
 20
404929.6564012125
 30
0.0
 40
425.7122016273774
 50
100.4062271932124
 51
182.30633800327391
  0
LINE
  5
642CE
  8
S-OBRYS
  6
CONTINUOUS
 10
6572.2290381267558
 20
403858.25026747171
 30
0.0
 11
6572.2290381267558
 21
404463.52475363552
 31
0.0
  0
LINE
  5
642CF
  8
S-OBRYS
  6
CONTINUOUS
 10
7288.2290381267576
 20
403858.25026747171
 30
0.0
 11
7288.2290381267576
 21
404433.52475363552
 31
0.0
  0
LINE
  5
642D0
  8
S-OBRYS
  6
CONTINUOUS
 10
6690.2290381267576
 20
404912.52475363552
 30
0.0
 11
6780.8798647425047
 21
403942.56680215831
 31
0.0
  0
LINE
  5
642D1
  8
S-OBRYS
  6
CONTINUOUS
 10
7170.2290381267567
 20
404912.52475363552
 30
0.0
 11
7079.5782115110096
 21
403942.56680215831
 31
0.0
  0
LINE
  5
642D2
  8
S-OBRYS
  6
CONTINUOUS
 10
6930.2290381267576
 20
405152.52475363552
 30
0.0
 11
6930.2290381267576
 21
403806.52475363552
 31
0.0
  0
LINE
  5
642D3
  8
S-OBRYS
  6
CONTINUOUS
 10
7639.2290381267558
 20
404155.58679201943
 30
0.0
 11
7639.2290381267558
 21
404083.52475363552
 31
0.0
  0
LINE
  5
642D4
  8
S-OBRYS
  6
CONTINUOUS
 10
7715.2290381267539
 20
403989.29788501101
 30
0.0
 11
7715.2290381267539
 21
404284.98646444263
 31
0.0
  0
LINE
  5
642D5
  8
S-OBRYS
  6
CONTINUOUS
 10
7791.2290381267539
 20
404083.52475363552
 30
0.0
 11
7791.2290381267539
 21
404912.52475363552
 31
0.0
  0
LINE
  5
642D6
  8
S-OBRYS
  6
CONTINUOUS
 10
6533.7732679790206
 20
403833.25026747171
 30
0.0
 11
7326.6848082744937
 21
403833.25026747183
 31
0.0
  0
LINE
  5
642D7
  8
S-OBRYS
  6
CONTINUOUS
 10
7326.6848082744937
 20
403817.83351265499
 30
0.0
 11
6987.3669386420042
 21
403817.83351265499
 31
0.0
  0
LINE
  5
642D8
  8
S-OBRYS
  6
CONTINUOUS
 10
7326.6848082744937
 20
403848.66702228843
 30
0.0
 11
7034.4725501006978
 21
403848.66702228843
 31
0.0
  0
LINE
  5
642D9
  8
S-OBRYS
  6
CONTINUOUS
 10
7326.6848082744937
 20
403808.25026747183
 30
0.0
 11
6952.9155264593473
 21
403808.25026747183
 31
0.0
  0
LINE
  5
642DA
  8
S-OBRYS
  6
CONTINUOUS
 10
7326.6848082744937
 20
403858.25026747171
 30
0.0
 11
7043.552139784113
 21
403858.25026747171
 31
0.0
  0
LINE
  5
642DB
  8
S-OBRYS
  6
CONTINUOUS
 10
7046.7290381267567
 20
402463.5247536354
 30
0.0
 11
7316.7290381267558
 21
402463.5247536354
 31
0.0
  0
LINE
  5
642DC
  8
S-OBRYS
  6
CONTINUOUS
 10
7046.7290381267567
 20
402403.52475363552
 30
0.0
 11
7316.7290381267558
 21
402403.52475363552
 31
0.0
  0
LINE
  5
642DD
  8
S-OBRYS
  6
CONTINUOUS
 10
7075.2290381267567
 20
402463.5247536354
 30
0.0
 11
7075.2290381267567
 21
403808.25026747183
 31
0.0
  0
LINE
  5
642DE
  8
S-OBRYS
  6
CONTINUOUS
 10
6785.2290381267567
 20
402463.5247536354
 30
0.0
 11
6785.2290381267567
 21
403808.25026747183
 31
0.0
  0
LINE
  5
642DF
  8
S-OBRYS
  6
CONTINUOUS
 10
6572.2290381267576
 20
402463.5247536354
 30
0.0
 11
6572.2290381267558
 21
403808.25026747183
 31
0.0
  0
LINE
  5
642E0
  8
S-OBRYS
  6
CONTINUOUS
 10
6813.7290381267558
 20
402463.5247536354
 30
0.0
 11
6543.7290381267567
 21
402463.5247536354
 31
0.0
  0
LINE
  5
642E1
  8
S-OBRYS
  6
CONTINUOUS
 10
6813.7290381267558
 20
402403.52475363552
 30
0.0
 11
6543.7290381267567
 21
402403.52475363552
 31
0.0
  0
LINE
  5
642E2
  8
S-OBRYS
  6
CONTINUOUS
 10
6543.7290381267567
 20
402403.52475363552
 30
0.0
 11
6543.7290381267567
 21
402463.5247536354
 31
0.0
  0
LINE
  5
642E3
  8
S-OBRYS
  6
CONTINUOUS
 10
6813.7290381267558
 20
402403.52475363552
 30
0.0
 11
6813.7290381267558
 21
402463.5247536354
 31
0.0
  0
LINE
  5
642E4
  8
S-OBRYS
  6
CONTINUOUS
 10
7046.7290381267567
 20
402403.52475363552
 30
0.0
 11
7046.7290381267567
 21
402463.5247536354
 31
0.0
  0
LINE
  5
642E5
  8
S-OBRYS
  6
CONTINUOUS
 10
6873.0911376115118
 20
403817.83351265499
 30
0.0
 11
6533.7732679790206
 21
403817.83351265499
 31
0.0
  0
LINE
  5
642E6
  8
S-OBRYS
  6
CONTINUOUS
 10
6907.5425497941678
 20
403808.25026747183
 30
0.0
 11
6533.7732679790206
 21
403808.25026747183
 31
0.0
  0
LINE
  5
642E7
  8
S-OBRYS
  6
CONTINUOUS
 10
6779.5753753702111
 20
403956.52475363552
 30
0.0
 11
7080.8827008833041
 21
403956.52475363552
 31
0.0
  0
ARC
  5
642E8
  8
S-OBRYS
  6
CONTINUOUS
 10
6930.2290381267576
 20
403956.52475363552
 30
0.0
 40
150.0
 50
185.33926905539559
 51
354.66073094460438
  0
LINE
  5
642E9
  8
S-OBRYS
  6
CONTINUOUS
 10
6825.9855261528164
 20
403848.66702228843
 30
0.0
 11
6533.7732679790206
 21
403848.66702228843
 31
0.0
  0
LINE
  5
642EA
  8
S-OBRYS
  6
CONTINUOUS
 10
6816.9059364694003
 20
403858.25026747171
 30
0.0
 11
6533.7732679790206
 21
403858.25026747171
 31
0.0
  0
LINE
  5
642EB
  8
S-OBRYS
  6
CONTINUOUS
 10
6554.5893336019799
 20
403821.5330731406
 30
0.0
 11
6554.5893336019799
 21
403844.96746180282
 31
0.0
  0
CIRCLE
  5
642EC
  8
S-OBRYS
  6
CONTINUOUS
 10
6554.5893336019799
 20
403833.25026747171
 30
0.0
 40
7.4447018357286652
  0
LINE
  5
642ED
  8
S-OBRYS
  6
CONTINUOUS
 10
6533.7732679790206
 20
403858.25026747171
 30
0.0
 11
6533.7732679790206
 21
403808.25026747183
 31
0.0
  0
LINE
  5
642EE
  8
S-OBRYS
  6
CONTINUOUS
 10
6785.2290381267567
 20
403858.25026747171
 30
0.0
 11
6785.2290381267567
 21
403918.11902489618
 31
0.0
  0
CIRCLE
  5
642EF
  8
S-OBRYS
  6
CONTINUOUS
 10
6802.8687426515271
 20
403833.25026747171
 30
0.0
 40
7.4447018357286652
  0
LINE
  5
642F0
  8
S-OBRYS
  6
CONTINUOUS
 10
6802.8687426515271
 20
403821.5330731406
 30
0.0
 11
6802.8687426515271
 21
403844.96746180282
 31
0.0
  0
CIRCLE
  5
642F1
  8
S-OBRYS
  6
CONTINUOUS
 10
6930.2290381267576
 20
403956.52475363552
 30
0.0
 40
72.88455930679811
  0
LINE
  5
642F2
  8
S-OBRYS
  6
CONTINUOUS
 10
7075.2290381267567
 20
403858.25026747171
 30
0.0
 11
7075.2290381267567
 21
403918.11902489618
 31
0.0
  0
LINE
  5
642F3
  8
S-OBRYS
  6
CONTINUOUS
 10
7057.5893336019863
 20
403821.5330731406
 30
0.0
 11
7057.5893336019863
 21
403844.96746180282
 31
0.0
  0
CIRCLE
  5
642F4
  8
S-OBRYS
  6
CONTINUOUS
 10
7057.5893336019863
 20
403833.25026747171
 30
0.0
 40
7.4447018357286652
  0
LINE
  5
642F5
  8
S-OBRYS
  6
CONTINUOUS
 10
7288.2290381267576
 20
402463.5247536354
 30
0.0
 11
7288.2290381267576
 21
403808.25026747183
 31
0.0
  0
LINE
  5
642F6
  8
S-OBRYS
  6
CONTINUOUS
 10
7316.7290381267558
 20
402403.52475363552
 30
0.0
 11
7316.7290381267558
 21
402463.5247536354
 31
0.0
  0
LINE
  5
642F7
  8
S-OBRYS
  6
CONTINUOUS
 10
7326.6848082744937
 20
403858.25026747171
 30
0.0
 11
7326.6848082744937
 21
403808.25026747183
 31
0.0
  0
LINE
  5
642F8
  8
S-OBRYS
  6
CONTINUOUS
 10
7305.8687426515353
 20
403821.5330731406
 30
0.0
 11
7305.8687426515353
 21
403844.96746180282
 31
0.0
  0
CIRCLE
  5
642F9
  8
S-OBRYS
  6
CONTINUOUS
 10
7305.8687426515353
 20
403833.25026747171
 30
0.0
 40
7.4447018357286652
  0
LINE
  5
642FA
  8
S-OBRYS
  6
CONTINUOUS
 10
7791.2290381267539
 20
404083.52475363552
 30
0.0
 11
7639.2290381267558
 21
404083.52475363552
 31
0.0
  0
ARC
  5
642FB
  8
S-OBRYS
  6
CONTINUOUS
 10
7007.8581686642819
 20
404081.71851081308
 30
0.0
 40
1270.9405329282999
 50
81.917626751853334
 51
89.034131851603149
  0
LINE
  5
642FC
  8
S-OBRYS
  6
CONTINUOUS
 10
7791.2290381267539
 20
404912.52475363552
 30
0.0
 11
7170.2290381267567
 21
404912.52475363552
 31
0.0
  0
LINE
  5
642FD
  8
S-OBRYS
  6
CONTINUOUS
 10
7286.7290381267567
 20
404399.37968410918
 30
0.0
 11
7122.2712636113583
 21
404399.37968410918
 31
0.0
  0
LINE
  5
642FE
  8
S-OBRYS
  6
CONTINUOUS
 10
7791.2290381267539
 20
404433.52475363552
 30
0.0
 11
7125.4624109932693
 21
404433.52475363552
 31
0.0
  0
ARC
  5
642FF
  8
S-OBRYS
  6
CONTINUOUS
 10
6930.2290381267576
 20
404912.52475363552
 30
0.0
 40
240.0
 50
0.0
 51
180.0
  0
LINE
  5
64300
  8
S-OBRYS
  6
CONTINUOUS
 10
6930.2290381267576
 20
404223.40578918572
 30
0.0
 11
6930.2290381267576
 21
405352.52475363552
 31
0.0
  0
CIRCLE
  5
64301
  8
S-OBRYS
  6
CONTINUOUS
 10
6930.2290381267576
 20
404912.52475363552
 30
0.0
 40
202.53748612397089
  0
LINE
  5
64302
  8
S-OBRYS
  6
CONTINUOUS
 10
6690.2290381267576
 20
404912.52475363552
 30
0.0
 11
7170.2290381267567
 21
404912.52475363552
 31
0.0
  0
LINE
  5
64303
  8
S-OBRYS
  6
CONTINUOUS
 10
6575.2290381267558
 20
404433.52475363552
 30
0.0
 11
6575.2290381267558
 21
404912.52475363552
 31
0.0
  0
LINE
  5
64304
  8
S-OBRYS
  6
CONTINUOUS
 10
6734.9956652602459
 20
404433.52475363552
 30
0.0
 11
6572.2290381267576
 21
404433.52475363552
 31
0.0
  0
LINE
  5
64305
  8
S-OBRYS
  6
CONTINUOUS
 10
6738.1868126421559
 20
404399.37968410918
 30
0.0
 11
6572.2290381267576
 21
404399.37968410918
 31
0.0
  0
ARC
  5
64306
  8
S-OBRYS
  6
CONTINUOUS
 10
6575.2290381267558
 20
404461.52475363552
 30
0.0
 40
3.0
 50
90.0
 51
180.0
  0
LINE
  5
64307
  8
S-OBRYS
  6
CONTINUOUS
 10
6575.2290381267558
 20
404464.52475363552
 30
0.0
 11
6575.2290381267558
 21
404433.52475363552
 31
0.0
  0
LINE
  5
64308
  8
S-OBRYS
  6
CONTINUOUS
 10
6572.2290381267558
 20
404461.52475363552
 30
0.0
 11
6572.2290381267558
 21
404440.52475363557
 31
0.0
  0
LINE
  5
64309
  8
S-OBRYS
  6
CONTINUOUS
 10
6545.8249008847024
 20
404433.52475363552
 30
0.0
 11
6575.2290381267558
 21
404433.52475363552
 31
0.0
  0
ARC
  5
6430A
  8
S-OBRYS
  6
CONTINUOUS
 10
6569.2290381267549
 20
404440.52475363557
 30
0.0
 40
3.0
 50
270.0
 51
0.0
  0
LINE
  5
6430B
  8
S-OBRYS
  6
CONTINUOUS
 10
6548.8249008847024
 20
404437.52475363552
 30
0.0
 11
6569.2290381267549
 21
404437.52475363552
 31
0.0
  0
LINE
  5
6430C
  8
S-OBRYS
  6
CONTINUOUS
 10
6545.8249008847024
 20
404433.52475363552
 30
0.0
 11
6545.8249008847024
 21
404434.5247536354
 31
0.0
  0
ARC
  5
6430D
  8
S-OBRYS
  6
CONTINUOUS
 10
6548.8249008847024
 20
404434.5247536354
 30
0.0
 40
3.0
 50
90.0
 51
180.0
  0
LINE
  5
6430E
  8
S-OBRYS
  6
CONTINUOUS
 10
6690.2290381267576
 20
404912.52475363552
 30
0.0
 11
6575.2290381267558
 21
404912.52475363552
 31
0.0
  0
LINE
  5
6430F
  8
S-OBRYS
  6
CONTINUOUS
 10
6968.8581916351823
 20
405352.47846136062
 30
0.0
 11
7029.2821347851377
 21
405352.47846136062
 31
0.0
  0
ARC
  5
64310
  8
S-OBRYS
  6
CONTINUOUS
 10
6968.8581916351823
 20
405102.47846136062
 30
0.0
 40
250.0
 50
90.0
 51
100.4062271932124
  0
LINE
  5
64311
  8
S-OBRYS
  6
CONTINUOUS
 10
7773.7341678424054
 20
405008.92772775661
 30
0.0
 11
7788.230593547677
 21
404960.62531680922
 31
0.0
  0
LINE
  5
64312
  8
S-OBRYS
  6
CONTINUOUS
 10
7638.061511993059
 20
404596.2001974688
 30
0.0
 11
7401.4790600196384
 21
404596.2001974688
 31
0.0
  0
LINE
  5
64313
  8
S-OBRYS
  6
CONTINUOUS
 10
7638.061511993059
 20
404772.67264088959
 30
0.0
 11
7401.4790600196384
 21
404772.67264088959
 31
0.0
  0
POLYLINE
  5
64314
  8
S-OBRYS
  6
CONTINUOUS
 66
     1
 10
0.0
 20
0.0
 30
0.0
 70
     1
  0
VERTEX
  5
67264
  8
S-OBRYS
  6
CONTINUOUS
 10
7387.5905248980789
 20
404581.89162097522
 30
0.0
  0
VERTEX
  5
67265
  8
S-OBRYS
  6
CONTINUOUS
 10
7651.9500471146193
 20
404581.89162097522
 30
0.0
  0
VERTEX
  5
67266
  8
S-OBRYS
  6
CONTINUOUS
 10
7651.9500471146193
 20
404786.98121738317
 30
0.0
  0
VERTEX
  5
67267
  8
S-OBRYS
  6
CONTINUOUS
 10
7387.5905248980789
 20
404786.98121738317
 30
0.0
  0
SEQEND
  5
67268
  8
S-OBRYS
  6
CONTINUOUS
  0
LINE
  5
64315
  8
S-OBRYS
  6
CONTINUOUS
 10
7347.1297712184642
 20
404684.4364191792
 30
0.0
 11
7684.9446995818616
 21
404684.4364191792
 31
0.0
  0
LINE
  5
64316
  8
S-OBRYS
  6
CONTINUOUS
 10
7352.900026389203
 20
404433.52475363552
 30
0.0
 11
7715.2290381267539
 21
404155.58679201943
 31
0.0
  0
LINE
  5
64317
  8
S-OBRYS
  6
CONTINUOUS
 10
7352.900026389203
 20
404433.52475363552
 30
0.0
 11
7639.2290381267558
 21
404155.58679201943
 31
0.0
  0
LINE
  5
64318
  8
S-OBRYS
  6
CONTINUOUS
 10
7401.4790600196384
 20
404772.67264088959
 30
0.0
 11
7401.4790600196384
 21
404596.2001974688
 31
0.0
  0
LINE
  5
64319
  8
S-OBRYS
  6
CONTINUOUS
 10
7519.7702860063473
 20
404821.76881724049
 30
0.0
 11
7519.7702860063473
 21
404559.99961922161
 31
0.0
  0
LINE
  5
6431A
  8
S-OBRYS
  6
CONTINUOUS
 10
7791.2290381267539
 20
404155.58679201943
 30
0.0
 11
7639.2290381267558
 21
404155.58679201943
 31
0.0
  0
LINE
  5
6431B
  8
S-OBRYS
  6
CONTINUOUS
 10
7715.2290381267539
 20
404155.58679201943
 30
0.0
 11
7791.2290381267539
 21
404433.52475363552
 31
0.0
  0
ARC
  5
6431C
  8
S-OBRYS
  6
CONTINUOUS
 10
7792.229038126753
 20
404459.92889087758
 30
0.0
 40
3.0
 50
0.0
 51
90.0
  0
LINE
  5
6431D
  8
S-OBRYS
  6
CONTINUOUS
 10
7791.2290381267539
 20
404462.92889087752
 30
0.0
 11
7792.229038126753
 21
404462.92889087752
 31
0.0
  0
LINE
  5
6431E
  8
S-OBRYS
  6
CONTINUOUS
 10
7795.229038126753
 20
404459.92889087758
 30
0.0
 11
7795.229038126753
 21
404439.52475363552
 31
0.0
  0
ARC
  5
6431F
  8
S-OBRYS
  6
CONTINUOUS
 10
7798.2290381267521
 20
404439.52475363552
 30
0.0
 40
3.0
 50
180.0
 51
270.0
  0
ARC
  5
64320
  8
S-OBRYS
  6
CONTINUOUS
 10
7819.229038126753
 20
404433.52475363552
 30
0.0
 40
3.0
 50
0.0
 51
90.0
  0
LINE
  5
64321
  8
S-OBRYS
  6
CONTINUOUS
 10
7822.229038126753
 20
404433.52475363552
 30
0.0
 11
7791.2290381267539
 21
404433.52475363552
 31
0.0
  0
LINE
  5
64322
  8
S-OBRYS
  6
CONTINUOUS
 10
7819.229038126753
 20
404436.52475363552
 30
0.0
 11
7798.229038126753
 21
404436.52475363552
 31
0.0
  0
LINE
  5
64323
  8
S-OBRYS
  6
CONTINUOUS
 10
7791.2290381267539
 20
404462.92889087752
 30
0.0
 11
7791.2290381267539
 21
404433.52475363552
 31
0.0
  0
LINE
  5
64324
  8
S-OBRYS
  6
CONTINUOUS
 10
7638.061511993059
 20
404772.67264088959
 30
0.0
 11
7638.061511993059
 21
404596.2001974688
 31
0.0
  0
LINE
  5
64325
  8
S-OBRYS
  6
CONTINUOUS
 10
7788.230593547677
 20
404960.62531680922
 30
0.0
 11
7791.2290381267521
 21
404912.52475363552
 31
0.0
  0
ARC
  5
64326
  8
S-OBRYS
  6
CONTINUOUS
 10
7212.0279945420216
 20
404650.17748002539
 30
0.0
 40
671.68204900912224
 50
39.13528410196669
 51
73.406553180392322
  0
ARC
  5
64327
  8
S-OBRYS
  6
CONTINUOUS
 10
7041.6386026606042
 20
404123.00566764991
 30
0.0
 40
1225.6257733044531
 50
72.810760402604544
 51
83.209858715878909
  0
ARC
  5
64328
  8
S-OBRYS
  6
CONTINUOUS
 10
7643.741380561074
 20
404986.62653951941
 30
0.0
 40
125.0
 50
25.246185935823611
 51
44.417685751756707
  0
LINE
  5
64329
  8
S-OBRYS
  6
CONTINUOUS
 10
7756.80182296988
 20
405039.94010591973
 30
0.0
 11
7761.1173916620837
 21
405030.7882119735
 31
0.0
  0
LINE
  5
6432A
  8
S-OBRYS
  6
CONTINUOUS
 10
7761.1173916620801
 20
405030.7882119735
 30
0.0
 11
7773.7341678424054
 21
405008.92772775661
 31
0.0
  0
DIMENSION
  5
6440D
  8
S-OBRYS
  6
CONTINUOUS
  2
*D78
 10
5965.8108136067904
 20
404433.52475363552
 30
0.0
 11
5890.810813606724
 21
404893.02475363552
 31
0.0
 70
     0
 13
6930.2290381267576
 23
405352.52475363552
 33
0.0
 14
6575.2290381267558
 24
404433.52475363552
 34
0.0
 50
90.0
  0
DIMENSION
  5
6441A
  8
S-OBRYS
  6
CONTINUOUS
  2
*D79
 10
9774.6880139026616
 20
404881.40606084687
 30
0.0
 11
9699.688013902598
 21
404555.45367989439
 31
0.0
 70
     0
  1
%%c50
 13
9435.2697106896449
 23
404931.40606084687
 33
0.0
 14
9435.2697106896449
 24
404881.40606084687
 34
0.0
 50
90.0
  0
LINE
  5
64448
  8
S-OBRYS
  6
CONTINUOUS
 10
11270.52486365874
 20
401410.17650666699
 30
0.0
 11
12486.52486365874
 21
401410.17650666699
 31
0.0
  0
LINE
  5
64449
  8
S-OBRYS
  6
CONTINUOUS
 10
12486.52486365874
 20
401323.17650666699
 30
0.0
 11
11270.52486365874
 21
401323.17650666699
 31
0.0
  0
LINE
  5
6444A
  8
S-OBRYS
  6
CONTINUOUS
 10
12486.52486365874
 20
401497.17650666711
 30
0.0
 11
11270.52486365874
 21
401497.17650666711
 31
0.0
  0
LINE
  5
6444B
  8
S-OBRYS
  6
CONTINUOUS
 10
11534.75837177496
 20
401537.0316805662
 30
0.0
 11
11543.57837177496
 21
401546.7816805662
 31
0.0
  0
LINE
  5
6444C
  8
S-OBRYS
  6
CONTINUOUS
 10
11534.75837177496
 20
401537.0316805662
 30
0.0
 11
11702.878371774959
 21
401537.0316805662
 31
0.0
  0
LINE
  5
6444D
  8
S-OBRYS
  6
CONTINUOUS
 10
11460.985456838611
 20
401187.79614286643
 30
0.0
 11
11593.81837177496
 21
401187.79614286643
 31
0.0
  0
LINE
  5
6444E
  8
S-OBRYS
  6
CONTINUOUS
 10
11372.111879891179
 20
401053.21160790499
 30
0.0
 11
11852.111879891179
 21
401053.21160790499
 31
0.0
  0
LINE
  5
6444F
  8
S-OBRYS
  6
CONTINUOUS
 10
11372.111879891179
 20
401173.2116079051
 30
0.0
 11
11852.111879891179
 21
401173.2116079051
 31
0.0
  0
LINE
  5
64450
  8
S-OBRYS
  6
CONTINUOUS
 10
11473.81837177496
 20
401497.17650666711
 30
0.0
 11
11473.81837177496
 21
401323.17650666699
 31
0.0
  0
LINE
  5
64451
  8
S-OBRYS
  6
CONTINUOUS
 10
11367.318371774971
 20
401323.17650666699
 30
0.0
 11
11367.318371774971
 21
401497.17650666711
 31
0.0
  0
LINE
  5
64452
  8
S-OBRYS
  6
CONTINUOUS
 10
11270.52486365874
 20
401323.17650666699
 30
0.0
 11
11270.52486365874
 21
401497.17650666711
 31
0.0
  0
LINE
  5
64453
  8
S-OBRYS
  6
CONTINUOUS
 10
11460.985456838611
 20
401187.79614286643
 30
0.0
 11
11460.985456838611
 21
401323.17650666699
 31
0.0
  0
LINE
  5
64454
  8
S-OBRYS
  6
CONTINUOUS
 10
11372.111879891179
 20
401173.2116079051
 30
0.0
 11
11372.111879891179
 21
401053.21160790499
 31
0.0
  0
LINE
  5
64455
  8
S-OBRYS
  6
CONTINUOUS
 10
11529.80047160824
 20
401497.17650666711
 30
0.0
 11
11534.75837177496
 21
401537.0316805662
 31
0.0
  0
LINE
  5
64456
  8
S-OBRYS
  6
CONTINUOUS
 10
11763.81837177496
 20
401497.17650666711
 30
0.0
 11
11763.81837177496
 21
401323.17650666699
 31
0.0
  0
LINE
  5
64457
  8
S-OBRYS
  6
CONTINUOUS
 10
11870.318371774951
 20
401323.17650666699
 30
0.0
 11
11870.318371774951
 21
401497.17650666711
 31
0.0
  0
LINE
  5
64458
  8
S-OBRYS
  6
CONTINUOUS
 10
11618.81837177496
 20
401033.2116079051
 30
0.0
 11
11618.81837177496
 21
401529.33214660839
 31
0.0
  0
LINE
  5
64459
  8
S-OBRYS
  6
CONTINUOUS
 10
11776.651286711311
 20
401187.79614286643
 30
0.0
 11
11643.81837177496
 21
401187.79614286643
 31
0.0
  0
LINE
  5
6445A
  8
S-OBRYS
  6
CONTINUOUS
 10
11587.784570760279
 20
401323.17650666699
 30
0.0
 11
11587.784570760279
 21
401195.5235020041
 31
0.0
  0
LINE
  5
6445B
  8
S-OBRYS
  6
CONTINUOUS
 10
11648.528752369621
 20
401323.17650666699
 30
0.0
 11
11648.528752369621
 21
401195.5235020041
 31
0.0
  0
LINE
  5
6445C
  8
S-OBRYS
  6
CONTINUOUS
 10
11587.784570760279
 20
401195.5235020041
 30
0.0
 11
11648.528752369621
 21
401195.5235020041
 31
0.0
  0
LINE
  5
6445D
  8
S-OBRYS
  6
CONTINUOUS
 10
11593.81837177496
 20
401173.2116079051
 30
0.0
 11
11593.81837177496
 21
401195.5235020041
 31
0.0
  0
LINE
  5
6445E
  8
S-OBRYS
  6
CONTINUOUS
 10
11643.81837177496
 20
401173.2116079051
 30
0.0
 11
11643.81837177496
 21
401195.5235020041
 31
0.0
  0
LINE
  5
6445F
  8
S-OBRYS
  6
CONTINUOUS
 10
11776.651286711311
 20
401187.79614286643
 30
0.0
 11
11776.651286711311
 21
401323.17650666699
 31
0.0
  0
LINE
  5
64460
  8
S-OBRYS
  6
CONTINUOUS
 10
11852.111879891179
 20
401173.2116079051
 30
0.0
 11
11852.111879891179
 21
401053.21160790499
 31
0.0
  0
LINE
  5
64461
  8
S-OBRYS
  6
CONTINUOUS
 10
11707.83627194168
 20
401497.17650666711
 30
0.0
 11
11702.878371774959
 21
401537.0316805662
 31
0.0
  0
LINE
  5
64462
  8
S-OBRYS
  6
CONTINUOUS
 10
11543.57837177496
 20
401546.7816805662
 30
0.0
 11
11694.05837177496
 21
401546.7816805662
 31
0.0
  0
LINE
  5
64463
  8
S-OBRYS
  6
CONTINUOUS
 10
11702.878371774959
 20
401537.0316805662
 30
0.0
 11
11694.05837177496
 21
401546.7816805662
 31
0.0
  0
LINE
  5
64464
  8
S-OBRYS
  6
CONTINUOUS
 10
11976.81837177496
 20
401497.17650666711
 30
0.0
 11
11976.81837177496
 21
401323.17650666699
 31
0.0
  0
LINE
  5
64465
  8
S-OBRYS
  6
CONTINUOUS
 10
12486.52486365874
 20
401323.17650666699
 30
0.0
 11
12486.52486365874
 21
401497.17650666711
 31
0.0
  0
DIMENSION
  5
6448E
  8
S-OBRYS
  6
CONTINUOUS
  2
*D80
 10
7075.2290381267567
 20
401661.81287158403
 30
0.0
 11
6930.2290381267576
 21
401736.81287158403
 31
0.0
 70
     0
 13
6785.2290381267567
 23
401649.38063864427
 33
0.0
 14
7075.2290381267567
 24
401649.38063864422
 34
0.0
  0
DIMENSION
  5
6449B
  8
S-OBRYS
  6
CONTINUOUS
  2
*D81
 10
7288.2290381267567
 20
401661.8128715838
 30
0.0
 11
7616.0861809838998
 21
401736.8128715838
 31
0.0
 70
     0
 13
7075.2290381267567
 23
401661.81287158391
 33
0.0
 14
7288.2290381267567
 24
401661.8128715838
 34
0.0
  0
DIMENSION
  5
644AA
  8
S-OBRYS
  6
CONTINUOUS
  2
*D82
 10
9279.8048119277155
 20
401661.8128715838
 30
0.0
 11
9601.9476690705742
 21
401736.8128715838
 31
0.0
 70
     0
 13
9116.8048119277155
 23
401661.8128715838
 33
0.0
 14
9279.8048119277155
 24
401661.8128715838
 34
0.0
  0
LINE
  5
644B9
  8
S-OBRYS
  6
CONTINUOUS
 10
9198.30481192773
 20
404130.46505504602
 30
0.0
 11
9285.3048119277155
 21
404405.46505504602
 31
0.0
  0
LINE
  5
644BA
  8
S-OBRYS
  6
CONTINUOUS
 10
9122.3048119277319
 20
404130.46505504602
 30
0.0
 11
9274.3048119277319
 21
404130.46505504602
 31
0.0
  0
LINE
  5
644BB
  8
S-OBRYS
  6
CONTINUOUS
 10
9122.3048119277228
 20
404055.46505504602
 30
0.0
 11
9274.3048119277246
 21
404055.46505504602
 31
0.0
  0
LINE
  5
644BC
  8
S-OBRYS
  6
CONTINUOUS
 10
9074.058393519379
 20
403802.42773938208
 30
0.0
 11
9327.1289126100764
 21
403802.42773938208
 31
0.0
  0
LINE
  5
644BD
  8
S-OBRYS
  6
CONTINUOUS
 10
9074.4368342026846
 20
403925.70222554583
 30
0.0
 11
9575.2697106896449
 21
403925.70222554583
 31
0.0
  0
LINE
  5
644BE
  8
S-OBRYS
  6
CONTINUOUS
 10
8983.6518072647013
 20
404906.40606084681
 30
0.0
 11
9575.2697106896449
 21
404906.40606084681
 31
0.0
  0
LINE
  5
644BF
  8
S-OBRYS
  6
CONTINUOUS
 10
9285.3048119277155
 20
405324.46505504602
 30
0.0
 11
9111.3048119277173
 21
405324.46505504602
 31
0.0
  0
LINE
  5
644C0
  8
S-OBRYS
  6
CONTINUOUS
 10
9285.3048119277155
 20
404405.46505504602
 30
0.0
 11
9111.3048119277137
 21
404405.46505504602
 31
0.0
  0
LINE
  5
644C1
  8
S-OBRYS
  6
CONTINUOUS
 10
9122.3048119277319
 20
404130.46505504602
 30
0.0
 11
9122.3048119277319
 21
404055.46505504602
 31
0.0
  0
LINE
  5
644C2
  8
S-OBRYS
  6
CONTINUOUS
 10
9084.1868342026883
 20
403841.64222554577
 30
0.0
 11
9074.4368342026846
 21
403850.4622255459
 31
0.0
  0
LINE
  5
644C3
  8
S-OBRYS
  6
CONTINUOUS
 10
9084.1868342026883
 20
404009.76222554583
 30
0.0
 11
9084.1868342026883
 21
403841.64222554577
 31
0.0
  0
LINE
  5
644C4
  8
S-OBRYS
  6
CONTINUOUS
 10
9116.8048119277155
 20
403837.58461742668
 30
0.0
 11
9084.1868342026883
 21
403841.64222554577
 31
0.0
  0
ARC
  5
644C5
  8
S-OBRYS
  6
CONTINUOUS
 10
9088.8048119277155
 20
403778.42773938208
 30
0.0
 40
3.0
 50
90.0
 51
180.0
  0
LINE
  5
644C6
  8
S-OBRYS
  6
CONTINUOUS
 10
9085.8048119277155
 20
403777.42773938208
 30
0.0
 11
9085.8048119277155
 21
403778.42773938208
 31
0.0
  0
LINE
  5
644C7
  8
S-OBRYS
  6
CONTINUOUS
 10
9088.8048119277155
 20
403781.42773938208
 30
0.0
 11
9109.2089491697698
 21
403781.42773938208
 31
0.0
  0
ARC
  5
644C8
  8
S-OBRYS
  6
CONTINUOUS
 10
9109.2089491697698
 20
403784.4277393822
 30
0.0
 40
3.0
 50
270.0
 51
0.0
  0
LINE
  5
644C9
  8
S-OBRYS
  6
CONTINUOUS
 10
9085.8048119277155
 20
403777.42773938208
 30
0.0
 11
9116.8048119277155
 21
403777.42773938208
 31
0.0
  0
LINE
  5
644CA
  8
S-OBRYS
  6
CONTINUOUS
 10
9116.8048119277155
 20
403827.4277393822
 30
0.0
 11
9116.8048119277155
 21
403777.42773938208
 31
0.0
  0
LINE
  5
644CB
  8
S-OBRYS
  6
CONTINUOUS
 10
9112.2089491697698
 20
403820.4277393822
 30
0.0
 11
9112.2089491697698
 21
403784.4277393822
 31
0.0
  0
ARC
  5
644CC
  8
S-OBRYS
  6
CONTINUOUS
 10
9109.2089491697698
 20
403820.4277393822
 30
0.0
 40
3.0
 50
0.0
 51
90.0
  0
LINE
  5
644CD
  8
S-OBRYS
  6
CONTINUOUS
 10
9088.8048119277155
 20
403823.42773938208
 30
0.0
 11
9109.2089491697698
 21
403823.42773938208
 31
0.0
  0
LINE
  5
644CE
  8
S-OBRYS
  6
CONTINUOUS
 10
9085.8048119277155
 20
403827.4277393822
 30
0.0
 11
9085.8048119277155
 21
403826.42773938208
 31
0.0
  0
ARC
  5
644CF
  8
S-OBRYS
  6
CONTINUOUS
 10
9088.8048119277155
 20
403826.42773938208
 30
0.0
 40
3.0
 50
180.0
 51
270.0
  0
LINE
  5
644D0
  8
S-OBRYS
  6
CONTINUOUS
 10
9085.8048119277155
 20
403827.4277393822
 30
0.0
 11
9116.8048119277155
 21
403827.4277393822
 31
0.0
  0
LINE
  5
644D1
  8
S-OBRYS
  6
CONTINUOUS
 10
9084.1868342026883
 20
404009.76222554583
 30
0.0
 11
9074.4368342026846
 21
404000.94222554588
 31
0.0
  0
LINE
  5
644D2
  8
S-OBRYS
  6
CONTINUOUS
 10
9116.8048119277155
 20
404013.81983366492
 30
0.0
 11
9084.1868342026883
 21
404009.76222554583
 31
0.0
  0
LINE
  5
644D3
  8
S-OBRYS
  6
CONTINUOUS
 10
9074.4368342026846
 20
404000.94222554588
 30
0.0
 11
9074.4368342026846
 21
403850.4622255459
 31
0.0
  0
LINE
  5
644D4
  8
S-OBRYS
  6
CONTINUOUS
 10
9111.3048119277137
 20
405324.46505504602
 30
0.0
 11
9111.3048119277137
 21
404405.46505504602
 31
0.0
  0
LINE
  5
644D5
  8
S-OBRYS
  6
CONTINUOUS
 10
8975.9244481271271
 20
404875.37225983222
 30
0.0
 11
9111.3048119277137
 21
404405.46505504602
 31
0.0
  0
LINE
  5
644D6
  8
S-OBRYS
  6
CONTINUOUS
 10
9122.3048119277319
 20
404130.46505504602
 30
0.0
 11
9111.3048119277137
 21
404405.46505504602
 31
0.0
  0
LINE
  5
644D7
  8
S-OBRYS
  6
CONTINUOUS
 10
9111.3048119277137
 20
404405.46505504602
 30
0.0
 11
9198.30481192773
 21
404130.46505504602
 31
0.0
  0
LINE
  5
644D8
  8
S-OBRYS
  6
CONTINUOUS
 10
9111.3048119277173
 20
404875.37225983222
 30
0.0
 11
8975.9244481271271
 21
404875.37225983222
 31
0.0
  0
LINE
  5
644D9
  8
S-OBRYS
  6
CONTINUOUS
 10
9111.3048119277173
 20
404936.11644144153
 30
0.0
 11
8983.6518072647013
 21
404936.11644144153
 31
0.0
  0
LINE
  5
644DA
  8
S-OBRYS
  6
CONTINUOUS
 10
8983.6518072647013
 20
404875.37225983222
 30
0.0
 11
8983.6518072647013
 21
404936.11644144153
 31
0.0
  0
LINE
  5
644DB
  8
S-OBRYS
  6
CONTINUOUS
 10
9274.3048119277319
 20
404130.46505504602
 30
0.0
 11
9274.3048119277319
 21
404055.46505504602
 31
0.0
  0
LINE
  5
644DC
  8
S-OBRYS
  6
CONTINUOUS
 10
9396.9983379008681
 20
403885.60456552811
 30
0.0
 11
9396.9983379008681
 21
404085.89743433398
 31
0.0
  0
LINE
  5
644DD
  8
S-OBRYS
  6
CONTINUOUS
 10
9555.2697106896449
 20
403775.70222554583
 30
0.0
 11
9555.2697106896449
 21
405121.70222554589
 31
0.0
  0
LINE
  5
644DE
  8
S-OBRYS
  6
CONTINUOUS
 10
9435.2697106896449
 20
403775.70222554583
 30
0.0
 11
9435.2697106896449
 21
405121.70222554589
 31
0.0
  0
LINE
  5
644DF
  8
S-OBRYS
  6
CONTINUOUS
 10
9435.2697106896449
 20
403775.70222554583
 30
0.0
 11
9555.2697106896449
 21
403775.70222554583
 31
0.0
  0
LINE
  5
644E0
  8
S-OBRYS
  6
CONTINUOUS
 10
9380.8587313871612
 20
403897.15259886172
 30
0.0
 11
9279.8048119277155
 21
403897.15259886172
 31
0.0
  0
LINE
  5
644E1
  8
S-OBRYS
  6
CONTINUOUS
 10
9380.8587313871612
 20
403835.70222554589
 30
0.0
 11
9279.8048119277155
 21
403835.70222554589
 31
0.0
  0
LINE
  5
644E2
  8
S-OBRYS
  6
CONTINUOUS
 10
9380.8587313871612
 20
403858.61509426759
 30
0.0
 11
9279.8048119277155
 21
403858.61509426759
 31
0.0
  0
LINE
  5
644E3
  8
S-OBRYS
  6
CONTINUOUS
 10
9380.8587313871612
 20
403954.25185223011
 30
0.0
 11
9279.8048119277155
 21
403954.25185223011
 31
0.0
  0
LINE
  5
644E4
  8
S-OBRYS
  6
CONTINUOUS
 10
9380.8587313871612
 20
404015.70222554589
 30
0.0
 11
9332.6842607707458
 21
404015.70222554589
 31
0.0
  0
LINE
  5
644E5
  8
S-OBRYS
  6
CONTINUOUS
 10
9380.8587313871612
 20
403992.78935682419
 30
0.0
 11
9279.8048119277155
 21
403992.78935682419
 31
0.0
  0
LINE
  5
644E6
  8
S-OBRYS
  6
CONTINUOUS
 10
9307.8048119277155
 20
403823.42773938208
 30
0.0
 11
9287.4006746856612
 21
403823.42773938208
 31
0.0
  0
LINE
  5
644E7
  8
S-OBRYS
  6
CONTINUOUS
 10
9310.8048119277155
 20
403827.4277393822
 30
0.0
 11
9279.8048119277155
 21
403827.4277393822
 31
0.0
  0
LINE
  5
644E8
  8
S-OBRYS
  6
CONTINUOUS
 10
9307.8048119277155
 20
403781.42773938208
 30
0.0
 11
9287.4006746856612
 21
403781.42773938208
 31
0.0
  0
LINE
  5
644E9
  8
S-OBRYS
  6
CONTINUOUS
 10
9310.8048119277155
 20
403777.42773938208
 30
0.0
 11
9279.8048119277155
 21
403777.42773938208
 31
0.0
  0
LINE
  5
644EA
  8
S-OBRYS
  6
CONTINUOUS
 10
9279.8048119277155
 20
403827.4277393822
 30
0.0
 11
9279.8048119277155
 21
403777.42773938208
 31
0.0
  0
LINE
  5
644EB
  8
S-OBRYS
  6
CONTINUOUS
 10
9284.4006746856612
 20
403820.4277393822
 30
0.0
 11
9284.4006746856612
 21
403784.4277393822
 31
0.0
  0
ARC
  5
644EC
  8
S-OBRYS
  6
CONTINUOUS
 10
9287.4006746856612
 20
403784.4277393822
 30
0.0
 40
3.0
 50
180.0
 51
270.0
  0
ARC
  5
644ED
  8
S-OBRYS
  6
CONTINUOUS
 10
9287.4006746856612
 20
403820.4277393822
 30
0.0
 40
3.0
 50
90.0
 51
180.0
  0
ARC
  5
644EE
  8
S-OBRYS
  6
CONTINUOUS
 10
9307.8048119277155
 20
403778.42773938208
 30
0.0
 40
3.0
 50
0.0
 51
90.0
  0
LINE
  5
644EF
  8
S-OBRYS
  6
CONTINUOUS
 10
9310.8048119277155
 20
403777.42773938208
 30
0.0
 11
9310.8048119277155
 21
403778.42773938208
 31
0.0
  0
ARC
  5
644F0
  8
S-OBRYS
  6
CONTINUOUS
 10
9307.8048119277155
 20
403826.42773938208
 30
0.0
 40
3.0
 50
270.0
 51
0.0
  0
LINE
  5
644F1
  8
S-OBRYS
  6
CONTINUOUS
 10
9310.8048119277155
 20
403827.4277393822
 30
0.0
 11
9310.8048119277155
 21
403826.42773938208
 31
0.0
  0
LINE
  5
644F2
  8
S-OBRYS
  6
CONTINUOUS
 10
9279.8048119277155
 20
404010.94633167569
 30
0.0
 11
9332.6842607707458
 21
404010.94633167569
 31
0.0
  0
LINE
  5
644F3
  8
S-OBRYS
  6
CONTINUOUS
 10
9279.8048119277155
 20
404050.9463316758
 30
0.0
 11
9332.6842607707458
 21
404050.9463316758
 31
0.0
  0
LINE
  5
644F4
  8
S-OBRYS
  6
CONTINUOUS
 10
9279.8048119277155
 20
404040.94633167569
 30
0.0
 11
9332.6842607707458
 21
404040.94633167569
 31
0.0
  0
LINE
  5
644F5
  8
S-OBRYS
  6
CONTINUOUS
 10
9332.6842607707458
 20
404050.9463316758
 30
0.0
 11
9332.6842607707458
 21
404010.94633167569
 31
0.0
  0
LINE
  5
644F6
  8
S-OBRYS
  6
CONTINUOUS
 10
9380.8587313871612
 20
404015.70222554589
 30
0.0
 11
9380.8587313871612
 21
403835.70222554589
 31
0.0
  0
LINE
  5
644F7
  8
S-OBRYS
  6
CONTINUOUS
 10
9396.9983379008681
 20
403885.60456552811
 30
0.0
 11
9435.2697106896449
 21
403885.60456552811
 31
0.0
  0
LINE
  5
644F8
  8
S-OBRYS
  6
CONTINUOUS
 10
9382.0473971962856
 20
403902.62613676139
 30
0.0
 11
9396.9983379008681
 21
403902.62613676139
 31
0.0
  0
LINE
  5
644F9
  8
S-OBRYS
  6
CONTINUOUS
 10
9382.0473971962856
 20
403948.77831433038
 30
0.0
 11
9396.9983379008681
 21
403948.77831433038
 31
0.0
  0
LINE
  5
644FA
  8
S-OBRYS
  6
CONTINUOUS
 10
9285.3048119277155
 20
405324.46505504602
 30
0.0
 11
9285.3048119277155
 21
404405.46505504602
 31
0.0
  0
LINE
  5
644FB
  8
S-OBRYS
  6
CONTINUOUS
 10
9420.6851757283075
 20
404875.37225983222
 30
0.0
 11
9285.3048119277155
 21
404405.46505504602
 31
0.0
  0
LINE
  5
644FC
  8
S-OBRYS
  6
CONTINUOUS
 10
9274.3048119277319
 20
404130.46505504602
 30
0.0
 11
9285.3048119277155
 21
404405.46505504602
 31
0.0
  0
LINE
  5
644FD
  8
S-OBRYS
  6
CONTINUOUS
 10
9396.9983379008681
 20
404085.89743433398
 30
0.0
 11
9435.2697106896449
 21
404085.89743433398
 31
0.0
  0
LINE
  5
644FE
  8
S-OBRYS
  6
CONTINUOUS
 10
9285.3048119277155
 20
404875.37225983222
 30
0.0
 11
9420.6851757283075
 21
404875.37225983222
 31
0.0
  0
LINE
  5
644FF
  8
S-OBRYS
  6
CONTINUOUS
 10
9285.3048119277155
 20
404936.11644144153
 30
0.0
 11
9412.9578165907315
 21
404936.11644144153
 31
0.0
  0
LINE
  5
64500
  8
S-OBRYS
  6
CONTINUOUS
 10
9435.2697106896449
 20
404881.40606084687
 30
0.0
 11
9412.9578165907315
 21
404881.40606084687
 31
0.0
  0
LINE
  5
64501
  8
S-OBRYS
  6
CONTINUOUS
 10
9435.2697106896449
 20
404931.40606084687
 30
0.0
 11
9412.9578165907315
 21
404931.40606084687
 31
0.0
  0
LINE
  5
64502
  8
S-OBRYS
  6
CONTINUOUS
 10
9412.9578165907315
 20
404875.37225983222
 30
0.0
 11
9412.9578165907315
 21
404936.11644144153
 31
0.0
  0
LINE
  5
64503
  8
S-OBRYS
  6
CONTINUOUS
 10
9435.2697106896449
 20
405121.70222554589
 30
0.0
 11
9555.2697106896449
 21
405121.70222554589
 31
0.0
  0
LINE
  5
64504
  8
S-OBRYS
  6
CONTINUOUS
 10
9309.8048119277119
 20
402375.46505504602
 30
0.0
 11
9086.8048119277191
 21
402375.46505504602
 31
0.0
  0
LINE
  5
64505
  8
S-OBRYS
  6
CONTINUOUS
 10
9309.8048119277119
 20
402435.46505504608
 30
0.0
 11
9086.8048119277191
 21
402435.46505504608
 31
0.0
  0
LINE
  5
64506
  8
S-OBRYS
  6
CONTINUOUS
 10
9198.3048119277155
 20
397275.11724169721
 30
0.0
 11
9198.3048119277155
 21
405354.46505504608
 31
0.0
  0
LINE
  5
64507
  8
S-OBRYS
  6
CONTINUOUS
 10
9116.8048119277155
 20
400435.46505504602
 30
0.0
 11
9116.8048119277155
 21
402375.46505504602
 31
0.0
  0
LINE
  5
64508
  8
S-OBRYS
  6
CONTINUOUS
 10
9116.8048119277155
 20
402435.46505504608
 30
0.0
 11
9116.8048119277155
 21
404267.9650550462
 31
0.0
  0
LINE
  5
64509
  8
S-OBRYS
  6
CONTINUOUS
 10
9086.8048119277191
 20
402375.46505504602
 30
0.0
 11
9086.8048119277191
 21
402435.46505504608
 31
0.0
  0
LINE
  5
6450A
  8
S-OBRYS
  6
CONTINUOUS
 10
9279.8048119277155
 20
400435.46505504602
 30
0.0
 11
9279.8048119277155
 21
402375.46505504602
 31
0.0
  0
LINE
  5
6450B
  8
S-OBRYS
  6
CONTINUOUS
 10
9279.8048119277155
 20
402435.46505504608
 30
0.0
 11
9279.8048119277155
 21
404267.9650550459
 31
0.0
  0
LINE
  5
6450C
  8
S-OBRYS
  6
CONTINUOUS
 10
9309.8048119277119
 20
402375.46505504602
 30
0.0
 11
9309.8048119277119
 21
402435.46505504608
 31
0.0
  0
LINE
  5
6450D
  8
S-OBRYS
  6
CONTINUOUS
 10
9309.8048119277119
 20
400375.46505504608
 30
0.0
 11
9086.8048119277191
 21
400375.46505504608
 31
0.0
  0
LINE
  5
6450E
  8
S-OBRYS
  6
CONTINUOUS
 10
9309.8048119277119
 20
400435.46505504602
 30
0.0
 11
9086.8048119277191
 21
400435.46505504602
 31
0.0
  0
LINE
  5
6450F
  8
S-OBRYS
  6
CONTINUOUS
 10
9116.8048119277155
 20
398405.46505504608
 30
0.0
 11
9116.8048119277155
 21
400375.46505504608
 31
0.0
  0
LINE
  5
64510
  8
S-OBRYS
  6
CONTINUOUS
 10
9086.8048119277191
 20
400375.46505504608
 30
0.0
 11
9086.8048119277191
 21
400435.46505504602
 31
0.0
  0
LINE
  5
64511
  8
S-OBRYS
  6
CONTINUOUS
 10
9279.8048119277155
 20
398405.46505504608
 30
0.0
 11
9279.8048119277155
 21
400375.46505504608
 31
0.0
  0
LINE
  5
64512
  8
S-OBRYS
  6
CONTINUOUS
 10
9309.8048119277119
 20
400375.46505504608
 30
0.0
 11
9309.8048119277119
 21
400435.46505504602
 31
0.0
  0
LINE
  5
64513
  8
S-OBRYS
  6
CONTINUOUS
 10
9059.3048119277155
 20
397892.70222554589
 30
0.0
 11
9337.3048119277155
 21
397892.70222554589
 31
0.0
  0
POLYLINE
  5
64514
  8
S-OBRYS
  6
CONTINUOUS
 66
     1
 10
0.0
 20
0.0
 30
0.0
 70
     1
  0
VERTEX
  5
67269
  8
S-OBRYS
  6
CONTINUOUS
 10
9144.8299934316892
 20
397451.30133316771
 30
0.0
  0
VERTEX
  5
6726A
  8
S-OBRYS
  6
CONTINUOUS
 10
9251.7796304237454
 20
397451.30133316771
 30
0.0
  0
VERTEX
  5
6726B
  8
S-OBRYS
  6
CONTINUOUS
 10
9251.7796304237454
 20
397610.66133129661
 30
0.0
  0
VERTEX
  5
6726C
  8
S-OBRYS
  6
CONTINUOUS
 10
9144.8299934316892
 20
397610.66133129661
 30
0.0
  0
SEQEND
  5
6726D
  8
S-OBRYS
  6
CONTINUOUS
  0
LINE
  5
64515
  8
S-OBRYS
  6
CONTINUOUS
 10
9059.3048119277155
 20
398352.70222554589
 30
0.0
 11
9337.3048119277155
 21
398352.70222554589
 31
0.0
  0
LINE
  5
64516
  8
S-OBRYS
  6
CONTINUOUS
 10
9337.3048119277155
 20
397405.46505504608
 30
0.0
 11
9059.3048119277155
 21
397405.46505504608
 31
0.0
  0
LINE
  5
64517
  8
S-OBRYS
  6
CONTINUOUS
 10
9337.3048119277155
 20
398405.46505504608
 30
0.0
 11
9059.3048119277155
 21
398405.46505504608
 31
0.0
  0
LINE
  5
64518
  8
S-OBRYS
  6
CONTINUOUS
 10
9054.7421536191705
 20
397785.46505504608
 30
0.0
 11
9054.7421536191705
 21
397945.46505504608
 31
0.0
  0
LINE
  5
64519
  8
S-OBRYS
  6
CONTINUOUS
 10
9013.4920269723443
 20
397785.46505504608
 30
0.0
 11
9013.4920269723443
 21
397945.46505504608
 31
0.0
  0
LINE
  5
6451A
  8
S-OBRYS
  6
CONTINUOUS
 10
9059.3048119277155
 20
397405.46505504608
 30
0.0
 11
9059.3048119277155
 21
398405.46505504608
 31
0.0
  0
LINE
  5
6451B
  8
S-OBRYS
  6
CONTINUOUS
 10
9013.4920269723443
 20
397785.46505504608
 30
0.0
 11
9054.7421536191705
 21
397785.46505504608
 31
0.0
  0
LINE
  5
6451C
  8
S-OBRYS
  6
CONTINUOUS
 10
9054.7421536191705
 20
397815.46505504608
 30
0.0
 11
9059.3048119277155
 21
397815.46505504608
 31
0.0
  0
LINE
  5
6451D
  8
S-OBRYS
  6
CONTINUOUS
 10
9054.7421536191705
 20
397915.46505504608
 30
0.0
 11
9059.3048119277155
 21
397915.46505504608
 31
0.0
  0
LINE
  5
6451E
  8
S-OBRYS
  6
CONTINUOUS
 10
9369.197609809351
 20
397794.87868013111
 30
0.0
 11
9369.197609809351
 21
397936.05142996123
 31
0.0
  0
LINE
  5
6451F
  8
S-OBRYS
  6
CONTINUOUS
 10
9337.3048119277155
 20
397405.46505504608
 30
0.0
 11
9337.3048119277155
 21
398405.46505504608
 31
0.0
  0
LINE
  5
64520
  8
S-OBRYS
  6
CONTINUOUS
 10
9337.3048119277155
 20
397794.87868013111
 30
0.0
 11
9369.197609809351
 21
397794.87868013111
 31
0.0
  0
LINE
  5
64521
  8
S-OBRYS
  6
CONTINUOUS
 10
9337.3048119277155
 20
397936.05142996123
 30
0.0
 11
9369.197609809351
 21
397936.05142996123
 31
0.0
  0
LINE
  5
64522
  8
S-OBRYS
  6
CONTINUOUS
 10
8974.0639935841973
 20
397865.46505504608
 30
0.0
 11
9416.9567914658346
 21
397865.46505504608
 31
0.0
  0
LINE
  5
64523
  8
S-OBRYS
  6
CONTINUOUS
 10
8926.3048119277155
 20
397864.12219997193
 30
0.0
 11
8926.3048119277155
 21
397945.46505504608
 31
0.0
  0
LINE
  5
64524
  8
S-OBRYS
  6
CONTINUOUS
 10
8926.3048119277155
 20
397864.12219997193
 30
0.0
 11
9013.4920269723443
 21
397864.12219997193
 31
0.0
  0
LINE
  5
64525
  8
S-OBRYS
  6
CONTINUOUS
 10
8926.3048119277155
 20
397945.46505504608
 30
0.0
 11
9054.7421536191705
 21
397945.46505504608
 31
0.0
  0
LINE
  5
64589
  8
S-OBRYS
  6
CONTINUOUS
 10
11868.48249830338
 20
405431.18416303367
 30
0.0
 11
12061.034663181061
 21
405152.39718716941
 31
0.0
  0
LINE
  5
6458A
  8
S-OBRYS
  6
CONTINUOUS
 10
11675.9303334257
 20
405121.88133316621
 30
0.0
 11
12061.034663181061
 21
405121.88133316621
 31
0.0
  0
LINE
  5
6458B
  8
S-OBRYS
  6
CONTINUOUS
 10
11660.013262567831
 20
405132.34179543168
 30
0.0
 11
12076.951734038919
 21
405132.34179543168
 31
0.0
  0
LINE
  5
6458C
  8
S-OBRYS
  6
CONTINUOUS
 10
11660.013262567831
 20
405142.5012682777
 30
0.0
 11
12076.951734038919
 21
405142.5012682777
 31
0.0
  0
LINE
  5
6458D
  8
S-OBRYS
  6
CONTINUOUS
 10
11675.9303334257
 20
404650.1833851306
 30
0.0
 11
12061.034663181061
 21
404650.1833851306
 31
0.0
  0
LINE
  5
6458E
  8
S-OBRYS
  6
CONTINUOUS
 10
11675.9303334257
 20
405152.39718716941
 30
0.0
 11
12061.034663181061
 21
405152.39718716941
 31
0.0
  0
LINE
  5
6458F
  8
S-OBRYS
  6
CONTINUOUS
 10
11668.48249830338
 20
405431.18416303367
 30
0.0
 11
12068.48249830338
 21
405431.18416303367
 31
0.0
  0
LINE
  5
64590
  8
S-OBRYS
  6
CONTINUOUS
 10
11656.85714315366
 20
405443.34179543162
 30
0.0
 11
12080.107853453101
 21
405443.34179543162
 31
0.0
  0
CIRCLE
  5
64591
  8
S-OBRYS
  6
CONTINUOUS
 10
12045.928880898869
 20
404543.34179543162
 30
0.0
 40
202.53748612397089
  0
LINE
  5
64592
  8
S-OBRYS
  6
CONTINUOUS
 10
12906.928880898869
 20
404064.34179543162
 30
0.0
 11
11690.928880898869
 21
404064.34179543162
 31
0.0
  0
LINE
  5
64593
  8
S-OBRYS
  6
CONTINUOUS
 10
12906.928880898869
 20
404543.34179543162
 30
0.0
 11
11664.782767002511
 21
404543.34179543162
 31
0.0
  0
LINE
  5
64594
  8
S-OBRYS
  6
CONTINUOUS
 10
11868.48249830338
 20
405459.99166650517
 30
0.0
 11
11868.48249830338
 21
404592.9331707962
 31
0.0
  0
LINE
  5
64595
  8
S-OBRYS
  6
CONTINUOUS
 10
11675.9303334257
 20
405431.18416303367
 30
0.0
 11
11675.9303334257
 21
404543.34179543162
 31
0.0
  0
LINE
  5
64596
  8
S-OBRYS
  6
CONTINUOUS
 10
11690.928880898869
 20
404064.34179543162
 30
0.0
 11
11690.928880898869
 21
404543.34179543162
 31
0.0
  0
LINE
  5
64597
  8
S-OBRYS
  6
CONTINUOUS
 10
11868.48249830338
 20
405431.18416303367
 30
0.0
 11
11675.9303334257
 21
405152.39718716941
 31
0.0
  0
LINE
  5
64598
  8
S-OBRYS
  6
CONTINUOUS
 10
11660.013262567831
 20
405142.5012682777
 30
0.0
 11
11660.013262567831
 21
405132.34179543168
 31
0.0
  0
LINE
  5
64599
  8
S-OBRYS
  6
CONTINUOUS
 10
11668.48249830338
 20
405431.18416303367
 30
0.0
 11
11668.48249830338
 21
405443.34179543162
 31
0.0
  0
ARC
  5
6459A
  8
S-OBRYS
  6
CONTINUOUS
 10
12327.72783731414
 20
404277.98247124709
 30
0.0
 40
671.68204900912224
 50
39.135284101999567
 51
73.406553180392322
  0
POLYLINE
  5
6459B
  8
S-OBRYS
  6
CONTINUOUS
 66
     1
 10
0.0
 20
0.0
 30
0.0
 70
     1
  0
VERTEX
  5
6726E
  8
S-OBRYS
  6
CONTINUOUS
 10
12523.129342565309
 20
404227.01723926491
 30
0.0
  0
VERTEX
  5
6726F
  8
S-OBRYS
  6
CONTINUOUS
 10
12747.810914991611
 20
404227.01723926491
 30
0.0
  0
VERTEX
  5
67270
  8
S-OBRYS
  6
CONTINUOUS
 10
12747.810914991611
 20
404403.48968268582
 30
0.0
  0
VERTEX
  5
67271
  8
S-OBRYS
  6
CONTINUOUS
 10
12523.129342565309
 20
404403.48968268582
 30
0.0
  0
SEQEND
  5
67272
  8
S-OBRYS
  6
CONTINUOUS
  0
POLYLINE
  5
6459C
  8
S-OBRYS
  6
CONTINUOUS
 66
     1
 10
0.0
 20
0.0
 30
0.0
 70
     1
  0
VERTEX
  5
67273
  8
S-OBRYS
  6
CONTINUOUS
 10
12503.29036767019
 20
404212.70866277133
 30
0.0
  0
VERTEX
  5
67274
  8
S-OBRYS
  6
CONTINUOUS
 10
12767.64988988673
 20
404212.70866277133
 30
0.0
  0
VERTEX
  5
67275
  8
S-OBRYS
  6
CONTINUOUS
 10
12767.64988988673
 20
404417.7982591794
 30
0.0
  0
VERTEX
  5
67276
  8
S-OBRYS
  6
CONTINUOUS
 10
12503.29036767019
 20
404417.7982591794
 30
0.0
  0
SEQEND
  5
67277
  8
S-OBRYS
  6
CONTINUOUS
  0
LINE
  5
6459D
  8
S-OBRYS
  6
CONTINUOUS
 10
12462.82961399058
 20
404322.40774922213
 30
0.0
 11
12800.644542353981
 21
404322.40774922213
 31
0.0
  0
LINE
  5
6459E
  8
S-OBRYS
  6
CONTINUOUS
 10
12045.928880898869
 20
404980.32974485733
 30
0.0
 11
12045.928880898869
 21
404064.34179543162
 31
0.0
  0
ARC
  5
6459F
  8
S-OBRYS
  6
CONTINUOUS
 10
12123.5580114364
 20
403709.52350203472
 30
0.0
 40
1270.9405329282999
 50
81.917626751904933
 51
89.034131851603149
  0
LINE
  5
645A0
  8
S-OBRYS
  6
CONTINUOUS
 10
12061.034663181061
 20
405431.18416303367
 30
0.0
 11
12061.034663181061
 21
404650.1833851306
 31
0.0
  0
ARC
  5
645A1
  8
S-OBRYS
  6
CONTINUOUS
 10
12084.558034407301
 20
404730.28345258231
 30
0.0
 40
250.0
 50
90.0
 51
95.399146607497528
  0
LINE
  5
645A2
  8
S-OBRYS
  6
CONTINUOUS
 10
12084.558034407301
 20
404980.28345258237
 30
0.0
 11
12144.981977557251
 21
404980.28345258237
 31
0.0
  0
LINE
  5
645A3
  8
S-OBRYS
  6
CONTINUOUS
 10
12076.951734038919
 20
405142.5012682777
 30
0.0
 11
12076.951734038919
 21
405132.34179543168
 31
0.0
  0
LINE
  5
645A4
  8
S-OBRYS
  6
CONTINUOUS
 10
12068.48249830338
 20
405431.18416303367
 30
0.0
 11
12068.48249830338
 21
405443.34179543162
 31
0.0
  0
ARC
  5
645A5
  8
S-OBRYS
  6
CONTINUOUS
 10
12157.338445432721
 20
403750.8106588716
 30
0.0
 40
1225.6257733044531
 50
72.810760402554749
 51
83.209858715930636
  0
LINE
  5
645A6
  8
S-OBRYS
  6
CONTINUOUS
 10
12889.434010614519
 20
404636.73271897831
 30
0.0
 11
12903.93043631979
 21
404588.43030803109
 31
0.0
  0
LINE
  5
645A7
  8
S-OBRYS
  6
CONTINUOUS
 10
12903.93043631979
 20
404588.43030803109
 30
0.0
 11
12906.928880898869
 21
404540.32974485721
 31
0.0
  0
LINE
  5
645A8
  8
S-OBRYS
  6
CONTINUOUS
 10
12635.470128778459
 20
404452.5858590366
 30
0.0
 11
12635.470128778459
 21
404190.81666101777
 31
0.0
  0
LINE
  5
645A9
  8
S-OBRYS
  6
CONTINUOUS
 10
12872.501665742
 20
404667.74509714142
 30
0.0
 11
12876.8172344342
 21
404658.59320319531
 31
0.0
  0
LINE
  5
645AA
  8
S-OBRYS
  6
CONTINUOUS
 10
12876.817234434189
 20
404658.59320319531
 30
0.0
 11
12889.434010614519
 21
404636.73271897831
 31
0.0
  0
ARC
  5
645AB
  8
S-OBRYS
  6
CONTINUOUS
 10
12759.44122333319
 20
404614.4315307411
 30
0.0
 40
125.0
 50
25.246185935823611
 51
44.417685751756707
  0
LINE
  5
645AC
  8
S-OBRYS
  6
CONTINUOUS
 10
12830.928880898869
 20
403620.11492680717
 30
0.0
 11
12830.928880898869
 21
403915.80350623879
 31
0.0
  0
LINE
  5
645AD
  8
S-OBRYS
  6
CONTINUOUS
 10
12754.928880898869
 20
403786.40383381548
 30
0.0
 11
12754.928880898869
 21
403714.34179543168
 31
0.0
  0
LINE
  5
645AE
  8
S-OBRYS
  6
CONTINUOUS
 10
12906.928880898869
 20
403714.34179543168
 30
0.0
 11
12906.928880898869
 21
404543.34179543162
 31
0.0
  0
LINE
  5
645AF
  8
S-OBRYS
  6
CONTINUOUS
 10
12906.928880898869
 20
403714.34179543168
 30
0.0
 11
12754.928880898869
 21
403714.34179543168
 31
0.0
  0
LINE
  5
645B0
  8
S-OBRYS
  6
CONTINUOUS
 10
12468.59986916132
 20
404064.34179543162
 30
0.0
 11
12830.928880898869
 21
403786.40383381548
 31
0.0
  0
LINE
  5
645B1
  8
S-OBRYS
  6
CONTINUOUS
 10
12468.59986916132
 20
404064.34179543162
 30
0.0
 11
12754.928880898869
 21
403786.40383381548
 31
0.0
  0
LINE
  5
645B2
  8
S-OBRYS
  6
CONTINUOUS
 10
12830.928880898869
 20
403786.40383381548
 30
0.0
 11
12906.928880898869
 21
404064.34179543162
 31
0.0
  0
LINE
  5
645B3
  8
S-OBRYS
  6
CONTINUOUS
 10
12906.928880898869
 20
403786.40383381548
 30
0.0
 11
12754.928880898869
 21
403786.40383381548
 31
0.0
  0
CIRCLE
  5
6587E
  8
S-OBRYS
  6
CONTINUOUS
 10
33896.72886966166
 20
404108.46587452479
 30
0.0
 40
405510.36402363243
  0
CIRCLE
  5
6587F
  8
S-OBRYS
  6
CONTINUOUS
 10
33896.72886966166
 20
404105.48474181228
 30
0.0
 40
405507.39323388838
  0
VIEWPORT
  5
1FAB5
 67
     1
  8
0
  6
ČERCHOVANÁ
 10
12.669026204836801
 20
9.4585013259736659
 30
0.0
 40
41.707206501782828
 41
24.2248555085413
 68
     1
 69
     1
1001
ACAD
1000
MVIEW
1002
{
1070
    16
1010
0.0
1020
0.0
1030
0.0
1010
0.0
1020
0.0
1030
1.0
1040
0.0
1040
24.2248555085413
1040
12.669026204836801
1040
9.4585013259736659
1040
50.0
1040
0.0
1040
0.0
1070
     0
1070
   100
1070
     1
1070
     1
1070
     0
1070
     0
1070
     0
1070
     0
1040
0.0
1040
0.0
1040
0.0
1040
10.0
1040
10.0
1040
10.0
1040
10.0
1070
     0
1002
{
1002
}
1002
}
  0
VIEWPORT
  5
1FAB7
 67
     1
  8
2-VZT
  6
ČERCHOVANÁ
 10
5.24999976158142
 20
3.99999976158142
 30
0.0
 40
8.3999996185302717
 41
6.3999996185302717
 68
     2
 69
     2
1001
ACAD
1000
MVIEW
1002
{
1070
    16
1010
0.0
1020
0.0
1030
0.0
1010
0.0
1020
0.0
1030
1.0
1040
0.0
1040
517776.44812413253
1040
-335493.7046016907
1040
-205251.99203018961
1040
50.0
1040
0.0
1040
0.0
1070
     0
1070
   100
1070
     1
1070
     0
1070
     0
1070
     0
1070
     0
1070
     0
1040
0.0
1040
0.0
1040
0.0
1040
1.0
1040
1.0
1040
1.0
1040
1.0
1070
     0
1002
{
1002
}
1002
}
  0
ENDSEC
  0
EOF
