  0
SECTION
  2
HEADER
  9
$ACADVER
  1
AC1009
  9
$INSBASE
 10
0.0
 20
0.0
 30
0.0
  9
$EXTMIN
 10
-53711.034976600582
 20
370888.28785929468
 30
0.0
  9
$EXTMAX
 10
-30186.059713359249
 20
385738.28785929468
 30
0.0
  9
$LIMMIN
 10
-127022.6804658414
 20
-67144.462473645661
  9
$LIMMAX
 10
-873.19720690528334
 20
6755.1563308572058
  9
$ORTHOMODE
 70
     1
  9
$REGENMODE
 70
     1
  9
$FILLMODE
 70
     1
  9
$QTEXTMODE
 70
     0
  9
$MIRRTEXT
 70
     0
  9
$DRAGMODE
 70
     2
  9
$LTSCALE
 40
50.0
  9
$OSMODE
 70
   679
  9
$ATTMODE
 70
     1
  9
$TEXTSIZE
 40
200.0
  9
$TRACEWID
 40
10.0
  9
$TEXTSTYLE
  7
R
  9
$CLAYER
  8
S-OBRYS
  9
$CELTYPE
  6
CONTINUOUS
  9
$CECOLOR
 62
   256
  9
$DIMSCALE
 40
50.0
  9
$DIMASZ
 40
2.0
  9
$DIMEXO
 40
0.063
  9
$DIMDLI
 40
5.0
  9
$DIMRND
 40
0.0
  9
$DIMDLE
 40
0.0
  9
$DIMEXE
 40
0.2
  9
$DIMTP
 40
0.0
  9
$DIMTM
 40
0.0
  9
$DIMTXT
 40
2.5
  9
$DIMCEN
 40
2.0
  9
$DIMTSZ
 40
0.0
  9
$DIMTOL
 70
     0
  9
$DIMLIM
 70
     0
  9
$DIMTIH
 70
     0
  9
$DIMTOH
 70
     0
  9
$DIMSE1
 70
     0
  9
$DIMSE2
 70
     0
  9
$DIMTAD
 70
     1
  9
$DIMZIN
 70
    12
  9
$DIMBLK
  1

  9
$DIMASO
 70
     1
  9
$DIMSHO
 70
     0
  9
$DIMPOST
  1

  9
$DIMAPOST
  1

  9
$DIMALT
 70
     0
  9
$DIMALTD
 70
     2
  9
$DIMALTF
 40
25.399999999999999
  9
$DIMLFAC
 40
1.0
  9
$DIMTOFL
 70
     1
  9
$DIMTVP
 40
0.0
  9
$DIMTIX
 70
     0
  9
$DIMSOXD
 70
     0
  9
$DIMSAH
 70
     1
  9
$DIMBLK1
  1
OPEN
  9
$DIMBLK2
  1
OPEN
  9
$DIMSTYLE
  2
EMBABA
  9
$DIMCLRD
 70
     0
  9
$DIMCLRE
 70
     0
  9
$DIMCLRT
 70
     7
  9
$DIMTFAC
 40
1.0
  9
$DIMGAP
 40
0.5
  9
$LUNITS
 70
     2
  9
$LUPREC
 70
     0
  9
$SKETCHINC
 40
10.0
  9
$FILLETRAD
 40
400.0
  9
$AUNITS
 70
     0
  9
$AUPREC
 70
     4
  9
$MENU
  1
ACAD
  9
$ELEVATION
 40
0.0
  9
$PELEVATION
 40
0.0
  9
$THICKNESS
 40
0.0
  9
$LIMCHECK
 70
     0
  9
$BLIPMODE
 70
     0
  9
$CHAMFERA
 40
0.0
  9
$CHAMFERB
 40
0.0
  9
$SKPOLY
 70
     0
  9
$TDCREATE
 40
2450205.720229167
  9
$TDUPDATE
 40
2453524.5233628009
  9
$TDINDWG
 40
42.411573599500002
  9
$TDUSRTIMER
 40
42.411573599500002
  9
$USRTIMER
 70
     1
  9
$ANGBASE
 50
0.0
  9
$ANGDIR
 70
     0
  9
$PDMODE
 70
     2
  9
$PDSIZE
 40
-5.0
  9
$PLINEWID
 40
0.0
  9
$COORDS
 70
     0
  9
$SPLFRAME
 70
     0
  9
$SPLINETYPE
 70
     6
  9
$SPLINESEGS
 70
     8
  9
$ATTDIA
 70
     0
  9
$ATTREQ
 70
     1
  9
$HANDLING
 70
     1
  9
$HANDSEED
  5
690D2
  9
$SURFTAB1
 70
    18
  9
$SURFTAB2
 70
    18
  9
$SURFTYPE
 70
     6
  9
$SURFU
 70
    18
  9
$SURFV
 70
    18
  9
$UCSNAME
  2

  9
$UCSORG
 10
0.0
 20
0.0
 30
0.0
  9
$UCSXDIR
 10
1.0
 20
0.0
 30
0.0
  9
$UCSYDIR
 10
0.0
 20
1.0
 30
0.0
  9
$PUCSNAME
  2

  9
$PUCSORG
 10
0.0
 20
0.0
 30
0.0
  9
$PUCSXDIR
 10
1.0
 20
0.0
 30
0.0
  9
$PUCSYDIR
 10
0.0
 20
1.0
 30
0.0
  9
$USERI1
 70
     0
  9
$USERI2
 70
     0
  9
$USERI3
 70
     0
  9
$USERI4
 70
     0
  9
$USERI5
 70
     0
  9
$USERR1
 40
0.0
  9
$USERR2
 40
50.0
  9
$USERR3
 40
0.0
  9
$USERR4
 40
0.0
  9
$USERR5
 40
0.0
  9
$WORLDVIEW
 70
     1
  9
$SHADEDGE
 70
     3
  9
$SHADEDIF
 70
    70
  9
$TILEMODE
 70
     1
  9
$MAXACTVP
 70
    16
  9
$PLIMCHECK
 70
     0
  9
$PEXTMIN
 10
1.049999952316284
 20
0.7999999523162842
 30
0.0
  9
$PEXTMAX
 10
9.4499995708465558
 20
7.1999995708465558
 30
0.0
  9
$PLIMMIN
 10
-0.2500002402958907
 20
-0.2499999962453767
  9
$PLIMMAX
 10
10.74999951940821
 20
8.2499997634587316
  9
$UNITMODE
 70
     0
  9
$VISRETAIN
 70
     0
  9
$PLINEGEN
 70
     0
  9
$PSLTSCALE
 70
     1
  0
ENDSEC
  0
SECTION
  2
TABLES
  0
TABLE
  2
VPORT
 70
     4
  0
VPORT
  2
*ACTIVE
 70
     0
 10
0.0
 20
0.0
 11
1.0
 21
1.0
 12
-40071.600376796763
 22
375517.62581476552
 13
0.0
 23
0.0
 14
1.0
 24
1.0
 15
1.0
 25
1.0
 16
0.0
 26
0.0
 36
1.0
 17
0.0
 27
0.0
 37
0.0
 40
30221.36106723519
 41
1.6116303219106951
 42
50.0
 43
0.0
 44
0.0
 50
0.0
 51
0.0
 71
     0
 72
   100
 73
     1
 74
     0
 75
     0
 76
     1
 77
     0
 78
     0
  0
ENDTAB
  0
TABLE
  2
LTYPE
 70
     3
  0
LTYPE
  2
CONTINUOUS
 70
     0
  3
Solid line
 72
    65
 73
     0
 40
0.0
  0
LTYPE
  2
ČERCHOVANÁ
 70
     0
  3
Čerchovaná __ . __ . __ . __ . __ . __ . __ . _
 72
    65
 73
     4
 40
1.0
 49
0.5
 49
-0.25
 49
0.0
 49
-0.25
  0
ENDTAB
  0
TABLE
  2
LAYER
 70
    13
  0
LAYER
  2
0
 70
     0
 62
     7
  6
CONTINUOUS
  0
LAYER
  2
RAZ
 70
     0
 62
     7
  6
CONTINUOUS
  0
LAYER
  2
KOTY
 70
     0
 62
     2
  6
CONTINUOUS
  0
LAYER
  2
DEFPOINTS
 70
     0
 62
     7
  6
CONTINUOUS
  0
LAYER
  2
2-VZT
 70
     0
 62
     4
  6
CONTINUOUS
  0
LAYER
  2
OBRYS
 70
     0
 62
     7
  6
CONTINUOUS
  0
LAYER
  2
S-OBRYS
 70
     0
 62
     7
  6
CONTINUOUS
  0
ENDTAB
  0
TABLE
  2
STYLE
 70
     9
  0
STYLE
  2
STANDARD
 70
     0
 40
0.0
 41
0.8
 50
0.0
 71
     0
 42
200.0
  3
ROMANS.SHX
  4

  0
STYLE
  2
R
 70
     0
 40
0.0
 41
1.0
 50
0.0
 71
     0
 42
200.0
  3
romans.shx
  4

  0
STYLE
  2
ROMANS
 70
     0
 40
0.0
 41
0.8
 50
0.0
 71
     0
 42
300.0
  3
ROMANS.shx
  4

  0
STYLE
  2
R08
 70
     0
 40
0.0
 41
0.8
 50
0.0
 71
     0
 42
800.0
  3
ROMANS.shx
  4

  0
STYLE
  2
ROMANT
 70
     0
 40
0.0
 41
0.7
 50
0.0
 71
     0
 42
3.0
  3
romant
  4

  0
STYLE
  2
CYRILLIC
 70
     0
 40
2.2999999999999989
 41
0.7
 50
0.0
 71
     0
 42
2.2999999999999989
  3
cyrillic
  4

  0
STYLE
  2
STYLE1
 70
     0
 40
0.0
 41
1.0
 50
0.0
 71
     0
 42
3.5
  3
romanc.shx
  4

  0
ENDTAB
  0
TABLE
  2
VIEW
 70
     0
  0
ENDTAB
  0
TABLE
  2
UCS
 70
     0
  0
ENDTAB
  0
TABLE
  2
APPID
 70
     6
  0
APPID
  2
ACAD
 70
     0
  0
APPID
  2
PHOENIX7010
 70
     0
  0
APPID
  2
CONTENTBLOCKICON
 70
     0
  0
APPID
  2
CONTENTLONGBLOCKNAME
 70
     0
  0
APPID
  2
ACAD_DSTYLE_DIMTEXT_FILL
 70
     0
  0
APPID
  2
DCO15
 70
     0
  0
ENDTAB
  0
TABLE
  2
DIMSTYLE
 70
     5
  0
DIMSTYLE
  2
STANDARD
 70
     0
  3

  4

  5

  6
OPEN
  7
OPEN
 40
1.0
 41
80.0
 42
1.0
 43
0.0
 44
1.0
 45
0.0
 46
0.8
 47
0.0
 48
0.0
140
70.0
141
-3.0
142
0.0
143
0.0394
144
1.0
145
1.0
146
0.5
147
1.0
 71
     0
 72
     0
 73
     0
 74
     0
 75
     0
 76
     0
 77
     0
 78
     8
170
     0
171
     2
172
     1
173
     1
174
     0
175
     0
176
     7
177
     7
178
     2
  0
DIMSTYLE
  2
EMBABA
 70
     0
  3

  4

  5

  6
OPEN
  7
OPEN
 40
50.0
 41
2.0
 42
0.063
 43
5.0
 44
0.2
 45
0.0
 46
0.0
 47
0.0
 48
0.0
140
2.5
141
2.0
142
0.0
143
25.399999999999999
144
1.0
145
0.0
146
1.0
147
0.5
 71
     0
 72
     0
 73
     0
 74
     0
 75
     0
 76
     0
 77
     1
 78
    12
170
     0
171
     2
172
     1
173
     1
174
     0
175
     0
176
     0
177
     0
178
     7
  0
ENDTAB
  0
ENDSEC
  0
SECTION
  2
BLOCKS
  0
BLOCK
  8
0
  2
$MODEL_SPACE
 70
     0
 10
0.0
 20
0.0
 30
0.0
  3
$MODEL_SPACE
  1

  0
ENDBLK
  5
9
  8
0
  0
BLOCK
 67
     1
  8
0
  2
$PAPER_SPACE
 70
     0
 10
0.0
 20
0.0
 30
0.0
  3
$PAPER_SPACE
  1

  0
ENDBLK
  5
E
 67
     1
  8
0
  0
BLOCK
  8
0
  2
_OPEN
 70
     0
 10
0.0
 20
0.0
 30
0.0
  3
_OPEN
  1

  0
LINE
  5
28
  8
0
  6
BYBLOCK
 62
     0
 10
-1.0
 20
0.1666666666666666
 30
0.0
 11
0.0
 21
0.0
 31
0.0
  0
LINE
  5
29
  8
0
  6
BYBLOCK
 62
     0
 10
0.0
 20
0.0
 30
0.0
 11
-1.0
 21
-0.1666666666666666
 31
0.0
  0
LINE
  5
2A
  8
0
  6
BYBLOCK
 62
     0
 10
0.0
 20
0.0
 30
0.0
 11
-1.0
 21
0.0
 31
0.0
  0
ENDBLK
  5
2C
  8
0
  0
BLOCK
  8
0
  2
*D2
 70
     1
 10
0.0
 20
0.0
 30
0.0
  3
*D2
  1

  0
LINE
  5
68EB8
  8
S-OBRYS
  6
CONTINUOUS
 62
     0
 10
-33627.057916027181
 20
376762.27711847052
 30
0.0
 11
-33627.057916027181
 21
377079.13659916399
 31
0.0
  0
LINE
  5
68EB9
  8
S-OBRYS
  6
CONTINUOUS
 62
     0
 10
-33217.057916027181
 20
376762.27711847052
 30
0.0
 11
-33217.057916027181
 21
377079.13659916399
 31
0.0
  0
LINE
  5
68EBA
  8
S-OBRYS
  6
CONTINUOUS
 62
     0
 10
-33527.057916027174
 20
377069.13659916399
 30
0.0
 11
-33317.057916027174
 21
377069.13659916399
 31
0.0
  0
INSERT
  5
68EBB
  8
S-OBRYS
  6
CONTINUOUS
 62
     0
  2
_OPEN
 10
-33627.057916027181
 20
377069.13659916399
 30
0.0
 41
100.0
 42
100.0
 43
100.0
 50
180.0
  0
INSERT
  5
68EBC
  8
S-OBRYS
  6
CONTINUOUS
 62
     0
  2
_OPEN
 10
-33217.057916027181
 20
377069.13659916399
 30
0.0
 41
100.0
 42
100.0
 43
100.0
  0
INSERT
  5
68EBD
  8
S-OBRYS
  6
CONTINUOUS
  2
*U69
 10
0.0
 20
0.0
 30
0.0
  0
POINT
  5
68EBE
  8
DEFPOINTS
  6
CONTINUOUS
 62
     0
 10
-33627.057916027181
 20
376759.1271184705
 30
0.0
  0
POINT
  5
68EBF
  8
DEFPOINTS
  6
CONTINUOUS
 62
     0
 10
-33217.057916027181
 20
376759.1271184705
 30
0.0
  0
POINT
  5
68EC0
  8
DEFPOINTS
  6
CONTINUOUS
 62
     0
 10
-33217.057916027181
 20
377069.13659916399
 30
0.0
  0
ENDBLK
  5
67A63
  8
0
  0
BLOCK
  8
0
  2
*D3
 70
     1
 10
0.0
 20
0.0
 30
0.0
  3
*D3
  1

  0
LINE
  5
68EC1
  8
S-OBRYS
  6
CONTINUOUS
 62
     0
 10
-33587.057916027181
 20
376263.01056830387
 30
0.0
 11
-33587.057916027181
 21
376038.36539991939
 31
0.0
  0
LINE
  5
68EC2
  8
S-OBRYS
  6
CONTINUOUS
 62
     0
 10
-33257.057916027181
 20
376263.01056830387
 30
0.0
 11
-33257.057916027181
 21
376038.36539991939
 31
0.0
  0
LINE
  5
68EC3
  8
S-OBRYS
  6
CONTINUOUS
 62
     0
 10
-33487.057916027174
 20
376048.36539991951
 30
0.0
 11
-33357.057916027174
 21
376048.36539991951
 31
0.0
  0
INSERT
  5
68EC4
  8
S-OBRYS
  6
CONTINUOUS
 62
     0
  2
_OPEN
 10
-33587.057916027181
 20
376048.36539991951
 30
0.0
 41
100.0
 42
100.0
 43
100.0
 50
180.0
  0
INSERT
  5
68EC5
  8
S-OBRYS
  6
CONTINUOUS
 62
     0
  2
_OPEN
 10
-33257.057916027181
 20
376048.36539991951
 30
0.0
 41
100.0
 42
100.0
 43
100.0
  0
INSERT
  5
68EC6
  8
S-OBRYS
  6
CONTINUOUS
  2
*U70
 10
0.0
 20
0.0
 30
0.0
  0
POINT
  5
68EC7
  8
DEFPOINTS
  6
CONTINUOUS
 62
     0
 10
-33587.057916027181
 20
376266.16056830389
 30
0.0
  0
POINT
  5
68EC8
  8
DEFPOINTS
  6
CONTINUOUS
 62
     0
 10
-33257.057916027181
 20
376266.16056830389
 30
0.0
  0
POINT
  5
68EC9
  8
DEFPOINTS
  6
CONTINUOUS
 62
     0
 10
-33257.057916027181
 20
376048.36539991951
 30
0.0
  0
ENDBLK
  5
67A6F
  8
0
  0
BLOCK
  8
0
  2
*D4
 70
     1
 10
0.0
 20
0.0
 30
0.0
  3
*D4
  1

  0
LINE
  5
68ECA
  8
S-OBRYS
  6
CONTINUOUS
 62
     0
 10
-33590.207916027182
 20
376266.16056830389
 30
0.0
 11
-33703.883911468009
 21
376266.16056830389
 31
0.0
  0
LINE
  5
68ECB
  8
S-OBRYS
  6
CONTINUOUS
 62
     0
 10
-33630.207916027182
 20
376759.1271184705
 30
0.0
 11
-33703.883911468009
 21
376759.1271184705
 31
0.0
  0
LINE
  5
68ECC
  8
S-OBRYS
  6
CONTINUOUS
 62
     0
 10
-33693.883911468009
 20
376366.16056830389
 30
0.0
 11
-33693.883911468009
 21
376659.12711847038
 31
0.0
  0
INSERT
  5
68ECD
  8
S-OBRYS
  6
CONTINUOUS
 62
     0
  2
_OPEN
 10
-33693.883911468009
 20
376266.16056830389
 30
0.0
 41
100.0
 42
100.0
 43
100.0
 50
270.0
  0
INSERT
  5
68ECE
  8
S-OBRYS
  6
CONTINUOUS
 62
     0
  2
_OPEN
 10
-33693.883911468009
 20
376759.1271184705
 30
0.0
 41
100.0
 42
100.0
 43
100.0
 50
90.0
  0
INSERT
  5
68ECF
  8
S-OBRYS
  6
CONTINUOUS
  2
*U71
 10
0.0
 20
0.0
 30
0.0
  0
POINT
  5
68ED0
  8
DEFPOINTS
  6
CONTINUOUS
 62
     0
 10
-33587.057916027181
 20
376266.16056830389
 30
0.0
  0
POINT
  5
68ED1
  8
DEFPOINTS
  6
CONTINUOUS
 62
     0
 10
-33627.057916027181
 20
376759.1271184705
 30
0.0
  0
POINT
  5
68ED2
  8
DEFPOINTS
  6
CONTINUOUS
 62
     0
 10
-33693.883911468009
 20
376759.1271184705
 30
0.0
  0
ENDBLK
  5
67A7B
  8
0
  0
BLOCK
  8
0
  2
*D5
 70
     1
 10
0.0
 20
0.0
 30
0.0
  3
*D5
  1

  0
LINE
  5
6893D
  8
S-OBRYS
  6
CONTINUOUS
 62
     0
 10
-38962.403254423123
 20
382266.95319428528
 30
0.0
 11
-39258.821461924752
 21
382266.95319428528
 31
0.0
  0
LINE
  5
6893E
  8
S-OBRYS
  6
CONTINUOUS
 62
     0
 10
-38959.651104564189
 20
382799.95319428539
 30
0.0
 11
-39258.821461924752
 21
382799.95319428539
 31
0.0
  0
LINE
  5
6893F
  8
S-OBRYS
  6
CONTINUOUS
 62
     0
 10
-39248.821461924752
 20
382366.95319428528
 30
0.0
 11
-39248.821461924752
 21
382699.95319428539
 31
0.0
  0
INSERT
  5
68940
  8
S-OBRYS
  6
CONTINUOUS
 62
     0
  2
_OPEN
 10
-39248.821461924752
 20
382266.95319428528
 30
0.0
 41
100.0
 42
100.0
 43
100.0
 50
270.0
  0
INSERT
  5
68941
  8
S-OBRYS
  6
CONTINUOUS
 62
     0
  2
_OPEN
 10
-39248.821461924752
 20
382799.95319428539
 30
0.0
 41
100.0
 42
100.0
 43
100.0
 50
90.0
  0
INSERT
  5
68942
  8
S-OBRYS
  6
CONTINUOUS
  2
*U56
 10
0.0
 20
0.0
 30
0.0
  0
POINT
  5
68943
  8
DEFPOINTS
  6
CONTINUOUS
 62
     0
 10
-38959.253254423122
 20
382266.95319428528
 30
0.0
  0
POINT
  5
68944
  8
DEFPOINTS
  6
CONTINUOUS
 62
     0
 10
-38956.501104564188
 20
382799.95319428539
 30
0.0
  0
POINT
  5
68945
  8
DEFPOINTS
  6
CONTINUOUS
 62
     0
 10
-39248.821461924752
 20
382799.95319428539
 30
0.0
  0
ENDBLK
  5
67A87
  8
0
  0
BLOCK
  8
0
  2
*D6
 70
     1
 10
0.0
 20
0.0
 30
0.0
  3
*D6
  1

  0
LINE
  5
68946
  8
S-OBRYS
  6
CONTINUOUS
 62
     0
 10
-38962.403254423123
 20
382266.95319428528
 30
0.0
 11
-39150.443735355882
 21
382266.95319428528
 31
0.0
  0
LINE
  5
68947
  8
S-OBRYS
  6
CONTINUOUS
 62
     0
 10
-39056.40325442313
 20
382569.95319428539
 30
0.0
 11
-39150.443735355882
 21
382569.95319428539
 31
0.0
  0
LINE
  5
68948
  8
S-OBRYS
  6
CONTINUOUS
 62
     0
 10
-39140.443735355882
 20
382366.95319428528
 30
0.0
 11
-39140.443735355882
 21
382469.95319428539
 31
0.0
  0
LINE
  5
68949
  8
S-OBRYS
  6
CONTINUOUS
 62
     0
 10
-39140.443735355882
 20
382569.95319428539
 30
0.0
 11
-39140.443735355882
 21
383316.51757458708
 31
0.0
  0
INSERT
  5
6894A
  8
S-OBRYS
  6
CONTINUOUS
 62
     0
  2
_OPEN
 10
-39140.443735355882
 20
382266.95319428528
 30
0.0
 41
100.0
 42
100.0
 43
100.0
 50
270.0
  0
INSERT
  5
6894B
  8
S-OBRYS
  6
CONTINUOUS
 62
     0
  2
_OPEN
 10
-39140.443735355882
 20
382569.95319428539
 30
0.0
 41
100.0
 42
100.0
 43
100.0
 50
90.0
  0
INSERT
  5
6894C
  8
S-OBRYS
  6
CONTINUOUS
  2
*U57
 10
0.0
 20
0.0
 30
0.0
  0
POINT
  5
6894D
  8
DEFPOINTS
  6
CONTINUOUS
 62
     0
 10
-38959.253254423122
 20
382266.95319428528
 30
0.0
  0
POINT
  5
6894E
  8
DEFPOINTS
  6
CONTINUOUS
 62
     0
 10
-39053.253254423122
 20
382569.95319428539
 30
0.0
  0
POINT
  5
6894F
  8
DEFPOINTS
  6
CONTINUOUS
 62
     0
 10
-39140.443735355882
 20
382569.95319428539
 30
0.0
  0
ENDBLK
  5
67A93
  8
0
  0
BLOCK
  8
0
  2
*D7
 70
     1
 10
0.0
 20
0.0
 30
0.0
  3
*D7
  1

  0
LINE
  5
68950
  8
S-OBRYS
  6
CONTINUOUS
 62
     0
 10
-32474.357277743631
 20
382745.44706685422
 30
0.0
 11
-32474.357277743631
 21
383079.92922514537
 31
0.0
  0
LINE
  5
68951
  8
S-OBRYS
  6
CONTINUOUS
 62
     0
 10
-31421.368206246421
 20
382663.39119428542
 30
0.0
 11
-31421.368206246421
 21
383079.92922514537
 31
0.0
  0
LINE
  5
68952
  8
S-OBRYS
  6
CONTINUOUS
 62
     0
 10
-32374.357277743631
 20
383069.92922514537
 30
0.0
 11
-31521.368206246421
 21
383069.92922514537
 31
0.0
  0
INSERT
  5
68953
  8
S-OBRYS
  6
CONTINUOUS
 62
     0
  2
_OPEN
 10
-32474.357277743631
 20
383069.92922514537
 30
0.0
 41
100.0
 42
100.0
 43
100.0
 50
180.0
  0
INSERT
  5
68954
  8
S-OBRYS
  6
CONTINUOUS
 62
     0
  2
_OPEN
 10
-31421.368206246421
 20
383069.92922514537
 30
0.0
 41
100.0
 42
100.0
 43
100.0
  0
INSERT
  5
68955
  8
S-OBRYS
  6
CONTINUOUS
  2
*U58
 10
0.0
 20
0.0
 30
0.0
  0
POINT
  5
68956
  8
DEFPOINTS
  6
CONTINUOUS
 62
     0
 10
-32474.357277743631
 20
382742.2970668542
 30
0.0
  0
POINT
  5
68957
  8
DEFPOINTS
  6
CONTINUOUS
 62
     0
 10
-31421.368206246421
 20
382660.24119428539
 30
0.0
  0
POINT
  5
68958
  8
DEFPOINTS
  6
CONTINUOUS
 62
     0
 10
-31421.368206246421
 20
383069.92922514537
 30
0.0
  0
ENDBLK
  5
67A9F
  8
0
  0
BLOCK
  8
0
  2
*D8
 70
     1
 10
0.0
 20
0.0
 30
0.0
  3
*D8
  1

  0
LINE
  5
68959
  8
S-OBRYS
  6
CONTINUOUS
 62
     0
 10
-34974.356201375922
 20
382619.0495128404
 30
0.0
 11
-34974.356201375922
 21
383079.92922514537
 31
0.0
  0
LINE
  5
6895A
  8
S-OBRYS
  6
CONTINUOUS
 62
     0
 10
-32474.359659144291
 20
382601.40649374487
 30
0.0
 11
-32474.359659144291
 21
383079.92922514537
 31
0.0
  0
LINE
  5
6895B
  8
S-OBRYS
  6
CONTINUOUS
 62
     0
 10
-34874.356201375922
 20
383069.92922514537
 30
0.0
 11
-32574.35965914428
 21
383069.92922514537
 31
0.0
  0
INSERT
  5
6895C
  8
S-OBRYS
  6
CONTINUOUS
 62
     0
  2
_OPEN
 10
-34974.356201375922
 20
383069.92922514537
 30
0.0
 41
100.0
 42
100.0
 43
100.0
 50
180.0
  0
INSERT
  5
6895D
  8
S-OBRYS
  6
CONTINUOUS
 62
     0
  2
_OPEN
 10
-32474.359659144291
 20
383069.92922514537
 30
0.0
 41
100.0
 42
100.0
 43
100.0
  0
INSERT
  5
6895E
  8
S-OBRYS
  6
CONTINUOUS
  2
*U59
 10
0.0
 20
0.0
 30
0.0
  0
POINT
  5
6895F
  8
DEFPOINTS
  6
CONTINUOUS
 62
     0
 10
-34974.356201375922
 20
382615.89951284038
 30
0.0
  0
POINT
  5
68960
  8
DEFPOINTS
  6
CONTINUOUS
 62
     0
 10
-32474.359659144291
 20
382598.25649374491
 30
0.0
  0
POINT
  5
68961
  8
DEFPOINTS
  6
CONTINUOUS
 62
     0
 10
-32474.359659144291
 20
383069.92922514537
 30
0.0
  0
ENDBLK
  5
67AAB
  8
0
  0
BLOCK
  8
0
  2
*D9
 70
     1
 10
0.0
 20
0.0
 30
0.0
  3
*D9
  1

  0
LINE
  5
6892B
  8
S-OBRYS
  6
CONTINUOUS
 62
     0
 10
-36974.356201375922
 20
382619.0495128404
 30
0.0
 11
-36974.356201375922
 21
383083.32345680031
 31
0.0
  0
LINE
  5
6892C
  8
S-OBRYS
  6
CONTINUOUS
 62
     0
 10
-34974.356201375922
 20
382594.266063007
 30
0.0
 11
-34974.356201375922
 21
383083.32345680031
 31
0.0
  0
LINE
  5
6892D
  8
S-OBRYS
  6
CONTINUOUS
 62
     0
 10
-36874.356201375922
 20
383073.32345680031
 30
0.0
 11
-35074.356201375922
 21
383073.32345680031
 31
0.0
  0
INSERT
  5
6892E
  8
S-OBRYS
  6
CONTINUOUS
 62
     0
  2
_OPEN
 10
-36974.356201375922
 20
383073.32345680031
 30
0.0
 41
100.0
 42
100.0
 43
100.0
 50
180.0
  0
INSERT
  5
6892F
  8
S-OBRYS
  6
CONTINUOUS
 62
     0
  2
_OPEN
 10
-34974.356201375922
 20
383073.32345680031
 30
0.0
 41
100.0
 42
100.0
 43
100.0
  0
INSERT
  5
68930
  8
S-OBRYS
  6
CONTINUOUS
  2
*U54
 10
0.0
 20
0.0
 30
0.0
  0
POINT
  5
68931
  8
DEFPOINTS
  6
CONTINUOUS
 62
     0
 10
-36974.356201375922
 20
382615.89951284038
 30
0.0
  0
POINT
  5
68932
  8
DEFPOINTS
  6
CONTINUOUS
 62
     0
 10
-34974.356201375922
 20
382591.11606300698
 30
0.0
  0
POINT
  5
68933
  8
DEFPOINTS
  6
CONTINUOUS
 62
     0
 10
-34974.356201375922
 20
383073.32345680031
 30
0.0
  0
ENDBLK
  5
67AB7
  8
0
  0
BLOCK
  8
0
  2
*D10
 70
     1
 10
0.0
 20
0.0
 30
0.0
  3
*D10
  1

  0
LINE
  5
68934
  8
S-OBRYS
  6
CONTINUOUS
 62
     0
 10
-38974.356201375922
 20
382660.60319673939
 30
0.0
 11
-38974.356201375922
 21
383079.92922514537
 31
0.0
  0
LINE
  5
68935
  8
S-OBRYS
  6
CONTINUOUS
 62
     0
 10
-36974.356201375922
 20
382660.56744133128
 30
0.0
 11
-36974.356201375922
 21
383079.92922514537
 31
0.0
  0
LINE
  5
68936
  8
S-OBRYS
  6
CONTINUOUS
 62
     0
 10
-38874.356201375922
 20
383069.92922514537
 30
0.0
 11
-37074.356201375922
 21
383069.92922514537
 31
0.0
  0
INSERT
  5
68937
  8
S-OBRYS
  6
CONTINUOUS
 62
     0
  2
_OPEN
 10
-38974.356201375922
 20
383069.92922514537
 30
0.0
 41
100.0
 42
100.0
 43
100.0
 50
180.0
  0
INSERT
  5
68938
  8
S-OBRYS
  6
CONTINUOUS
 62
     0
  2
_OPEN
 10
-36974.356201375922
 20
383069.92922514537
 30
0.0
 41
100.0
 42
100.0
 43
100.0
  0
INSERT
  5
68939
  8
S-OBRYS
  6
CONTINUOUS
  2
*U55
 10
0.0
 20
0.0
 30
0.0
  0
POINT
  5
6893A
  8
DEFPOINTS
  6
CONTINUOUS
 62
     0
 10
-38974.356201375922
 20
382657.45319673931
 30
0.0
  0
POINT
  5
6893B
  8
DEFPOINTS
  6
CONTINUOUS
 62
     0
 10
-36974.356201375922
 20
382657.41744133132
 30
0.0
  0
POINT
  5
6893C
  8
DEFPOINTS
  6
CONTINUOUS
 62
     0
 10
-36974.356201375922
 20
383069.92922514537
 30
0.0
  0
ENDBLK
  5
67AC3
  8
0
  0
BLOCK
  8
0
  2
*D11
 70
     1
 10
0.0
 20
0.0
 30
0.0
  3
*D11
  1

  0
LINE
  5
68EAF
  8
S-OBRYS
  6
CONTINUOUS
 62
     0
 10
-36751.11777098968
 20
376693.65554518672
 30
0.0
 11
-36751.11777098968
 21
377009.5871803909
 31
0.0
  0
LINE
  5
68EB0
  8
S-OBRYS
  6
CONTINUOUS
 62
     0
 10
-36346.117770989687
 20
376693.65554518672
 30
0.0
 11
-36346.117770989687
 21
377009.5871803909
 31
0.0
  0
LINE
  5
68EB1
  8
S-OBRYS
  6
CONTINUOUS
 62
     0
 10
-36651.11777098968
 20
376999.58718039078
 30
0.0
 11
-36446.117770989687
 21
376999.58718039078
 31
0.0
  0
INSERT
  5
68EB2
  8
S-OBRYS
  6
CONTINUOUS
 62
     0
  2
_OPEN
 10
-36751.11777098968
 20
376999.58718039078
 30
0.0
 41
100.0
 42
100.0
 43
100.0
 50
180.0
  0
INSERT
  5
68EB3
  8
S-OBRYS
  6
CONTINUOUS
 62
     0
  2
_OPEN
 10
-36346.117770989687
 20
376999.58718039078
 30
0.0
 41
100.0
 42
100.0
 43
100.0
  0
INSERT
  5
68EB4
  8
S-OBRYS
  6
CONTINUOUS
  2
*U68
 10
0.0
 20
0.0
 30
0.0
  0
POINT
  5
68EB5
  8
DEFPOINTS
  6
CONTINUOUS
 62
     0
 10
-36751.11777098968
 20
376690.50554518669
 30
0.0
  0
POINT
  5
68EB6
  8
DEFPOINTS
  6
CONTINUOUS
 62
     0
 10
-36346.117770989687
 20
376690.50554518669
 30
0.0
  0
POINT
  5
68EB7
  8
DEFPOINTS
  6
CONTINUOUS
 62
     0
 10
-36346.117770989687
 20
376999.58718039078
 30
0.0
  0
ENDBLK
  5
67ACF
  8
0
  0
BLOCK
  8
0
  2
*D22
 70
     1
 10
0.0
 20
0.0
 30
0.0
  3
*D22
  1

  0
LINE
  5
68E62
  8
S-OBRYS
  6
CONTINUOUS
 62
     0
 10
-37200.442605579519
 20
378247.04029923631
 30
0.0
 11
-37200.442605579519
 21
378711.31424319599
 31
0.0
  0
LINE
  5
68E63
  8
S-OBRYS
  6
CONTINUOUS
 62
     0
 10
-35200.442605579519
 20
378222.25684940279
 30
0.0
 11
-35200.442605579519
 21
378711.31424319599
 31
0.0
  0
LINE
  5
68E64
  8
S-OBRYS
  6
CONTINUOUS
 62
     0
 10
-37100.442605579519
 20
378701.31424319599
 30
0.0
 11
-35300.442605579519
 21
378701.31424319599
 31
0.0
  0
INSERT
  5
68E65
  8
S-OBRYS
  6
CONTINUOUS
 62
     0
  2
_OPEN
 10
-37200.442605579519
 20
378701.31424319599
 30
0.0
 41
100.0
 42
100.0
 43
100.0
 50
180.0
  0
INSERT
  5
68E66
  8
S-OBRYS
  6
CONTINUOUS
 62
     0
  2
_OPEN
 10
-35200.442605579519
 20
378701.31424319599
 30
0.0
 41
100.0
 42
100.0
 43
100.0
  0
INSERT
  5
68E67
  8
S-OBRYS
  6
CONTINUOUS
  2
*U60
 10
0.0
 20
0.0
 30
0.0
  0
POINT
  5
68E68
  8
DEFPOINTS
  6
CONTINUOUS
 62
     0
 10
-37200.442605579519
 20
378243.89029923623
 30
0.0
  0
POINT
  5
68E69
  8
DEFPOINTS
  6
CONTINUOUS
 62
     0
 10
-35200.442605579519
 20
378219.10684940271
 30
0.0
  0
POINT
  5
68E6A
  8
DEFPOINTS
  6
CONTINUOUS
 62
     0
 10
-35200.442605579519
 20
378701.31424319599
 30
0.0
  0
ENDBLK
  5
68E08
  8
0
  0
BLOCK
  8
0
  2
*D23
 70
     1
 10
0.0
 20
0.0
 30
0.0
  3
*D23
  1

  0
LINE
  5
68E6B
  8
S-OBRYS
  6
CONTINUOUS
 62
     0
 10
-39200.442605579519
 20
378288.59398313513
 30
0.0
 11
-39200.442605579519
 21
378707.92001154122
 31
0.0
  0
LINE
  5
68E6C
  8
S-OBRYS
  6
CONTINUOUS
 62
     0
 10
-37200.442605579519
 20
378288.55822772702
 30
0.0
 11
-37200.442605579519
 21
378707.92001154122
 31
0.0
  0
LINE
  5
68E6D
  8
S-OBRYS
  6
CONTINUOUS
 62
     0
 10
-39100.442605579519
 20
378697.92001154111
 30
0.0
 11
-37300.442605579519
 21
378697.92001154111
 31
0.0
  0
INSERT
  5
68E6E
  8
S-OBRYS
  6
CONTINUOUS
 62
     0
  2
_OPEN
 10
-39200.442605579519
 20
378697.92001154111
 30
0.0
 41
100.0
 42
100.0
 43
100.0
 50
180.0
  0
INSERT
  5
68E6F
  8
S-OBRYS
  6
CONTINUOUS
 62
     0
  2
_OPEN
 10
-37200.442605579519
 20
378697.92001154111
 30
0.0
 41
100.0
 42
100.0
 43
100.0
  0
INSERT
  5
68E70
  8
S-OBRYS
  6
CONTINUOUS
  2
*U61
 10
0.0
 20
0.0
 30
0.0
  0
POINT
  5
68E71
  8
DEFPOINTS
  6
CONTINUOUS
 62
     0
 10
-39200.442605579519
 20
378285.44398313499
 30
0.0
  0
POINT
  5
68E72
  8
DEFPOINTS
  6
CONTINUOUS
 62
     0
 10
-37200.442605579519
 20
378285.40822772699
 30
0.0
  0
POINT
  5
68E73
  8
DEFPOINTS
  6
CONTINUOUS
 62
     0
 10
-37200.442605579519
 20
378697.92001154111
 30
0.0
  0
ENDBLK
  5
68E14
  8
0
  0
BLOCK
  8
0
  2
*D24
 70
     1
 10
0.0
 20
0.0
 30
0.0
  3
*D24
  1

  0
LINE
  5
68E74
  8
S-OBRYS
  6
CONTINUOUS
 62
     0
 10
-39188.48965862672
 20
377894.94398068113
 30
0.0
 11
-39375.643311543012
 21
377894.94398068113
 31
0.0
  0
LINE
  5
68E75
  8
S-OBRYS
  6
CONTINUOUS
 62
     0
 10
-39185.737508767786
 20
378427.94398068113
 30
0.0
 11
-39375.643311543012
 21
378427.94398068113
 31
0.0
  0
LINE
  5
68E76
  8
S-OBRYS
  6
CONTINUOUS
 62
     0
 10
-39365.643311543012
 20
377994.94398068113
 30
0.0
 11
-39365.643311543012
 21
378327.94398068113
 31
0.0
  0
LINE
  5
68E77
  8
S-OBRYS
  6
CONTINUOUS
 62
     0
 10
-39365.643311543012
 20
378427.94398068113
 30
0.0
 11
-39365.643311543012
 21
379317.1978941306
 31
0.0
  0
INSERT
  5
68E78
  8
S-OBRYS
  6
CONTINUOUS
 62
     0
  2
_OPEN
 10
-39365.643311543012
 20
377894.94398068113
 30
0.0
 41
100.0
 42
100.0
 43
100.0
 50
270.0
  0
INSERT
  5
68E79
  8
S-OBRYS
  6
CONTINUOUS
 62
     0
  2
_OPEN
 10
-39365.643311543012
 20
378427.94398068113
 30
0.0
 41
100.0
 42
100.0
 43
100.0
 50
90.0
  0
INSERT
  5
68E7A
  8
S-OBRYS
  6
CONTINUOUS
  2
*U62
 10
0.0
 20
0.0
 30
0.0
  0
POINT
  5
68E7B
  8
DEFPOINTS
  6
CONTINUOUS
 62
     0
 10
-39185.339658626719
 20
377894.94398068113
 30
0.0
  0
POINT
  5
68E7C
  8
DEFPOINTS
  6
CONTINUOUS
 62
     0
 10
-39182.587508767792
 20
378427.94398068113
 30
0.0
  0
POINT
  5
68E7D
  8
DEFPOINTS
  6
CONTINUOUS
 62
     0
 10
-39365.643311543012
 20
378427.94398068113
 30
0.0
  0
ENDBLK
  5
68E21
  8
0
  0
BLOCK
  8
0
  2
*D25
 70
     1
 10
0.0
 20
0.0
 30
0.0
  3
*D25
  1

  0
LINE
  5
68E7E
  8
S-OBRYS
  6
CONTINUOUS
 62
     0
 10
-39188.48965862672
 20
377894.94398068113
 30
0.0
 11
-39376.53013955948
 21
377894.94398068113
 31
0.0
  0
LINE
  5
68E7F
  8
S-OBRYS
  6
CONTINUOUS
 62
     0
 10
-39282.48965862672
 20
378197.94398068113
 30
0.0
 11
-39376.53013955948
 21
378197.94398068113
 31
0.0
  0
LINE
  5
68E80
  8
S-OBRYS
  6
CONTINUOUS
 62
     0
 10
-39366.53013955948
 20
378097.94398068113
 30
0.0
 11
-39366.53013955948
 21
377994.94398068113
 31
0.0
  0
LINE
  5
68E81
  8
S-OBRYS
  6
CONTINUOUS
 62
     0
 10
-39366.53013955948
 20
377894.94398068113
 30
0.0
 11
-39366.53013955948
 21
377273.24228643259
 31
0.0
  0
INSERT
  5
68E82
  8
S-OBRYS
  6
CONTINUOUS
 62
     0
  2
_OPEN
 10
-39366.53013955948
 20
378197.94398068113
 30
0.0
 41
100.0
 42
100.0
 43
100.0
 50
90.0
  0
INSERT
  5
68E83
  8
S-OBRYS
  6
CONTINUOUS
 62
     0
  2
_OPEN
 10
-39366.53013955948
 20
377894.94398068113
 30
0.0
 41
100.0
 42
100.0
 43
100.0
 50
270.0
  0
INSERT
  5
68E84
  8
S-OBRYS
  6
CONTINUOUS
  2
*U63
 10
0.0
 20
0.0
 30
0.0
  0
POINT
  5
68E85
  8
DEFPOINTS
  6
CONTINUOUS
 62
     0
 10
-39185.339658626719
 20
377894.94398068113
 30
0.0
  0
POINT
  5
68E86
  8
DEFPOINTS
  6
CONTINUOUS
 62
     0
 10
-39279.339658626719
 20
378197.94398068113
 30
0.0
  0
POINT
  5
68E87
  8
DEFPOINTS
  6
CONTINUOUS
 62
     0
 10
-39366.53013955948
 20
378197.94398068113
 30
0.0
  0
ENDBLK
  5
68E2E
  8
0
  0
BLOCK
  8
0
  2
*D26
 70
     1
 10
0.0
 20
0.0
 30
0.0
  3
*D26
  1

  0
LINE
  5
68E88
  8
S-OBRYS
  6
CONTINUOUS
 62
     0
 10
-32700.443681947228
 20
378373.4378532499
 30
0.0
 11
-32700.443681947228
 21
378707.92001154122
 31
0.0
  0
LINE
  5
68E89
  8
S-OBRYS
  6
CONTINUOUS
 62
     0
 10
-31647.454610450019
 20
378291.38198068109
 30
0.0
 11
-31647.454610450019
 21
378707.92001154122
 31
0.0
  0
LINE
  5
68E8A
  8
S-OBRYS
  6
CONTINUOUS
 62
     0
 10
-32600.443681947228
 20
378697.92001154111
 30
0.0
 11
-31747.454610450019
 21
378697.92001154111
 31
0.0
  0
INSERT
  5
68E8B
  8
S-OBRYS
  6
CONTINUOUS
 62
     0
  2
_OPEN
 10
-32700.443681947228
 20
378697.92001154111
 30
0.0
 41
100.0
 42
100.0
 43
100.0
 50
180.0
  0
INSERT
  5
68E8C
  8
S-OBRYS
  6
CONTINUOUS
 62
     0
  2
_OPEN
 10
-31647.454610450019
 20
378697.92001154111
 30
0.0
 41
100.0
 42
100.0
 43
100.0
  0
INSERT
  5
68E8D
  8
S-OBRYS
  6
CONTINUOUS
  2
*U64
 10
0.0
 20
0.0
 30
0.0
  0
POINT
  5
68E8E
  8
DEFPOINTS
  6
CONTINUOUS
 62
     0
 10
-32700.443681947228
 20
378370.28785324987
 30
0.0
  0
POINT
  5
68E8F
  8
DEFPOINTS
  6
CONTINUOUS
 62
     0
 10
-31647.454610450019
 20
378288.23198068113
 30
0.0
  0
POINT
  5
68E90
  8
DEFPOINTS
  6
CONTINUOUS
 62
     0
 10
-31647.454610450019
 20
378697.92001154111
 30
0.0
  0
ENDBLK
  5
68E3A
  8
0
  0
BLOCK
  8
0
  2
*D27
 70
     1
 10
0.0
 20
0.0
 30
0.0
  3
*D27
  1

  0
LINE
  5
68E91
  8
S-OBRYS
  6
CONTINUOUS
 62
     0
 10
-35200.442605579519
 20
378247.04029923631
 30
0.0
 11
-35200.442605579519
 21
378707.92001154122
 31
0.0
  0
LINE
  5
68E92
  8
S-OBRYS
  6
CONTINUOUS
 62
     0
 10
-32700.446063347881
 20
378229.39728014072
 30
0.0
 11
-32700.446063347881
 21
378707.92001154122
 31
0.0
  0
LINE
  5
68E93
  8
S-OBRYS
  6
CONTINUOUS
 62
     0
 10
-35100.442605579519
 20
378697.92001154111
 30
0.0
 11
-32800.446063347881
 21
378697.92001154111
 31
0.0
  0
INSERT
  5
68E94
  8
S-OBRYS
  6
CONTINUOUS
 62
     0
  2
_OPEN
 10
-35200.442605579519
 20
378697.92001154111
 30
0.0
 41
100.0
 42
100.0
 43
100.0
 50
180.0
  0
INSERT
  5
68E95
  8
S-OBRYS
  6
CONTINUOUS
 62
     0
  2
_OPEN
 10
-32700.446063347881
 20
378697.92001154111
 30
0.0
 41
100.0
 42
100.0
 43
100.0
  0
INSERT
  5
68E96
  8
S-OBRYS
  6
CONTINUOUS
  2
*U65
 10
0.0
 20
0.0
 30
0.0
  0
POINT
  5
68E97
  8
DEFPOINTS
  6
CONTINUOUS
 62
     0
 10
-35200.442605579519
 20
378243.89029923623
 30
0.0
  0
POINT
  5
68E98
  8
DEFPOINTS
  6
CONTINUOUS
 62
     0
 10
-32700.446063347881
 20
378226.24728014058
 30
0.0
  0
POINT
  5
68E99
  8
DEFPOINTS
  6
CONTINUOUS
 62
     0
 10
-32700.446063347881
 20
378697.92001154111
 30
0.0
  0
ENDBLK
  5
68E46
  8
0
  0
BLOCK
  8
0
  2
*D28
 70
     1
 10
0.0
 20
0.0
 30
0.0
  3
*D28
  1

  0
LINE
  5
68E9A
  8
S-OBRYS
  6
CONTINUOUS
 62
     0
 10
-39279.339658626719
 20
378200.83459991351
 30
0.0
 11
-39279.339658626719
 21
378839.38917382859
 31
0.0
  0
LINE
  5
68E9B
  8
S-OBRYS
  6
CONTINUOUS
 62
     0
 10
-39479.339658626719
 20
378200.83459991351
 30
0.0
 11
-39479.339658626719
 21
378839.38917382859
 31
0.0
  0
LINE
  5
68E9C
  8
S-OBRYS
  6
CONTINUOUS
 62
     0
 10
-39179.339658626719
 20
378829.38917382847
 30
0.0
 11
-39079.339658626719
 21
378829.38917382847
 31
0.0
  0
LINE
  5
68E9D
  8
S-OBRYS
  6
CONTINUOUS
 62
     0
 10
-39579.339658626719
 20
378829.38917382847
 30
0.0
 11
-40286.482515769567
 21
378829.38917382847
 31
0.0
  0
LINE
  5
68E9E
  8
S-OBRYS
  6
CONTINUOUS
 62
     0
 10
-39279.339658626719
 20
378829.38917382847
 30
0.0
 11
-39479.339658626719
 21
378829.38917382847
 31
0.0
  0
INSERT
  5
68E9F
  8
S-OBRYS
  6
CONTINUOUS
 62
     0
  2
_OPEN
 10
-39279.339658626719
 20
378829.38917382847
 30
0.0
 41
100.0
 42
100.0
 43
100.0
 50
180.0
  0
INSERT
  5
68EA0
  8
S-OBRYS
  6
CONTINUOUS
 62
     0
  2
_OPEN
 10
-39479.339658626719
 20
378829.38917382847
 30
0.0
 41
100.0
 42
100.0
 43
100.0
  0
INSERT
  5
68EA1
  8
S-OBRYS
  6
CONTINUOUS
  2
*U66
 10
0.0
 20
0.0
 30
0.0
  0
POINT
  5
68EA2
  8
DEFPOINTS
  6
CONTINUOUS
 62
     0
 10
-39279.339658626719
 20
378197.68459991348
 30
0.0
  0
POINT
  5
68EA3
  8
DEFPOINTS
  6
CONTINUOUS
 62
     0
 10
-39479.339658626719
 20
378197.68459991348
 30
0.0
  0
POINT
  5
68EA4
  8
DEFPOINTS
  6
CONTINUOUS
 62
     0
 10
-39479.339658626719
 20
378829.38917382847
 30
0.0
  0
ENDBLK
  5
68E54
  8
0
  0
BLOCK
  8
0
  2
*D29
 70
     1
 10
0.0
 20
0.0
 30
0.0
  3
*D29
  1

  0
LINE
  5
68EA5
  8
S-OBRYS
  6
CONTINUOUS
 62
     0
 10
-31647.454610450019
 20
378446.36198131082
 30
0.0
 11
-31647.454610450019
 21
378845.1851736739
 31
0.0
  0
LINE
  5
68EA6
  8
S-OBRYS
  6
CONTINUOUS
 62
     0
 10
-31247.454610450019
 20
378446.36198131082
 30
0.0
 11
-31247.454610450019
 21
378845.1851736739
 31
0.0
  0
LINE
  5
68EA7
  8
S-OBRYS
  6
CONTINUOUS
 62
     0
 10
-31547.454610450019
 20
378835.18517367379
 30
0.0
 11
-31347.454610450019
 21
378835.18517367379
 31
0.0
  0
LINE
  5
68EA8
  8
S-OBRYS
  6
CONTINUOUS
 62
     0
 10
-31247.454610450019
 20
378835.18517367379
 30
0.0
 11
-30540.31175330716
 21
378835.18517367379
 31
0.0
  0
INSERT
  5
68EA9
  8
S-OBRYS
  6
CONTINUOUS
 62
     0
  2
_OPEN
 10
-31647.454610450019
 20
378835.18517367379
 30
0.0
 41
100.0
 42
100.0
 43
100.0
 50
180.0
  0
INSERT
  5
68EAA
  8
S-OBRYS
  6
CONTINUOUS
 62
     0
  2
_OPEN
 10
-31247.454610450019
 20
378835.18517367379
 30
0.0
 41
100.0
 42
100.0
 43
100.0
  0
INSERT
  5
68EAB
  8
S-OBRYS
  6
CONTINUOUS
  2
*U67
 10
0.0
 20
0.0
 30
0.0
  0
POINT
  5
68EAC
  8
DEFPOINTS
  6
CONTINUOUS
 62
     0
 10
-31647.454610450019
 20
378443.21198131092
 30
0.0
  0
POINT
  5
68EAD
  8
DEFPOINTS
  6
CONTINUOUS
 62
     0
 10
-31247.454610450019
 20
378443.21198131092
 30
0.0
  0
POINT
  5
68EAE
  8
DEFPOINTS
  6
CONTINUOUS
 62
     0
 10
-31247.454610450019
 20
378835.18517367379
 30
0.0
  0
ENDBLK
  5
68E61
  8
0
  0
BLOCK
  8
0
  2
*U30
 70
     1
 10
0.0
 20
0.0
 30
0.0
  3
*U30
  1

  0
TEXT
  5
6901A
  8
OBRYS
  6
CONTINUOUS
 10
-38806.649350653272
 20
384080.28647276311
 30
0.0
 40
400.0
  1
Dopravník šnekový  DS 320
  7
R
  0
ENDBLK
  5
6901C
  8
0
  0
BLOCK
  8
0
  2
*U31
 70
     1
 10
0.0
 20
0.0
 30
0.0
  3
*U31
  1

  0
TEXT
  5
6901E
  8
S-OBRYS
  6
CONTINUOUS
 10
-35357.755797796017
 20
374660.47845945298
 30
0.0
 40
100.0
  1
1500 mm
  7
STYLE1
  0
ENDBLK
  5
69020
  8
0
  0
BLOCK
  8
0
  2
*U32
 70
     1
 10
0.0
 20
0.0
 30
0.0
  3
*U32
  1

  0
TEXT
  5
69022
  8
S-OBRYS
  6
CONTINUOUS
 10
-35343.470083510307
 20
374854.63381631748
 30
0.0
 40
100.0
  1
2000 mm
  7
STYLE1
  0
ENDBLK
  5
69024
  8
0
  0
BLOCK
  8
0
  2
*U33
 70
     1
 10
0.0
 20
0.0
 30
0.0
  3
*U33
  1

  0
TEXT
  5
69026
  8
S-OBRYS
  6
CONTINUOUS
 10
-35343.470083510307
 20
375048.78917318222
 30
0.0
 40
100.0
  1
3000 mm
  7
STYLE1
  0
ENDBLK
  5
69028
  8
0
  0
BLOCK
  8
0
  2
*U34
 70
     1
 10
0.0
 20
0.0
 30
0.0
  3
*U34
  1

  0
TEXT
  5
6902D
  8
S-OBRYS
  6
CONTINUOUS
 10
-35442.648705782842
 20
375289.5418245992
 30
0.0
 40
100.0
  1
Středové díly
  7
STYLE1
  0
ENDBLK
  5
6902F
  8
0
  0
BLOCK
  8
0
  2
*U35
 70
     1
 10
0.0
 20
0.0
 30
0.0
  3
*U35
  1

  0
TEXT
  5
69034
  8
S-OBRYS
  6
CONTINUOUS
 10
-36893.43856711081
 20
375048.78917318222
 30
0.0
 40
100.0
  1
3000 mm
  7
STYLE1
  0
ENDBLK
  5
69036
  8
0
  0
BLOCK
  8
0
  2
*U36
 70
     1
 10
0.0
 20
0.0
 30
0.0
  3
*U36
  1

  0
TEXT
  5
69038
  8
S-OBRYS
  6
CONTINUOUS
 10
-36893.43856711081
 20
374652.71223627351
 30
0.0
 40
100.0
  1
2000 mm
  7
STYLE1
  0
ENDBLK
  5
6903A
  8
0
  0
BLOCK
  8
0
  2
*U37
 70
     1
 10
0.0
 20
0.0
 30
0.0
  3
*U37
  1

  0
TEXT
  5
6903C
  8
S-OBRYS
  6
CONTINUOUS
 10
-36893.43856711081
 20
374850.75070472778
 30
0.0
 40
100.0
  1
2500 mm
  7
STYLE1
  0
ENDBLK
  5
6903E
  8
0
  0
BLOCK
  8
0
  2
*U38
 70
     1
 10
0.0
 20
0.0
 30
0.0
  3
*U38
  1

  0
TEXT
  5
69040
  8
S-OBRYS
  6
CONTINUOUS
 10
-37024.440583068477
 20
375289.5418245992
 30
0.0
 40
100.0
  1
Poháněcí díly
  7
STYLE1
  0
ENDBLK
  5
69042
  8
0
  0
BLOCK
  8
0
  2
*U39
 70
     1
 10
0.0
 20
0.0
 30
0.0
  3
*U39
  1

  0
TEXT
  5
69047
  8
S-OBRYS
  6
CONTINUOUS
 10
-33821.192848389714
 20
375048.78917318222
 30
0.0
 40
100.0
  1
3000 mm
  7
STYLE1
  0
ENDBLK
  5
69049
  8
0
  0
BLOCK
  8
0
  2
*U40
 70
     1
 10
0.0
 20
0.0
 30
0.0
  3
*U40
  1

  0
TEXT
  5
6904B
  8
S-OBRYS
  6
CONTINUOUS
 10
-33821.192848389714
 20
374854.63381631748
 30
0.0
 40
100.0
  1
2000 mm
  7
STYLE1
  0
ENDBLK
  5
6904D
  8
0
  0
BLOCK
  8
0
  2
*U41
 70
     1
 10
0.0
 20
0.0
 30
0.0
  3
*U41
  1

  0
TEXT
  5
6904F
  8
S-OBRYS
  6
CONTINUOUS
 10
-33835.478562675431
 20
374660.47845945298
 30
0.0
 40
100.0
  1
1500 mm
  7
STYLE1
  0
ENDBLK
  5
69051
  8
0
  0
BLOCK
  8
0
  2
*U42
 70
     1
 10
0.0
 20
0.0
 30
0.0
  3
*U42
  1

  0
TEXT
  5
69053
  8
S-OBRYS
  6
CONTINUOUS
 10
-33898.711462872088
 20
375289.5418245992
 30
0.0
 40
100.0
  1
Koncové díly
  7
STYLE1
  0
ENDBLK
  5
69055
  8
0
  0
BLOCK
  8
0
  2
*U43
 70
     1
 10
0.0
 20
0.0
 30
0.0
  3
*U43
  1

  0
TEXT
  5
6905A
  8
S-OBRYS
  6
CONTINUOUS
 10
-37213.00541088717
 20
374425.6442236189
 30
0.0
 40
100.0
  1
Pozn: Rozm
  7
STYLE1
  0
TEXT
  5
6905B
  8
S-OBRYS
  6
CONTINUOUS
 10
-36274.910172791941
 20
374425.6442236189
 30
0.0
 40
100.0
  1
ěr
  7
STYLE1
  0
TEXT
  5
6905C
  8
S-OBRYS
  6
CONTINUOUS
 10
-36122.529220410979
 20
374425.6442236189
 30
0.0
 40
100.0
  1
 motoru s převodovkou (
  7
STYLE1
  0
TEXT
  5
6905D
  8
S-OBRYS
  6
CONTINUOUS
 10
-34079.672077553842
 20
374425.6442236189
 30
0.0
 40
100.0
  1
1053
  7
STYLE1
  0
TEXT
  5
6905E
  8
S-OBRYS
  6
CONTINUOUS
 10
-33698.71969660146
 20
374425.6442236189
 30
0.0
 40
100.0
  1
) je uváděn 
  7
STYLE1
  0
TEXT
  5
6905F
  8
S-OBRYS
  6
CONTINUOUS
 10
-37213.00541088717
 20
374258.97755695222
 30
0.0
 40
100.0
  1
největší možný u tohoto typu dopravníku
  7
STYLE1
  0
ENDBLK
  5
69061
  8
0
  0
BLOCK
  8
0
  2
*U44
 70
     1
 10
0.0
 20
0.0
 30
0.0
  3
*U44
  1

  0
TEXT
  5
69063
  8
S-OBRYS
  6
CONTINUOUS
 62
     7
 10
-49429.477492418358
 20
382048.92288060108
 30
0.0
 40
125.0
  1
2000
 41
0.8
  0
ENDBLK
  5
69065
  8
0
  0
BLOCK
  8
0
  2
*U45
 70
     1
 10
0.0
 20
0.0
 30
0.0
  3
*U45
  1

  0
TEXT
  5
69067
  8
S-OBRYS
  6
CONTINUOUS
 62
     7
 10
-51242.692622612398
 20
382045.5286489462
 30
0.0
 40
125.0
  1
2000
 41
0.8
  0
ENDBLK
  5
69069
  8
0
  0
BLOCK
  8
0
  2
*U46
 70
     1
 10
0.0
 20
0.0
 30
0.0
  3
*U46
  1

  0
TEXT
  5
6906B
  8
S-OBRYS
  6
CONTINUOUS
 62
     7
 10
-49904.242198281019
 20
377924.07340801653
 30
0.0
 40
125.0
  1
405
 41
0.8
  0
ENDBLK
  5
6906D
  8
0
  0
BLOCK
  8
0
  2
*U47
 70
     1
 10
0.0
 20
0.0
 30
0.0
  3
*U47
  1

  0
TEXT
  5
6906F
  8
S-OBRYS
  6
CONTINUOUS
 62
     7
 10
-52482.278278986938
 20
381341.195475229
 30
0.0
 40
125.0
  1
533
 50
90.0
 41
0.8
  0
ENDBLK
  5
69071
  8
0
  0
BLOCK
  8
0
  2
*U48
 70
     1
 10
0.0
 20
0.0
 30
0.0
  3
*U48
  1

  0
TEXT
  5
69073
  8
S-OBRYS
  6
CONTINUOUS
 62
     7
 10
-52373.900552418083
 20
381970.68842695939
 30
0.0
 40
125.0
  1
303
 50
90.0
 41
0.8
  0
ENDBLK
  5
69075
  8
0
  0
BLOCK
  8
0
  2
*U49
 70
     1
 10
0.0
 20
0.0
 30
0.0
  3
*U49
  1

  0
TEXT
  5
69077
  8
S-OBRYS
  6
CONTINUOUS
 62
     7
 10
-45375.52435750937
 20
382045.5286489462
 30
0.0
 40
125.0
  1
1053
 41
0.8
  0
ENDBLK
  5
69079
  8
0
  0
BLOCK
  8
0
  2
*U50
 70
     1
 10
0.0
 20
0.0
 30
0.0
  3
*U50
  1

  0
TEXT
  5
6907B
  8
S-OBRYS
  6
CONTINUOUS
 62
     7
 10
-47152.634884788749
 20
382045.5286489462
 30
0.0
 40
125.0
  1
2500
 41
0.8
  0
ENDBLK
  5
6907D
  8
0
  0
BLOCK
  8
0
  2
*U51
 70
     1
 10
0.0
 20
0.0
 30
0.0
  3
*U51
  1

  0
TEXT
  5
6907F
  8
S-OBRYS
  6
CONTINUOUS
 62
     7
 10
-46725.868611814782
 20
377993.62282678962
 30
0.0
 40
125.0
  1
410
 41
0.8
  0
ENDBLK
  5
69081
  8
0
  0
BLOCK
  8
0
  2
*U52
 70
     1
 10
0.0
 20
0.0
 30
0.0
  3
*U52
  1

  0
TEXT
  5
69083
  8
S-OBRYS
  6
CONTINUOUS
 62
     7
 10
-46773.371875946446
 20
376972.85162754508
 30
0.0
 40
125.0
  1
330
 41
0.8
  0
ENDBLK
  5
69085
  8
0
  0
BLOCK
  8
0
  2
*U53
 70
     1
 10
0.0
 20
0.0
 30
0.0
  3
*U53
  1

  0
TEXT
  5
69087
  8
S-OBRYS
  6
CONTINUOUS
 62
     7
 10
-46927.340728530209
 20
377269.27292815561
 30
0.0
 40
125.0
  1
493
 50
90.0
 41
0.8
  0
ENDBLK
  5
69089
  8
0
  0
BLOCK
  8
0
  2
*U54
 70
     1
 10
0.0
 20
0.0
 30
0.0
  3
*U54
  1

  0
TEXT
  5
6908B
  8
S-OBRYS
  6
CONTINUOUS
 62
     7
 10
-36221.020675356231
 20
383098.32345680031
 30
0.0
 40
125.0
  1
2000
 41
0.8
  0
ENDBLK
  5
6908D
  8
0
  0
BLOCK
  8
0
  2
*U55
 70
     1
 10
0.0
 20
0.0
 30
0.0
  3
*U55
  1

  0
TEXT
  5
6908F
  8
S-OBRYS
  6
CONTINUOUS
 62
     7
 10
-38034.235805550263
 20
383094.92922514532
 30
0.0
 40
125.0
  1
2000
 41
0.8
  0
ENDBLK
  5
69091
  8
0
  0
BLOCK
  8
0
  2
*U56
 70
     1
 10
0.0
 20
0.0
 30
0.0
  3
*U56
  1

  0
TEXT
  5
69093
  8
S-OBRYS
  6
CONTINUOUS
 62
     7
 10
-39273.82146192481
 20
382390.59605142818
 30
0.0
 40
125.0
  1
533
 50
90.0
 41
0.8
  0
ENDBLK
  5
69095
  8
0
  0
BLOCK
  8
0
  2
*U57
 70
     1
 10
0.0
 20
0.0
 30
0.0
  3
*U57
  1

  0
TEXT
  5
69097
  8
S-OBRYS
  6
CONTINUOUS
 62
     7
 10
-39165.443735355948
 20
383020.08900315862
 30
0.0
 40
125.0
  1
303
 50
90.0
 41
0.8
  0
ENDBLK
  5
69099
  8
0
  0
BLOCK
  8
0
  2
*U58
 70
     1
 10
0.0
 20
0.0
 30
0.0
  3
*U58
  1

  0
TEXT
  5
6909B
  8
S-OBRYS
  6
CONTINUOUS
 62
     7
 10
-32167.067540447231
 20
383094.92922514532
 30
0.0
 40
125.0
  1
1053
 41
0.8
  0
ENDBLK
  5
6909D
  8
0
  0
BLOCK
  8
0
  2
*U59
 70
     1
 10
0.0
 20
0.0
 30
0.0
  3
*U59
  1

  0
TEXT
  5
6909F
  8
S-OBRYS
  6
CONTINUOUS
 62
     7
 10
-33944.178067726622
 20
383094.92922514532
 30
0.0
 40
125.0
  1
2500
 41
0.8
  0
ENDBLK
  5
690A1
  8
0
  0
BLOCK
  8
0
  2
*U60
 70
     1
 10
0.0
 20
0.0
 30
0.0
  3
*U60
  1

  0
TEXT
  5
690A3
  8
S-OBRYS
  6
CONTINUOUS
 62
     7
 10
-36447.107079559828
 20
378726.31424319599
 30
0.0
 40
125.0
  1
2000
 41
0.8
  0
ENDBLK
  5
690A5
  8
0
  0
BLOCK
  8
0
  2
*U61
 70
     1
 10
0.0
 20
0.0
 30
0.0
  3
*U61
  1

  0
TEXT
  5
690A7
  8
S-OBRYS
  6
CONTINUOUS
 62
     7
 10
-38260.32220975386
 20
378722.92001154122
 30
0.0
 40
125.0
  1
2000
 41
0.8
  0
ENDBLK
  5
690A9
  8
0
  0
BLOCK
  8
0
  2
*U62
 70
     1
 10
0.0
 20
0.0
 30
0.0
  3
*U62
  1

  0
TEXT
  5
690AB
  8
S-OBRYS
  6
CONTINUOUS
 62
     7
 10
-39390.643311543077
 20
379020.76932270202
 30
0.0
 40
125.0
  1
533
 50
90.0
 41
0.8
  0
ENDBLK
  5
690AD
  8
0
  0
BLOCK
  8
0
  2
*U63
 70
     1
 10
0.0
 20
0.0
 30
0.0
  3
*U63
  1

  0
TEXT
  5
690AF
  8
S-OBRYS
  6
CONTINUOUS
 62
     7
 10
-39391.530139559552
 20
377283.95657214691
 30
0.0
 40
125.0
  1
303
 50
90.0
 41
0.8
  0
ENDBLK
  5
690B1
  8
0
  0
BLOCK
  8
0
  2
*U64
 70
     1
 10
0.0
 20
0.0
 30
0.0
  3
*U64
  1

  0
TEXT
  5
690B3
  8
S-OBRYS
  6
CONTINUOUS
 62
     7
 10
-32393.153944650829
 20
378722.92001154122
 30
0.0
 40
125.0
  1
1053
 41
0.8
  0
ENDBLK
  5
690B5
  8
0
  0
BLOCK
  8
0
  2
*U65
 70
     1
 10
0.0
 20
0.0
 30
0.0
  3
*U65
  1

  0
TEXT
  5
690B7
  8
S-OBRYS
  6
CONTINUOUS
 62
     7
 10
-34170.264471930212
 20
378722.92001154122
 30
0.0
 40
125.0
  1
2500
 41
0.8
  0
ENDBLK
  5
690B9
  8
0
  0
BLOCK
  8
0
  2
*U66
 70
     1
 10
0.0
 20
0.0
 30
0.0
  3
*U66
  1

  0
TEXT
  5
690BB
  8
S-OBRYS
  6
CONTINUOUS
 62
     7
 10
-40280.530134817192
 20
378854.38917382859
 30
0.0
 40
125.0
  1
MIN.200
 41
0.8
  0
ENDBLK
  5
690BD
  8
0
  0
BLOCK
  8
0
  2
*U67
 70
     1
 10
0.0
 20
0.0
 30
0.0
  3
*U67
  1

  0
TEXT
  5
690BF
  8
S-OBRYS
  6
CONTINUOUS
 62
     7
 10
-31141.502229497641
 20
378860.1851736739
 30
0.0
 40
125.0
  1
MIN.400
 41
0.8
  0
ENDBLK
  5
690C1
  8
0
  0
BLOCK
  8
0
  2
*U68
 70
     1
 10
0.0
 20
0.0
 30
0.0
  3
*U68
  1

  0
TEXT
  5
690C3
  8
S-OBRYS
  6
CONTINUOUS
 62
     7
 10
-36695.785381218877
 20
377024.58718039078
 30
0.0
 40
125.0
  1
405
 41
0.8
  0
ENDBLK
  5
690C5
  8
0
  0
BLOCK
  8
0
  2
*U69
 70
     1
 10
0.0
 20
0.0
 30
0.0
  3
*U69
  1

  0
TEXT
  5
690C7
  8
S-OBRYS
  6
CONTINUOUS
 62
     7
 10
-33517.411794752647
 20
377094.13659916387
 30
0.0
 40
125.0
  1
410
 41
0.8
  0
ENDBLK
  5
690C9
  8
0
  0
BLOCK
  8
0
  2
*U70
 70
     1
 10
0.0
 20
0.0
 30
0.0
  3
*U70
  1

  0
TEXT
  5
690CB
  8
S-OBRYS
  6
CONTINUOUS
 62
     7
 10
-33564.915058884319
 20
376073.36539991939
 30
0.0
 40
125.0
  1
330
 41
0.8
  0
ENDBLK
  5
690CD
  8
0
  0
BLOCK
  8
0
  2
*U71
 70
     1
 10
0.0
 20
0.0
 30
0.0
  3
*U71
  1

  0
TEXT
  5
690CF
  8
S-OBRYS
  6
CONTINUOUS
 62
     7
 10
-33718.883911468067
 20
376369.78670052998
 30
0.0
 40
125.0
  1
493
 50
90.0
 41
0.8
  0
ENDBLK
  5
690D1
  8
0
  0
ENDSEC
  0
SECTION
  2
ENTITIES
  0
TEXT
  5
2F7A5
  8
KOTY
 10
-393803.77638965531
 20
-299016.15321175661
 30
0.0
 40
150.0
  1

 41
0.7
  7
ROMANT
  0
TEXT
  5
3AD8B
  8
KOTY
 10
-14797.18019204357
 20
454294.55370899959
 30
0.0
 40
150.0
  1

 41
0.7
  7
ROMANT
  0
TEXT
  5
404AD
  8
KOTY
 10
44010.2314385153
 20
465617.23741859582
 30
0.0
 40
92.0
  1

 41
0.7
  7
CYRILLIC
  0
TEXT
  5
404B4
  8
KOTY
 10
39575.071591094718
 20
465613.29777162091
 30
0.0
 40
92.0
  1

 41
0.7
  7
CYRILLIC
  0
TEXT
  5
40B14
  8
KOTY
 10
5856.0590664841584
 20
486921.1132385282
 30
0.0
 40
150.0
  1

 41
0.7
  7
ROMANT
  0
TEXT
  5
40BFC
  8
KOTY
 10
8767.7265956277752
 20
466337.2608060218
 30
0.0
 40
150.0
  1

 41
0.7
  7
ROMANS
  0
TEXT
  5
51A7C
  8
KOTY
 10
-47677.341387967608
 20
395133.71812193602
 30
0.0
 40
150.0
  1

 41
0.7
  7
ROMANS
  0
TEXT
  5
51A94
  8
KOTY
 10
-45176.819295693742
 20
395133.7181219359
 30
0.0
 40
150.0
  1

 41
0.7
  7
ROMANS
  0
TEXT
  5
51A9B
  8
KOTY
 10
-48084.423320344351
 20
397411.27855615731
 30
0.0
 40
150.0
  1

 41
0.7
  7
ROMANT
  0
TEXT
  5
51B05
  8
RAZ
 62
     6
 10
-47365.887544580757
 20
392999.37567832542
 30
0.0
 40
193.54103193599991
  1

 41
0.8
  7
R08
  0
TEXT
  5
51B06
  8
RAZ
 62
     1
 10
-47245.037660778231
 20
393401.77274166199
 30
0.0
 40
125.41458869452801
  1

  7
ROMANS
  0
TEXT
  5
58307
  8
KOTY
 10
22966.528519463162
 20
383405.87475258159
 30
0.0
 40
150.0
  1

 41
0.7
  7
ROMANS
  0
TEXT
  5
58308
  8
KOTY
 10
22966.528519463169
 20
383855.87475258159
 30
0.0
 40
150.0
  1

 41
0.7
  7
ROMANS
  0
TEXT
  5
58315
  8
KOTY
 10
25467.050611737021
 20
383855.87475258141
 30
0.0
 40
150.0
  1

 41
0.7
  7
ROMANS
  0
TEXT
  5
58316
  8
KOTY
 10
25467.050611737021
 20
383405.87475258141
 30
0.0
 40
150.0
  1

 41
0.7
  7
ROMANS
  0
TEXT
  5
5833F
  8
KOTY
 10
22966.528519463162
 20
385205.87475258153
 30
0.0
 40
150.0
  1

 41
0.7
  7
ROMANS
  0
TEXT
  5
58340
  8
KOTY
 10
22966.528519463169
 20
385655.87475258159
 30
0.0
 40
150.0
  1

 41
0.7
  7
ROMANS
  0
TEXT
  5
58354
  8
KOTY
 10
25467.050611737021
 20
385655.87475258141
 30
0.0
 40
150.0
  1

 41
0.7
  7
ROMANS
  0
TEXT
  5
58355
  8
KOTY
 10
25467.050611737021
 20
385205.87475258141
 30
0.0
 40
150.0
  1

 41
0.7
  7
ROMANS
  0
TEXT
  5
58397
  8
KOTY
 10
25467.050611737039
 20
390605.87475258129
 30
0.0
 40
150.0
  1

 41
0.7
  7
ROMANS
  0
TEXT
  5
58398
  8
KOTY
 10
25467.050611737039
 20
391055.87475258141
 30
0.0
 40
150.0
  1

 41
0.7
  7
ROMANS
  0
TEXT
  5
583C1
  8
KOTY
 10
25467.050611737031
 20
389255.87475258141
 30
0.0
 40
150.0
  1

 41
0.7
  7
ROMANS
  0
TEXT
  5
58C84
  8
KOTY
 10
22966.52851946322
 20
387905.87475258153
 30
0.0
 40
150.0
  1

 41
0.7
  7
ROMANS
  0
LINE
  5
659EC
  8
S-OBRYS
  6
CONTINUOUS
 10
-40686.059713359253
 20
370888.28785929468
 30
0.0
 11
-30186.059713359249
 21
370888.28785929468
 31
0.0
  0
LINE
  5
659ED
  8
S-OBRYS
  6
CONTINUOUS
 10
-30186.059713359249
 20
370888.28785929468
 30
0.0
 11
-30186.059713359249
 21
385738.28785929468
 31
0.0
  0
LINE
  5
659EE
  8
S-OBRYS
  6
CONTINUOUS
 10
-30186.059713359249
 20
385738.28785929468
 30
0.0
 11
-40686.059713359253
 21
385738.28785929468
 31
0.0
  0
LINE
  5
659EF
  8
S-OBRYS
  6
CONTINUOUS
 10
-40686.059713359253
 20
385738.28785929468
 30
0.0
 11
-40686.059713359253
 21
370888.28785929468
 31
0.0
  0
INSERT
  5
659F0
  8
S-OBRYS
  6
CONTINUOUS
  2
*U30
 10
0.0
 20
0.0
 30
0.0
  0
LINE
  5
67745
  8
S-OBRYS
  6
CONTINUOUS
 10
-32479.4573116621
 20
380428.16480892239
 30
0.0
 11
-38974.356201375922
 21
380428.16480892239
 31
0.0
  0
LINE
  5
67746
  8
S-OBRYS
  6
CONTINUOUS
 10
-32479.4573116621
 20
380748.16480892239
 30
0.0
 11
-38974.356201375922
 21
380748.16480892239
 31
0.0
  0
INSERT
  5
67748
  8
S-OBRYS
  6
CONTINUOUS
  2
*U31
 10
0.0
 20
0.0
 30
0.0
  0
INSERT
  5
67749
  8
S-OBRYS
  6
CONTINUOUS
  2
*U32
 10
0.0
 20
0.0
 30
0.0
  0
INSERT
  5
6774A
  8
S-OBRYS
  6
CONTINUOUS
  2
*U33
 10
0.0
 20
0.0
 30
0.0
  0
LINE
  5
6774B
  8
S-OBRYS
  6
CONTINUOUS
 10
-37209.965953715182
 20
375001.13436064328
 30
0.0
 11
-32642.38271666686
 21
375001.13436064328
 31
0.0
  0
LINE
  5
6774C
  8
S-OBRYS
  6
CONTINUOUS
 10
-37209.965953715182
 20
374808.4743606433
 30
0.0
 11
-32642.38271666686
 21
374808.4743606433
 31
0.0
  0
POLYLINE
  5
6774D
  8
S-OBRYS
  6
CONTINUOUS
 66
     1
 10
0.0
 20
0.0
 30
0.0
 40
10.0
 41
10.0
  0
VERTEX
  5
69029
  8
S-OBRYS
  6
CONTINUOUS
 10
-32642.38271666686
 20
375461.75720418972
 30
0.0
  0
VERTEX
  5
6902A
  8
S-OBRYS
  6
CONTINUOUS
 10
-37209.965953715182
 20
375461.75720418972
 30
0.0
  0
SEQEND
  5
6902B
  8
S-OBRYS
  6
CONTINUOUS
  0
LINE
  5
6774E
  8
S-OBRYS
  6
CONTINUOUS
 10
-37209.965953715182
 20
374615.81436064339
 30
0.0
 11
-32642.38271666686
 21
374615.81436064339
 31
0.0
  0
INSERT
  5
6774F
  8
S-OBRYS
  6
CONTINUOUS
  2
*U34
 10
0.0
 20
0.0
 30
0.0
  0
POLYLINE
  5
67750
  8
S-OBRYS
  6
CONTINUOUS
 66
     1
 10
0.0
 20
0.0
 30
0.0
 40
10.0
 41
10.0
  0
VERTEX
  5
69030
  8
S-OBRYS
  6
CONTINUOUS
 10
-37209.965953715182
 20
375193.87894709868
 30
0.0
  0
VERTEX
  5
69031
  8
S-OBRYS
  6
CONTINUOUS
 10
-32642.38271666686
 20
375193.87894709868
 30
0.0
  0
SEQEND
  5
69032
  8
S-OBRYS
  6
CONTINUOUS
  0
LINE
  5
67751
  8
S-OBRYS
  6
CONTINUOUS
 10
-36974.355009813102
 20
382742.40552283352
 30
0.0
 11
-34974.355009813102
 21
382742.35784895631
 31
0.0
  0
LINE
  5
67752
  8
S-OBRYS
  6
CONTINUOUS
 10
-36974.355009813102
 20
382759.9412757876
 30
0.0
 11
-34974.355009813102
 21
382759.9412757876
 31
0.0
  0
LINE
  5
67753
  8
S-OBRYS
  6
CONTINUOUS
 10
-39050.253254423122
 20
380588.16480892239
 30
0.0
 11
-31421.368206246429
 21
380588.16480892239
 31
0.0
  0
LINE
  5
67754
  8
S-OBRYS
  6
CONTINUOUS
 10
-32479.4573116621
 20
380383.16480892239
 30
0.0
 11
-38974.356201375922
 21
380383.16480892239
 31
0.0
  0
LINE
  5
67755
  8
S-OBRYS
  6
CONTINUOUS
 10
-32479.4573116621
 20
380793.16480892239
 30
0.0
 11
-38974.356201375922
 21
380793.16480892239
 31
0.0
  0
LINE
  5
67756
  8
S-OBRYS
  6
CONTINUOUS
 10
-39053.253254423122
 20
382569.95319428539
 30
0.0
 11
-31421.368206246421
 21
382569.95319428539
 31
0.0
  0
LINE
  5
67757
  8
S-OBRYS
  6
CONTINUOUS
 10
-35004.356201375922
 20
382387.86606300698
 30
0.0
 11
-36944.356201375922
 21
382387.86606300698
 31
0.0
  0
DIMENSION
  5
6775A
  8
S-OBRYS
  6
CONTINUOUS
  2
*D9
 10
-34974.356201375922
 20
383073.32345680031
 30
0.0
 11
-36030.54448488004
 21
383073.32345680031
 31
0.0
 70
   128
 13
-36974.356201375922
 23
382615.89951284038
 33
0.0
 14
-34974.356201375922
 24
382591.11606300698
 34
0.0
1001
ACAD
1000
DSTYLE
1002
{
1070
   288
1070
     1
1002
}
  0
LINE
  5
6775B
  8
S-OBRYS
  6
CONTINUOUS
 10
-36974.356201375922
 20
380383.16480892239
 30
0.0
 11
-36974.356201375922
 21
380793.16480892239
 31
0.0
  0
ARC
  5
6775C
  8
S-OBRYS
  6
CONTINUOUS
 10
-38982.777564525633
 20
380668.8594970447
 30
0.0
 40
3.5999999999999992
 50
90.0
 51
180.0
  0
LINE
  5
6775D
  8
S-OBRYS
  6
CONTINUOUS
 10
-38974.356201375922
 20
380793.16480892239
 30
0.0
 11
-38974.356201375922
 21
380383.16480892239
 31
0.0
  0
LINE
  5
6775E
  8
S-OBRYS
  6
CONTINUOUS
 10
-38961.632665032572
 20
380667.42922665633
 30
0.0
 11
-38992.232665032563
 21
380667.42922665633
 31
0.0
  0
LINE
  5
6775F
  8
S-OBRYS
  6
CONTINUOUS
 10
-38982.777564525633
 20
380503.87012080027
 30
0.0
 11
-38974.377564525632
 21
380503.87012080027
 31
0.0
  0
LINE
  5
67760
  8
S-OBRYS
  6
CONTINUOUS
 10
-38961.632665032572
 20
380508.90039118862
 30
0.0
 11
-38992.232665032563
 21
380508.90039118862
 31
0.0
  0
LINE
  5
67761
  8
S-OBRYS
  6
CONTINUOUS
 10
-39050.253254423122
 20
380542.20265020413
 30
0.0
 11
-39050.253254423122
 21
380632.79202644841
 31
0.0
  0
LINE
  5
67762
  8
S-OBRYS
  6
CONTINUOUS
 10
-38986.377564525632
 20
380526.87287585752
 30
0.0
 11
-38986.377564525632
 21
380658.8673338067
 31
0.0
  0
LINE
  5
67763
  8
S-OBRYS
  6
CONTINUOUS
 10
-39042.076364258712
 20
380539.8026502041
 30
0.0
 11
-39042.076364258712
 21
380587.4973383263
 31
0.0
  0
LINE
  5
67764
  8
S-OBRYS
  6
CONTINUOUS
 10
-39028.374075529668
 20
380523.19426338433
 30
0.0
 11
-39028.374075529668
 21
380587.4973383263
 31
0.0
  0
LINE
  5
67765
  8
S-OBRYS
  6
CONTINUOUS
 10
-39021.287324351382
 20
380520.93405689258
 30
0.0
 11
-38988.993084918722
 21
380519.85758224479
 31
0.0
  0
ARC
  5
67766
  8
S-OBRYS
  6
CONTINUOUS
 10
-39023.383577649482
 20
380520.93009116198
 30
0.0
 40
2.096257049325668
 50
0.1083930823758636
 51
88.954787620807195
  0
LINE
  5
67767
  8
S-OBRYS
  6
CONTINUOUS
 10
-39032.894743227269
 20
380523.34552711982
 30
0.0
 11
-39023.345339016298
 21
380523.02599941951
 31
0.0
  0
ARC
  5
67768
  8
S-OBRYS
  6
CONTINUOUS
 10
-38989.393592113971
 20
380516.82695580291
 30
0.0
 40
3.0569760620748401
 50
11.97731647333573
 51
88.063225098157318
  0
ARC
  5
67769
  8
S-OBRYS
  6
CONTINUOUS
 10
-38982.777564525633
 20
380507.47012080031
 30
0.0
 40
3.5999999999999992
 50
180.0
 51
270.0
  0
LINE
  5
6776A
  8
S-OBRYS
  6
CONTINUOUS
 10
-38986.377564525632
 20
380526.87287585752
 30
0.0
 11
-38986.377564525632
 21
380507.47012080031
 31
0.0
  0
LINE
  5
6776B
  8
S-OBRYS
  6
CONTINUOUS
 10
-39042.076364258712
 20
380539.8026502041
 30
0.0
 11
-39047.85325442312
 21
380539.8026502041
 31
0.0
  0
ARC
  5
6776C
  8
S-OBRYS
  6
CONTINUOUS
 10
-39047.85325442312
 20
380542.20265020413
 30
0.0
 40
2.399999999999999
 50
180.0
 51
270.0
  0
ARC
  5
6776D
  8
S-OBRYS
  6
CONTINUOUS
 10
-39039.676364258718
 20
380525.7455271199
 30
0.0
 40
2.399999999999999
 50
180.0
 51
270.0
  0
LINE
  5
6776E
  8
S-OBRYS
  6
CONTINUOUS
 10
-39032.452419327303
 20
380523.34552711982
 30
0.0
 11
-39039.676364258718
 21
380523.34552711982
 31
0.0
  0
LINE
  5
6776F
  8
S-OBRYS
  6
CONTINUOUS
 10
-39042.076364258712
 20
380525.7455271199
 30
0.0
 11
-39042.076364258712
 21
380539.8026502041
 31
0.0
  0
CIRCLE
  5
67770
  8
S-OBRYS
  6
CONTINUOUS
 10
-39007.058898953452
 20
380588.16480892239
 30
0.0
 40
10.99481788843104
  0
ARC
  5
67771
  8
S-OBRYS
  6
CONTINUOUS
 10
-39023.383577649482
 20
380655.3995266828
 30
0.0
 40
2.096257049325668
 50
271.04521237919278
 51
359.89160691762407
  0
LINE
  5
67772
  8
S-OBRYS
  6
CONTINUOUS
 10
-39032.894743227269
 20
380652.9840907249
 30
0.0
 11
-39023.345339016298
 21
380653.30361842533
 31
0.0
  0
LINE
  5
67773
  8
S-OBRYS
  6
CONTINUOUS
 10
-38986.377564525632
 20
380649.45674198732
 30
0.0
 11
-38986.377564525632
 21
380668.8594970447
 31
0.0
  0
ARC
  5
67774
  8
S-OBRYS
  6
CONTINUOUS
 10
-38989.393592113971
 20
380659.50266204198
 30
0.0
 40
3.0569760620748401
 50
271.93677490184268
 51
348.02268352666431
  0
LINE
  5
67775
  8
S-OBRYS
  6
CONTINUOUS
 10
-39021.287324351382
 20
380655.39556095231
 30
0.0
 11
-38988.993084918722
 21
380656.47203559999
 31
0.0
  0
LINE
  5
67776
  8
S-OBRYS
  6
CONTINUOUS
 10
-39042.076364258712
 20
380651.06052830658
 30
0.0
 11
-39042.076364258712
 21
380635.19202644849
 31
0.0
  0
LINE
  5
67777
  8
S-OBRYS
  6
CONTINUOUS
 10
-39032.49753182711
 20
380652.9973816112
 30
0.0
 11
-39039.721476758517
 21
380652.9973816112
 31
0.0
  0
ARC
  5
67778
  8
S-OBRYS
  6
CONTINUOUS
 10
-39039.721476758517
 20
380650.59738161118
 30
0.0
 40
2.399999999999999
 50
90.0
 51
180.0
  0
ARC
  5
67779
  8
S-OBRYS
  6
CONTINUOUS
 10
-39047.85325442312
 20
380632.79202644841
 30
0.0
 40
2.399999999999999
 50
90.0
 51
180.0
  0
LINE
  5
6777A
  8
S-OBRYS
  6
CONTINUOUS
 10
-39042.076364258712
 20
380635.19202644849
 30
0.0
 11
-39047.85325442312
 21
380635.19202644849
 31
0.0
  0
LINE
  5
6777B
  8
S-OBRYS
  6
CONTINUOUS
 10
-39028.374075529668
 20
380651.80041326833
 30
0.0
 11
-39028.374075529668
 21
380587.4973383263
 31
0.0
  0
LINE
  5
6777C
  8
S-OBRYS
  6
CONTINUOUS
 10
-39042.076364258712
 20
380635.19202644849
 30
0.0
 11
-39042.076364258712
 21
380587.4973383263
 31
0.0
  0
ARC
  5
6777D
  8
S-OBRYS
  6
CONTINUOUS
 10
-38943.253254423129
 20
380382.16480892239
 30
0.0
 40
3.0
 50
270.0
 51
0.0
  0
LINE
  5
6777E
  8
S-OBRYS
  6
CONTINUOUS
 10
-38940.253254423122
 20
380382.16480892239
 30
0.0
 11
-38940.253254423122
 21
380383.16480892239
 31
0.0
  0
ARC
  5
6777F
  8
S-OBRYS
  6
CONTINUOUS
 10
-38969.253254423122
 20
380356.16480892239
 30
0.0
 40
3.0
 50
270.0
 51
0.0
  0
ARC
  5
67780
  8
S-OBRYS
  6
CONTINUOUS
 10
-38963.253254423122
 20
380376.16480892239
 30
0.0
 40
3.0
 50
90.0
 51
180.0
  0
LINE
  5
67781
  8
S-OBRYS
  6
CONTINUOUS
 10
-38966.253254423122
 20
380356.16480892239
 30
0.0
 11
-38966.253254423122
 21
380376.16480892239
 31
0.0
  0
LINE
  5
67782
  8
S-OBRYS
  6
CONTINUOUS
 10
-38969.253254423122
 20
380353.16480892239
 30
0.0
 11
-38969.253254423122
 21
380383.16480892239
 31
0.0
  0
LINE
  5
67783
  8
S-OBRYS
  6
CONTINUOUS
 10
-38963.253254423122
 20
380379.16480892239
 30
0.0
 11
-38943.253254423129
 21
380379.16480892239
 31
0.0
  0
INSERT
  5
67784
  8
S-OBRYS
  6
CONTINUOUS
  2
*U35
 10
0.0
 20
0.0
 30
0.0
  0
LINE
  5
67785
  8
S-OBRYS
  6
CONTINUOUS
 10
-35687.965953715182
 20
374615.81436064339
 30
0.0
 11
-35687.965953715182
 21
375461.75720418972
 31
0.0
  0
LINE
  5
67786
  8
S-OBRYS
  6
CONTINUOUS
 10
-37209.965953715182
 20
375193.87894709868
 30
0.0
 11
-37209.965953715182
 21
374615.81436064339
 31
0.0
  0
INSERT
  5
67787
  8
S-OBRYS
  6
CONTINUOUS
  2
*U36
 10
0.0
 20
0.0
 30
0.0
  0
INSERT
  5
67788
  8
S-OBRYS
  6
CONTINUOUS
  2
*U37
 10
0.0
 20
0.0
 30
0.0
  0
INSERT
  5
67789
  8
S-OBRYS
  6
CONTINUOUS
  2
*U38
 10
0.0
 20
0.0
 30
0.0
  0
POLYLINE
  5
6778A
  8
S-OBRYS
  6
CONTINUOUS
 66
     1
 10
0.0
 20
0.0
 30
0.0
 40
10.0
 41
10.0
  0
VERTEX
  5
69043
  8
S-OBRYS
  6
CONTINUOUS
 10
-37209.965953715182
 20
375193.87894709868
 30
0.0
  0
VERTEX
  5
69044
  8
S-OBRYS
  6
CONTINUOUS
 10
-37209.965953715182
 20
375461.75720418972
 30
0.0
  0
SEQEND
  5
69045
  8
S-OBRYS
  6
CONTINUOUS
  0
ARC
  5
6778B
  8
S-OBRYS
  6
CONTINUOUS
 10
-36975.356201375922
 20
380356.16480892239
 30
0.0
 40
3.0
 50
180.0
 51
289.47122063447972
  0
ARC
  5
6778C
  8
S-OBRYS
  6
CONTINUOUS
 10
-36973.356201375922
 20
380356.16480892239
 30
0.0
 40
3.0
 50
250.52877936552031
 51
0.0
  0
ARC
  5
6778D
  8
S-OBRYS
  6
CONTINUOUS
 10
-36947.356201375922
 20
380382.16480892239
 30
0.0
 40
3.0
 50
270.0
 51
0.0
  0
LINE
  5
6778E
  8
S-OBRYS
  6
CONTINUOUS
 10
-36944.356201375922
 20
380383.16480892239
 30
0.0
 11
-36944.356201375922
 21
380382.16480892239
 31
0.0
  0
ARC
  5
6778F
  8
S-OBRYS
  6
CONTINUOUS
 10
-37001.356201375922
 20
380382.16480892239
 30
0.0
 40
3.0
 50
180.0
 51
270.0
  0
LINE
  5
67790
  8
S-OBRYS
  6
CONTINUOUS
 10
-36958.856201375922
 20
380379.16480892239
 30
0.0
 11
-36967.356201375922
 21
380379.16480892239
 31
0.0
  0
ARC
  5
67791
  8
S-OBRYS
  6
CONTINUOUS
 10
-36981.356201375929
 20
380376.16480892239
 30
0.0
 40
3.0
 50
0.0
 51
90.0
  0
ARC
  5
67792
  8
S-OBRYS
  6
CONTINUOUS
 10
-36967.356201375922
 20
380376.16480892239
 30
0.0
 40
3.0
 50
90.0
 51
180.0
  0
LINE
  5
67793
  8
S-OBRYS
  6
CONTINUOUS
 10
-37001.356201375922
 20
380379.16480892239
 30
0.0
 11
-36981.356201375929
 21
380379.16480892239
 31
0.0
  0
LINE
  5
67794
  8
S-OBRYS
  6
CONTINUOUS
 10
-36947.356201375922
 20
380379.16480892239
 30
0.0
 11
-36967.356201375922
 21
380379.16480892239
 31
0.0
  0
LINE
  5
67795
  8
S-OBRYS
  6
CONTINUOUS
 10
-36978.356201375922
 20
380376.16480892239
 30
0.0
 11
-36978.356201375922
 21
380356.16480892239
 31
0.0
  0
LINE
  5
67796
  8
S-OBRYS
  6
CONTINUOUS
 10
-36974.356201375922
 20
380383.16480892239
 30
0.0
 11
-36974.356201375922
 21
380353.16480892239
 31
0.0
  0
LINE
  5
67797
  8
S-OBRYS
  6
CONTINUOUS
 10
-36970.356201375922
 20
380376.16480892239
 30
0.0
 11
-36970.356201375922
 21
380356.16480892239
 31
0.0
  0
DIMENSION
  5
67798
  8
S-OBRYS
  6
CONTINUOUS
  2
*D10
 10
-36974.356201375922
 20
383069.92922514537
 30
0.0
 11
-37843.759615074072
 21
383069.92922514537
 31
0.0
 70
   128
 13
-38974.356201375922
 23
382657.45319673931
 33
0.0
 14
-36974.356201375922
 24
382657.41744133132
 34
0.0
1001
ACAD
1000
DSTYLE
1002
{
1070
   288
1070
     1
1002
}
  0
LINE
  5
67799
  8
S-OBRYS
  6
CONTINUOUS
 10
-38874.49991300136
 20
382759.9412757876
 30
0.0
 11
-36974.355009813102
 21
382759.9412757876
 31
0.0
  0
LINE
  5
6779A
  8
S-OBRYS
  6
CONTINUOUS
 10
-38874.49991300136
 20
382742.45081647101
 30
0.0
 11
-36974.355009813102
 21
382742.40552283352
 31
0.0
  0
LINE
  5
6779B
  8
S-OBRYS
  6
CONTINUOUS
 10
-37004.356201375929
 20
382387.86606300698
 30
0.0
 11
-38627.367750503407
 21
382387.86606300698
 31
0.0
  0
DIMENSION
  5
6779C
  8
S-OBRYS
  6
CONTINUOUS
  2
*D11
 10
-36346.117770989687
 20
376999.58718039078
 30
0.0
 11
-36552.928238361739
 21
376999.58718039078
 31
0.0
 70
   128
 13
-36751.11777098968
 23
376690.50554518669
 33
0.0
 14
-36346.117770989687
 24
376690.50554518669
 34
0.0
1001
ACAD
1000
DSTYLE
1002
{
1070
   288
1070
     1
1002
}
  0
ARC
  5
6779D
  8
S-OBRYS
  6
CONTINUOUS
 10
-36548.617770989687
 20
376511.0363318926
 30
0.0
 40
124.3820820158257
 50
113.0956934753429
 51
150.26079233013371
  0
LINE
  5
6779E
  8
S-OBRYS
  6
CONTINUOUS
 10
-36658.358242413822
 20
376326.2216628631
 30
0.0
 11
-36438.877299565553
 21
376326.2216628631
 31
0.0
  0
LINE
  5
6779F
  8
S-OBRYS
  6
CONTINUOUS
 10
-36751.11777098968
 20
376690.50554518669
 30
0.0
 11
-36346.117770989687
 21
376690.50554518669
 31
0.0
  0
LINE
  5
677A0
  8
S-OBRYS
  6
CONTINUOUS
 10
-36703.117770989687
 20
376500.68299919821
 30
0.0
 11
-36394.117770989687
 21
376500.68299919821
 31
0.0
  0
LINE
  5
677A1
  8
S-OBRYS
  6
CONTINUOUS
 10
-36751.117770989687
 20
376202.4720953533
 30
0.0
 11
-36346.117770989687
 21
376202.4720953533
 31
0.0
  0
LINE
  5
677A2
  8
S-OBRYS
  6
CONTINUOUS
 10
-36659.926949496352
 20
376318.41841390851
 30
0.0
 11
-36437.308592483008
 21
376318.41841390851
 31
0.0
  0
LINE
  5
677A3
  8
S-OBRYS
  6
CONTINUOUS
 10
-36751.11777098968
 20
376672.87444456038
 30
0.0
 11
-36346.11777098968
 21
376672.87444456038
 31
0.0
  0
LINE
  5
677A4
  8
S-OBRYS
  6
CONTINUOUS
 10
-36656.617770989687
 20
376337.39216240199
 30
0.0
 11
-36440.617770989687
 21
376337.39216240199
 31
0.0
  0
LINE
  5
677A5
  8
S-OBRYS
  6
CONTINUOUS
 10
-36751.117770989687
 20
376197.47209535341
 30
0.0
 11
-36346.117770989687
 21
376197.47209535341
 31
0.0
  0
CIRCLE
  5
677A6
  8
S-OBRYS
  6
CONTINUOUS
 10
-36548.617770989687
 20
376500.68299919821
 30
0.0
 40
108.0
  0
CIRCLE
  5
677A7
  8
S-OBRYS
  6
CONTINUOUS
 10
-36548.617770989687
 20
376500.68299919821
 30
0.0
 40
90.287999999999727
  0
LINE
  5
677A8
  8
S-OBRYS
  6
CONTINUOUS
 10
-36684.926949496352
 20
376343.41841390851
 30
0.0
 11
-36684.926949496352
 21
376598.8207631156
 31
0.0
  0
LINE
  5
677A9
  8
S-OBRYS
  6
CONTINUOUS
 10
-36656.617770989687
 20
376326.2216628631
 30
0.0
 11
-36656.617770989687
 21
376572.73643178388
 31
0.0
  0
LINE
  5
677AA
  8
S-OBRYS
  6
CONTINUOUS
 10
-36678.358242413822
 20
376346.22166286298
 30
0.0
 11
-36678.358242413808
 21
376598.8207631156
 31
0.0
  0
LINE
  5
677AB
  8
S-OBRYS
  6
CONTINUOUS
 10
-36751.117770989687
 20
376197.47209535341
 30
0.0
 11
-36751.117770989687
 21
376672.87444456038
 31
0.0
  0
ARC
  5
677AC
  8
S-OBRYS
  6
CONTINUOUS
 10
-36659.926949496352
 20
376343.41841390851
 30
0.0
 40
25.0
 50
180.0
 51
270.0
  0
ARC
  5
677AD
  8
S-OBRYS
  6
CONTINUOUS
 10
-36658.358242413822
 20
376346.22166286298
 30
0.0
 40
20.0
 50
180.0
 51
270.0
  0
LINE
  5
677AE
  8
S-OBRYS
  6
CONTINUOUS
 10
-36751.117770989687
 20
376672.87444456038
 30
0.0
 11
-36751.11777098968
 21
376690.50554518669
 31
0.0
  0
LINE
  5
677AF
  8
S-OBRYS
  6
CONTINUOUS
 10
-36684.926949496352
 20
376598.8207631156
 30
0.0
 11
-36678.358242413808
 21
376598.8207631156
 31
0.0
  0
DIMENSION
  5
677B0
  8
S-OBRYS
  6
CONTINUOUS
  2
*D5
 10
-39248.821461924752
 20
382799.95319428539
 30
0.0
 11
-39336.32146192481
 21
382533.45319428528
 31
0.0
 70
     0
 13
-38959.253254423122
 23
382266.95319428528
 33
0.0
 14
-38956.501104564188
 24
382799.95319428539
 34
0.0
 50
90.0
1001
ACAD
1000
DSTYLE
1002
{
1070
   288
1070
     1
1002
}
  0
DIMENSION
  5
677B1
  8
S-OBRYS
  6
CONTINUOUS
  2
*D6
 10
-39140.443735355882
 20
382569.95319428539
 30
0.0
 11
-39140.443735355948
 21
383162.94614601572
 31
0.0
 70
   128
 13
-38959.253254423122
 23
382266.95319428528
 33
0.0
 14
-39053.253254423122
 24
382569.95319428539
 34
0.0
 50
90.0
1001
ACAD
1000
DSTYLE
1002
{
1070
   288
1070
     1
1002
}
  0
LINE
  5
677B2
  8
S-OBRYS
  6
CONTINUOUS
 10
-36346.117770989687
 20
376197.47209535341
 30
0.0
 11
-36346.117770989687
 21
376672.87444456038
 31
0.0
  0
LINE
  5
677B3
  8
S-OBRYS
  6
CONTINUOUS
 10
-38627.367750503407
 20
382569.95319428539
 30
0.0
 11
-38627.367750503407
 21
382357.95319428528
 31
0.0
  0
LINE
  5
677B4
  8
S-OBRYS
  6
CONTINUOUS
 10
-38841.367750503407
 20
382569.95319428539
 30
0.0
 11
-38841.367750503407
 21
382357.95319428528
 31
0.0
  0
LINE
  5
677B5
  8
S-OBRYS
  6
CONTINUOUS
 10
-38734.367750503407
 20
382569.95319428539
 30
0.0
 11
-38734.367750503407
 21
382357.95319428528
 31
0.0
  0
LINE
  5
677B6
  8
S-OBRYS
  6
CONTINUOUS
 10
-36412.308592483023
 20
376343.41841390851
 30
0.0
 11
-36412.308592483023
 21
376598.8207631156
 31
0.0
  0
LINE
  5
677B7
  8
S-OBRYS
  6
CONTINUOUS
 10
-36440.617770989687
 20
376326.2216628631
 30
0.0
 11
-36440.617770989687
 21
376572.73643178388
 31
0.0
  0
LINE
  5
677B8
  8
S-OBRYS
  6
CONTINUOUS
 10
-36418.87729956556
 20
376346.22166286298
 30
0.0
 11
-36418.877299565553
 21
376598.8207631156
 31
0.0
  0
LINE
  5
677B9
  8
S-OBRYS
  6
CONTINUOUS
 10
-36548.617770989687
 20
376690.50554518669
 30
0.0
 11
-36548.617770989687
 21
376197.47209535341
 31
0.0
  0
LINE
  5
677BA
  8
S-OBRYS
  6
CONTINUOUS
 10
-38939.253755508456
 20
382386.84468346043
 30
0.0
 11
-38939.245278910093
 21
382742.45235980232
 31
0.0
  0
LINE
  5
677BB
  8
S-OBRYS
  6
CONTINUOUS
 10
-38974.356201375922
 20
382358.07108571578
 30
0.0
 11
-38974.356201375922
 21
382707.45319673931
 31
0.0
  0
LINE
  5
677BC
  8
S-OBRYS
  6
CONTINUOUS
 10
-38965.253254423122
 20
382742.45297975291
 30
0.0
 11
-38965.253254423122
 21
382360.89951284049
 31
0.0
  0
LINE
  5
677BD
  8
S-OBRYS
  6
CONTINUOUS
 10
-38969.253254423122
 20
382742.45307510061
 30
0.0
 11
-38969.253254423122
 21
382377.89951284049
 31
0.0
  0
LINE
  5
677BE
  8
S-OBRYS
  6
CONTINUOUS
 10
-38982.777564525633
 20
380672.45949704462
 30
0.0
 11
-38974.377564525632
 21
380672.45949704462
 31
0.0
  0
LINE
  5
677BF
  8
S-OBRYS
  6
CONTINUOUS
 10
-38953.253254423122
 20
382372.89951284049
 30
0.0
 11
-38987.253254423122
 21
382372.89951284049
 31
0.0
  0
ARC
  5
677C0
  8
S-OBRYS
  6
CONTINUOUS
 10
-36437.308592483008
 20
376343.41841390851
 30
0.0
 40
25.0
 50
270.0
 51
0.0
  0
ARC
  5
677C1
  8
S-OBRYS
  6
CONTINUOUS
 10
-36438.877299565553
 20
376346.22166286298
 30
0.0
 40
20.0
 50
270.0
 51
0.0
  0
LINE
  5
677C2
  8
S-OBRYS
  6
CONTINUOUS
 10
-38969.253254423122
 20
380823.16480892239
 30
0.0
 11
-38969.253254423122
 21
380793.16480892239
 31
0.0
  0
LINE
  5
677C3
  8
S-OBRYS
  6
CONTINUOUS
 10
-38940.253254423122
 20
380794.16480892239
 30
0.0
 11
-38940.253254423122
 21
380793.16480892239
 31
0.0
  0
ARC
  5
677C4
  8
S-OBRYS
  6
CONTINUOUS
 10
-38969.253254423122
 20
380820.16480892239
 30
0.0
 40
3.0
 50
0.0
 51
90.0
  0
ARC
  5
677C5
  8
S-OBRYS
  6
CONTINUOUS
 10
-38943.253254423129
 20
380794.16480892239
 30
0.0
 40
3.0
 50
0.0
 51
90.0
  0
ARC
  5
677C6
  8
S-OBRYS
  6
CONTINUOUS
 10
-38963.253254423122
 20
380800.16480892239
 30
0.0
 40
3.0
 50
180.0
 51
270.0
  0
LINE
  5
677C7
  8
S-OBRYS
  6
CONTINUOUS
 10
-38963.253254423122
 20
380797.16480892239
 30
0.0
 11
-38943.253254423129
 21
380797.16480892239
 31
0.0
  0
LINE
  5
677C8
  8
S-OBRYS
  6
CONTINUOUS
 10
-38966.253254423122
 20
380820.16480892239
 30
0.0
 11
-38966.253254423122
 21
380800.16480892239
 31
0.0
  0
LINE
  5
677C9
  8
S-OBRYS
  6
CONTINUOUS
 10
-38868.867750503407
 20
382357.95319428528
 30
0.0
 11
-38599.867750503407
 21
382357.95319428528
 31
0.0
  0
ARC
  5
677CA
  8
S-OBRYS
  6
CONTINUOUS
 10
-38959.253254423122
 20
382281.95319428539
 30
0.0
 40
15.0
 50
180.0
 51
270.0
  0
ARC
  5
677CB
  8
S-OBRYS
  6
CONTINUOUS
 10
-38959.253254423122
 20
382281.95319428539
 30
0.0
 40
10.0
 50
180.0
 51
270.0
  0
LINE
  5
677CC
  8
S-OBRYS
  6
CONTINUOUS
 10
-38924.253254423122
 20
382266.95319428528
 30
0.0
 11
-38924.253254423122
 21
382271.95319428539
 31
0.0
  0
LINE
  5
677CD
  8
S-OBRYS
  6
CONTINUOUS
 10
-38924.253254423122
 20
382271.95319428539
 30
0.0
 11
-38959.253254423122
 21
382271.95319428539
 31
0.0
  0
LINE
  5
677CE
  8
S-OBRYS
  6
CONTINUOUS
 10
-38959.253254423122
 20
382266.95319428528
 30
0.0
 11
-38924.253254423122
 21
382266.95319428528
 31
0.0
  0
LINE
  5
677CF
  8
S-OBRYS
  6
CONTINUOUS
 10
-38841.367750503407
 20
382456.18962936528
 30
0.0
 11
-38627.367750503407
 21
382456.18962936528
 31
0.0
  0
LINE
  5
677D0
  8
S-OBRYS
  6
CONTINUOUS
 10
-38969.253254423122
 20
382281.95319428539
 30
0.0
 11
-38969.253254423122
 21
382377.89951284049
 31
0.0
  0
LINE
  5
677D1
  8
S-OBRYS
  6
CONTINUOUS
 10
-38969.253254423122
 20
382358.07108571578
 30
0.0
 11
-38974.356201375922
 21
382358.07108571578
 31
0.0
  0
ARC
  5
677D2
  8
S-OBRYS
  6
CONTINUOUS
 10
-38968.253254423122
 20
382360.89951284049
 30
0.0
 40
3.0
 50
250.52877936552031
 51
0.0
  0
LINE
  5
677D3
  8
S-OBRYS
  6
CONTINUOUS
 10
-38974.253254423122
 20
382358.07108571578
 30
0.0
 11
-38974.253254423122
 21
382281.95319428539
 31
0.0
  0
LINE
  5
677D4
  8
S-OBRYS
  6
CONTINUOUS
 10
-38841.367750503407
 20
382387.86606300698
 30
0.0
 11
-38939.253731161902
 21
382387.86606300698
 31
0.0
  0
LINE
  5
677D5
  8
S-OBRYS
  6
CONTINUOUS
 10
-38942.253254423122
 20
382383.89951284049
 30
0.0
 11
-38962.253254423122
 21
382383.89951284049
 31
0.0
  0
ARC
  5
677D6
  8
S-OBRYS
  6
CONTINUOUS
 10
-38942.253254423122
 20
382386.89951284049
 30
0.0
 40
3.0
 50
270.0
 51
0.0
  0
LINE
  5
677D7
  8
S-OBRYS
  6
CONTINUOUS
 10
-38939.253254423122
 20
382387.89951284049
 30
0.0
 11
-38939.253254423122
 21
382386.89951284049
 31
0.0
  0
ARC
  5
677D8
  8
S-OBRYS
  6
CONTINUOUS
 10
-38962.253254423122
 20
382380.89951284049
 30
0.0
 40
3.0
 50
90.0
 51
180.0
  0
LINE
  5
677D9
  8
S-OBRYS
  6
CONTINUOUS
 10
-38965.253254423122
 20
382377.89951284049
 30
0.0
 11
-38969.253254423122
 21
382377.89951284049
 31
0.0
  0
LINE
  5
677DB
  8
S-OBRYS
  6
CONTINUOUS
 10
-38982.754421113452
 20
382654.8098050027
 30
0.0
 11
-38974.35442111345
 21
382654.8098050027
 31
0.0
  0
LINE
  5
677DC
  8
S-OBRYS
  6
CONTINUOUS
 10
-38961.030884770087
 20
382649.03769267933
 30
0.0
 11
-38991.630884770078
 21
382649.03769267933
 31
0.0
  0
LINE
  5
677DD
  8
S-OBRYS
  6
CONTINUOUS
 10
-38982.775784263147
 20
382485.60742229089
 30
0.0
 11
-38974.375784263153
 21
382485.60742229089
 31
0.0
  0
LINE
  5
677DE
  8
S-OBRYS
  6
CONTINUOUS
 10
-38961.630884770093
 20
382490.63769267919
 30
0.0
 11
-38992.230884770077
 21
382490.63769267919
 31
0.0
  0
ARC
  5
677DF
  8
S-OBRYS
  6
CONTINUOUS
 10
-36548.617770989687
 20
376511.0363318926
 30
0.0
 40
124.3820820158257
 50
29.73920766986625
 51
66.904306524657031
  0
LINE
  5
677E0
  8
S-OBRYS
  6
CONTINUOUS
 10
-36499.826663064319
 20
376651.21354518679
 30
0.0
 11
-36597.408878915063
 21
376651.21354518679
 31
0.0
  0
LINE
  5
677E1
  8
S-OBRYS
  6
CONTINUOUS
 10
-36597.408878915063
 20
376597.03354557662
 30
0.0
 11
-36597.408878915063
 21
376651.21354518679
 31
0.0
  0
LINE
  5
677E2
  8
S-OBRYS
  6
CONTINUOUS
 10
-36499.826663064319
 20
376597.03354557662
 30
0.0
 11
-36499.826663064319
 21
376651.21354518679
 31
0.0
  0
LINE
  5
677E3
  8
S-OBRYS
  6
CONTINUOUS
 10
-36346.11777098968
 20
376672.87444456038
 30
0.0
 11
-36346.117770989687
 21
376690.50554518669
 31
0.0
  0
LINE
  5
677E4
  8
S-OBRYS
  6
CONTINUOUS
 10
-36418.877299565553
 20
376598.8207631156
 30
0.0
 11
-36412.308592483023
 21
376598.8207631156
 31
0.0
  0
LINE
  5
677E5
  8
S-OBRYS
  6
CONTINUOUS
 10
-39006.731106195737
 20
382626.62007101392
 30
0.0
 11
-39007.625622875617
 21
382656.60263194633
 31
0.0
  0
LINE
  5
677E6
  8
S-OBRYS
  6
CONTINUOUS
 10
-39053.253254423122
 20
382524.92879081517
 30
0.0
 11
-39053.253254423122
 21
382616.14068090182
 31
0.0
  0
LINE
  5
677E7
  8
S-OBRYS
  6
CONTINUOUS
 10
-39040.653254423123
 20
382522.52879081533
 30
0.0
 11
-39040.653254423123
 21
382618.43681971781
 31
0.0
  0
LINE
  5
677E8
  8
S-OBRYS
  6
CONTINUOUS
 10
-38986.375784263153
 20
382508.61017734808
 30
0.0
 11
-38986.375784263153
 21
382640.60463529732
 31
0.0
  0
LINE
  5
677E9
  8
S-OBRYS
  6
CONTINUOUS
 10
-39026.950965694072
 20
382505.92040399561
 30
0.0
 11
-39026.950965694072
 21
382634.24952734087
 31
0.0
  0
ARC
  5
677EA
  8
S-OBRYS
  6
CONTINUOUS
 10
-39021.960467813893
 20
382503.65623177332
 30
0.0
 40
2.096257049325668
 50
330.77871695598083
 51
88.954787620807195
  0
ARC
  5
677EB
  8
S-OBRYS
  6
CONTINUOUS
 10
-38989.077400977883
 20
382499.0488589835
 30
0.0
 40
2.5474800517290328
 50
11.97731647333573
 51
88.063225098157318
  0
LINE
  5
677EC
  8
S-OBRYS
  6
CONTINUOUS
 10
-39020.130978765803
 20
382502.6328728724
 30
0.0
 11
-38988.991304656243
 21
382501.59488373552
 31
0.0
  0
LINE
  5
677ED
  8
S-OBRYS
  6
CONTINUOUS
 10
-39031.029309491707
 20
382506.0716677311
 30
0.0
 11
-39038.253254423122
 21
382506.0716677311
 31
0.0
  0
ARC
  5
677EE
  8
S-OBRYS
  6
CONTINUOUS
 10
-39038.253254423122
 20
382508.47166773112
 30
0.0
 40
2.399999999999999
 50
180.0
 51
270.0
  0
LINE
  5
677EF
  8
S-OBRYS
  6
CONTINUOUS
 10
-39031.47163339168
 20
382506.0716677311
 30
0.0
 11
-39021.922229180702
 21
382505.75214003067
 31
0.0
  0
ARC
  5
677F0
  8
S-OBRYS
  6
CONTINUOUS
 10
-39050.85325442312
 20
382524.92879081517
 30
0.0
 40
2.399999999999999
 50
180.0
 51
270.0
  0
LINE
  5
677F1
  8
S-OBRYS
  6
CONTINUOUS
 10
-39040.653254423123
 20
382522.52879081533
 30
0.0
 11
-39050.85325442312
 21
382522.52879081533
 31
0.0
  0
LINE
  5
677F2
  8
S-OBRYS
  6
CONTINUOUS
 10
-39040.653254423123
 20
382508.47166773112
 30
0.0
 11
-39040.653254423123
 21
382522.52879081533
 31
0.0
  0
ARC
  5
677F3
  8
S-OBRYS
  6
CONTINUOUS
 10
-38982.775784263147
 20
382489.20742229081
 30
0.0
 40
3.5999999999999992
 50
180.0
 51
270.0
  0
LINE
  5
677F4
  8
S-OBRYS
  6
CONTINUOUS
 10
-38986.375784263153
 20
382508.61017734808
 30
0.0
 11
-38986.375784263153
 21
382489.20742229081
 31
0.0
  0
LINE
  5
677F5
  8
S-OBRYS
  6
CONTINUOUS
 10
-39014.402140808299
 20
382642.30090804893
 30
0.0
 11
-39014.58106858746
 21
382648.2982395264
 31
0.0
  0
LINE
  5
677F6
  8
S-OBRYS
  6
CONTINUOUS
 10
-39015.601607103767
 20
382642.26512249309
 30
0.0
 11
-39016.875291340788
 21
382641.38674891781
 31
0.0
  0
LINE
  5
677F7
  8
S-OBRYS
  6
CONTINUOUS
 10
-39018.492897195771
 20
382649.1419589729
 30
0.0
 11
-39018.507211418102
 21
382649.62174549111
 31
0.0
  0
LINE
  5
677F8
  8
S-OBRYS
  6
CONTINUOUS
 10
-39016.980001178432
 20
382648.22666841472
 30
0.0
 11
-39018.492897195771
 21
382649.1419589729
 31
0.0
  0
LINE
  5
677F9
  8
S-OBRYS
  6
CONTINUOUS
 10
-39017.051572290089
 20
382650.62560100568
 30
0.0
 11
-39018.507211418102
 21
382649.62174549111
 31
0.0
  0
ARC
  5
677FA
  8
S-OBRYS
  6
CONTINUOUS
 10
-39050.85325442312
 20
382616.14068090182
 30
0.0
 40
2.399999999999999
 50
90.0
 51
180.0
  0
LINE
  5
677FB
  8
S-OBRYS
  6
CONTINUOUS
 10
-39040.629309491713
 20
382625.14068090188
 30
0.0
 11
-39040.629309491713
 21
382618.54068090179
 31
0.0
  0
LINE
  5
677FC
  8
S-OBRYS
  6
CONTINUOUS
 10
-39031.031891273422
 20
382634.39000412863
 30
0.0
 11
-39021.922229180702
 21
382634.6948178442
 31
0.0
  0
ARC
  5
677FD
  8
S-OBRYS
  6
CONTINUOUS
 10
-39021.960467813893
 20
382636.79072610178
 30
0.0
 40
2.096257049325668
 50
271.04521237919278
 51
10.67496364760667
  0
LINE
  5
677FE
  8
S-OBRYS
  6
CONTINUOUS
 10
-39014.942205924483
 20
382637.15492457809
 30
0.0
 11
-39016.78224889563
 21
382638.26813654962
 31
0.0
  0
LINE
  5
677FF
  8
S-OBRYS
  6
CONTINUOUS
 10
-39031.029309491707
 20
382634.37529014383
 30
0.0
 11
-39038.229309491711
 21
382634.37529014383
 31
0.0
  0
LINE
  5
67800
  8
S-OBRYS
  6
CONTINUOUS
 10
-39040.629309491713
 20
382625.14068090188
 30
0.0
 11
-39040.629309491713
 21
382631.97529014392
 31
0.0
  0
ARC
  5
67801
  8
S-OBRYS
  6
CONTINUOUS
 10
-39038.229309491711
 20
382631.97529014392
 30
0.0
 40
2.399999999999999
 50
90.0
 51
180.0
  0
LINE
  5
67802
  8
S-OBRYS
  6
CONTINUOUS
 10
-39040.629309491713
 20
382618.54068090179
 30
0.0
 11
-39050.85325442312
 21
382618.54068090179
 31
0.0
  0
LINE
  5
67803
  8
S-OBRYS
  6
CONTINUOUS
 10
-39016.78224889563
 20
382638.26813654962
 30
0.0
 11
-39016.875291340788
 21
382641.38674891781
 31
0.0
  0
LINE
  5
67804
  8
S-OBRYS
  6
CONTINUOUS
 10
-39000.008545262528
 20
382642.73033471889
 30
0.0
 11
-39000.187473041697
 21
382648.7276661963
 31
0.0
  0
LINE
  5
67805
  8
S-OBRYS
  6
CONTINUOUS
 10
-38998.809078967053
 20
382642.76612027473
 30
0.0
 11
-38997.485294951883
 21
382641.96524103632
 31
0.0
  0
LINE
  5
67806
  8
S-OBRYS
  6
CONTINUOUS
 10
-38997.392252506703
 20
382638.84662866808
 30
0.0
 11
-38997.485294951883
 21
382641.96524103632
 31
0.0
  0
LINE
  5
67807
  8
S-OBRYS
  6
CONTINUOUS
 10
-39007.205343035414
 20
382642.51562138391
 30
0.0
 11
-38998.809078967053
 21
382642.76612027473
 31
0.0
  0
LINE
  5
67808
  8
S-OBRYS
  6
CONTINUOUS
 10
-38997.78854045074
 20
382648.79923730798
 30
0.0
 11
-38996.332901322719
 21
382649.80309282261
 31
0.0
  0
LINE
  5
67809
  8
S-OBRYS
  6
CONTINUOUS
 10
-39007.384270814582
 20
382648.51295286132
 30
0.0
 11
-38997.78854045074
 21
382648.79923730798
 31
0.0
  0
LINE
  5
6780A
  8
S-OBRYS
  6
CONTINUOUS
 10
-38997.860111562411
 20
382651.198169899
 30
0.0
 11
-38996.347215545058
 21
382650.28287934081
 31
0.0
  0
LINE
  5
6780B
  8
S-OBRYS
  6
CONTINUOUS
 10
-38996.332901322719
 20
382649.80309282261
 30
0.0
 11
-38996.347215545058
 21
382650.28287934081
 31
0.0
  0
LINE
  5
6780C
  8
S-OBRYS
  6
CONTINUOUS
 10
-39007.455841926247
 20
382650.91188545228
 30
0.0
 11
-38997.860111562411
 21
382651.198169899
 31
0.0
  0
LINE
  5
6780D
  8
S-OBRYS
  6
CONTINUOUS
 10
-38986.35442111345
 20
382651.20980500273
 30
0.0
 11
-38986.401386657271
 21
382640.60556633689
 31
0.0
  0
ARC
  5
6780E
  8
S-OBRYS
  6
CONTINUOUS
 10
-38982.754421113452
 20
382651.20980500273
 30
0.0
 40
3.5999999999999992
 50
90.0
 51
180.0
  0
ARC
  5
6780F
  8
S-OBRYS
  6
CONTINUOUS
 10
-38989.077400977883
 20
382640.75536184252
 30
0.0
 40
2.5474800517290328
 50
271.93677490184268
 51
348.02268352666431
  0
LINE
  5
67810
  8
S-OBRYS
  6
CONTINUOUS
 10
-38999.078535714587
 20
382637.68371358508
 30
0.0
 11
-38997.392252506703
 21
382638.84662866808
 31
0.0
  0
LINE
  5
67811
  8
S-OBRYS
  6
CONTINUOUS
 10
-39019.900488939398
 20
382637.17903094779
 30
0.0
 11
-38988.991304656243
 21
382638.20933709061
 31
0.0
  0
LINE
  5
67812
  8
S-OBRYS
  6
CONTINUOUS
 10
-39007.205343035414
 20
382642.51562138391
 30
0.0
 11
-39015.601607103767
 21
382642.26512249309
 31
0.0
  0
LINE
  5
67813
  8
S-OBRYS
  6
CONTINUOUS
 10
-39007.384270814582
 20
382648.51295286132
 30
0.0
 11
-39016.980001178432
 21
382648.22666841472
 31
0.0
  0
LINE
  5
67814
  8
S-OBRYS
  6
CONTINUOUS
 10
-39007.455841926247
 20
382650.91188545228
 30
0.0
 11
-39017.051572290089
 21
382650.62560100568
 31
0.0
  0
LINE
  5
67815
  8
S-OBRYS
  6
CONTINUOUS
 10
-38889.501104564188
 20
382711.41974445188
 30
0.0
 11
-38889.501104564188
 21
382640.41974445188
 31
0.0
  0
LINE
  5
67816
  8
S-OBRYS
  6
CONTINUOUS
 10
-38867.001104564188
 20
382698.41974445188
 30
0.0
 11
-38867.001104564188
 21
382644.41974445188
 31
0.0
  0
LINE
  5
67817
  8
S-OBRYS
  6
CONTINUOUS
 10
-38864.501104564188
 20
382635.91974445188
 30
0.0
 11
-38864.501104564188
 21
382708.91974445188
 31
0.0
  0
LINE
  5
67818
  8
S-OBRYS
  6
CONTINUOUS
 10
-38912.001104564188
 20
382698.41974445188
 30
0.0
 11
-38912.001104564188
 21
382644.41974445188
 31
0.0
  0
LINE
  5
67819
  8
S-OBRYS
  6
CONTINUOUS
 10
-38914.501104564188
 20
382708.91974445188
 30
0.0
 11
-38914.501104564188
 21
382635.91974445188
 31
0.0
  0
LINE
  5
6781A
  8
S-OBRYS
  6
CONTINUOUS
 10
-38969.253254423122
 20
382477.8660630071
 30
0.0
 11
-38974.253254423122
 21
382477.8660630071
 31
0.0
  0
LINE
  5
6781B
  8
S-OBRYS
  6
CONTINUOUS
 10
-38914.501104564188
 20
382635.91974445188
 30
0.0
 11
-38864.501104564188
 21
382635.91974445188
 31
0.0
  0
LINE
  5
6781C
  8
S-OBRYS
  6
CONTINUOUS
 10
-38871.001104564188
 20
382640.41974445188
 30
0.0
 11
-38908.001104564188
 21
382640.41974445188
 31
0.0
  0
ARC
  5
6781D
  8
S-OBRYS
  6
CONTINUOUS
 10
-38908.001104564188
 20
382644.41974445188
 30
0.0
 40
4.0
 50
180.0
 51
270.0
  0
ARC
  5
6781E
  8
S-OBRYS
  6
CONTINUOUS
 10
-38871.001104564188
 20
382644.41974445188
 30
0.0
 40
4.0
 50
262.8749836510982
 51
0.0
  0
LINE
  5
6781F
  8
S-OBRYS
  6
CONTINUOUS
 10
-38904.501104564188
 20
382763.41974445188
 30
0.0
 11
-38904.501104564188
 21
382711.41974445188
 31
0.0
  0
LINE
  5
67820
  8
S-OBRYS
  6
CONTINUOUS
 10
-38874.501104564188
 20
382711.41974445188
 30
0.0
 11
-38874.501104564188
 21
382763.41974445188
 31
0.0
  0
LINE
  5
67821
  8
S-OBRYS
  6
CONTINUOUS
 10
-38974.253254423122
 20
382742.45319428528
 30
0.0
 11
-38956.253254423122
 21
382760.45319428528
 31
0.0
  0
LINE
  5
67822
  8
S-OBRYS
  6
CONTINUOUS
 10
-38936.501104564188
 20
382739.94606859982
 30
0.0
 11
-38936.501104564188
 21
382807.19606859982
 31
0.0
  0
LINE
  5
67823
  8
S-OBRYS
  6
CONTINUOUS
 10
-38904.501104564188
 20
382711.41974445188
 30
0.0
 11
-38874.501104564188
 21
382711.41974445188
 31
0.0
  0
LINE
  5
67824
  8
S-OBRYS
  6
CONTINUOUS
 10
-38887.001104564188
 20
382708.91974445188
 30
0.0
 11
-38892.001104564188
 21
382708.91974445188
 31
0.0
  0
LINE
  5
67825
  8
S-OBRYS
  6
CONTINUOUS
 10
-38887.501104564188
 20
382709.91974445188
 30
0.0
 11
-38891.501104564188
 21
382709.91974445188
 31
0.0
  0
LINE
  5
67826
  8
S-OBRYS
  6
CONTINUOUS
 10
-38881.501104564188
 20
382705.41974445188
 30
0.0
 11
-38897.501104564188
 21
382705.41974445188
 31
0.0
  0
LINE
  5
67827
  8
S-OBRYS
  6
CONTINUOUS
 10
-38871.001104564188
 20
382702.41974445188
 30
0.0
 11
-38908.001104564188
 21
382702.41974445188
 31
0.0
  0
LINE
  5
67828
  8
S-OBRYS
  6
CONTINUOUS
 10
-38864.501104564188
 20
382708.91974445188
 30
0.0
 11
-38914.501104564188
 21
382708.91974445188
 31
0.0
  0
LINE
  5
67829
  8
S-OBRYS
  6
CONTINUOUS
 10
-38974.356201375922
 20
382742.45319673931
 30
0.0
 11
-38904.501104564188
 21
382742.4515316076
 31
0.0
  0
LINE
  5
6782A
  8
S-OBRYS
  6
CONTINUOUS
 10
-38892.001104564188
 20
382709.41974445188
 30
0.0
 11
-38892.001104564188
 21
382708.91974445188
 31
0.0
  0
ARC
  5
6782B
  8
S-OBRYS
  6
CONTINUOUS
 10
-38891.501104564188
 20
382709.41974445188
 30
0.0
 40
0.5
 50
90.0
 51
180.0
  0
ARC
  5
6782C
  8
S-OBRYS
  6
CONTINUOUS
 10
-38889.501104564188
 20
382709.91974445188
 30
0.0
 40
1.5
 50
0.0
 51
180.0
  0
LINE
  5
6782D
  8
S-OBRYS
  6
CONTINUOUS
 10
-38895.501104564188
 20
382707.41974445188
 30
0.0
 11
-38895.501104564188
 21
382705.41974445188
 31
0.0
  0
ARC
  5
6782E
  8
S-OBRYS
  6
CONTINUOUS
 10
-38894.001104564188
 20
382707.41974445188
 30
0.0
 40
1.5
 50
90.0
 51
180.0
  0
ARC
  5
6782F
  8
S-OBRYS
  6
CONTINUOUS
 10
-38897.501104564188
 20
382703.41974445188
 30
0.0
 40
2.0
 50
90.0
 51
180.0
  0
ARC
  5
67830
  8
S-OBRYS
  6
CONTINUOUS
 10
-38908.001104564188
 20
382698.41974445188
 30
0.0
 40
4.0
 50
90.0
 51
180.0
  0
LINE
  5
67831
  8
S-OBRYS
  6
CONTINUOUS
 10
-38974.356201375922
 20
382742.45319673931
 30
0.0
 11
-38904.501104564188
 21
382742.4515316076
 31
0.0
  0
ARC
  5
67832
  8
S-OBRYS
  6
CONTINUOUS
 10
-38871.001104564188
 20
382698.41974445188
 30
0.0
 40
4.0
 50
0.0
 51
90.0
  0
LINE
  5
67833
  8
S-OBRYS
  6
CONTINUOUS
 10
-38887.001104564188
 20
382709.41974445188
 30
0.0
 11
-38887.001104564188
 21
382708.91974445188
 31
0.0
  0
ARC
  5
67834
  8
S-OBRYS
  6
CONTINUOUS
 10
-38887.501104564188
 20
382709.41974445188
 30
0.0
 40
0.5
 50
0.0
 51
90.0
  0
LINE
  5
67835
  8
S-OBRYS
  6
CONTINUOUS
 10
-38883.501104564188
 20
382707.41974445188
 30
0.0
 11
-38883.501104564188
 21
382705.41974445188
 31
0.0
  0
ARC
  5
67836
  8
S-OBRYS
  6
CONTINUOUS
 10
-38885.001104564188
 20
382707.41974445188
 30
0.0
 40
1.5
 50
0.0
 51
90.0
  0
ARC
  5
67837
  8
S-OBRYS
  6
CONTINUOUS
 10
-38881.501104564188
 20
382703.41974445188
 30
0.0
 40
2.0
 50
0.0
 51
90.0
  0
LINE
  5
67838
  8
S-OBRYS
  6
CONTINUOUS
 10
-38874.501104564188
 20
382763.41974445188
 30
0.0
 11
-38904.501104564188
 21
382763.41974445188
 31
0.0
  0
LINE
  5
67839
  8
S-OBRYS
  6
CONTINUOUS
 10
-38956.501104564188
 20
382799.95319428539
 30
0.0
 11
-38956.501104564188
 21
382759.95319428528
 31
0.0
  0
LINE
  5
6783A
  8
S-OBRYS
  6
CONTINUOUS
 10
-38956.753254423122
 20
382759.95319428539
 30
0.0
 11
-38904.501104564188
 21
382759.95319428539
 31
0.0
  0
LINE
  5
6783B
  8
S-OBRYS
  6
CONTINUOUS
 10
-38898.001104564188
 20
382767.91974445188
 30
0.0
 11
-38898.001104564188
 21
382752.41974445188
 31
0.0
  0
LINE
  5
6783C
  8
S-OBRYS
  6
CONTINUOUS
 10
-38956.753254423122
 20
382759.95319428528
 30
0.0
 11
-38904.501104564188
 21
382759.95319428528
 31
0.0
  0
LINE
  5
6783D
  8
S-OBRYS
  6
CONTINUOUS
 10
-38956.501104564188
 20
382799.95319428539
 30
0.0
 11
-38916.501104564188
 21
382799.95319428539
 31
0.0
  0
LINE
  5
6783E
  8
S-OBRYS
  6
CONTINUOUS
 10
-38916.501104564188
 20
382799.95319428539
 30
0.0
 11
-38916.501104564188
 21
382759.91974445188
 31
0.0
  0
LINE
  5
6783F
  8
S-OBRYS
  6
CONTINUOUS
 10
-38881.501104564188
 20
382767.91974445188
 30
0.0
 11
-38881.501104564188
 21
382752.41974445188
 31
0.0
  0
LINE
  5
67840
  8
S-OBRYS
  6
CONTINUOUS
 10
-36944.35670325964
 20
382386.81118996802
 30
0.0
 11
-36944.348226996393
 21
382742.4048075637
 31
0.0
  0
LINE
  5
67841
  8
S-OBRYS
  6
CONTINUOUS
 10
-37004.356678114702
 20
382387.86606300698
 30
0.0
 11
-37004.348226962298
 21
382742.40623778
 31
0.0
  0
LINE
  5
67842
  8
S-OBRYS
  6
CONTINUOUS
 10
-36974.356201375922
 20
382407.86606300698
 30
0.0
 11
-36974.356201375922
 21
382657.41744133132
 31
0.0
  0
LINE
  5
67843
  8
S-OBRYS
  6
CONTINUOUS
 10
-36970.356201375922
 20
382742.40542751423
 30
0.0
 11
-36970.356201375922
 21
382378.36606300698
 31
0.0
  0
LINE
  5
67844
  8
S-OBRYS
  6
CONTINUOUS
 10
-36978.356201375922
 20
382742.40561820968
 30
0.0
 11
-36978.356201375922
 21
382360.86606300698
 31
0.0
  0
LINE
  5
67845
  8
S-OBRYS
  6
CONTINUOUS
 10
-36978.356201375922
 20
380800.16480892239
 30
0.0
 11
-36978.356201375922
 21
380820.16480892239
 31
0.0
  0
ARC
  5
67846
  8
S-OBRYS
  6
CONTINUOUS
 10
-37001.356201375922
 20
380794.16480892239
 30
0.0
 40
3.0
 50
90.0
 51
180.0
  0
ARC
  5
67847
  8
S-OBRYS
  6
CONTINUOUS
 10
-36967.356201375922
 20
380800.16480892239
 30
0.0
 40
3.0
 50
180.0
 51
270.0
  0
LINE
  5
67848
  8
S-OBRYS
  6
CONTINUOUS
 10
-37001.356201375922
 20
380797.16480892239
 30
0.0
 11
-36981.356201375929
 21
380797.16480892239
 31
0.0
  0
ARC
  5
67849
  8
S-OBRYS
  6
CONTINUOUS
 10
-36981.356201375929
 20
380800.16480892239
 30
0.0
 40
3.0
 50
270.0
 51
0.0
  0
LINE
  5
6784A
  8
S-OBRYS
  6
CONTINUOUS
 10
-36974.356201375922
 20
380793.16480892239
 30
0.0
 11
-36974.356201375922
 21
380823.16480892239
 31
0.0
  0
ARC
  5
6784B
  8
S-OBRYS
  6
CONTINUOUS
 10
-36975.356201375922
 20
380820.16480892239
 30
0.0
 40
3.0
 50
70.528779365520293
 51
180.0
  0
ARC
  5
6784C
  8
S-OBRYS
  6
CONTINUOUS
 10
-36973.356201375922
 20
380820.16480892239
 30
0.0
 40
3.0
 50
0.0
 51
109.47122063447971
  0
LINE
  5
6784D
  8
S-OBRYS
  6
CONTINUOUS
 10
-36970.356201375922
 20
380800.16480892239
 30
0.0
 11
-36970.356201375922
 21
380820.16480892239
 31
0.0
  0
LINE
  5
6784E
  8
S-OBRYS
  6
CONTINUOUS
 10
-36947.356201375922
 20
380797.16480892239
 30
0.0
 11
-36967.356201375922
 21
380797.16480892239
 31
0.0
  0
LINE
  5
6784F
  8
S-OBRYS
  6
CONTINUOUS
 10
-36944.356201375922
 20
380793.16480892239
 30
0.0
 11
-36944.356201375922
 21
380794.16480892239
 31
0.0
  0
ARC
  5
67850
  8
S-OBRYS
  6
CONTINUOUS
 10
-36947.356201375922
 20
380794.16480892239
 30
0.0
 40
3.0
 50
0.0
 51
90.0
  0
LINE
  5
67851
  8
S-OBRYS
  6
CONTINUOUS
 10
-36958.856201375922
 20
380797.16480892239
 30
0.0
 11
-36967.356201375922
 21
380797.16480892239
 31
0.0
  0
ARC
  5
67852
  8
S-OBRYS
  6
CONTINUOUS
 10
-36980.356201375922
 20
382282.41974445188
 30
0.0
 40
10.0
 50
270.0
 51
0.0
  0
ARC
  5
67853
  8
S-OBRYS
  6
CONTINUOUS
 10
-36980.356201375922
 20
382282.41974445188
 30
0.0
 40
15.0
 50
270.0
 51
0.0
  0
LINE
  5
67854
  8
S-OBRYS
  6
CONTINUOUS
 10
-37015.356201375922
 20
382267.41974445188
 30
0.0
 11
-37015.356201375922
 21
382272.41974445188
 31
0.0
  0
LINE
  5
67855
  8
S-OBRYS
  6
CONTINUOUS
 10
-36980.356201375922
 20
382267.41974445188
 30
0.0
 11
-37015.356201375922
 21
382267.41974445188
 31
0.0
  0
LINE
  5
67856
  8
S-OBRYS
  6
CONTINUOUS
 10
-37015.356201375922
 20
382272.41974445188
 30
0.0
 11
-36980.356201375922
 21
382272.41974445188
 31
0.0
  0
LINE
  5
67857
  8
S-OBRYS
  6
CONTINUOUS
 10
-36970.356201375922
 20
382378.36606300698
 30
0.0
 11
-36970.356201375922
 21
382360.86606300698
 31
0.0
  0
LINE
  5
67858
  8
S-OBRYS
  6
CONTINUOUS
 10
-36974.356201375922
 20
382407.86606300698
 30
0.0
 11
-36974.356201375922
 21
382357.86606300698
 31
0.0
  0
LINE
  5
67859
  8
S-OBRYS
  6
CONTINUOUS
 10
-36965.356201375922
 20
382383.86606300698
 30
0.0
 11
-36965.356201375922
 21
382282.41974445188
 31
0.0
  0
ARC
  5
6785A
  8
S-OBRYS
  6
CONTINUOUS
 10
-36973.356201375922
 20
382360.86606300698
 30
0.0
 40
3.0
 50
270.0
 51
0.0
  0
LINE
  5
6785B
  8
S-OBRYS
  6
CONTINUOUS
 10
-36973.356201375922
 20
382357.86606300698
 30
0.0
 11
-36974.356201375922
 21
382357.86606300698
 31
0.0
  0
LINE
  5
6785C
  8
S-OBRYS
  6
CONTINUOUS
 10
-36975.356201375922
 20
382357.86606300698
 30
0.0
 11
-36974.356201375922
 21
382357.86606300698
 31
0.0
  0
ARC
  5
6785D
  8
S-OBRYS
  6
CONTINUOUS
 10
-36975.356201375922
 20
382360.86606300698
 30
0.0
 40
3.0
 50
180.0
 51
270.0
  0
LINE
  5
6785E
  8
S-OBRYS
  6
CONTINUOUS
 10
-36970.356201375922
 20
382282.41974445188
 30
0.0
 11
-36970.356201375922
 21
382360.86606300698
 31
0.0
  0
ARC
  5
6785F
  8
S-OBRYS
  6
CONTINUOUS
 10
-36947.356201375922
 20
382386.86606300698
 30
0.0
 40
3.0
 50
270.0
 51
0.0
  0
LINE
  5
67860
  8
S-OBRYS
  6
CONTINUOUS
 10
-36944.356201375922
 20
382387.86606300698
 30
0.0
 11
-36944.356201375922
 21
382386.86606300698
 31
0.0
  0
ARC
  5
67861
  8
S-OBRYS
  6
CONTINUOUS
 10
-36967.356201375922
 20
382380.86606300698
 30
0.0
 40
3.0
 50
90.0
 51
180.0
  0
LINE
  5
67862
  8
S-OBRYS
  6
CONTINUOUS
 10
-36947.356201375922
 20
382383.86606300698
 30
0.0
 11
-36967.356201375922
 21
382383.86606300698
 31
0.0
  0
LINE
  5
67863
  8
S-OBRYS
  6
CONTINUOUS
 10
-37001.356201375922
 20
382383.86606300698
 30
0.0
 11
-36981.356201375929
 21
382383.86606300698
 31
0.0
  0
LINE
  5
67864
  8
S-OBRYS
  6
CONTINUOUS
 10
-36989.856201375922
 20
382383.86606300698
 30
0.0
 11
-36981.356201375929
 21
382383.86606300698
 31
0.0
  0
ARC
  5
67865
  8
S-OBRYS
  6
CONTINUOUS
 10
-36981.356201375929
 20
382380.86606300698
 30
0.0
 40
3.0
 50
0.0
 51
90.0
  0
LINE
  5
67866
  8
S-OBRYS
  6
CONTINUOUS
 10
-36986.356201375922
 20
382373.36606300698
 30
0.0
 11
-36952.356201375922
 21
382373.36606300698
 31
0.0
  0
LINE
  5
67867
  8
S-OBRYS
  6
CONTINUOUS
 10
-36974.356201375922
 20
382407.86606300698
 30
0.0
 11
-36974.356201375922
 21
382377.86606300698
 31
0.0
  0
LINE
  5
67868
  8
S-OBRYS
  6
CONTINUOUS
 10
-36970.356201375922
 20
382400.86606300698
 30
0.0
 11
-36970.356201375922
 21
382380.86606300698
 31
0.0
  0
LINE
  5
67869
  8
S-OBRYS
  6
CONTINUOUS
 10
-37004.356201375922
 20
382387.86606300698
 30
0.0
 11
-37004.356201375922
 21
382386.86606300698
 31
0.0
  0
ARC
  5
6786A
  8
S-OBRYS
  6
CONTINUOUS
 10
-37001.356201375922
 20
382386.86606300698
 30
0.0
 40
3.0
 50
180.0
 51
270.0
  0
LINE
  5
6786C
  8
S-OBRYS
  6
CONTINUOUS
 10
-36985.856201375922
 20
382777.91278903268
 30
0.0
 11
-36985.856201375922
 21
382778.91974445188
 31
0.0
  0
LINE
  5
6786D
  8
S-OBRYS
  6
CONTINUOUS
 10
-36991.875567506577
 20
382777.91278903268
 30
0.0
 11
-37001.375567506577
 21
382777.91278903268
 31
0.0
  0
LINE
  5
6786E
  8
S-OBRYS
  6
CONTINUOUS
 10
-36982.375567506577
 20
382777.91278903268
 30
0.0
 11
-36980.905917506578
 21
382777.06428660522
 31
0.0
  0
LINE
  5
6786F
  8
S-OBRYS
  6
CONTINUOUS
 10
-36991.875567506577
 20
382777.91278903268
 30
0.0
 11
-36982.375567506577
 21
382777.91278903268
 31
0.0
  0
LINE
  5
67870
  8
S-OBRYS
  6
CONTINUOUS
 10
-36996.856201375922
 20
382779.919744452
 30
0.0
 11
-36997.856201375922
 21
382778.91974445188
 31
0.0
  0
LINE
  5
67871
  8
S-OBRYS
  6
CONTINUOUS
 10
-36986.856201375922
 20
382779.919744452
 30
0.0
 11
-36985.856201375922
 21
382778.91974445188
 31
0.0
  0
LINE
  5
67872
  8
S-OBRYS
  6
CONTINUOUS
 10
-36985.856201375922
 20
382778.91974445188
 30
0.0
 11
-36997.856201375922
 21
382778.91974445188
 31
0.0
  0
LINE
  5
67873
  8
S-OBRYS
  6
CONTINUOUS
 10
-36996.856201375922
 20
382779.919744452
 30
0.0
 11
-36986.856201375922
 21
382779.919744452
 31
0.0
  0
LINE
  5
67874
  8
S-OBRYS
  6
CONTINUOUS
 10
-36997.856201375922
 20
382778.91974445188
 30
0.0
 11
-36997.856201375922
 21
382777.91278903268
 31
0.0
  0
LINE
  5
67875
  8
S-OBRYS
  6
CONTINUOUS
 10
-36991.875567506577
 20
382770.93183243502
 30
0.0
 11
-36982.375567506577
 21
382770.93183243502
 31
0.0
  0
LINE
  5
67876
  8
S-OBRYS
  6
CONTINUOUS
 10
-36982.375567506577
 20
382770.93183243502
 30
0.0
 11
-36980.905917506578
 21
382770.08333000762
 31
0.0
  0
LINE
  5
67877
  8
S-OBRYS
  6
CONTINUOUS
 10
-36991.875567506577
 20
382770.93183243502
 30
0.0
 11
-37001.375567506577
 21
382770.93183243502
 31
0.0
  0
LINE
  5
67878
  8
S-OBRYS
  6
CONTINUOUS
 10
-37001.375567506577
 20
382770.91278903268
 30
0.0
 11
-36991.875567506577
 21
382770.91278903268
 31
0.0
  0
LINE
  5
67879
  8
S-OBRYS
  6
CONTINUOUS
 10
-36982.375567506577
 20
382770.91278903268
 30
0.0
 11
-36991.875567506577
 21
382770.91278903268
 31
0.0
  0
LINE
  5
6787A
  8
S-OBRYS
  6
CONTINUOUS
 10
-36980.905917506578
 20
382771.76129146019
 30
0.0
 11
-36982.375567506577
 21
382770.91278903268
 31
0.0
  0
LINE
  5
6787B
  8
S-OBRYS
  6
CONTINUOUS
 10
-36981.856201375922
 20
382763.91974445188
 30
0.0
 11
-37001.856201375922
 21
382763.91974445188
 31
0.0
  0
LINE
  5
6787C
  8
S-OBRYS
  6
CONTINUOUS
 10
-36997.856201375922
 20
382763.93183243508
 30
0.0
 11
-36997.856201375922
 21
382763.91974445188
 31
0.0
  0
LINE
  5
6787D
  8
S-OBRYS
  6
CONTINUOUS
 10
-36996.856201375922
 20
382763.91974445188
 30
0.0
 11
-36996.856201375922
 21
382763.93183243508
 31
0.0
  0
LINE
  5
6787E
  8
S-OBRYS
  6
CONTINUOUS
 10
-36982.375567506577
 20
382763.93183243508
 30
0.0
 11
-36991.875567506577
 21
382763.93183243508
 31
0.0
  0
LINE
  5
6787F
  8
S-OBRYS
  6
CONTINUOUS
 10
-36980.905917506578
 20
382764.78033486247
 30
0.0
 11
-36982.375567506577
 21
382763.93183243508
 31
0.0
  0
LINE
  5
67880
  8
S-OBRYS
  6
CONTINUOUS
 10
-37001.375567506577
 20
382763.93183243508
 30
0.0
 11
-36991.875567506577
 21
382763.93183243508
 31
0.0
  0
LINE
  5
67881
  8
S-OBRYS
  6
CONTINUOUS
 10
-36978.856201375922
 20
382759.91974445188
 30
0.0
 11
-36978.856201375922
 21
382760.91974445188
 31
0.0
  0
ARC
  5
67882
  8
S-OBRYS
  6
CONTINUOUS
 10
-36981.856201375922
 20
382760.91974445188
 30
0.0
 40
3.0
 50
0.0
 51
90.0
  0
LINE
  5
67883
  8
S-OBRYS
  6
CONTINUOUS
 10
-36980.905917506578
 20
382770.08333000762
 30
0.0
 11
-36980.905917506578
 21
382764.78033486247
 31
0.0
  0
LINE
  5
67884
  8
S-OBRYS
  6
CONTINUOUS
 10
-36980.905917506578
 20
382777.06428660522
 30
0.0
 11
-36980.905917506578
 21
382771.76129146019
 31
0.0
  0
LINE
  5
67885
  8
S-OBRYS
  6
CONTINUOUS
 10
-37007.856201375922
 20
382789.91974445188
 30
0.0
 11
-37008.856201375922
 21
382789.91974445188
 31
0.0
  0
ARC
  5
67886
  8
S-OBRYS
  6
CONTINUOUS
 10
-37007.856201375922
 20
382786.91974445188
 30
0.0
 40
3.0
 50
0.0
 51
90.0
  0
LINE
  5
67887
  8
S-OBRYS
  6
CONTINUOUS
 10
-37002.845217506583
 20
382770.08333000762
 30
0.0
 11
-37002.845217506583
 21
382764.78033486247
 31
0.0
  0
LINE
  5
67888
  8
S-OBRYS
  6
CONTINUOUS
 10
-37008.856201375922
 20
382759.91974445188
 30
0.0
 11
-37008.856201375922
 21
382789.91974445188
 31
0.0
  0
LINE
  5
67889
  8
S-OBRYS
  6
CONTINUOUS
 10
-37004.856201375922
 20
382766.91974445188
 30
0.0
 11
-37004.856201375922
 21
382786.91974445188
 31
0.0
  0
LINE
  5
6788A
  8
S-OBRYS
  6
CONTINUOUS
 10
-37002.845217506583
 20
382777.06428660522
 30
0.0
 11
-37002.845217506583
 21
382771.76129146019
 31
0.0
  0
LINE
  5
6788B
  8
S-OBRYS
  6
CONTINUOUS
 10
-37001.375567506577
 20
382770.93183243502
 30
0.0
 11
-37002.845217506583
 21
382770.08333000762
 31
0.0
  0
LINE
  5
6788C
  8
S-OBRYS
  6
CONTINUOUS
 10
-37002.845217506583
 20
382764.78033486247
 30
0.0
 11
-37001.375567506577
 21
382763.93183243508
 31
0.0
  0
LINE
  5
6788D
  8
S-OBRYS
  6
CONTINUOUS
 10
-37008.856201375922
 20
382759.91974445188
 30
0.0
 11
-36978.856201375922
 21
382759.91974445188
 31
0.0
  0
LINE
  5
6788E
  8
S-OBRYS
  6
CONTINUOUS
 10
-37002.845217506583
 20
382771.76129146019
 30
0.0
 11
-37001.375567506577
 21
382770.91278903268
 31
0.0
  0
ARC
  5
6788F
  8
S-OBRYS
  6
CONTINUOUS
 10
-37001.856201375922
 20
382766.91974445188
 30
0.0
 40
3.0
 50
180.0
 51
270.0
  0
LINE
  5
67890
  8
S-OBRYS
  6
CONTINUOUS
 10
-37001.375567506577
 20
382777.91278903268
 30
0.0
 11
-37002.845217506583
 21
382777.06428660522
 31
0.0
  0
LINE
  5
67891
  8
S-OBRYS
  6
CONTINUOUS
 10
-32474.3454312703
 20
380802.66480892239
 30
0.0
 11
-32474.345431270289
 21
380373.66480892239
 31
0.0
  0
LINE
  5
67892
  8
S-OBRYS
  6
CONTINUOUS
 10
-32479.4573116621
 20
380353.16480892239
 30
0.0
 11
-32479.4573116621
 21
380823.16480892239
 31
0.0
  0
LINE
  5
67893
  8
S-OBRYS
  6
CONTINUOUS
 10
-34974.356201375922
 20
380383.16480892239
 30
0.0
 11
-34974.356201375929
 21
380793.16480892239
 31
0.0
  0
LINE
  5
67894
  8
S-OBRYS
  6
CONTINUOUS
 10
-32223.4573116621
 20
380672.24817603652
 30
0.0
 11
-32223.4573116621
 21
380504.08144180838
 31
0.0
  0
LINE
  5
67895
  8
S-OBRYS
  6
CONTINUOUS
 10
-31899.452596548788
 20
380681.98351046542
 30
0.0
 11
-31899.452596548788
 21
380494.34610737942
 31
0.0
  0
LINE
  5
67896
  8
S-OBRYS
  6
CONTINUOUS
 10
-31953.452596548788
 20
380681.98351046542
 30
0.0
 11
-31953.452596548788
 21
380494.34610737942
 31
0.0
  0
LINE
  5
67897
  8
S-OBRYS
  6
CONTINUOUS
 10
-31828.828500081469
 20
380696.16480892239
 30
0.0
 11
-31828.828500081469
 21
380480.16480892239
 31
0.0
  0
LINE
  5
67898
  8
S-OBRYS
  6
CONTINUOUS
 10
-31433.068206246418
 20
380689.03680892242
 30
0.0
 11
-31433.068206246418
 21
380487.29280892242
 31
0.0
  0
LINE
  5
67899
  8
S-OBRYS
  6
CONTINUOUS
 10
-31421.368206246421
 20
380678.45280892239
 30
0.0
 11
-31421.368206246421
 21
380497.87680892239
 31
0.0
  0
LINE
  5
6789A
  8
S-OBRYS
  6
CONTINUOUS
 10
-31490.368206246421
 20
380696.16480892239
 30
0.0
 11
-31490.368206246421
 21
380588.16480892239
 31
0.0
  0
LINE
  5
6789B
  8
S-OBRYS
  6
CONTINUOUS
 10
-32474.345431270289
 20
380460.79188311991
 30
0.0
 11
-31780.183385387601
 21
380460.79188311991
 31
0.0
  0
LINE
  5
6789C
  8
S-OBRYS
  6
CONTINUOUS
 10
-31780.183385387601
 20
380451.85563041572
 30
0.0
 11
-32474.345431270289
 21
380451.85563041572
 31
0.0
  0
LINE
  5
6789D
  8
S-OBRYS
  6
CONTINUOUS
 10
-32302.4573116621
 20
380653.07767764409
 30
0.0
 11
-32343.4573116621
 21
380653.07767764409
 31
0.0
  0
LINE
  5
6789E
  8
S-OBRYS
  6
CONTINUOUS
 10
-32343.4573116621
 20
380523.07767764409
 30
0.0
 11
-32302.4573116621
 21
380523.07767764409
 31
0.0
  0
INSERT
  5
6789F
  8
S-OBRYS
  6
CONTINUOUS
  2
*U39
 10
0.0
 20
0.0
 30
0.0
  0
LINE
  5
678A0
  8
S-OBRYS
  6
CONTINUOUS
 10
-34164.382716666863
 20
374615.81436064339
 30
0.0
 11
-34164.382716666863
 21
375461.75720418972
 31
0.0
  0
LINE
  5
678A1
  8
S-OBRYS
  6
CONTINUOUS
 10
-32642.38271666686
 20
374615.81436064339
 30
0.0
 11
-32642.38271666686
 21
375193.87894709868
 31
0.0
  0
INSERT
  5
678A2
  8
S-OBRYS
  6
CONTINUOUS
  2
*U40
 10
0.0
 20
0.0
 30
0.0
  0
INSERT
  5
678A3
  8
S-OBRYS
  6
CONTINUOUS
  2
*U41
 10
0.0
 20
0.0
 30
0.0
  0
INSERT
  5
678A4
  8
S-OBRYS
  6
CONTINUOUS
  2
*U42
 10
0.0
 20
0.0
 30
0.0
  0
LINE
  5
678A5
  8
S-OBRYS
  6
CONTINUOUS
 10
-35001.356201375922
 20
380379.16480892239
 30
0.0
 11
-34981.356201375922
 21
380379.16480892239
 31
0.0
  0
ARC
  5
678A6
  8
S-OBRYS
  6
CONTINUOUS
 10
-35001.356201375922
 20
380382.16480892239
 30
0.0
 40
3.0
 50
180.0
 51
270.0
  0
LINE
  5
678A7
  8
S-OBRYS
  6
CONTINUOUS
 10
-34944.356201375929
 20
380383.16480892239
 30
0.0
 11
-34944.356201375929
 21
380382.16480892239
 31
0.0
  0
LINE
  5
678A8
  8
S-OBRYS
  6
CONTINUOUS
 10
-34970.356201375922
 20
380376.16480892239
 30
0.0
 11
-34970.356201375922
 21
380356.16480892239
 31
0.0
  0
LINE
  5
678A9
  8
S-OBRYS
  6
CONTINUOUS
 10
-34978.356201375922
 20
380376.16480892239
 30
0.0
 11
-34978.356201375922
 21
380356.16480892239
 31
0.0
  0
LINE
  5
678AA
  8
S-OBRYS
  6
CONTINUOUS
 10
-34958.856201375922
 20
380379.16480892239
 30
0.0
 11
-34967.356201375922
 21
380379.16480892239
 31
0.0
  0
ARC
  5
678AB
  8
S-OBRYS
  6
CONTINUOUS
 10
-34973.356201375922
 20
380356.16480892239
 30
0.0
 40
3.0
 50
250.52877936552031
 51
0.0
  0
ARC
  5
678AC
  8
S-OBRYS
  6
CONTINUOUS
 10
-34975.356201375922
 20
380356.16480892239
 30
0.0
 40
3.0
 50
180.0
 51
289.47122063447972
  0
LINE
  5
678AD
  8
S-OBRYS
  6
CONTINUOUS
 10
-34947.356201375922
 20
380379.16480892239
 30
0.0
 11
-34967.356201375922
 21
380379.16480892239
 31
0.0
  0
LINE
  5
678AE
  8
S-OBRYS
  6
CONTINUOUS
 10
-34974.356201375922
 20
380383.16480892239
 30
0.0
 11
-34974.356201375922
 21
380353.16480892239
 31
0.0
  0
ARC
  5
678AF
  8
S-OBRYS
  6
CONTINUOUS
 10
-34967.356201375922
 20
380376.16480892239
 30
0.0
 40
3.0
 50
90.0
 51
180.0
  0
ARC
  5
678B0
  8
S-OBRYS
  6
CONTINUOUS
 10
-34981.356201375922
 20
380376.16480892239
 30
0.0
 40
3.0
 50
0.0
 51
90.0
  0
ARC
  5
678B1
  8
S-OBRYS
  6
CONTINUOUS
 10
-34947.356201375922
 20
380382.16480892239
 30
0.0
 40
3.0
 50
270.0
 51
0.0
  0
POLYLINE
  5
678B2
  8
S-OBRYS
  6
CONTINUOUS
 66
     1
 10
0.0
 20
0.0
 30
0.0
 40
10.0
 41
10.0
  0
VERTEX
  5
69056
  8
S-OBRYS
  6
CONTINUOUS
 10
-32642.38271666686
 20
375193.87894709868
 30
0.0
  0
VERTEX
  5
69057
  8
S-OBRYS
  6
CONTINUOUS
 10
-32642.38271666686
 20
375461.75720418972
 30
0.0
  0
SEQEND
  5
69058
  8
S-OBRYS
  6
CONTINUOUS
  0
LINE
  5
678B3
  8
S-OBRYS
  6
CONTINUOUS
 10
-32486.4573116621
 20
380379.16480892239
 30
0.0
 11
-32506.4573116621
 21
380379.16480892239
 31
0.0
  0
LINE
  5
678B4
  8
S-OBRYS
  6
CONTINUOUS
 10
-32509.4573116621
 20
380382.16480892239
 30
0.0
 11
-32509.4573116621
 21
380383.16480892239
 31
0.0
  0
ARC
  5
678B5
  8
S-OBRYS
  6
CONTINUOUS
 10
-32506.4573116621
 20
380382.16480892239
 30
0.0
 40
3.0
 50
180.0
 51
270.0
  0
LINE
  5
678B6
  8
S-OBRYS
  6
CONTINUOUS
 10
-32479.4573116621
 20
380373.66480892239
 30
0.0
 11
-32474.345431270289
 21
380373.66480892239
 31
0.0
  0
LINE
  5
678B7
  8
S-OBRYS
  6
CONTINUOUS
 10
-32479.4573116621
 20
380353.16480892239
 30
0.0
 11
-32480.4573116621
 21
380353.16480892239
 31
0.0
  0
ARC
  5
678B8
  8
S-OBRYS
  6
CONTINUOUS
 10
-32480.4573116621
 20
380356.16480892239
 30
0.0
 40
3.0
 50
180.0
 51
270.0
  0
LINE
  5
678B9
  8
S-OBRYS
  6
CONTINUOUS
 10
-32483.4573116621
 20
380356.16480892239
 30
0.0
 11
-32483.4573116621
 21
380376.16480892239
 31
0.0
  0
ARC
  5
678BA
  8
S-OBRYS
  6
CONTINUOUS
 10
-32486.4573116621
 20
380376.16480892239
 30
0.0
 40
3.0
 50
0.0
 51
90.0
  0
LINE
  5
678BB
  8
S-OBRYS
  6
CONTINUOUS
 10
-32464.336562084551
 20
380537.05474820163
 30
0.0
 11
-32464.336562084551
 21
380655.443832191
 31
0.0
  0
LINE
  5
678BC
  8
S-OBRYS
  6
CONTINUOUS
 10
-32398.356516194061
 20
380603.3956940592
 30
0.0
 11
-32398.336562084551
 21
380573.38578565378
 31
0.0
  0
LINE
  5
678BD
  8
S-OBRYS
  6
CONTINUOUS
 10
-32406.336562084551
 20
380548.38578565378
 30
0.0
 11
-32406.336562084551
 21
380628.30914307258
 31
0.0
  0
LINE
  5
678BE
  8
S-OBRYS
  6
CONTINUOUS
 10
-32385.4573116621
 20
380610.57767764409
 30
0.0
 11
-32385.4573116621
 21
380557.57767764409
 31
0.0
  0
LINE
  5
678BF
  8
S-OBRYS
  6
CONTINUOUS
 10
-32345.4573116621
 20
380620.57767764409
 30
0.0
 11
-32345.4573116621
 21
380555.57767764409
 31
0.0
  0
LINE
  5
678C0
  8
S-OBRYS
  6
CONTINUOUS
 10
-32398.336562084551
 20
380568.25194020069
 30
0.0
 11
-32385.4573116621
 21
380568.25194020069
 31
0.0
  0
ARC
  5
678C1
  8
S-OBRYS
  6
CONTINUOUS
 10
-32400.336562084551
 20
380550.38578565378
 30
0.0
 40
2.0
 50
270.0
 51
0.0
  0
LINE
  5
678C2
  8
S-OBRYS
  6
CONTINUOUS
 10
-32406.336562084551
 20
380542.88578565378
 30
0.0
 11
-32406.336562084551
 21
380548.38578565378
 31
0.0
  0
LINE
  5
678C3
  8
S-OBRYS
  6
CONTINUOUS
 10
-32406.336562084551
 20
380548.38578565378
 30
0.0
 11
-32400.336562084551
 21
380548.38578565378
 31
0.0
  0
LINE
  5
678C4
  8
S-OBRYS
  6
CONTINUOUS
 10
-32414.336562084551
 20
380540.88578565378
 30
0.0
 11
-32408.336562084551
 21
380540.88578565378
 31
0.0
  0
ARC
  5
678C5
  8
S-OBRYS
  6
CONTINUOUS
 10
-32408.336562084551
 20
380542.88578565378
 30
0.0
 40
2.0
 50
270.0
 51
0.0
  0
LINE
  5
678C6
  8
S-OBRYS
  6
CONTINUOUS
 10
-32398.336562084551
 20
380550.38578565378
 30
0.0
 11
-32398.336562084551
 21
380573.38578565378
 31
0.0
  0
LINE
  5
678C7
  8
S-OBRYS
  6
CONTINUOUS
 10
-32484.9573116621
 20
380522.07767764409
 30
0.0
 11
-32459.4573116621
 21
380522.07767764409
 31
0.0
  0
ARC
  5
678C8
  8
S-OBRYS
  6
CONTINUOUS
 10
-32467.336562084551
 20
380520.88578565378
 30
0.0
 40
3.0
 50
270.0
 51
0.0
  0
LINE
  5
678C9
  8
S-OBRYS
  6
CONTINUOUS
 10
-32467.336562084551
 20
380517.88578565378
 30
0.0
 11
-32474.336562084551
 21
380517.88578565378
 31
0.0
  0
ARC
  5
678CA
  8
S-OBRYS
  6
CONTINUOUS
 10
-32461.80540313619
 20
380536.76684371731
 30
0.0
 40
2.5474800517290328
 50
91.936774901842696
 51
178.02731388382139
  0
LINE
  5
678CB
  8
S-OBRYS
  6
CONTINUOUS
 10
-32464.336562084551
 20
380537.05474820163
 30
0.0
 11
-32464.336562084551
 21
380520.88578565378
 31
0.0
  0
LINE
  5
678CC
  8
S-OBRYS
  6
CONTINUOUS
 10
-32414.336562084551
 20
380540.88578565378
 30
0.0
 11
-32462.139159132232
 21
380539.2923657521
 31
0.0
  0
ARC
  5
678CD
  8
S-OBRYS
  6
CONTINUOUS
 10
-32350.45731166211
 20
380550.57767764409
 30
0.0
 40
5.0
 50
0.0
 51
90.0
  0
LINE
  5
678CE
  8
S-OBRYS
  6
CONTINUOUS
 10
-32345.4573116621
 20
380525.07767764409
 30
0.0
 11
-32343.4573116621
 21
380523.07767764409
 31
0.0
  0
LINE
  5
678CF
  8
S-OBRYS
  6
CONTINUOUS
 10
-32345.4573116621
 20
380555.57767764409
 30
0.0
 11
-32345.4573116621
 21
380525.07767764409
 31
0.0
  0
LINE
  5
678D0
  8
S-OBRYS
  6
CONTINUOUS
 10
-32385.4573116621
 20
380557.57767764409
 30
0.0
 11
-32383.4573116621
 21
380555.57767764409
 31
0.0
  0
LINE
  5
678D1
  8
S-OBRYS
  6
CONTINUOUS
 10
-32383.4573116621
 20
380555.57767764409
 30
0.0
 11
-32350.45731166211
 21
380555.57767764409
 31
0.0
  0
LINE
  5
678D2
  8
S-OBRYS
  6
CONTINUOUS
 10
-32398.356516194061
 20
380608.07767764409
 30
0.0
 11
-32385.4573116621
 21
380608.07767764409
 31
0.0
  0
LINE
  5
678D3
  8
S-OBRYS
  6
CONTINUOUS
 10
-32406.336562084551
 20
380627.943832191
 30
0.0
 11
-32400.336562084551
 21
380627.943832191
 31
0.0
  0
ARC
  5
678D4
  8
S-OBRYS
  6
CONTINUOUS
 10
-32400.336562084551
 20
380625.943832191
 30
0.0
 40
2.0
 50
8.1002897131065374
 51
90.0
  0
ARC
  5
678D5
  8
S-OBRYS
  6
CONTINUOUS
 10
-32408.336562084551
 20
380633.443832191
 30
0.0
 40
2.0
 50
8.1002897131065374
 51
90.0
  0
LINE
  5
678D6
  8
S-OBRYS
  6
CONTINUOUS
 10
-32414.336562084551
 20
380635.44383219111
 30
0.0
 11
-32408.336562084551
 21
380635.44383219111
 31
0.0
  0
ARC
  5
678D7
  8
S-OBRYS
  6
CONTINUOUS
 10
-32461.80540313619
 20
380639.56277412758
 30
0.0
 40
2.5474800517290328
 50
181.97268611617849
 51
268.06322509815732
  0
LINE
  5
678D8
  8
S-OBRYS
  6
CONTINUOUS
 10
-32414.336562084551
 20
380635.44383219111
 30
0.0
 11
-32462.139159132232
 21
380637.03725209262
 31
0.0
  0
ARC
  5
678D9
  8
S-OBRYS
  6
CONTINUOUS
 10
-32467.336562084551
 20
380655.443832191
 30
0.0
 40
3.0
 50
0.0
 51
90.0
  0
LINE
  5
678DA
  8
S-OBRYS
  6
CONTINUOUS
 10
-32467.336562084551
 20
380658.443832191
 30
0.0
 11
-32474.336562084551
 21
380658.443832191
 31
0.0
  0
LINE
  5
678DB
  8
S-OBRYS
  6
CONTINUOUS
 10
-32484.9573116621
 20
380654.25194020069
 30
0.0
 11
-32459.4573116621
 21
380654.25194020069
 31
0.0
  0
LINE
  5
678DC
  8
S-OBRYS
  6
CONTINUOUS
 10
-32406.356516194061
 20
380633.72564466688
 30
0.0
 11
-32406.356516194061
 21
380628.39569405932
 31
0.0
  0
LINE
  5
678DD
  8
S-OBRYS
  6
CONTINUOUS
 10
-32398.356516194061
 20
380626.22564466682
 30
0.0
 11
-32398.356516194061
 21
380603.3956940592
 31
0.0
  0
ARC
  5
678DE
  8
S-OBRYS
  6
CONTINUOUS
 10
-32350.45731166211
 20
380625.57767764409
 30
0.0
 40
5.0
 50
270.0
 51
0.0
  0
LINE
  5
678DF
  8
S-OBRYS
  6
CONTINUOUS
 10
-32345.4573116621
 20
380651.07767764409
 30
0.0
 11
-32343.4573116621
 21
380653.07767764409
 31
0.0
  0
LINE
  5
678E0
  8
S-OBRYS
  6
CONTINUOUS
 10
-32345.4573116621
 20
380651.07767764409
 30
0.0
 11
-32345.4573116621
 21
380620.57767764409
 31
0.0
  0
LINE
  5
678E1
  8
S-OBRYS
  6
CONTINUOUS
 10
-32383.4573116621
 20
380620.57767764409
 30
0.0
 11
-32385.4573116621
 21
380618.57767764409
 31
0.0
  0
LINE
  5
678E2
  8
S-OBRYS
  6
CONTINUOUS
 10
-32385.4573116621
 20
380618.57767764409
 30
0.0
 11
-32385.4573116621
 21
380610.57767764409
 31
0.0
  0
LINE
  5
678E3
  8
S-OBRYS
  6
CONTINUOUS
 10
-32375.45731166211
 20
380620.57767764409
 30
0.0
 11
-32383.4573116621
 21
380620.57767764409
 31
0.0
  0
LINE
  5
678E4
  8
S-OBRYS
  6
CONTINUOUS
 10
-32350.45731166211
 20
380620.57767764409
 30
0.0
 11
-32375.45731166211
 21
380620.57767764409
 31
0.0
  0
LINE
  5
678E5
  8
S-OBRYS
  6
CONTINUOUS
 10
-31624.256363627999
 20
380570.06025138841
 30
0.0
 11
-31490.368206246421
 21
380570.06025138841
 31
0.0
  0
LINE
  5
678E6
  8
S-OBRYS
  6
CONTINUOUS
 10
-31624.256363627999
 20
380606.26936645631
 30
0.0
 11
-31490.368206246421
 21
380606.26936645631
 31
0.0
  0
LINE
  5
678E7
  8
S-OBRYS
  6
CONTINUOUS
 10
-31828.828500081469
 20
380480.16480892239
 30
0.0
 11
-31490.368206246421
 21
380480.16480892239
 31
0.0
  0
LINE
  5
678E8
  8
S-OBRYS
  6
CONTINUOUS
 10
-31828.828500081469
 20
380489.6602513885
 30
0.0
 11
-31490.368206246421
 21
380489.6602513885
 31
0.0
  0
LINE
  5
678E9
  8
S-OBRYS
  6
CONTINUOUS
 10
-31828.828500081469
 20
380507.6602513885
 30
0.0
 11
-31490.368206246421
 21
380507.6602513885
 31
0.0
  0
LINE
  5
678EA
  8
S-OBRYS
  6
CONTINUOUS
 10
-31828.828500081469
 20
380537.6602513885
 30
0.0
 11
-31490.368206246421
 21
380537.6602513885
 31
0.0
  0
LINE
  5
678EB
  8
S-OBRYS
  6
CONTINUOUS
 10
-31828.828500081469
 20
380638.66936645639
 30
0.0
 11
-31490.368206246421
 21
380638.66936645639
 31
0.0
  0
LINE
  5
678EC
  8
S-OBRYS
  6
CONTINUOUS
 10
-31828.828500081469
 20
380668.66936645639
 30
0.0
 11
-31490.368206246421
 21
380668.66936645639
 31
0.0
  0
LINE
  5
678ED
  8
S-OBRYS
  6
CONTINUOUS
 10
-31953.452596548788
 20
380494.34610737942
 30
0.0
 11
-31899.452596548788
 21
380494.34610737942
 31
0.0
  0
LINE
  5
678EE
  8
S-OBRYS
  6
CONTINUOUS
 10
-32239.4573116621
 20
380451.85563041572
 30
0.0
 11
-32239.4573116621
 21
380460.79188311991
 31
0.0
  0
LINE
  5
678EF
  8
S-OBRYS
  6
CONTINUOUS
 10
-32223.4573116621
 20
380533.1881821556
 30
0.0
 11
-31953.452596548788
 21
380533.1881821556
 31
0.0
  0
LINE
  5
678F0
  8
S-OBRYS
  6
CONTINUOUS
 10
-32223.4573116621
 20
380643.14143568918
 30
0.0
 11
-31953.452596548788
 21
380643.14143568918
 31
0.0
  0
LINE
  5
678F1
  8
S-OBRYS
  6
CONTINUOUS
 10
-32223.4573116621
 20
380504.08144180832
 30
0.0
 11
-31953.452596548788
 21
380504.08144180832
 31
0.0
  0
LINE
  5
678F2
  8
S-OBRYS
  6
CONTINUOUS
 10
-32238.43302920731
 20
380608.07767764409
 30
0.0
 11
-32238.43302920731
 21
380568.07767764409
 31
0.0
  0
LINE
  5
678F3
  8
S-OBRYS
  6
CONTINUOUS
 10
-32300.4573116621
 20
380525.07767764409
 30
0.0
 11
-32300.4573116621
 21
380651.07767764409
 31
0.0
  0
LINE
  5
678F4
  8
S-OBRYS
  6
CONTINUOUS
 10
-32238.43302920731
 20
380568.25194020069
 30
0.0
 11
-32223.4573116621
 21
380568.25194020069
 31
0.0
  0
LINE
  5
678F5
  8
S-OBRYS
  6
CONTINUOUS
 10
-32240.4573116621
 20
380550.57767764409
 30
0.0
 11
-32238.4573116621
 21
380552.57767764409
 31
0.0
  0
LINE
  5
678F6
  8
S-OBRYS
  6
CONTINUOUS
 10
-32238.43302920731
 20
380568.07767764409
 30
0.0
 11
-32238.43302920731
 21
380563.07767764409
 31
0.0
  0
LINE
  5
678F7
  8
S-OBRYS
  6
CONTINUOUS
 10
-32238.4573116621
 20
380552.57767764409
 30
0.0
 11
-32238.4573116621
 21
380563.07767764409
 31
0.0
  0
LINE
  5
678F8
  8
S-OBRYS
  6
CONTINUOUS
 10
-32302.4573116621
 20
380523.07767764409
 30
0.0
 11
-32300.4573116621
 21
380525.07767764409
 31
0.0
  0
LINE
  5
678F9
  8
S-OBRYS
  6
CONTINUOUS
 10
-32300.4573116621
 20
380550.57767764409
 30
0.0
 11
-32240.4573116621
 21
380550.57767764409
 31
0.0
  0
LINE
  5
678FA
  8
S-OBRYS
  6
CONTINUOUS
 10
-32238.43302920731
 20
380608.07767764409
 30
0.0
 11
-32223.4573116621
 21
380608.07767764409
 31
0.0
  0
LINE
  5
678FB
  8
S-OBRYS
  6
CONTINUOUS
 10
-32240.4573116621
 20
380625.57767764409
 30
0.0
 11
-32238.4573116621
 21
380623.57767764409
 31
0.0
  0
LINE
  5
678FC
  8
S-OBRYS
  6
CONTINUOUS
 10
-32238.43302920731
 20
380608.07767764409
 30
0.0
 11
-32238.43302920731
 21
380613.07767764409
 31
0.0
  0
LINE
  5
678FD
  8
S-OBRYS
  6
CONTINUOUS
 10
-32238.4573116621
 20
380613.07767764409
 30
0.0
 11
-32238.4573116621
 21
380623.57767764409
 31
0.0
  0
LINE
  5
678FE
  8
S-OBRYS
  6
CONTINUOUS
 10
-32302.4573116621
 20
380653.07767764409
 30
0.0
 11
-32300.4573116621
 21
380651.07767764409
 31
0.0
  0
LINE
  5
678FF
  8
S-OBRYS
  6
CONTINUOUS
 10
-32240.4573116621
 20
380625.57767764409
 30
0.0
 11
-32300.4573116621
 21
380625.57767764409
 31
0.0
  0
LINE
  5
67900
  8
S-OBRYS
  6
CONTINUOUS
 10
-31780.183385387601
 20
380451.85563041572
 30
0.0
 11
-31780.183385387601
 21
380480.16480892239
 31
0.0
  0
LINE
  5
67901
  8
S-OBRYS
  6
CONTINUOUS
 10
-31828.828500081469
 20
380570.06025138841
 30
0.0
 11
-31733.848763628001
 21
380570.06025138841
 31
0.0
  0
LINE
  5
67902
  8
S-OBRYS
  6
CONTINUOUS
 10
-31828.828500081469
 20
380606.26936645631
 30
0.0
 11
-31733.848763628001
 21
380606.26936645631
 31
0.0
  0
LINE
  5
67903
  8
S-OBRYS
  6
CONTINUOUS
 10
-31828.828500081469
 20
380671.86572215369
 30
0.0
 11
-31828.828500081469
 21
380504.46389569109
 31
0.0
  0
LINE
  5
67904
  8
S-OBRYS
  6
CONTINUOUS
 10
-31852.489143970961
 20
380671.86572215369
 30
0.0
 11
-31852.489143970972
 21
380504.46389569109
 31
0.0
  0
LINE
  5
67905
  8
S-OBRYS
  6
CONTINUOUS
 10
-31899.452596548788
 20
380504.46389569109
 30
0.0
 11
-31828.828500081469
 21
380504.46389569109
 31
0.0
  0
LINE
  5
67906
  8
S-OBRYS
  6
CONTINUOUS
 10
-31899.452596548788
 20
380671.86572215369
 30
0.0
 11
-31828.828500081469
 21
380671.86572215369
 31
0.0
  0
LINE
  5
67907
  8
S-OBRYS
  6
CONTINUOUS
 10
-31624.256363627999
 20
380554.77219393052
 30
0.0
 11
-31624.256363627999
 21
380621.55742391432
 31
0.0
  0
LINE
  5
67908
  8
S-OBRYS
  6
CONTINUOUS
 10
-31733.848763628001
 20
380554.77219393052
 30
0.0
 11
-31733.848763628001
 21
380621.55742391432
 31
0.0
  0
LINE
  5
67909
  8
S-OBRYS
  6
CONTINUOUS
 10
-31733.848763628001
 20
380554.77219393052
 30
0.0
 11
-31624.256363627999
 21
380554.77219393052
 31
0.0
  0
LINE
  5
6790A
  8
S-OBRYS
  6
CONTINUOUS
 10
-31733.848763628001
 20
380621.55742391432
 30
0.0
 11
-31624.256363627999
 21
380621.55742391432
 31
0.0
  0
LINE
  5
6790B
  8
S-OBRYS
  6
CONTINUOUS
 10
-31490.368206246421
 20
380480.16480892239
 30
0.0
 11
-31490.368206246421
 21
380588.16480892239
 31
0.0
  0
LINE
  5
6790C
  8
S-OBRYS
  6
CONTINUOUS
 10
-31490.368206246421
 20
380480.16480892239
 30
0.0
 11
-31433.068206246418
 21
380487.29280892242
 31
0.0
  0
LINE
  5
6790D
  8
S-OBRYS
  6
CONTINUOUS
 10
-31433.068206246418
 20
380487.29280892242
 30
0.0
 11
-31421.368206246421
 21
380497.87680892239
 31
0.0
  0
DIMENSION
  5
6790E
  8
S-OBRYS
  6
CONTINUOUS
  2
*D7
 10
-31421.368206246421
 20
383069.92922514537
 30
0.0
 11
-31969.448492828182
 21
383069.92922514537
 31
0.0
 70
   128
  1
1053
 13
-32474.357277743631
 23
382742.2970668542
 33
0.0
 14
-31421.368206246421
 24
382660.24119428539
 34
0.0
1001
ACAD
1000
DSTYLE
1002
{
1070
   288
1070
     1
1002
}
  0
LINE
  5
6790F
  8
S-OBRYS
  6
CONTINUOUS
 10
-32474.345431270289
 20
380715.53773472487
 30
0.0
 11
-31780.183385387601
 21
380715.53773472481
 31
0.0
  0
LINE
  5
67910
  8
S-OBRYS
  6
CONTINUOUS
 10
-31780.183385387601
 20
380724.47398742911
 30
0.0
 11
-32474.345431270289
 21
380724.47398742911
 31
0.0
  0
LINE
  5
67911
  8
S-OBRYS
  6
CONTINUOUS
 10
-32474.359660869301
 20
382668.26841221418
 30
0.0
 11
-32238.178563035359
 21
382668.26841221418
 31
0.0
  0
LINE
  5
67912
  8
S-OBRYS
  6
CONTINUOUS
 10
-32474.45731166211
 20
382387.79821948882
 30
0.0
 11
-31780.183385387601
 21
382387.79821948882
 31
0.0
  0
LINE
  5
67913
  8
S-OBRYS
  6
CONTINUOUS
 10
-32343.4573116621
 20
382504.86606300698
 30
0.0
 11
-32302.4573116621
 21
382504.86606300698
 31
0.0
  0
LINE
  5
67914
  8
S-OBRYS
  6
CONTINUOUS
 10
-32302.4573116621
 20
382634.86606300698
 30
0.0
 11
-32343.4573116621
 21
382634.86606300698
 31
0.0
  0
LINE
  5
67915
  8
S-OBRYS
  6
CONTINUOUS
 10
-34974.355009813102
 20
382742.35784895631
 30
0.0
 11
-32474.358467581449
 21
382742.29825669201
 31
0.0
  0
LINE
  5
67916
  8
S-OBRYS
  6
CONTINUOUS
 10
-34974.355009813102
 20
382759.9412757876
 30
0.0
 11
-32491.989569932721
 21
382759.9412757876
 31
0.0
  0
LINE
  5
67917
  8
S-OBRYS
  6
CONTINUOUS
 10
-32509.4573116621
 20
382387.86606300698
 30
0.0
 11
-34944.356201375929
 21
382387.86606300698
 31
0.0
  0
DIMENSION
  5
67918
  8
S-OBRYS
  6
CONTINUOUS
  2
*D8
 10
-32474.359659144291
 20
383069.92922514537
 30
0.0
 11
-33753.701877250423
 21
383069.92922514537
 31
0.0
 70
   128
 13
-34974.356201375922
 23
382615.89951284038
 33
0.0
 14
-32474.359659144291
 24
382598.25649374491
 34
0.0
1001
ACAD
1000
DSTYLE
1002
{
1070
   288
1070
     1
1002
}
  0
LINE
  5
67919
  8
S-OBRYS
  6
CONTINUOUS
 10
-34944.35670325964
 20
382386.34463980142
 30
0.0
 11
-34944.348217011662
 21
382742.35713368608
 31
0.0
  0
LINE
  5
6791A
  8
S-OBRYS
  6
CONTINUOUS
 10
-35004.356666993568
 20
382387.86606300698
 30
0.0
 11
-35004.348216977582
 21
382742.3585639025
 31
0.0
  0
LINE
  5
6791B
  8
S-OBRYS
  6
CONTINUOUS
 10
-34974.356201375922
 20
382407.86606300698
 30
0.0
 11
-34974.356201375922
 21
382629.93296267389
 31
0.0
  0
LINE
  5
6791C
  8
S-OBRYS
  6
CONTINUOUS
 10
-34970.356201375929
 20
382742.35775363678
 30
0.0
 11
-34970.356201375922
 21
382377.89951284049
 31
0.0
  0
LINE
  5
6791D
  8
S-OBRYS
  6
CONTINUOUS
 10
-34978.356201375929
 20
382742.35794433241
 30
0.0
 11
-34978.356201375929
 21
382360.39951284049
 31
0.0
  0
LINE
  5
6791E
  8
S-OBRYS
  6
CONTINUOUS
 10
-35001.356201375922
 20
380797.16480892239
 30
0.0
 11
-34981.356201375922
 21
380797.16480892239
 31
0.0
  0
ARC
  5
6791F
  8
S-OBRYS
  6
CONTINUOUS
 10
-35001.356201375922
 20
380794.16480892239
 30
0.0
 40
3.0
 50
90.0
 51
180.0
  0
ARC
  5
67920
  8
S-OBRYS
  6
CONTINUOUS
 10
-34975.356201375922
 20
380820.16480892239
 30
0.0
 40
3.0
 50
70.528779365520293
 51
180.0
  0
ARC
  5
67921
  8
S-OBRYS
  6
CONTINUOUS
 10
-34973.356201375922
 20
380820.16480892239
 30
0.0
 40
3.0
 50
0.0
 51
109.47122063447971
  0
ARC
  5
67922
  8
S-OBRYS
  6
CONTINUOUS
 10
-34947.356201375922
 20
380794.16480892239
 30
0.0
 40
3.0
 50
0.0
 51
90.0
  0
LINE
  5
67923
  8
S-OBRYS
  6
CONTINUOUS
 10
-34944.356201375929
 20
380793.16480892239
 30
0.0
 11
-34944.356201375929
 21
380794.16480892239
 31
0.0
  0
LINE
  5
67924
  8
S-OBRYS
  6
CONTINUOUS
 10
-34958.856201375922
 20
380797.16480892239
 30
0.0
 11
-34967.356201375922
 21
380797.16480892239
 31
0.0
  0
ARC
  5
67925
  8
S-OBRYS
  6
CONTINUOUS
 10
-34981.356201375922
 20
380800.16480892239
 30
0.0
 40
3.0
 50
270.0
 51
0.0
  0
ARC
  5
67926
  8
S-OBRYS
  6
CONTINUOUS
 10
-34967.356201375922
 20
380800.16480892239
 30
0.0
 40
3.0
 50
180.0
 51
270.0
  0
LINE
  5
67927
  8
S-OBRYS
  6
CONTINUOUS
 10
-34947.356201375922
 20
380797.16480892239
 30
0.0
 11
-34967.356201375922
 21
380797.16480892239
 31
0.0
  0
LINE
  5
67928
  8
S-OBRYS
  6
CONTINUOUS
 10
-34978.356201375922
 20
380800.16480892239
 30
0.0
 11
-34978.356201375922
 21
380820.16480892239
 31
0.0
  0
LINE
  5
67929
  8
S-OBRYS
  6
CONTINUOUS
 10
-34974.356201375922
 20
380793.16480892239
 30
0.0
 11
-34974.356201375922
 21
380823.16480892239
 31
0.0
  0
LINE
  5
6792A
  8
S-OBRYS
  6
CONTINUOUS
 10
-34970.356201375922
 20
380800.16480892239
 30
0.0
 11
-34970.356201375922
 21
380820.16480892239
 31
0.0
  0
ARC
  5
6792B
  8
S-OBRYS
  6
CONTINUOUS
 10
-34980.356201375922
 20
382281.95319428539
 30
0.0
 40
10.0
 50
270.0
 51
0.0
  0
ARC
  5
6792C
  8
S-OBRYS
  6
CONTINUOUS
 10
-34980.356201375922
 20
382281.95319428539
 30
0.0
 40
15.0
 50
270.0
 51
0.0
  0
LINE
  5
6792D
  8
S-OBRYS
  6
CONTINUOUS
 10
-34980.356201375922
 20
382266.95319428528
 30
0.0
 11
-35015.356201375922
 21
382266.95319428528
 31
0.0
  0
LINE
  5
6792E
  8
S-OBRYS
  6
CONTINUOUS
 10
-35015.356201375922
 20
382271.95319428539
 30
0.0
 11
-34980.356201375922
 21
382271.95319428539
 31
0.0
  0
LINE
  5
6792F
  8
S-OBRYS
  6
CONTINUOUS
 10
-35015.356201375922
 20
382266.95319428528
 30
0.0
 11
-35015.356201375922
 21
382271.95319428539
 31
0.0
  0
LINE
  5
67930
  8
S-OBRYS
  6
CONTINUOUS
 10
-34970.356201375922
 20
382377.89951284049
 30
0.0
 11
-34970.356201375922
 21
382360.39951284049
 31
0.0
  0
LINE
  5
67931
  8
S-OBRYS
  6
CONTINUOUS
 10
-34965.356201375929
 20
382383.39951284049
 30
0.0
 11
-34965.356201375929
 21
382281.95319428539
 31
0.0
  0
LINE
  5
67932
  8
S-OBRYS
  6
CONTINUOUS
 10
-34974.356201375922
 20
382407.39951284049
 30
0.0
 11
-34974.356201375922
 21
382357.39951284049
 31
0.0
  0
LINE
  5
67933
  8
S-OBRYS
  6
CONTINUOUS
 10
-34970.356201375922
 20
382281.95319428539
 30
0.0
 11
-34970.356201375922
 21
382360.39951284049
 31
0.0
  0
ARC
  5
67934
  8
S-OBRYS
  6
CONTINUOUS
 10
-34973.356201375922
 20
382360.39951284049
 30
0.0
 40
3.0
 50
270.0
 51
0.0
  0
LINE
  5
67935
  8
S-OBRYS
  6
CONTINUOUS
 10
-34973.356201375922
 20
382357.39951284049
 30
0.0
 11
-34974.356201375922
 21
382357.39951284049
 31
0.0
  0
ARC
  5
67936
  8
S-OBRYS
  6
CONTINUOUS
 10
-34975.356201375922
 20
382360.39951284049
 30
0.0
 40
3.0
 50
180.0
 51
270.0
  0
LINE
  5
67937
  8
S-OBRYS
  6
CONTINUOUS
 10
-34975.356201375922
 20
382357.39951284049
 30
0.0
 11
-34974.356201375922
 21
382357.39951284049
 31
0.0
  0
LINE
  5
67938
  8
S-OBRYS
  6
CONTINUOUS
 10
-35001.356201375922
 20
382383.39951284049
 30
0.0
 11
-34981.356201375922
 21
382383.39951284049
 31
0.0
  0
ARC
  5
67939
  8
S-OBRYS
  6
CONTINUOUS
 10
-35001.356201375922
 20
382386.39951284038
 30
0.0
 40
3.0
 50
180.0
 51
270.0
  0
LINE
  5
6793A
  8
S-OBRYS
  6
CONTINUOUS
 10
-35004.356201375922
 20
382387.39951284049
 30
0.0
 11
-35004.356201375922
 21
382386.39951284038
 31
0.0
  0
LINE
  5
6793B
  8
S-OBRYS
  6
CONTINUOUS
 10
-34986.356201375922
 20
382392.89951284049
 30
0.0
 11
-34952.356201375922
 21
382392.89951284049
 31
0.0
  0
ARC
  5
6793C
  8
S-OBRYS
  6
CONTINUOUS
 10
-34967.356201375922
 20
382380.39951284038
 30
0.0
 40
3.0
 50
90.0
 51
180.0
  0
LINE
  5
6793D
  8
S-OBRYS
  6
CONTINUOUS
 10
-34974.356201375922
 20
382407.39951284049
 30
0.0
 11
-34974.356201375922
 21
382377.39951284049
 31
0.0
  0
LINE
  5
6793E
  8
S-OBRYS
  6
CONTINUOUS
 10
-34970.356201375922
 20
382400.39951284049
 30
0.0
 11
-34970.356201375922
 21
382380.39951284038
 31
0.0
  0
ARC
  5
6793F
  8
S-OBRYS
  6
CONTINUOUS
 10
-34947.356201375922
 20
382386.39951284038
 30
0.0
 40
3.0
 50
270.0
 51
0.0
  0
LINE
  5
67940
  8
S-OBRYS
  6
CONTINUOUS
 10
-34944.356201375929
 20
382387.39951284049
 30
0.0
 11
-34944.356201375929
 21
382386.39951284038
 31
0.0
  0
LINE
  5
67941
  8
S-OBRYS
  6
CONTINUOUS
 10
-34947.356201375922
 20
382383.39951284049
 30
0.0
 11
-34967.356201375922
 21
382383.39951284049
 31
0.0
  0
ARC
  5
67942
  8
S-OBRYS
  6
CONTINUOUS
 10
-34981.356201375922
 20
382380.39951284038
 30
0.0
 40
3.0
 50
0.0
 51
90.0
  0
LINE
  5
67944
  8
S-OBRYS
  6
CONTINUOUS
 10
-34991.875567506577
 20
382770.96528226847
 30
0.0
 11
-35001.375567506577
 21
382770.96528226847
 31
0.0
  0
LINE
  5
67945
  8
S-OBRYS
  6
CONTINUOUS
 10
-35001.375567506577
 20
382763.96528226847
 30
0.0
 11
-34991.875567506577
 21
382763.96528226847
 31
0.0
  0
LINE
  5
67946
  8
S-OBRYS
  6
CONTINUOUS
 10
-34981.856201375922
 20
382763.95319428539
 30
0.0
 11
-35001.856201375922
 21
382763.95319428539
 31
0.0
  0
LINE
  5
67947
  8
S-OBRYS
  6
CONTINUOUS
 10
-35008.856201375922
 20
382759.95319428539
 30
0.0
 11
-34978.856201375922
 21
382759.95319428539
 31
0.0
  0
LINE
  5
67948
  8
S-OBRYS
  6
CONTINUOUS
 10
-35001.375567506577
 20
382770.94623886619
 30
0.0
 11
-34991.875567506577
 21
382770.94623886619
 31
0.0
  0
LINE
  5
67949
  8
S-OBRYS
  6
CONTINUOUS
 10
-34991.875567506577
 20
382777.94623886619
 30
0.0
 11
-35001.375567506577
 21
382777.94623886619
 31
0.0
  0
LINE
  5
6794A
  8
S-OBRYS
  6
CONTINUOUS
 10
-34985.856201375922
 20
382778.95319428539
 30
0.0
 11
-34997.856201375922
 21
382778.95319428539
 31
0.0
  0
LINE
  5
6794B
  8
S-OBRYS
  6
CONTINUOUS
 10
-34996.856201375922
 20
382779.95319428528
 30
0.0
 11
-34986.856201375922
 21
382779.95319428528
 31
0.0
  0
LINE
  5
6794C
  8
S-OBRYS
  6
CONTINUOUS
 10
-34997.856201375922
 20
382763.96528226847
 30
0.0
 11
-34997.856201375922
 21
382763.95319428539
 31
0.0
  0
LINE
  5
6794D
  8
S-OBRYS
  6
CONTINUOUS
 10
-34996.856201375922
 20
382763.95319428539
 30
0.0
 11
-34996.856201375922
 21
382763.96528226847
 31
0.0
  0
LINE
  5
6794E
  8
S-OBRYS
  6
CONTINUOUS
 10
-35001.375567506577
 20
382770.96528226847
 30
0.0
 11
-35002.845217506583
 21
382770.11677984102
 31
0.0
  0
LINE
  5
6794F
  8
S-OBRYS
  6
CONTINUOUS
 10
-35002.845217506583
 20
382764.81378469599
 30
0.0
 11
-35001.375567506577
 21
382763.96528226847
 31
0.0
  0
LINE
  5
67950
  8
S-OBRYS
  6
CONTINUOUS
 10
-35002.845217506583
 20
382770.11677984102
 30
0.0
 11
-35002.845217506583
 21
382764.81378469599
 31
0.0
  0
ARC
  5
67951
  8
S-OBRYS
  6
CONTINUOUS
 10
-35001.856201375922
 20
382766.95319428539
 30
0.0
 40
3.0
 50
180.0
 51
270.0
  0
LINE
  5
67952
  8
S-OBRYS
  6
CONTINUOUS
 10
-35007.856201375922
 20
382789.95319428539
 30
0.0
 11
-35008.856201375922
 21
382789.95319428539
 31
0.0
  0
ARC
  5
67953
  8
S-OBRYS
  6
CONTINUOUS
 10
-35007.856201375922
 20
382786.95319428539
 30
0.0
 40
3.0
 50
0.0
 51
90.0
  0
LINE
  5
67954
  8
S-OBRYS
  6
CONTINUOUS
 10
-35008.856201375922
 20
382759.95319428539
 30
0.0
 11
-35008.856201375922
 21
382789.95319428539
 31
0.0
  0
LINE
  5
67955
  8
S-OBRYS
  6
CONTINUOUS
 10
-35004.856201375922
 20
382766.95319428539
 30
0.0
 11
-35004.856201375922
 21
382786.95319428539
 31
0.0
  0
LINE
  5
67956
  8
S-OBRYS
  6
CONTINUOUS
 10
-35002.845217506583
 20
382771.79474129371
 30
0.0
 11
-35001.375567506577
 21
382770.94623886619
 31
0.0
  0
LINE
  5
67957
  8
S-OBRYS
  6
CONTINUOUS
 10
-35002.845217506583
 20
382777.09773643868
 30
0.0
 11
-35002.845217506583
 21
382771.79474129371
 31
0.0
  0
LINE
  5
67958
  8
S-OBRYS
  6
CONTINUOUS
 10
-35001.375567506577
 20
382777.94623886619
 30
0.0
 11
-35002.845217506583
 21
382777.09773643868
 31
0.0
  0
LINE
  5
67959
  8
S-OBRYS
  6
CONTINUOUS
 10
-34996.856201375922
 20
382779.95319428528
 30
0.0
 11
-34997.856201375922
 21
382778.95319428539
 31
0.0
  0
LINE
  5
6795A
  8
S-OBRYS
  6
CONTINUOUS
 10
-34997.856201375922
 20
382778.95319428539
 30
0.0
 11
-34997.856201375922
 21
382777.94623886619
 31
0.0
  0
LINE
  5
6795B
  8
S-OBRYS
  6
CONTINUOUS
 10
-34985.856201375922
 20
382777.94623886619
 30
0.0
 11
-34985.856201375922
 21
382778.95319428539
 31
0.0
  0
LINE
  5
6795C
  8
S-OBRYS
  6
CONTINUOUS
 10
-34991.875567506577
 20
382770.96528226847
 30
0.0
 11
-34982.375567506577
 21
382770.96528226847
 31
0.0
  0
LINE
  5
6795D
  8
S-OBRYS
  6
CONTINUOUS
 10
-34982.375567506577
 20
382770.96528226847
 30
0.0
 11
-34980.905917506578
 21
382770.11677984102
 31
0.0
  0
LINE
  5
6795E
  8
S-OBRYS
  6
CONTINUOUS
 10
-34982.375567506577
 20
382763.96528226847
 30
0.0
 11
-34991.875567506577
 21
382763.96528226847
 31
0.0
  0
LINE
  5
6795F
  8
S-OBRYS
  6
CONTINUOUS
 10
-34980.905917506578
 20
382764.81378469599
 30
0.0
 11
-34982.375567506577
 21
382763.96528226847
 31
0.0
  0
LINE
  5
67960
  8
S-OBRYS
  6
CONTINUOUS
 10
-34980.905917506578
 20
382770.11677984102
 30
0.0
 11
-34980.905917506578
 21
382764.81378469599
 31
0.0
  0
LINE
  5
67961
  8
S-OBRYS
  6
CONTINUOUS
 10
-34978.856201375922
 20
382759.95319428539
 30
0.0
 11
-34978.856201375922
 21
382760.95319428539
 31
0.0
  0
ARC
  5
67962
  8
S-OBRYS
  6
CONTINUOUS
 10
-34981.856201375922
 20
382760.95319428539
 30
0.0
 40
3.0
 50
0.0
 51
90.0
  0
LINE
  5
67963
  8
S-OBRYS
  6
CONTINUOUS
 10
-34982.375567506577
 20
382770.94623886619
 30
0.0
 11
-34991.875567506577
 21
382770.94623886619
 31
0.0
  0
LINE
  5
67964
  8
S-OBRYS
  6
CONTINUOUS
 10
-34980.905917506578
 20
382771.79474129371
 30
0.0
 11
-34982.375567506577
 21
382770.94623886619
 31
0.0
  0
LINE
  5
67965
  8
S-OBRYS
  6
CONTINUOUS
 10
-34980.905917506578
 20
382777.09773643868
 30
0.0
 11
-34980.905917506578
 21
382771.79474129371
 31
0.0
  0
LINE
  5
67966
  8
S-OBRYS
  6
CONTINUOUS
 10
-34982.375567506577
 20
382777.94623886619
 30
0.0
 11
-34980.905917506578
 21
382777.09773643868
 31
0.0
  0
LINE
  5
67967
  8
S-OBRYS
  6
CONTINUOUS
 10
-34991.875567506577
 20
382777.94623886619
 30
0.0
 11
-34982.375567506577
 21
382777.94623886619
 31
0.0
  0
LINE
  5
67968
  8
S-OBRYS
  6
CONTINUOUS
 10
-34986.856201375922
 20
382779.95319428528
 30
0.0
 11
-34985.856201375922
 21
382778.95319428539
 31
0.0
  0
LINE
  5
67969
  8
S-OBRYS
  6
CONTINUOUS
 10
-32479.4573116621
 20
382407.86606300698
 30
0.0
 11
-32479.44933981953
 21
382742.29837804282
 31
0.0
  0
LINE
  5
6796A
  8
S-OBRYS
  6
CONTINUOUS
 10
-32509.45778840088
 20
382387.86606300698
 30
0.0
 11
-32509.449339802479
 21
382742.29909315088
 31
0.0
  0
LINE
  5
6796B
  8
S-OBRYS
  6
CONTINUOUS
 10
-32474.326675548091
 20
382370.36606300698
 30
0.0
 11
-32474.368206246421
 21
382657.31017539348
 31
0.0
  0
LINE
  5
6796C
  8
S-OBRYS
  6
CONTINUOUS
 10
-32486.4573116621
 20
380797.16480892239
 30
0.0
 11
-32506.4573116621
 21
380797.16480892239
 31
0.0
  0
LINE
  5
6796D
  8
S-OBRYS
  6
CONTINUOUS
 10
-32509.4573116621
 20
380794.16480892239
 30
0.0
 11
-32509.4573116621
 21
380793.16480892239
 31
0.0
  0
ARC
  5
6796E
  8
S-OBRYS
  6
CONTINUOUS
 10
-32506.4573116621
 20
380794.16480892239
 30
0.0
 40
3.0
 50
90.0
 51
180.0
  0
LINE
  5
6796F
  8
S-OBRYS
  6
CONTINUOUS
 10
-32479.4573116621
 20
380802.66480892239
 30
0.0
 11
-32474.345431270289
 21
380802.66480892239
 31
0.0
  0
LINE
  5
67970
  8
S-OBRYS
  6
CONTINUOUS
 10
-32479.4573116621
 20
380823.16480892239
 30
0.0
 11
-32480.4573116621
 21
380823.16480892239
 31
0.0
  0
LINE
  5
67971
  8
S-OBRYS
  6
CONTINUOUS
 10
-32483.4573116621
 20
380820.16480892239
 30
0.0
 11
-32483.4573116621
 21
380800.16480892239
 31
0.0
  0
ARC
  5
67972
  8
S-OBRYS
  6
CONTINUOUS
 10
-32486.4573116621
 20
380800.16480892239
 30
0.0
 40
3.0
 50
270.0
 51
0.0
  0
ARC
  5
67973
  8
S-OBRYS
  6
CONTINUOUS
 10
-32480.4573116621
 20
380820.16480892239
 30
0.0
 40
3.0
 50
90.0
 51
180.0
  0
ARC
  5
67974
  8
S-OBRYS
  6
CONTINUOUS
 10
-32489.45731166211
 20
382281.95319428539
 30
0.0
 40
15.0
 50
270.0
 51
0.0
  0
ARC
  5
67975
  8
S-OBRYS
  6
CONTINUOUS
 10
-32489.45731166211
 20
382281.95319428539
 30
0.0
 40
10.0
 50
270.0
 51
0.0
  0
LINE
  5
67976
  8
S-OBRYS
  6
CONTINUOUS
 10
-32524.4573116621
 20
382271.95319428539
 30
0.0
 11
-32489.45731166211
 21
382271.95319428539
 31
0.0
  0
LINE
  5
67977
  8
S-OBRYS
  6
CONTINUOUS
 10
-32489.45731166211
 20
382266.95319428528
 30
0.0
 11
-32524.4573116621
 21
382266.95319428528
 31
0.0
  0
LINE
  5
67978
  8
S-OBRYS
  6
CONTINUOUS
 10
-32524.4573116621
 20
382266.95319428528
 30
0.0
 11
-32524.4573116621
 21
382271.95319428539
 31
0.0
  0
LINE
  5
67979
  8
S-OBRYS
  6
CONTINUOUS
 10
-32495.45731166211
 20
382372.86606300698
 30
0.0
 11
-32461.4573116621
 21
382372.86606300698
 31
0.0
  0
LINE
  5
6797A
  8
S-OBRYS
  6
CONTINUOUS
 10
-32506.4573116621
 20
382383.86606300698
 30
0.0
 11
-32486.4573116621
 21
382383.86606300698
 31
0.0
  0
ARC
  5
6797B
  8
S-OBRYS
  6
CONTINUOUS
 10
-32506.4573116621
 20
382386.86606300698
 30
0.0
 40
3.0
 50
180.0
 51
270.0
  0
LINE
  5
6797C
  8
S-OBRYS
  6
CONTINUOUS
 10
-32509.4573116621
 20
382387.86606300698
 30
0.0
 11
-32509.4573116621
 21
382386.86606300698
 31
0.0
  0
LINE
  5
6797D
  8
S-OBRYS
  6
CONTINUOUS
 10
-32474.45731166211
 20
382281.91974445188
 30
0.0
 11
-32474.45731166211
 21
382375.54372844798
 31
0.0
  0
LINE
  5
6797E
  8
S-OBRYS
  6
CONTINUOUS
 10
-32483.4573116621
 20
382380.86606300698
 30
0.0
 11
-32483.4573116621
 21
382360.86606300698
 31
0.0
  0
LINE
  5
6797F
  8
S-OBRYS
  6
CONTINUOUS
 10
-32479.4573116621
 20
382281.91974445188
 30
0.0
 11
-32479.4573116621
 21
382407.86606300698
 31
0.0
  0
ARC
  5
67980
  8
S-OBRYS
  6
CONTINUOUS
 10
-32480.4573116621
 20
382360.86606300698
 30
0.0
 40
3.0
 50
180.0
 51
270.0
  0
LINE
  5
67981
  8
S-OBRYS
  6
CONTINUOUS
 10
-32480.4573116621
 20
382357.86606300698
 30
0.0
 11
-32479.4573116621
 21
382357.86606300698
 31
0.0
  0
LINE
  5
67982
  8
S-OBRYS
  6
CONTINUOUS
 10
-32474.332103089979
 20
382407.86606300698
 30
0.0
 11
-32479.4573116621
 21
382407.86606300698
 31
0.0
  0
ARC
  5
67983
  8
S-OBRYS
  6
CONTINUOUS
 10
-32486.4573116621
 20
382380.86606300698
 30
0.0
 40
3.0
 50
0.0
 51
90.0
  0
LINE
  5
67984
  8
S-OBRYS
  6
CONTINUOUS
 10
-32345.4573116621
 20
382602.3660630071
 30
0.0
 11
-32345.4573116621
 21
382537.36606300698
 31
0.0
  0
LINE
  5
67985
  8
S-OBRYS
  6
CONTINUOUS
 10
-32464.336562084551
 20
382518.84313356451
 30
0.0
 11
-32464.336562084551
 21
382628.83851518878
 31
0.0
  0
LINE
  5
67986
  8
S-OBRYS
  6
CONTINUOUS
 10
-32406.336562084551
 20
382530.17417101678
 30
0.0
 11
-32406.336562084551
 21
382610.09752843552
 31
0.0
  0
LINE
  5
67987
  8
S-OBRYS
  6
CONTINUOUS
 10
-32398.356516194071
 20
382585.18407942221
 30
0.0
 11
-32398.336562084551
 21
382555.17417101673
 31
0.0
  0
LINE
  5
67988
  8
S-OBRYS
  6
CONTINUOUS
 10
-32385.4573116621
 20
382592.3660630071
 30
0.0
 11
-32385.4573116621
 21
382539.3660630071
 31
0.0
  0
LINE
  5
67989
  8
S-OBRYS
  6
CONTINUOUS
 10
-32385.355134692811
 20
382555.17417101673
 30
0.0
 11
-32398.336562084551
 21
382555.17417101673
 31
0.0
  0
LINE
  5
6798A
  8
S-OBRYS
  6
CONTINUOUS
 10
-32484.9573116621
 20
382503.8660630071
 30
0.0
 11
-32459.4573116621
 21
382503.8660630071
 31
0.0
  0
ARC
  5
6798B
  8
S-OBRYS
  6
CONTINUOUS
 10
-32400.336562084551
 20
382532.17417101678
 30
0.0
 40
2.0
 50
270.0
 51
0.0
  0
ARC
  5
6798C
  8
S-OBRYS
  6
CONTINUOUS
 10
-32408.336562084551
 20
382524.67417101678
 30
0.0
 40
2.0
 50
270.0
 51
0.0
  0
LINE
  5
6798D
  8
S-OBRYS
  6
CONTINUOUS
 10
-32414.336562084551
 20
382522.67417101678
 30
0.0
 11
-32408.336562084551
 21
382522.67417101678
 31
0.0
  0
LINE
  5
6798E
  8
S-OBRYS
  6
CONTINUOUS
 10
-32414.336562084551
 20
382530.17417101678
 30
0.0
 11
-32414.336562084551
 21
382522.67417101678
 31
0.0
  0
LINE
  5
6798F
  8
S-OBRYS
  6
CONTINUOUS
 10
-32406.336562084551
 20
382524.67417101678
 30
0.0
 11
-32406.336562084551
 21
382530.17417101678
 31
0.0
  0
LINE
  5
67990
  8
S-OBRYS
  6
CONTINUOUS
 10
-32406.336562084551
 20
382530.17417101678
 30
0.0
 11
-32400.336562084551
 21
382530.17417101678
 31
0.0
  0
ARC
  5
67991
  8
S-OBRYS
  6
CONTINUOUS
 10
-32461.80540313619
 20
382518.5552290802
 30
0.0
 40
2.5474800517290328
 50
91.936774901842696
 51
178.02731388382139
  0
ARC
  5
67992
  8
S-OBRYS
  6
CONTINUOUS
 10
-32467.336562084551
 20
382502.67417101678
 30
0.0
 40
3.0
 50
270.0
 51
0.0
  0
LINE
  5
67993
  8
S-OBRYS
  6
CONTINUOUS
 10
-32467.336562084551
 20
382499.67417101673
 30
0.0
 11
-32474.336562084551
 21
382499.67417101673
 31
0.0
  0
LINE
  5
67994
  8
S-OBRYS
  6
CONTINUOUS
 10
-32464.336562084551
 20
382518.84313356451
 30
0.0
 11
-32464.336562084551
 21
382502.67417101678
 31
0.0
  0
LINE
  5
67995
  8
S-OBRYS
  6
CONTINUOUS
 10
-32414.336562084551
 20
382522.67417101678
 30
0.0
 11
-32462.139159132232
 21
382521.08075111511
 31
0.0
  0
LINE
  5
67996
  8
S-OBRYS
  6
CONTINUOUS
 10
-32398.336562084551
 20
382532.17417101678
 30
0.0
 11
-32398.336562084551
 21
382555.17417101673
 31
0.0
  0
LINE
  5
67997
  8
S-OBRYS
  6
CONTINUOUS
 10
-32345.4573116621
 20
382506.8660630071
 30
0.0
 11
-32343.4573116621
 21
382504.86606300698
 31
0.0
  0
ARC
  5
67998
  8
S-OBRYS
  6
CONTINUOUS
 10
-32350.45731166211
 20
382532.3660630071
 30
0.0
 40
5.0
 50
0.0
 51
90.0
  0
LINE
  5
67999
  8
S-OBRYS
  6
CONTINUOUS
 10
-32385.4573116621
 20
382539.3660630071
 30
0.0
 11
-32383.4573116621
 21
382537.36606300698
 31
0.0
  0
LINE
  5
6799A
  8
S-OBRYS
  6
CONTINUOUS
 10
-32345.4573116621
 20
382537.36606300698
 30
0.0
 11
-32345.4573116621
 21
382506.8660630071
 31
0.0
  0
LINE
  5
6799B
  8
S-OBRYS
  6
CONTINUOUS
 10
-32383.4573116621
 20
382537.36606300698
 30
0.0
 11
-32350.45731166211
 21
382537.36606300698
 31
0.0
  0
LINE
  5
6799C
  8
S-OBRYS
  6
CONTINUOUS
 10
-32385.355134692811
 20
382585.17417101673
 30
0.0
 11
-32398.35650960579
 21
382585.17417101673
 31
0.0
  0
LINE
  5
6799D
  8
S-OBRYS
  6
CONTINUOUS
 10
-32474.332103089979
 20
382632.04032556358
 30
0.0
 11
-32479.4573116621
 21
382632.04032556358
 31
0.0
  0
LINE
  5
6799E
  8
S-OBRYS
  6
CONTINUOUS
 10
-32485.4573116621
 20
382635.86606300698
 30
0.0
 11
-32459.9573116621
 21
382635.86606300698
 31
0.0
  0
LINE
  5
6799F
  8
S-OBRYS
  6
CONTINUOUS
 10
-32426.064273121799
 20
382634.92240234948
 30
0.0
 11
-32424.803526440679
 21
382635.68514448142
 31
0.0
  0
LINE
  5
679A0
  8
S-OBRYS
  6
CONTINUOUS
 10
-32426.004630528751
 20
382636.92151284212
 30
0.0
 11
-32424.791597922071
 21
382636.08496657992
 31
0.0
  0
LINE
  5
679A1
  8
S-OBRYS
  6
CONTINUOUS
 10
-32424.803526440679
 20
382635.68514448142
 30
0.0
 11
-32424.791597922071
 21
382636.08496657992
 31
0.0
  0
LINE
  5
679A2
  8
S-OBRYS
  6
CONTINUOUS
 10
-32434.060715091669
 20
382635.16097272182
 30
0.0
 11
-32426.064273121799
 21
382634.92240234948
 31
0.0
  0
LINE
  5
679A3
  8
S-OBRYS
  6
CONTINUOUS
 10
-32434.00107249861
 20
382637.16008321429
 30
0.0
 11
-32426.004630528751
 21
382636.92151284212
 31
0.0
  0
LINE
  5
679A4
  8
S-OBRYS
  6
CONTINUOUS
 10
-32427.33222003678
 20
382625.95622643002
 30
0.0
 11
-32426.229066690801
 21
382626.62362579542
 31
0.0
  0
LINE
  5
679A5
  8
S-OBRYS
  6
CONTINUOUS
 10
-32426.229066690801
 20
382626.62362579542
 30
0.0
 11
-32426.151531319829
 21
382629.2224694356
 31
0.0
  0
LINE
  5
679A6
  8
S-OBRYS
  6
CONTINUOUS
 10
-32427.297391878092
 20
382625.95181428117
 30
0.0
 11
-32427.297391878092
 21
382625.69941229949
 31
0.0
  0
LINE
  5
679A7
  8
S-OBRYS
  6
CONTINUOUS
 10
-32427.212934850671
 20
382629.9544474149
 30
0.0
 11
-32426.151531319829
 21
382629.2224694356
 31
0.0
  0
LINE
  5
679A8
  8
S-OBRYS
  6
CONTINUOUS
 10
-32434.20982157431
 20
382630.16319649061
 30
0.0
 11
-32427.212934850671
 21
382629.9544474149
 31
0.0
  0
LINE
  5
679A9
  8
S-OBRYS
  6
CONTINUOUS
 10
-32434.329106760419
 20
382626.16497550567
 30
0.0
 11
-32427.33222003678
 21
382625.95622643002
 31
0.0
  0
LINE
  5
679AA
  8
S-OBRYS
  6
CONTINUOUS
 10
-32428.21249009691
 20
382629.98426871141
 30
0.0
 11
-32428.06338361427
 21
382634.98204494262
 31
0.0
  0
LINE
  5
679AB
  8
S-OBRYS
  6
CONTINUOUS
 10
-32442.057157061539
 20
382635.39954309398
 30
0.0
 11
-32443.270189668219
 21
382636.23608935619
 31
0.0
  0
LINE
  5
679AC
  8
S-OBRYS
  6
CONTINUOUS
 10
-32441.997514468479
 20
382637.39865358651
 30
0.0
 11
-32443.2582611496
 21
382636.63591145468
 31
0.0
  0
LINE
  5
679AD
  8
S-OBRYS
  6
CONTINUOUS
 10
-32443.270189668219
 20
382636.23608935619
 30
0.0
 11
-32443.2582611496
 21
382636.63591145468
 31
0.0
  0
LINE
  5
679AE
  8
S-OBRYS
  6
CONTINUOUS
 10
-32441.206708297941
 20
382630.37194556632
 30
0.0
 11
-32442.30986164392
 21
382629.70454620093
 31
0.0
  0
LINE
  5
679AF
  8
S-OBRYS
  6
CONTINUOUS
 10
-32441.325993484061
 20
382626.37372458138
 30
0.0
 11
-32442.3873970149
 21
382627.10570256069
 31
0.0
  0
LINE
  5
679B0
  8
S-OBRYS
  6
CONTINUOUS
 10
-32441.339846048799
 20
382626.35566134169
 30
0.0
 11
-32441.390358535089
 21
382626.15373781149
 31
0.0
  0
LINE
  5
679B1
  8
S-OBRYS
  6
CONTINUOUS
 10
-32442.3873970149
 20
382627.10570256069
 30
0.0
 11
-32442.30986164392
 21
382629.70454620093
 31
0.0
  0
LINE
  5
679B2
  8
S-OBRYS
  6
CONTINUOUS
 10
-32440.20715305171
 20
382630.34212426981
 30
0.0
 11
-32440.058046569069
 21
382635.3399005009
 31
0.0
  0
ARC
  5
679B3
  8
S-OBRYS
  6
CONTINUOUS
 10
-32467.35436470931
 20
382637.6761566099
 30
0.0
 40
3.0
 50
0.0
 51
90.0
  0
ARC
  5
679B4
  8
S-OBRYS
  6
CONTINUOUS
 10
-32461.823205760938
 20
382629.36795538478
 30
0.0
 40
2.5474800517290328
 50
191.97731647333569
 51
268.06322509815732
  0
LINE
  5
679B5
  8
S-OBRYS
  6
CONTINUOUS
 10
-32464.354364709299
 20
382637.6761566099
 30
0.0
 11
-32464.31522675612
 21
382628.83929105522
 31
0.0
  0
LINE
  5
679B6
  8
S-OBRYS
  6
CONTINUOUS
 10
-32467.35436470931
 20
382640.6761566099
 30
0.0
 11
-32474.354364709299
 21
382640.6761566099
 31
0.0
  0
LINE
  5
679B7
  8
S-OBRYS
  6
CONTINUOUS
 10
-32423.652811168231
 20
382625.55896166363
 30
0.0
 11
-32462.15696175698
 21
382626.84243334993
 31
0.0
  0
LINE
  5
679B8
  8
S-OBRYS
  6
CONTINUOUS
 10
-32434.060715091669
 20
382635.16097272182
 30
0.0
 11
-32442.057157061539
 21
382635.39954309398
 31
0.0
  0
LINE
  5
679B9
  8
S-OBRYS
  6
CONTINUOUS
 10
-32434.00107249861
 20
382637.16008321429
 30
0.0
 11
-32441.997514468479
 21
382637.39865358651
 31
0.0
  0
LINE
  5
679BA
  8
S-OBRYS
  6
CONTINUOUS
 10
-32434.329106760419
 20
382626.16497550567
 30
0.0
 11
-32441.325993484061
 21
382626.37372458138
 31
0.0
  0
LINE
  5
679BB
  8
S-OBRYS
  6
CONTINUOUS
 10
-32434.20982157431
 20
382630.16319649061
 30
0.0
 11
-32441.206708297941
 21
382630.37194556632
 31
0.0
  0
ARC
  5
679BC
  8
S-OBRYS
  6
CONTINUOUS
 10
-32400.356516194071
 20
382608.18407942221
 30
0.0
 40
2.0
 50
0.0
 51
90.0
  0
ARC
  5
679BD
  8
S-OBRYS
  6
CONTINUOUS
 10
-32408.356516194071
 20
382621.37958712393
 30
0.0
 40
2.0
 50
0.0
 51
90.0
  0
LINE
  5
679BE
  8
S-OBRYS
  6
CONTINUOUS
 10
-32406.356516194071
 20
382615.68407942209
 30
0.0
 11
-32406.356516194071
 21
382621.37958712393
 31
0.0
  0
LINE
  5
679BF
  8
S-OBRYS
  6
CONTINUOUS
 10
-32414.356516194061
 20
382623.37958712393
 30
0.0
 11
-32408.356516194071
 21
382623.37958712393
 31
0.0
  0
LINE
  5
679C0
  8
S-OBRYS
  6
CONTINUOUS
 10
-32406.356516194071
 20
382615.68407942209
 30
0.0
 11
-32406.356516194071
 21
382610.18407942221
 31
0.0
  0
LINE
  5
679C1
  8
S-OBRYS
  6
CONTINUOUS
 10
-32414.35436470931
 20
382623.39184877783
 30
0.0
 11
-32421.94574978657
 21
382623.6458602075
 31
0.0
  0
LINE
  5
679C2
  8
S-OBRYS
  6
CONTINUOUS
 10
-32406.356516194071
 20
382610.18407942221
 30
0.0
 11
-32400.356516194071
 21
382610.18407942221
 31
0.0
  0
LINE
  5
679C3
  8
S-OBRYS
  6
CONTINUOUS
 10
-32398.356516194071
 20
382608.18407942221
 30
0.0
 11
-32398.356516194071
 21
382585.18407942221
 31
0.0
  0
ARC
  5
679C4
  8
S-OBRYS
  6
CONTINUOUS
 10
-32421.913884258909
 20
382625.39245042211
 30
0.0
 40
1.7468808744380571
 50
174.53030951566231
 51
268.95478762080722
  0
LINE
  5
679C5
  8
S-OBRYS
  6
CONTINUOUS
 10
-32345.4573116621
 20
382632.86606300698
 30
0.0
 11
-32343.4573116621
 21
382634.86606300698
 31
0.0
  0
ARC
  5
679C6
  8
S-OBRYS
  6
CONTINUOUS
 10
-32350.45731166211
 20
382607.3660630071
 30
0.0
 40
5.0
 50
270.0
 51
0.0
  0
LINE
  5
679C7
  8
S-OBRYS
  6
CONTINUOUS
 10
-32383.4573116621
 20
382602.3660630071
 30
0.0
 11
-32385.4573116621
 21
382600.3660630071
 31
0.0
  0
LINE
  5
679C8
  8
S-OBRYS
  6
CONTINUOUS
 10
-32385.4573116621
 20
382600.3660630071
 30
0.0
 11
-32385.4573116621
 21
382592.3660630071
 31
0.0
  0
LINE
  5
679C9
  8
S-OBRYS
  6
CONTINUOUS
 10
-32375.45731166211
 20
382602.3660630071
 30
0.0
 11
-32383.4573116621
 21
382602.3660630071
 31
0.0
  0
LINE
  5
679CA
  8
S-OBRYS
  6
CONTINUOUS
 10
-32350.45731166211
 20
382602.3660630071
 30
0.0
 11
-32375.45731166211
 21
382602.3660630071
 31
0.0
  0
LINE
  5
679CB
  8
S-OBRYS
  6
CONTINUOUS
 10
-32345.4573116621
 20
382632.86606300698
 30
0.0
 11
-32345.4573116621
 21
382602.3660630071
 31
0.0
  0
LINE
  5
679CD
  8
S-OBRYS
  6
CONTINUOUS
 10
-32474.357277743631
 20
382742.2970668542
 30
0.0
 11
-32491.988378369879
 21
382759.92816748051
 31
0.0
  0
DIMENSION
  5
679CE
  8
S-OBRYS
  6
CONTINUOUS
  2
*D2
 10
-33217.057916027181
 20
377069.13659916399
 30
0.0
 11
-33374.554651895509
 21
377069.13659916399
 31
0.0
 70
   128
 13
-33627.057916027181
 23
376759.1271184705
 33
0.0
 14
-33217.057916027181
 24
376759.1271184705
 34
0.0
1001
ACAD
1000
DSTYLE
1002
{
1070
   288
1070
     1
1002
}
  0
ARC
  5
679CF
  8
S-OBRYS
  6
CONTINUOUS
 10
-33422.057916027174
 20
376517.0734370256
 30
0.0
 40
205.00000000000051
 50
180.0
 51
0.0
  0
DIMENSION
  5
679D0
  8
S-OBRYS
  6
CONTINUOUS
  2
*D3
 10
-33257.057916027181
 20
376048.36539991951
 30
0.0
 11
-33422.057916027174
 21
376135.86539991939
 31
0.0
 70
     0
 13
-33587.057916027181
 23
376266.16056830389
 33
0.0
 14
-33257.057916027181
 24
376266.16056830389
 34
0.0
1001
ACAD
1000
DSTYLE
1002
{
1070
   288
1070
     1
1002
}
  0
ARC
  5
679D1
  8
S-OBRYS
  6
CONTINUOUS
 10
-33422.057916027174
 20
376517.0734370256
 30
0.0
 40
130.0
 50
180.0
 51
0.0
  0
LINE
  5
679D2
  8
S-OBRYS
  6
CONTINUOUS
 10
-33257.057916027181
 20
376271.16056830389
 30
0.0
 11
-33587.057916027181
 21
376271.16056830389
 31
0.0
  0
LINE
  5
679D3
  8
S-OBRYS
  6
CONTINUOUS
 10
-33587.057916027181
 20
376266.16056830389
 30
0.0
 11
-33257.057916027181
 21
376266.16056830389
 31
0.0
  0
LINE
  5
679D4
  8
S-OBRYS
  6
CONTINUOUS
 10
-33217.057916027181
 20
376741.6271184705
 30
0.0
 11
-33627.057916027181
 21
376741.6271184705
 31
0.0
  0
CIRCLE
  5
679D5
  8
S-OBRYS
  6
CONTINUOUS
 10
-33422.057916027174
 20
376569.16056830389
 30
0.0
 40
84.907694589667244
  0
LINE
  5
679D6
  8
S-OBRYS
  6
CONTINUOUS
 10
-33217.057916027181
 20
376759.1271184705
 30
0.0
 11
-33627.057916027181
 21
376759.1271184705
 31
0.0
  0
LINE
  5
679D7
  8
S-OBRYS
  6
CONTINUOUS
 10
-33552.057916027174
 20
376569.16056830389
 30
0.0
 11
-33292.057916027181
 21
376569.16056830389
 31
0.0
  0
DIMENSION
  5
679D8
  8
S-OBRYS
  6
CONTINUOUS
  2
*D4
 10
-33693.883911468009
 20
376759.1271184705
 30
0.0
 11
-33781.383911468067
 21
376512.6438433872
 31
0.0
 70
     0
  1
493
 13
-33587.057916027181
 23
376266.16056830389
 33
0.0
 14
-33627.057916027181
 24
376759.1271184705
 34
0.0
 50
90.0
1001
ACAD
1000
DSTYLE
1002
{
1070
   288
1070
     1
1002
}
  0
LINE
  5
679D9
  8
S-OBRYS
  6
CONTINUOUS
 10
-31828.828500081469
 20
382570.03913871438
 30
0.0
 11
-31828.828500081479
 21
382422.29821948882
 31
0.0
  0
LINE
  5
679DA
  8
S-OBRYS
  6
CONTINUOUS
 10
-33422.057916027174
 20
376799.16056830401
 30
0.0
 11
-33422.057916027174
 21
376266.16056830389
 31
0.0
  0
LINE
  5
679DB
  8
S-OBRYS
  6
CONTINUOUS
 10
-31852.489143970972
 20
382575.7168411754
 30
0.0
 11
-31852.489143970972
 21
382422.29821948882
 31
0.0
  0
LINE
  5
679DC
  8
S-OBRYS
  6
CONTINUOUS
 10
-31899.452596548788
 20
382586.98637853528
 30
0.0
 11
-31899.452596548788
 21
382422.29821948882
 31
0.0
  0
LINE
  5
679DD
  8
S-OBRYS
  6
CONTINUOUS
 10
-31780.183385387601
 20
382387.79821948882
 30
0.0
 11
-31780.183385387601
 21
382558.3660630071
 31
0.0
  0
LINE
  5
679DE
  8
S-OBRYS
  6
CONTINUOUS
 10
-31917.098040114091
 20
382497.29821948882
 30
0.0
 11
-31917.098040114091
 21
382422.29821948882
 31
0.0
  0
LINE
  5
679DF
  8
S-OBRYS
  6
CONTINUOUS
 10
-32101.434767839131
 20
382422.29821948882
 30
0.0
 11
-32101.434767839131
 21
382497.29821948882
 31
0.0
  0
LINE
  5
679E0
  8
S-OBRYS
  6
CONTINUOUS
 10
-32223.4573116621
 20
382541.86606300698
 30
0.0
 11
-32223.45731166211
 21
382422.29821948882
 31
0.0
  0
LINE
  5
679E1
  8
S-OBRYS
  6
CONTINUOUS
 10
-31493.705665478021
 20
382461.95319428539
 30
0.0
 11
-31436.405665478011
 21
382469.0811942853
 31
0.0
  0
LINE
  5
679E2
  8
S-OBRYS
  6
CONTINUOUS
 10
-31493.705665478021
 20
382461.95319428539
 30
0.0
 11
-31493.705665478021
 21
382569.95319428539
 31
0.0
  0
LINE
  5
679E3
  8
S-OBRYS
  6
CONTINUOUS
 10
-31810.603763628002
 20
382461.95319428539
 30
0.0
 11
-31810.603763628002
 21
382565.66585827898
 31
0.0
  0
LINE
  5
679E4
  8
S-OBRYS
  6
CONTINUOUS
 10
-31828.828500081469
 20
380696.16480892239
 30
0.0
 11
-31493.705665478021
 21
380696.16480892239
 31
0.0
  0
LINE
  5
679E5
  8
S-OBRYS
  6
CONTINUOUS
 10
-31828.828500081469
 20
380686.66936645628
 30
0.0
 11
-31490.368206246421
 21
380686.66936645628
 31
0.0
  0
LINE
  5
679E6
  8
S-OBRYS
  6
CONTINUOUS
 10
-31780.108017407929
 20
382461.95319428539
 30
0.0
 11
-31493.705665478021
 21
382461.95319428539
 31
0.0
  0
LINE
  5
679E7
  8
S-OBRYS
  6
CONTINUOUS
 10
-31953.452596548788
 20
380681.98351046542
 30
0.0
 11
-31899.452596548788
 21
380681.98351046542
 31
0.0
  0
LINE
  5
679E8
  8
S-OBRYS
  6
CONTINUOUS
 10
-32223.4573116621
 20
380672.24817603652
 30
0.0
 11
-31953.452596548788
 21
380672.24817603652
 31
0.0
  0
LINE
  5
679E9
  8
S-OBRYS
  6
CONTINUOUS
 10
-32239.4573116621
 20
380724.47398742911
 30
0.0
 11
-32239.4573116621
 21
380715.53773472487
 31
0.0
  0
LINE
  5
679EA
  8
S-OBRYS
  6
CONTINUOUS
 10
-31780.183385387601
 20
380724.47398742911
 30
0.0
 11
-31780.183385387601
 21
380696.16480892239
 31
0.0
  0
LINE
  5
679EB
  8
S-OBRYS
  6
CONTINUOUS
 10
-31968.86045427604
 20
382392.29821948882
 30
0.0
 11
-31819.526944552141
 21
382392.29821948882
 31
0.0
  0
LINE
  5
679EC
  8
S-OBRYS
  6
CONTINUOUS
 10
-32223.4573116621
 20
382392.29821948882
 30
0.0
 11
-32053.86045427604
 21
382392.29821948882
 31
0.0
  0
LINE
  5
679ED
  8
S-OBRYS
  6
CONTINUOUS
 10
-32101.434767839131
 20
382422.29821948882
 30
0.0
 11
-32164.5823116621
 21
382422.29821948882
 31
0.0
  0
LINE
  5
679EE
  8
S-OBRYS
  6
CONTINUOUS
 10
-32164.5823116621
 20
382422.29821948882
 30
0.0
 11
-32223.4573116621
 21
382422.29821948882
 31
0.0
  0
LINE
  5
679EF
  8
S-OBRYS
  6
CONTINUOUS
 10
-32223.4573116621
 20
382416.29821948882
 30
0.0
 11
-32223.4573116621
 21
382392.29821948882
 31
0.0
  0
LINE
  5
679F0
  8
S-OBRYS
  6
CONTINUOUS
 10
-32198.4573116621
 20
382427.29821948888
 30
0.0
 11
-32198.4573116621
 21
382386.79821948888
 31
0.0
  0
LINE
  5
679F1
  8
S-OBRYS
  6
CONTINUOUS
 10
-32050.86045427604
 20
382397.79821948888
 30
0.0
 11
-31971.86045427604
 21
382397.79821948888
 31
0.0
  0
LINE
  5
679F2
  8
S-OBRYS
  6
CONTINUOUS
 10
-32053.86045427604
 20
382394.79821948888
 30
0.0
 11
-32050.86045427604
 21
382397.79821948888
 31
0.0
  0
LINE
  5
679F3
  8
S-OBRYS
  6
CONTINUOUS
 10
-32053.86045427604
 20
382392.29821948882
 30
0.0
 11
-32053.86045427604
 21
382394.79821948888
 31
0.0
  0
LINE
  5
679F4
  8
S-OBRYS
  6
CONTINUOUS
 10
-31968.86045427604
 20
382394.79821948888
 30
0.0
 11
-31971.86045427604
 21
382397.79821948888
 31
0.0
  0
LINE
  5
679F5
  8
S-OBRYS
  6
CONTINUOUS
 10
-31968.86045427604
 20
382392.29821948882
 30
0.0
 11
-31968.86045427604
 21
382394.79821948888
 31
0.0
  0
LINE
  5
679F6
  8
S-OBRYS
  6
CONTINUOUS
 10
-31819.526944552141
 20
382422.29821948882
 30
0.0
 11
-31917.098040114091
 21
382422.29821948882
 31
0.0
  0
LINE
  5
679F7
  8
S-OBRYS
  6
CONTINUOUS
 10
-31842.030662097339
 20
382427.38535076712
 30
0.0
 11
-31842.030662097339
 21
382386.79821948888
 31
0.0
  0
LINE
  5
679F8
  8
S-OBRYS
  6
CONTINUOUS
 10
-31819.526944552141
 20
382422.29821948882
 30
0.0
 11
-31819.526944552141
 21
382392.29821948882
 31
0.0
  0
LINE
  5
679F9
  8
S-OBRYS
  6
CONTINUOUS
 10
-31780.108017407929
 20
382461.95319428539
 30
0.0
 11
-31828.828500081479
 21
382461.95319428539
 31
0.0
  0
LINE
  5
679FA
  8
S-OBRYS
  6
CONTINUOUS
 10
-31490.368206246421
 20
380696.16480892239
 30
0.0
 11
-31433.068206246418
 21
380689.03680892242
 31
0.0
  0
LINE
  5
679FB
  8
S-OBRYS
  6
CONTINUOUS
 10
-31433.068206246418
 20
380689.03680892242
 30
0.0
 11
-31421.368206246421
 21
380678.45280892239
 31
0.0
  0
LINE
  5
679FC
  8
S-OBRYS
  6
CONTINUOUS
 10
-33587.057916027181
 20
376266.16056830389
 30
0.0
 11
-33587.057916027181
 21
376395.41818641959
 31
0.0
  0
LINE
  5
679FD
  8
S-OBRYS
  6
CONTINUOUS
 10
-31810.603763628002
 20
382668.45775181928
 30
0.0
 11
-31493.705665478021
 21
382668.45775181928
 31
0.0
  0
LINE
  5
679FE
  8
S-OBRYS
  6
CONTINUOUS
 10
-31810.603763628002
 20
382650.45775181928
 30
0.0
 11
-31493.705665478021
 21
382650.45775181928
 31
0.0
  0
LINE
  5
679FF
  8
S-OBRYS
  6
CONTINUOUS
 10
-31810.603763628002
 20
382620.45775181928
 30
0.0
 11
-31493.705665478021
 21
382620.45775181928
 31
0.0
  0
LINE
  5
67A00
  8
S-OBRYS
  6
CONTINUOUS
 10
-31810.603763628002
 20
382588.05775181932
 30
0.0
 11
-31493.705665478021
 21
382588.05775181932
 31
0.0
  0
LINE
  5
67A01
  8
S-OBRYS
  6
CONTINUOUS
 10
-31780.108017407929
 20
382519.44863675139
 30
0.0
 11
-31493.705665478021
 21
382519.44863675139
 31
0.0
  0
LINE
  5
67A02
  8
S-OBRYS
  6
CONTINUOUS
 10
-31780.108017407929
 20
382489.44863675139
 30
0.0
 11
-31493.705665478021
 21
382489.44863675139
 31
0.0
  0
LINE
  5
67A03
  8
S-OBRYS
  6
CONTINUOUS
 10
-31780.108017407929
 20
382471.44863675127
 30
0.0
 11
-31493.705665478021
 21
382471.44863675127
 31
0.0
  0
LINE
  5
67A04
  8
S-OBRYS
  6
CONTINUOUS
 10
-31780.108017407929
 20
382551.84863675141
 30
0.0
 11
-31493.705665478021
 21
382551.84863675141
 31
0.0
  0
LINE
  5
67A05
  8
S-OBRYS
  6
CONTINUOUS
 10
-31624.256363627999
 20
382677.95319428539
 30
0.0
 11
-31493.70566547801
 21
382677.95319428539
 31
0.0
  0
LINE
  5
67A06
  8
S-OBRYS
  6
CONTINUOUS
 10
-32238.178563035359
 20
382668.26841221418
 30
0.0
 11
-31780.183385387601
 21
382558.3660630071
 31
0.0
  0
LINE
  5
67A07
  8
S-OBRYS
  6
CONTINUOUS
 10
-32223.4573116621
 20
382704.8660630071
 30
0.0
 11
-31828.828500081479
 21
382704.8660630071
 31
0.0
  0
LINE
  5
67A08
  8
S-OBRYS
  6
CONTINUOUS
 10
-31953.452596548788
 20
382599.3660630071
 30
0.0
 11
-31899.452596548788
 21
382599.3660630071
 31
0.0
  0
LINE
  5
67A09
  8
S-OBRYS
  6
CONTINUOUS
 10
-32101.434767839131
 20
382497.29821948882
 30
0.0
 11
-31917.098040114081
 21
382497.29821948882
 31
0.0
  0
LINE
  5
67A0A
  8
S-OBRYS
  6
CONTINUOUS
 10
-31953.452596548788
 20
382704.8660630071
 30
0.0
 11
-31953.452596548788
 21
382599.3660630071
 31
0.0
  0
LINE
  5
67A0B
  8
S-OBRYS
  6
CONTINUOUS
 10
-32223.4573116621
 20
382547.86606300698
 30
0.0
 11
-32223.4573116621
 21
382664.01544240821
 31
0.0
  0
LINE
  5
67A0C
  8
S-OBRYS
  6
CONTINUOUS
 10
-32181.403387850522
 20
382651.86606300698
 30
0.0
 11
-31953.452596548788
 21
382651.86606300698
 31
0.0
  0
LINE
  5
67A0D
  8
S-OBRYS
  6
CONTINUOUS
 10
-32300.4573116621
 20
382506.8660630071
 30
0.0
 11
-32300.4573116621
 21
382632.86606300698
 31
0.0
  0
LINE
  5
67A0E
  8
S-OBRYS
  6
CONTINUOUS
 10
-32223.4573116621
 20
382541.86606300698
 30
0.0
 11
-32223.4573116621
 21
382597.8660630071
 31
0.0
  0
LINE
  5
67A0F
  8
S-OBRYS
  6
CONTINUOUS
 10
-32228.45731166211
 20
382544.86606300698
 30
0.0
 11
-32228.45731166211
 21
382597.8660630071
 31
0.0
  0
LINE
  5
67A10
  8
S-OBRYS
  6
CONTINUOUS
 10
-32238.433029207321
 20
382589.86606300698
 30
0.0
 11
-32238.433029207321
 21
382549.8660630071
 31
0.0
  0
LINE
  5
67A11
  8
S-OBRYS
  6
CONTINUOUS
 10
-32240.4573116621
 20
382532.3660630071
 30
0.0
 11
-32238.4573116621
 21
382534.36606300698
 31
0.0
  0
LINE
  5
67A12
  8
S-OBRYS
  6
CONTINUOUS
 10
-32302.4573116621
 20
382504.86606300698
 30
0.0
 11
-32300.4573116621
 21
382506.8660630071
 31
0.0
  0
LINE
  5
67A13
  8
S-OBRYS
  6
CONTINUOUS
 10
-32238.4573116621
 20
382534.36606300698
 30
0.0
 11
-32238.4573116621
 21
382544.86606300698
 31
0.0
  0
LINE
  5
67A14
  8
S-OBRYS
  6
CONTINUOUS
 10
-32300.4573116621
 20
382532.3660630071
 30
0.0
 11
-32240.4573116621
 21
382532.3660630071
 31
0.0
  0
LINE
  5
67A15
  8
S-OBRYS
  6
CONTINUOUS
 10
-32228.45731166211
 20
382541.86606300698
 30
0.0
 11
-32223.4573116621
 21
382541.86606300698
 31
0.0
  0
LINE
  5
67A16
  8
S-OBRYS
  6
CONTINUOUS
 10
-32228.45731166211
 20
382544.86606300698
 30
0.0
 11
-32228.45731166211
 21
382541.86606300698
 31
0.0
  0
LINE
  5
67A17
  8
S-OBRYS
  6
CONTINUOUS
 10
-32238.433029207321
 20
382544.86606300698
 30
0.0
 11
-32228.45731166211
 21
382544.86606300698
 31
0.0
  0
LINE
  5
67A18
  8
S-OBRYS
  6
CONTINUOUS
 10
-32238.433029207321
 20
382549.8660630071
 30
0.0
 11
-32238.433029207321
 21
382544.86606300698
 31
0.0
  0
LINE
  5
67A19
  8
S-OBRYS
  6
CONTINUOUS
 10
-32181.403387850529
 20
382651.86606300698
 30
0.0
 11
-32223.4573116621
 21
382651.86606300698
 31
0.0
  0
LINE
  5
67A1A
  8
S-OBRYS
  6
CONTINUOUS
 10
-32240.4573116621
 20
382607.3660630071
 30
0.0
 11
-32238.4573116621
 21
382605.3660630071
 31
0.0
  0
LINE
  5
67A1B
  8
S-OBRYS
  6
CONTINUOUS
 10
-32302.4573116621
 20
382634.86606300698
 30
0.0
 11
-32300.4573116621
 21
382632.86606300698
 31
0.0
  0
LINE
  5
67A1C
  8
S-OBRYS
  6
CONTINUOUS
 10
-32240.4573116621
 20
382607.3660630071
 30
0.0
 11
-32300.4573116621
 21
382607.3660630071
 31
0.0
  0
LINE
  5
67A1D
  8
S-OBRYS
  6
CONTINUOUS
 10
-32238.4573116621
 20
382594.86606300698
 30
0.0
 11
-32238.4573116621
 21
382605.3660630071
 31
0.0
  0
LINE
  5
67A1E
  8
S-OBRYS
  6
CONTINUOUS
 10
-32223.4573116621
 20
382597.8660630071
 30
0.0
 11
-32228.45731166211
 21
382597.8660630071
 31
0.0
  0
LINE
  5
67A1F
  8
S-OBRYS
  6
CONTINUOUS
 10
-32238.433029207321
 20
382594.86606300698
 30
0.0
 11
-32228.45731166211
 21
382594.86606300698
 31
0.0
  0
LINE
  5
67A20
  8
S-OBRYS
  6
CONTINUOUS
 10
-32238.433029207321
 20
382589.86606300698
 30
0.0
 11
-32238.433029207321
 21
382594.86606300698
 31
0.0
  0
LINE
  5
67A21
  8
S-OBRYS
  6
CONTINUOUS
 10
-31953.452596548788
 20
382599.3660630071
 30
0.0
 11
-31953.452596548788
 21
382497.29821948882
 31
0.0
  0
LINE
  5
67A22
  8
S-OBRYS
  6
CONTINUOUS
 10
-32223.4573116621
 20
382663.11128593702
 30
0.0
 11
-32223.4573116621
 21
382704.8660630071
 31
0.0
  0
LINE
  5
67A23
  8
S-OBRYS
  6
CONTINUOUS
 10
-31828.828500081469
 20
382704.8660630071
 30
0.0
 11
-31828.828500081469
 21
382570.03913871438
 31
0.0
  0
LINE
  5
67A24
  8
S-OBRYS
  6
CONTINUOUS
 10
-31899.452596548788
 20
382586.98637853528
 30
0.0
 11
-31899.452596548788
 21
382704.8660630071
 31
0.0
  0
LINE
  5
67A25
  8
S-OBRYS
  6
CONTINUOUS
 10
-31852.489143970961
 20
382704.8660630071
 30
0.0
 11
-31852.489143970961
 21
382575.7168411754
 31
0.0
  0
LINE
  5
67A26
  8
S-OBRYS
  6
CONTINUOUS
 10
-31810.603763628002
 20
382677.95319428539
 30
0.0
 11
-31810.603763628002
 21
382565.66585827898
 31
0.0
  0
LINE
  5
67A27
  8
S-OBRYS
  6
CONTINUOUS
 10
-31810.565702573738
 20
382471.44863675127
 30
0.0
 11
-31780.108017407929
 21
382471.44863675127
 31
0.0
  0
LINE
  5
67A28
  8
S-OBRYS
  6
CONTINUOUS
 10
-31810.565702573738
 20
382489.44863675139
 30
0.0
 11
-31780.108017407929
 21
382489.44863675139
 31
0.0
  0
LINE
  5
67A29
  8
S-OBRYS
  6
CONTINUOUS
 10
-31810.565702573738
 20
382519.44863675139
 30
0.0
 11
-31780.108017407929
 21
382519.44863675139
 31
0.0
  0
LINE
  5
67A2A
  8
S-OBRYS
  6
CONTINUOUS
 10
-31810.565702573738
 20
382551.84863675141
 30
0.0
 11
-31780.108017407929
 21
382551.84863675141
 31
0.0
  0
LINE
  5
67A2B
  8
S-OBRYS
  6
CONTINUOUS
 10
-31828.828500081469
 20
382677.95319428539
 30
0.0
 11
-31733.848763628001
 21
382677.95319428539
 31
0.0
  0
LINE
  5
67A2C
  8
S-OBRYS
  6
CONTINUOUS
 10
-31733.848763628001
 20
382720.66119428538
 30
0.0
 11
-31624.256363627999
 21
382720.66119428538
 31
0.0
  0
LINE
  5
67A2D
  8
S-OBRYS
  6
CONTINUOUS
 10
-31733.848763628001
 20
382708.66119428532
 30
0.0
 11
-31624.256363627999
 21
382708.66119428532
 31
0.0
  0
LINE
  5
67A2E
  8
S-OBRYS
  6
CONTINUOUS
 10
-31733.848763628001
 20
382672.66119428538
 30
0.0
 11
-31624.256363627999
 21
382672.66119428538
 31
0.0
  0
LINE
  5
67A2F
  8
S-OBRYS
  6
CONTINUOUS
 10
-31733.848763628001
 20
382672.66119428538
 30
0.0
 11
-31733.848763628001
 21
382720.66119428538
 31
0.0
  0
LINE
  5
67A30
  8
S-OBRYS
  6
CONTINUOUS
 10
-31624.256363627999
 20
382720.66119428538
 30
0.0
 11
-31624.256363627999
 21
382672.66119428538
 31
0.0
  0
LINE
  5
67A31
  8
S-OBRYS
  6
CONTINUOUS
 10
-31421.368206246421
 20
382660.24119428539
 30
0.0
 11
-31421.368206246421
 21
382479.66519428539
 31
0.0
  0
LINE
  5
67A32
  8
S-OBRYS
  6
CONTINUOUS
 10
-31436.405665478011
 20
382670.82519428543
 30
0.0
 11
-31436.405665478011
 21
382469.0811942853
 31
0.0
  0
LINE
  5
67A33
  8
S-OBRYS
  6
CONTINUOUS
 10
-31493.705665478021
 20
382677.95319428539
 30
0.0
 11
-31493.705665478021
 21
382569.95319428539
 31
0.0
  0
LINE
  5
67A34
  8
S-OBRYS
  6
CONTINUOUS
 10
-31436.405665478011
 20
382469.0811942853
 30
0.0
 11
-31421.368206246421
 21
382479.66519428539
 31
0.0
  0
LINE
  5
67A35
  8
S-OBRYS
  6
CONTINUOUS
 10
-31493.705665478021
 20
382677.95319428539
 30
0.0
 11
-31436.405665478011
 21
382670.82519428543
 31
0.0
  0
LINE
  5
67A36
  8
S-OBRYS
  6
CONTINUOUS
 10
-31436.405665478011
 20
382670.82519428543
 30
0.0
 11
-31421.368206246421
 21
382660.24119428539
 31
0.0
  0
LINE
  5
67A37
  8
S-OBRYS
  6
CONTINUOUS
 10
-33627.057916027181
 20
376517.0734370256
 30
0.0
 11
-33627.057916027181
 21
376741.6271184705
 31
0.0
  0
LINE
  5
67A38
  8
S-OBRYS
  6
CONTINUOUS
 10
-33552.057916027174
 20
376517.0734370256
 30
0.0
 11
-33552.057916027174
 21
376741.6271184705
 31
0.0
  0
CIRCLE
  5
67A39
  8
S-OBRYS
  6
CONTINUOUS
 10
-33422.057916027174
 20
376569.16056830389
 30
0.0
 40
64.15181120638708
  0
CIRCLE
  5
67A3A
  8
S-OBRYS
  6
CONTINUOUS
 10
-33422.057916027174
 20
376569.16056830389
 30
0.0
 40
48.317201964360621
  0
LINE
  5
67A3B
  8
S-OBRYS
  6
CONTINUOUS
 10
-33431.500051317671
 20
376646.54066779691
 30
0.0
 11
-33432.989837761867
 21
376645.5882248769
 31
0.0
  0
LINE
  5
67A3C
  8
S-OBRYS
  6
CONTINUOUS
 10
-33431.512245345242
 20
376644.14069877513
 30
0.0
 11
-33432.992276567376
 21
376645.10823107261
 31
0.0
  0
LINE
  5
67A3D
  8
S-OBRYS
  6
CONTINUOUS
 10
-33432.992276567376
 20
376645.10823107261
 30
0.0
 11
-33432.989837761867
 21
376645.5882248769
 31
0.0
  0
LINE
  5
67A3E
  8
S-OBRYS
  6
CONTINUOUS
 10
-33422.029389399482
 20
376621.06058925221
 30
0.0
 11
-33421.876984877592
 21
376651.0561038006
 31
0.0
  0
LINE
  5
67A3F
  8
S-OBRYS
  6
CONTINUOUS
 10
-33412.263787666969
 20
376634.08277052513
 30
0.0
 11
-33412.247935431129
 21
376637.20273025351
 31
0.0
  0
LINE
  5
67A40
  8
S-OBRYS
  6
CONTINUOUS
 10
-33429.862089748618
 20
376633.00458151702
 30
0.0
 11
-33431.662161277767
 21
376634.18133192352
 31
0.0
  0
LINE
  5
67A41
  8
S-OBRYS
  6
CONTINUOUS
 10
-33413.989628787793
 20
376632.97941429378
 30
0.0
 11
-33412.263787666969
 21
376634.08277052513
 31
0.0
  0
LINE
  5
67A42
  8
S-OBRYS
  6
CONTINUOUS
 10
-33421.91236925796
 20
376644.09192266478
 30
0.0
 11
-33412.312493170677
 21
376644.0431465545
 31
0.0
  0
LINE
  5
67A43
  8
S-OBRYS
  6
CONTINUOUS
 10
-33421.900175230388
 20
376646.49189168669
 30
0.0
 11
-33412.300299143113
 21
376646.4431155764
 31
0.0
  0
LINE
  5
67A44
  8
S-OBRYS
  6
CONTINUOUS
 10
-33421.91236925796
 20
376644.09192266478
 30
0.0
 11
-33431.512245345242
 21
376644.14069877513
 31
0.0
  0
LINE
  5
67A45
  8
S-OBRYS
  6
CONTINUOUS
 10
-33421.900175230388
 20
376646.49189168669
 30
0.0
 11
-33431.500051317671
 21
376646.54066779691
 31
0.0
  0
LINE
  5
67A46
  8
S-OBRYS
  6
CONTINUOUS
 10
-33412.312493170677
 20
376644.0431465545
 30
0.0
 11
-33410.822706726467
 21
376644.99558947462
 31
0.0
  0
LINE
  5
67A47
  8
S-OBRYS
  6
CONTINUOUS
 10
-33412.300299143113
 20
376646.4431155764
 30
0.0
 11
-33410.820267920972
 21
376645.47558327892
 31
0.0
  0
LINE
  5
67A48
  8
S-OBRYS
  6
CONTINUOUS
 10
-33410.822706726467
 20
376644.99558947462
 30
0.0
 11
-33410.820267920972
 21
376645.47558327892
 31
0.0
  0
LINE
  5
67A49
  8
S-OBRYS
  6
CONTINUOUS
 10
-33421.94285432688
 20
376638.09200011031
 30
0.0
 11
-33413.542962750507
 21
376638.04932101379
 31
0.0
  0
LINE
  5
67A4A
  8
S-OBRYS
  6
CONTINUOUS
 10
-33430.342745903246
 20
376638.13467920682
 30
0.0
 11
-33431.646309041927
 21
376637.30129165167
 31
0.0
  0
LINE
  5
67A4B
  8
S-OBRYS
  6
CONTINUOUS
 10
-33421.94285432688
 20
376638.09200011031
 30
0.0
 11
-33430.342745903246
 21
376638.13467920682
 31
0.0
  0
LINE
  5
67A4C
  8
S-OBRYS
  6
CONTINUOUS
 10
-33413.542962750507
 20
376638.04932101379
 30
0.0
 11
-33412.247935431129
 21
376637.20273025351
 31
0.0
  0
LINE
  5
67A4D
  8
S-OBRYS
  6
CONTINUOUS
 10
-33429.142761392337
 20
376638.12858219299
 30
0.0
 11
-33429.112276323423
 21
376644.12850474758
 31
0.0
  0
LINE
  5
67A4E
  8
S-OBRYS
  6
CONTINUOUS
 10
-33414.742947261417
 20
376638.05541802762
 30
0.0
 11
-33414.71246219251
 21
376644.0553405821
 31
0.0
  0
LINE
  5
67A4F
  8
S-OBRYS
  6
CONTINUOUS
 10
-33431.662161277767
 20
376634.18133192352
 30
0.0
 11
-33431.646309041927
 21
376637.30129165167
 31
0.0
  0
LINE
  5
67A50
  8
S-OBRYS
  6
CONTINUOUS
 10
-33627.057916027181
 20
376741.6271184705
 30
0.0
 11
-33627.057916027181
 21
376759.1271184705
 31
0.0
  0
LINE
  5
67A51
  8
S-OBRYS
  6
CONTINUOUS
 10
-33442.057916027181
 20
376799.16056830401
 30
0.0
 11
-33402.057916027181
 21
376799.16056830401
 31
0.0
  0
LINE
  5
67A52
  8
S-OBRYS
  6
CONTINUOUS
 10
-33442.057916027181
 20
376799.16056830401
 30
0.0
 11
-33442.057916027181
 21
376759.16056830389
 31
0.0
  0
LINE
  5
67A53
  8
S-OBRYS
  6
CONTINUOUS
 10
-33402.057916027181
 20
376799.16056830389
 30
0.0
 11
-33402.057916027181
 21
376759.1271184705
 31
0.0
  0
LINE
  5
67A54
  8
S-OBRYS
  6
CONTINUOUS
 10
-33257.057916027181
 20
376266.16056830389
 30
0.0
 11
-33257.057916027181
 21
376395.41818641959
 31
0.0
  0
LINE
  5
67A55
  8
S-OBRYS
  6
CONTINUOUS
 10
-33217.057916027181
 20
376517.0734370256
 30
0.0
 11
-33217.057916027181
 21
376741.6271184705
 31
0.0
  0
LINE
  5
67A56
  8
S-OBRYS
  6
CONTINUOUS
 10
-33292.057916027181
 20
376517.0734370256
 30
0.0
 11
-33292.057916027181
 21
376741.6271184705
 31
0.0
  0
LINE
  5
67A57
  8
S-OBRYS
  6
CONTINUOUS
 10
-33217.057916027181
 20
376741.6271184705
 30
0.0
 11
-33217.057916027181
 21
376759.1271184705
 31
0.0
  0
INSERT
  5
68415
  8
S-OBRYS
  6
CONTINUOUS
  2
*U43
 10
0.0
 20
0.0
 30
0.0
  0
LINE
  5
68C09
  8
S-OBRYS
  6
CONTINUOUS
 10
-37200.441414016692
 20
378370.39630922931
 30
0.0
 11
-35200.441414016692
 21
378370.34863535198
 31
0.0
  0
LINE
  5
68C0A
  8
S-OBRYS
  6
CONTINUOUS
 10
-37200.441414016692
 20
378387.93206218339
 30
0.0
 11
-35200.441414016692
 21
378387.93206218339
 31
0.0
  0
LINE
  5
68C0B
  8
S-OBRYS
  6
CONTINUOUS
 10
-39279.339658626719
 20
378197.94398068113
 30
0.0
 11
-31647.454610450019
 21
378197.94398068113
 31
0.0
  0
LINE
  5
68C0C
  8
S-OBRYS
  6
CONTINUOUS
 10
-35230.442605579519
 20
378015.85684940271
 30
0.0
 11
-37170.442605579519
 21
378015.85684940271
 31
0.0
  0
DIMENSION
  5
68C0D
  8
S-OBRYS
  6
CONTINUOUS
  2
*D22
 10
-35200.442605579519
 20
378701.31424319599
 30
0.0
 11
-36256.630889083637
 21
378701.31424319599
 31
0.0
 70
   128
 13
-37200.442605579519
 23
378243.89029923623
 33
0.0
 14
-35200.442605579519
 24
378219.10684940271
 34
0.0
1001
ACAD
1000
DSTYLE
1002
{
1070
   288
1070
     1
1002
}
  0
DIMENSION
  5
68C0E
  8
S-OBRYS
  6
CONTINUOUS
  2
*D23
 10
-37200.442605579519
 20
378697.92001154111
 30
0.0
 11
-38069.846019277669
 21
378697.92001154111
 31
0.0
 70
   128
 13
-39200.442605579519
 23
378285.44398313499
 33
0.0
 14
-37200.442605579519
 24
378285.40822772699
 34
0.0
1001
ACAD
1000
DSTYLE
1002
{
1070
   288
1070
     1
1002
}
  0
LINE
  5
68C0F
  8
S-OBRYS
  6
CONTINUOUS
 10
-39100.586317204958
 20
378387.93206218339
 30
0.0
 11
-37200.441414016692
 21
378387.93206218339
 31
0.0
  0
LINE
  5
68C10
  8
S-OBRYS
  6
CONTINUOUS
 10
-39100.586317204958
 20
378370.44160286681
 30
0.0
 11
-37200.441414016692
 21
378370.39630922931
 31
0.0
  0
LINE
  5
68C11
  8
S-OBRYS
  6
CONTINUOUS
 10
-37230.442605579527
 20
378015.85684940271
 30
0.0
 11
-38853.454154706997
 21
378015.85684940271
 31
0.0
  0
DIMENSION
  5
68C12
  8
S-OBRYS
  6
CONTINUOUS
  2
*D24
 10
-39365.643311543012
 20
378427.94398068113
 30
0.0
 11
-39365.643311543077
 21
379163.62646555912
 31
0.0
 70
   128
 13
-39185.339658626719
 23
377894.94398068113
 33
0.0
 14
-39182.587508767792
 24
378427.94398068113
 34
0.0
 50
90.0
1001
ACAD
1000
DSTYLE
1002
{
1070
   288
1070
     1
1002
}
  0
DIMENSION
  5
68C13
  8
S-OBRYS
  6
CONTINUOUS
  2
*D25
 10
-39366.53013955948
 20
378197.94398068113
 30
0.0
 11
-39366.530139559552
 21
377426.81371500401
 31
0.0
 70
   128
 13
-39185.339658626719
 23
377894.94398068113
 33
0.0
 14
-39279.339658626719
 24
378197.94398068113
 34
0.0
 50
90.0
1001
ACAD
1000
DSTYLE
1002
{
1070
   288
1070
     1
1002
}
  0
LINE
  5
68C14
  8
S-OBRYS
  6
CONTINUOUS
 10
-38853.454154706997
 20
378197.94398068113
 30
0.0
 11
-38853.454154706997
 21
377985.94398068113
 31
0.0
  0
LINE
  5
68C15
  8
S-OBRYS
  6
CONTINUOUS
 10
-39067.454154706997
 20
378197.94398068113
 30
0.0
 11
-39067.454154706997
 21
377985.94398068113
 31
0.0
  0
LINE
  5
68C16
  8
S-OBRYS
  6
CONTINUOUS
 10
-38960.454154706997
 20
378197.94398068113
 30
0.0
 11
-38960.454154706997
 21
377985.94398068113
 31
0.0
  0
LINE
  5
68C17
  8
S-OBRYS
  6
CONTINUOUS
 10
-39165.340159712061
 20
378014.83546985622
 30
0.0
 11
-39165.331683113691
 21
378370.44314619811
 31
0.0
  0
LINE
  5
68C18
  8
S-OBRYS
  6
CONTINUOUS
 10
-39200.442605579519
 20
377986.06187211152
 30
0.0
 11
-39200.442605579519
 21
378335.44398313499
 31
0.0
  0
LINE
  5
68C19
  8
S-OBRYS
  6
CONTINUOUS
 10
-39191.339658626719
 20
378370.44376614859
 30
0.0
 11
-39191.339658626719
 21
377988.89029923623
 31
0.0
  0
LINE
  5
68C1A
  8
S-OBRYS
  6
CONTINUOUS
 10
-39195.339658626719
 20
378370.4438614964
 30
0.0
 11
-39195.339658626719
 21
378005.89029923623
 31
0.0
  0
LINE
  5
68C1B
  8
S-OBRYS
  6
CONTINUOUS
 10
-39179.339658626719
 20
378000.89029923623
 30
0.0
 11
-39213.339658626719
 21
378000.89029923623
 31
0.0
  0
LINE
  5
68C1C
  8
S-OBRYS
  6
CONTINUOUS
 10
-39094.954154707011
 20
377985.94398068113
 30
0.0
 11
-38825.954154707011
 21
377985.94398068113
 31
0.0
  0
ARC
  5
68C1D
  8
S-OBRYS
  6
CONTINUOUS
 10
-39185.339658626719
 20
377909.94398068113
 30
0.0
 40
15.0
 50
180.0
 51
270.0
  0
ARC
  5
68C1E
  8
S-OBRYS
  6
CONTINUOUS
 10
-39185.339658626719
 20
377909.94398068113
 30
0.0
 40
10.0
 50
180.0
 51
270.0
  0
LINE
  5
68C1F
  8
S-OBRYS
  6
CONTINUOUS
 10
-39150.339658626719
 20
377894.94398068113
 30
0.0
 11
-39150.339658626719
 21
377899.94398068113
 31
0.0
  0
LINE
  5
68C20
  8
S-OBRYS
  6
CONTINUOUS
 10
-39150.339658626719
 20
377899.94398068113
 30
0.0
 11
-39185.339658626719
 21
377899.94398068113
 31
0.0
  0
LINE
  5
68C21
  8
S-OBRYS
  6
CONTINUOUS
 10
-39185.339658626719
 20
377894.94398068113
 30
0.0
 11
-39150.339658626719
 21
377894.94398068113
 31
0.0
  0
LINE
  5
68C22
  8
S-OBRYS
  6
CONTINUOUS
 10
-39067.454154706997
 20
378084.18041576102
 30
0.0
 11
-38853.454154706997
 21
378084.18041576102
 31
0.0
  0
LINE
  5
68C23
  8
S-OBRYS
  6
CONTINUOUS
 10
-39195.339658626719
 20
377909.94398068113
 30
0.0
 11
-39195.339658626719
 21
378005.89029923623
 31
0.0
  0
LINE
  5
68C24
  8
S-OBRYS
  6
CONTINUOUS
 10
-39195.339658626719
 20
377986.06187211152
 30
0.0
 11
-39200.442605579519
 21
377986.06187211152
 31
0.0
  0
ARC
  5
68C25
  8
S-OBRYS
  6
CONTINUOUS
 10
-39194.339658626719
 20
377988.89029923623
 30
0.0
 40
3.0
 50
250.52877936591329
 51
0.0
  0
LINE
  5
68C26
  8
S-OBRYS
  6
CONTINUOUS
 10
-39200.339658626719
 20
377986.06187211152
 30
0.0
 11
-39200.339658626719
 21
377909.94398068113
 31
0.0
  0
LINE
  5
68C27
  8
S-OBRYS
  6
CONTINUOUS
 10
-39067.454154706997
 20
378015.85684940271
 30
0.0
 11
-39165.340135365492
 21
378015.85684940271
 31
0.0
  0
LINE
  5
68C28
  8
S-OBRYS
  6
CONTINUOUS
 10
-39168.339658626719
 20
378011.89029923623
 30
0.0
 11
-39188.339658626719
 21
378011.89029923623
 31
0.0
  0
ARC
  5
68C29
  8
S-OBRYS
  6
CONTINUOUS
 10
-39168.339658626719
 20
378014.89029923623
 30
0.0
 40
3.0
 50
270.0
 51
0.0
  0
LINE
  5
68C2A
  8
S-OBRYS
  6
CONTINUOUS
 10
-39165.339658626719
 20
378015.89029923623
 30
0.0
 11
-39165.339658626719
 21
378014.89029923623
 31
0.0
  0
ARC
  5
68C2B
  8
S-OBRYS
  6
CONTINUOUS
 10
-39188.339658626719
 20
378008.89029923623
 30
0.0
 40
3.0
 50
90.0
 51
180.0
  0
LINE
  5
68C2C
  8
S-OBRYS
  6
CONTINUOUS
 10
-39191.339658626719
 20
378005.89029923623
 30
0.0
 11
-39195.339658626719
 21
378005.89029923623
 31
0.0
  0
LINE
  5
68C2D
  8
S-OBRYS
  6
CONTINUOUS
 10
-39208.840825317049
 20
378282.80059139838
 30
0.0
 11
-39200.440825317048
 21
378282.80059139838
 31
0.0
  0
LINE
  5
68C2E
  8
S-OBRYS
  6
CONTINUOUS
 10
-39187.117288973692
 20
378277.028479075
 30
0.0
 11
-39217.717288973683
 21
378277.028479075
 31
0.0
  0
LINE
  5
68C2F
  8
S-OBRYS
  6
CONTINUOUS
 10
-39208.862188466752
 20
378113.59820868663
 30
0.0
 11
-39200.46218846675
 21
378113.59820868663
 31
0.0
  0
LINE
  5
68C30
  8
S-OBRYS
  6
CONTINUOUS
 10
-39187.71728897369
 20
378118.62847907492
 30
0.0
 11
-39218.317288973682
 21
378118.62847907492
 31
0.0
  0
LINE
  5
68C31
  8
S-OBRYS
  6
CONTINUOUS
 10
-39232.817510399327
 20
378254.61085740948
 30
0.0
 11
-39233.712027079222
 21
378284.59341834212
 31
0.0
  0
LINE
  5
68C32
  8
S-OBRYS
  6
CONTINUOUS
 10
-39279.339658626719
 20
378152.91957721103
 30
0.0
 11
-39279.339658626719
 21
378244.13146729762
 31
0.0
  0
LINE
  5
68C33
  8
S-OBRYS
  6
CONTINUOUS
 10
-39266.73965862672
 20
378150.51957721112
 30
0.0
 11
-39266.73965862672
 21
378246.42760611349
 31
0.0
  0
LINE
  5
68C34
  8
S-OBRYS
  6
CONTINUOUS
 10
-39212.46218846675
 20
378136.60096374393
 30
0.0
 11
-39212.46218846675
 21
378268.59542169311
 31
0.0
  0
LINE
  5
68C35
  8
S-OBRYS
  6
CONTINUOUS
 10
-39253.037369897669
 20
378133.91119039129
 30
0.0
 11
-39253.037369897669
 21
378262.24031373661
 31
0.0
  0
ARC
  5
68C36
  8
S-OBRYS
  6
CONTINUOUS
 10
-39248.046872017483
 20
378131.64701816888
 30
0.0
 40
2.096257049325668
 50
330.77871695618433
 51
88.954787620807195
  0
ARC
  5
68C37
  8
S-OBRYS
  6
CONTINUOUS
 10
-39215.163805181481
 20
378127.03964537929
 30
0.0
 40
2.5474800517290328
 50
11.977316473249219
 51
88.063225098157318
  0
LINE
  5
68C38
  8
S-OBRYS
  6
CONTINUOUS
 10
-39246.2173829694
 20
378130.6236592682
 30
0.0
 11
-39215.077708859841
 21
378129.5856701312
 31
0.0
  0
LINE
  5
68C39
  8
S-OBRYS
  6
CONTINUOUS
 10
-39257.115713695297
 20
378134.06245412678
 30
0.0
 11
-39264.339658626719
 21
378134.06245412678
 31
0.0
  0
ARC
  5
68C3A
  8
S-OBRYS
  6
CONTINUOUS
 10
-39264.339658626719
 20
378136.4624541268
 30
0.0
 40
2.399999999999999
 50
180.0
 51
270.0
  0
LINE
  5
68C3B
  8
S-OBRYS
  6
CONTINUOUS
 10
-39257.55803759527
 20
378134.06245412678
 30
0.0
 11
-39248.008633384299
 21
378133.74292642641
 31
0.0
  0
ARC
  5
68C3C
  8
S-OBRYS
  6
CONTINUOUS
 10
-39276.939658626718
 20
378152.91957721103
 30
0.0
 40
2.399999999999999
 50
180.0
 51
270.0
  0
LINE
  5
68C3D
  8
S-OBRYS
  6
CONTINUOUS
 10
-39266.73965862672
 20
378150.51957721112
 30
0.0
 11
-39276.939658626718
 21
378150.51957721112
 31
0.0
  0
LINE
  5
68C3E
  8
S-OBRYS
  6
CONTINUOUS
 10
-39266.73965862672
 20
378136.4624541268
 30
0.0
 11
-39266.73965862672
 21
378150.51957721112
 31
0.0
  0
ARC
  5
68C3F
  8
S-OBRYS
  6
CONTINUOUS
 10
-39208.862188466752
 20
378117.1982086866
 30
0.0
 40
3.5999999999999992
 50
180.0
 51
270.0
  0
LINE
  5
68C40
  8
S-OBRYS
  6
CONTINUOUS
 10
-39212.46218846675
 20
378136.60096374393
 30
0.0
 11
-39212.46218846675
 21
378117.1982086866
 31
0.0
  0
LINE
  5
68C41
  8
S-OBRYS
  6
CONTINUOUS
 10
-39240.488545011904
 20
378270.29169444472
 30
0.0
 11
-39240.667472791058
 21
378276.28902592207
 31
0.0
  0
LINE
  5
68C42
  8
S-OBRYS
  6
CONTINUOUS
 10
-39241.688011307371
 20
378270.25590888888
 30
0.0
 11
-39242.961695544378
 21
378269.3775353136
 31
0.0
  0
LINE
  5
68C43
  8
S-OBRYS
  6
CONTINUOUS
 10
-39244.579301399368
 20
378277.13274536858
 30
0.0
 11
-39244.593615621699
 21
378277.61253188679
 31
0.0
  0
LINE
  5
68C44
  8
S-OBRYS
  6
CONTINUOUS
 10
-39243.066405382029
 20
378276.21745481039
 30
0.0
 11
-39244.579301399368
 21
378277.13274536858
 31
0.0
  0
LINE
  5
68C45
  8
S-OBRYS
  6
CONTINUOUS
 10
-39243.137976493686
 20
378278.61638740142
 30
0.0
 11
-39244.593615621699
 21
378277.61253188679
 31
0.0
  0
ARC
  5
68C46
  8
S-OBRYS
  6
CONTINUOUS
 10
-39276.939658626718
 20
378244.13146729762
 30
0.0
 40
2.399999999999999
 50
90.0
 51
180.0
  0
LINE
  5
68C47
  8
S-OBRYS
  6
CONTINUOUS
 10
-39266.71571369531
 20
378253.13146729762
 30
0.0
 11
-39266.71571369531
 21
378246.53146729752
 31
0.0
  0
LINE
  5
68C48
  8
S-OBRYS
  6
CONTINUOUS
 10
-39257.118295477019
 20
378262.3807905243
 30
0.0
 11
-39248.008633384299
 21
378262.68560423999
 31
0.0
  0
ARC
  5
68C49
  8
S-OBRYS
  6
CONTINUOUS
 10
-39248.046872017483
 20
378264.7815124974
 30
0.0
 40
2.096257049325668
 50
271.04521237919278
 51
10.67496364752944
  0
LINE
  5
68C4A
  8
S-OBRYS
  6
CONTINUOUS
 10
-39241.02861012808
 20
378265.14571097383
 30
0.0
 11
-39242.86865309922
 21
378266.2589229453
 31
0.0
  0
LINE
  5
68C4B
  8
S-OBRYS
  6
CONTINUOUS
 10
-39257.115713695297
 20
378262.36607653962
 30
0.0
 11
-39264.315713695309
 21
378262.36607653962
 31
0.0
  0
LINE
  5
68C4C
  8
S-OBRYS
  6
CONTINUOUS
 10
-39266.71571369531
 20
378253.13146729762
 30
0.0
 11
-39266.71571369531
 21
378259.96607653948
 31
0.0
  0
ARC
  5
68C4D
  8
S-OBRYS
  6
CONTINUOUS
 10
-39264.315713695309
 20
378259.96607653948
 30
0.0
 40
2.399999999999999
 50
90.0
 51
180.0
  0
LINE
  5
68C4E
  8
S-OBRYS
  6
CONTINUOUS
 10
-39266.71571369531
 20
378246.53146729752
 30
0.0
 11
-39276.939658626718
 21
378246.53146729752
 31
0.0
  0
LINE
  5
68C4F
  8
S-OBRYS
  6
CONTINUOUS
 10
-39242.86865309922
 20
378266.2589229453
 30
0.0
 11
-39242.961695544378
 21
378269.3775353136
 31
0.0
  0
LINE
  5
68C50
  8
S-OBRYS
  6
CONTINUOUS
 10
-39226.094949466133
 20
378270.72112111468
 30
0.0
 11
-39226.273877245301
 21
378276.71845259197
 31
0.0
  0
LINE
  5
68C51
  8
S-OBRYS
  6
CONTINUOUS
 10
-39224.895483170651
 20
378270.75690667052
 30
0.0
 11
-39223.571699155473
 21
378269.95602743211
 31
0.0
  0
LINE
  5
68C52
  8
S-OBRYS
  6
CONTINUOUS
 10
-39223.4786567103
 20
378266.83741506393
 30
0.0
 11
-39223.571699155473
 21
378269.95602743211
 31
0.0
  0
LINE
  5
68C53
  8
S-OBRYS
  6
CONTINUOUS
 10
-39233.291747239011
 20
378270.5064077797
 30
0.0
 11
-39224.895483170651
 21
378270.75690667052
 31
0.0
  0
LINE
  5
68C54
  8
S-OBRYS
  6
CONTINUOUS
 10
-39223.874944654337
 20
378276.79002370383
 30
0.0
 11
-39222.419305526317
 21
378277.79387921828
 31
0.0
  0
LINE
  5
68C55
  8
S-OBRYS
  6
CONTINUOUS
 10
-39233.470675018179
 20
378276.50373925711
 30
0.0
 11
-39223.874944654337
 21
378276.79002370383
 31
0.0
  0
LINE
  5
68C56
  8
S-OBRYS
  6
CONTINUOUS
 10
-39223.946515766002
 20
378279.18895629467
 30
0.0
 11
-39222.433619748663
 21
378278.27366573649
 31
0.0
  0
LINE
  5
68C57
  8
S-OBRYS
  6
CONTINUOUS
 10
-39222.419305526317
 20
378277.79387921828
 30
0.0
 11
-39222.433619748663
 21
378278.27366573649
 31
0.0
  0
LINE
  5
68C58
  8
S-OBRYS
  6
CONTINUOUS
 10
-39233.542246129837
 20
378278.90267184807
 30
0.0
 11
-39223.946515766002
 21
378279.18895629467
 31
0.0
  0
LINE
  5
68C59
  8
S-OBRYS
  6
CONTINUOUS
 10
-39212.440825317048
 20
378279.20059139852
 30
0.0
 11
-39212.487790860861
 21
378268.59635273268
 31
0.0
  0
ARC
  5
68C5A
  8
S-OBRYS
  6
CONTINUOUS
 10
-39208.840825317049
 20
378279.20059139852
 30
0.0
 40
3.5999999999999992
 50
90.0
 51
180.0
  0
ARC
  5
68C5B
  8
S-OBRYS
  6
CONTINUOUS
 10
-39215.163805181481
 20
378268.74614823831
 30
0.0
 40
2.5474800517290328
 50
271.93677490184268
 51
348.02268352675082
  0
LINE
  5
68C5C
  8
S-OBRYS
  6
CONTINUOUS
 10
-39225.164939918177
 20
378265.67449998081
 30
0.0
 11
-39223.4786567103
 21
378266.83741506393
 31
0.0
  0
LINE
  5
68C5D
  8
S-OBRYS
  6
CONTINUOUS
 10
-39245.986893143003
 20
378265.16981734359
 30
0.0
 11
-39215.077708859841
 21
378266.20012348628
 31
0.0
  0
LINE
  5
68C5E
  8
S-OBRYS
  6
CONTINUOUS
 10
-39233.291747239011
 20
378270.5064077797
 30
0.0
 11
-39241.688011307371
 21
378270.25590888888
 31
0.0
  0
LINE
  5
68C5F
  8
S-OBRYS
  6
CONTINUOUS
 10
-39233.470675018179
 20
378276.50373925711
 30
0.0
 11
-39243.066405382029
 21
378276.21745481039
 31
0.0
  0
LINE
  5
68C60
  8
S-OBRYS
  6
CONTINUOUS
 10
-39233.542246129837
 20
378278.90267184807
 30
0.0
 11
-39243.137976493686
 21
378278.61638740142
 31
0.0
  0
LINE
  5
68C61
  8
S-OBRYS
  6
CONTINUOUS
 10
-39115.587508767792
 20
378339.41053084761
 30
0.0
 11
-39115.587508767792
 21
378268.41053084761
 31
0.0
  0
LINE
  5
68C62
  8
S-OBRYS
  6
CONTINUOUS
 10
-39093.087508767792
 20
378326.41053084767
 30
0.0
 11
-39093.087508767792
 21
378272.41053084767
 31
0.0
  0
LINE
  5
68C63
  8
S-OBRYS
  6
CONTINUOUS
 10
-39090.587508767792
 20
378263.91053084761
 30
0.0
 11
-39090.587508767792
 21
378336.91053084767
 31
0.0
  0
LINE
  5
68C64
  8
S-OBRYS
  6
CONTINUOUS
 10
-39138.087508767778
 20
378326.41053084767
 30
0.0
 11
-39138.087508767778
 21
378272.41053084767
 31
0.0
  0
LINE
  5
68C65
  8
S-OBRYS
  6
CONTINUOUS
 10
-39140.587508767792
 20
378336.91053084767
 30
0.0
 11
-39140.587508767792
 21
378263.91053084761
 31
0.0
  0
LINE
  5
68C66
  8
S-OBRYS
  6
CONTINUOUS
 10
-39195.339658626719
 20
378105.85684940277
 30
0.0
 11
-39200.339658626719
 21
378105.85684940277
 31
0.0
  0
LINE
  5
68C67
  8
S-OBRYS
  6
CONTINUOUS
 10
-39140.587508767792
 20
378263.91053084761
 30
0.0
 11
-39090.587508767792
 21
378263.91053084761
 31
0.0
  0
LINE
  5
68C68
  8
S-OBRYS
  6
CONTINUOUS
 10
-39097.087508767792
 20
378268.41053084761
 30
0.0
 11
-39134.087508767778
 21
378268.41053084761
 31
0.0
  0
ARC
  5
68C69
  8
S-OBRYS
  6
CONTINUOUS
 10
-39134.087508767778
 20
378272.41053084767
 30
0.0
 40
4.0
 50
180.0
 51
270.0
  0
ARC
  5
68C6A
  8
S-OBRYS
  6
CONTINUOUS
 10
-39097.087508767792
 20
378272.41053084767
 30
0.0
 40
4.0
 50
262.8749836510982
 51
0.0
  0
LINE
  5
68C6B
  8
S-OBRYS
  6
CONTINUOUS
 10
-39130.587508767792
 20
378391.41053084767
 30
0.0
 11
-39130.587508767792
 21
378339.41053084761
 31
0.0
  0
LINE
  5
68C6C
  8
S-OBRYS
  6
CONTINUOUS
 10
-39100.587508767792
 20
378339.41053084761
 30
0.0
 11
-39100.587508767792
 21
378391.41053084767
 31
0.0
  0
LINE
  5
68C6D
  8
S-OBRYS
  6
CONTINUOUS
 10
-39200.339658626719
 20
378370.44398068101
 30
0.0
 11
-39182.339658626719
 21
378388.44398068101
 31
0.0
  0
LINE
  5
68C6E
  8
S-OBRYS
  6
CONTINUOUS
 10
-39162.587508767778
 20
378367.9368549955
 30
0.0
 11
-39162.587508767778
 21
378435.1868549955
 31
0.0
  0
LINE
  5
68C6F
  8
S-OBRYS
  6
CONTINUOUS
 10
-39130.587508767792
 20
378339.41053084761
 30
0.0
 11
-39100.587508767792
 21
378339.41053084761
 31
0.0
  0
LINE
  5
68C70
  8
S-OBRYS
  6
CONTINUOUS
 10
-39113.087508767792
 20
378336.91053084767
 30
0.0
 11
-39118.087508767792
 21
378336.91053084767
 31
0.0
  0
LINE
  5
68C71
  8
S-OBRYS
  6
CONTINUOUS
 10
-39113.587508767792
 20
378337.91053084767
 30
0.0
 11
-39117.587508767792
 21
378337.91053084767
 31
0.0
  0
LINE
  5
68C72
  8
S-OBRYS
  6
CONTINUOUS
 10
-39107.587508767778
 20
378333.41053084767
 30
0.0
 11
-39123.587508767792
 21
378333.41053084767
 31
0.0
  0
LINE
  5
68C73
  8
S-OBRYS
  6
CONTINUOUS
 10
-39097.087508767792
 20
378330.41053084761
 30
0.0
 11
-39134.087508767778
 21
378330.41053084761
 31
0.0
  0
LINE
  5
68C74
  8
S-OBRYS
  6
CONTINUOUS
 10
-39090.587508767792
 20
378336.91053084767
 30
0.0
 11
-39140.587508767792
 21
378336.91053084767
 31
0.0
  0
LINE
  5
68C75
  8
S-OBRYS
  6
CONTINUOUS
 10
-39200.442605579519
 20
378370.44398313499
 30
0.0
 11
-39130.587508767792
 21
378370.44231800328
 31
0.0
  0
LINE
  5
68C76
  8
S-OBRYS
  6
CONTINUOUS
 10
-39118.087508767792
 20
378337.41053084767
 30
0.0
 11
-39118.087508767792
 21
378336.91053084767
 31
0.0
  0
ARC
  5
68C77
  8
S-OBRYS
  6
CONTINUOUS
 10
-39117.587508767792
 20
378337.41053084767
 30
0.0
 40
0.5
 50
90.0
 51
180.0
  0
ARC
  5
68C78
  8
S-OBRYS
  6
CONTINUOUS
 10
-39115.587508767792
 20
378337.91053084767
 30
0.0
 40
1.5
 50
0.0
 51
180.0
  0
LINE
  5
68C79
  8
S-OBRYS
  6
CONTINUOUS
 10
-39121.587508767792
 20
378335.41053084767
 30
0.0
 11
-39121.587508767792
 21
378333.41053084767
 31
0.0
  0
ARC
  5
68C7A
  8
S-OBRYS
  6
CONTINUOUS
 10
-39120.087508767792
 20
378335.41053084767
 30
0.0
 40
1.5
 50
90.0
 51
180.0
  0
ARC
  5
68C7B
  8
S-OBRYS
  6
CONTINUOUS
 10
-39123.587508767792
 20
378331.41053084767
 30
0.0
 40
2.0
 50
90.0
 51
180.0
  0
ARC
  5
68C7C
  8
S-OBRYS
  6
CONTINUOUS
 10
-39134.087508767778
 20
378326.41053084767
 30
0.0
 40
4.0
 50
90.0
 51
180.0
  0
LINE
  5
68C7D
  8
S-OBRYS
  6
CONTINUOUS
 10
-39200.442605579519
 20
378370.44398313499
 30
0.0
 11
-39130.587508767792
 21
378370.44231800328
 31
0.0
  0
ARC
  5
68C7E
  8
S-OBRYS
  6
CONTINUOUS
 10
-39097.087508767792
 20
378326.41053084767
 30
0.0
 40
4.0
 50
0.0
 51
90.0
  0
LINE
  5
68C7F
  8
S-OBRYS
  6
CONTINUOUS
 10
-39113.087508767792
 20
378337.41053084767
 30
0.0
 11
-39113.087508767792
 21
378336.91053084767
 31
0.0
  0
ARC
  5
68C80
  8
S-OBRYS
  6
CONTINUOUS
 10
-39113.587508767792
 20
378337.41053084767
 30
0.0
 40
0.5
 50
0.0
 51
90.0
  0
LINE
  5
68C81
  8
S-OBRYS
  6
CONTINUOUS
 10
-39109.587508767792
 20
378335.41053084767
 30
0.0
 11
-39109.587508767792
 21
378333.41053084767
 31
0.0
  0
ARC
  5
68C82
  8
S-OBRYS
  6
CONTINUOUS
 10
-39111.087508767792
 20
378335.41053084767
 30
0.0
 40
1.5
 50
0.0
 51
90.0
  0
ARC
  5
68C83
  8
S-OBRYS
  6
CONTINUOUS
 10
-39107.587508767778
 20
378331.41053084767
 30
0.0
 40
2.0
 50
0.0
 51
90.0
  0
LINE
  5
68C84
  8
S-OBRYS
  6
CONTINUOUS
 10
-39100.587508767792
 20
378391.41053084767
 30
0.0
 11
-39130.587508767792
 21
378391.41053084767
 31
0.0
  0
LINE
  5
68C85
  8
S-OBRYS
  6
CONTINUOUS
 10
-39182.587508767792
 20
378427.94398068113
 30
0.0
 11
-39182.587508767792
 21
378387.94398068101
 31
0.0
  0
LINE
  5
68C86
  8
S-OBRYS
  6
CONTINUOUS
 10
-39182.839658626719
 20
378387.94398068113
 30
0.0
 11
-39130.587508767792
 21
378387.94398068113
 31
0.0
  0
LINE
  5
68C87
  8
S-OBRYS
  6
CONTINUOUS
 10
-39124.087508767778
 20
378395.91053084761
 30
0.0
 11
-39124.087508767778
 21
378380.41053084761
 31
0.0
  0
LINE
  5
68C88
  8
S-OBRYS
  6
CONTINUOUS
 10
-39182.839658626719
 20
378387.94398068101
 30
0.0
 11
-39130.587508767792
 21
378387.94398068101
 31
0.0
  0
LINE
  5
68C89
  8
S-OBRYS
  6
CONTINUOUS
 10
-39182.587508767792
 20
378427.94398068113
 30
0.0
 11
-39142.587508767792
 21
378427.94398068113
 31
0.0
  0
LINE
  5
68C8A
  8
S-OBRYS
  6
CONTINUOUS
 10
-39142.587508767792
 20
378427.94398068113
 30
0.0
 11
-39142.587508767792
 21
378387.91053084761
 31
0.0
  0
LINE
  5
68C8B
  8
S-OBRYS
  6
CONTINUOUS
 10
-39107.587508767778
 20
378395.91053084761
 30
0.0
 11
-39107.587508767778
 21
378380.41053084761
 31
0.0
  0
LINE
  5
68C8C
  8
S-OBRYS
  6
CONTINUOUS
 10
-37170.443107463238
 20
378014.8019763637
 30
0.0
 11
-37170.434631199991
 21
378370.39559395949
 31
0.0
  0
LINE
  5
68C8D
  8
S-OBRYS
  6
CONTINUOUS
 10
-37230.443082318292
 20
378015.85684940271
 30
0.0
 11
-37230.434631165903
 21
378370.39702417579
 31
0.0
  0
LINE
  5
68C8E
  8
S-OBRYS
  6
CONTINUOUS
 10
-37200.442605579519
 20
378035.85684940271
 30
0.0
 11
-37200.442605579519
 21
378285.40822772699
 31
0.0
  0
LINE
  5
68C8F
  8
S-OBRYS
  6
CONTINUOUS
 10
-37196.442605579519
 20
378370.3962139099
 30
0.0
 11
-37196.442605579519
 21
378006.35684940277
 31
0.0
  0
LINE
  5
68C90
  8
S-OBRYS
  6
CONTINUOUS
 10
-37204.442605579519
 20
378370.39640460548
 30
0.0
 11
-37204.442605579519
 21
377988.85684940271
 31
0.0
  0
ARC
  5
68C91
  8
S-OBRYS
  6
CONTINUOUS
 10
-37206.442605579519
 20
377910.41053084761
 30
0.0
 40
10.0
 50
270.0
 51
0.0
  0
ARC
  5
68C92
  8
S-OBRYS
  6
CONTINUOUS
 10
-37206.442605579519
 20
377910.41053084761
 30
0.0
 40
15.0
 50
270.0
 51
0.0
  0
LINE
  5
68C93
  8
S-OBRYS
  6
CONTINUOUS
 10
-37241.442605579519
 20
377895.41053084761
 30
0.0
 11
-37241.442605579519
 21
377900.41053084767
 31
0.0
  0
LINE
  5
68C94
  8
S-OBRYS
  6
CONTINUOUS
 10
-37206.442605579519
 20
377895.41053084761
 30
0.0
 11
-37241.442605579519
 21
377895.41053084761
 31
0.0
  0
LINE
  5
68C95
  8
S-OBRYS
  6
CONTINUOUS
 10
-37241.442605579519
 20
377900.41053084767
 30
0.0
 11
-37206.442605579519
 21
377900.41053084767
 31
0.0
  0
LINE
  5
68C96
  8
S-OBRYS
  6
CONTINUOUS
 10
-37196.442605579519
 20
378006.35684940277
 30
0.0
 11
-37196.442605579519
 21
377988.85684940271
 31
0.0
  0
LINE
  5
68C97
  8
S-OBRYS
  6
CONTINUOUS
 10
-37200.442605579519
 20
378035.85684940271
 30
0.0
 11
-37200.442605579519
 21
377985.85684940271
 31
0.0
  0
LINE
  5
68C98
  8
S-OBRYS
  6
CONTINUOUS
 10
-37191.442605579519
 20
378011.85684940271
 30
0.0
 11
-37191.442605579519
 21
377910.41053084761
 31
0.0
  0
ARC
  5
68C99
  8
S-OBRYS
  6
CONTINUOUS
 10
-37199.442605579519
 20
377988.85684940271
 30
0.0
 40
3.0
 50
270.0
 51
0.0
  0
LINE
  5
68C9A
  8
S-OBRYS
  6
CONTINUOUS
 10
-37199.442605579519
 20
377985.85684940271
 30
0.0
 11
-37200.442605579519
 21
377985.85684940271
 31
0.0
  0
LINE
  5
68C9B
  8
S-OBRYS
  6
CONTINUOUS
 10
-37201.442605579519
 20
377985.85684940271
 30
0.0
 11
-37200.442605579519
 21
377985.85684940271
 31
0.0
  0
ARC
  5
68C9C
  8
S-OBRYS
  6
CONTINUOUS
 10
-37201.442605579519
 20
377988.85684940271
 30
0.0
 40
3.0
 50
180.0
 51
270.0
  0
LINE
  5
68C9D
  8
S-OBRYS
  6
CONTINUOUS
 10
-37196.442605579519
 20
377910.41053084761
 30
0.0
 11
-37196.442605579519
 21
377988.85684940271
 31
0.0
  0
ARC
  5
68C9E
  8
S-OBRYS
  6
CONTINUOUS
 10
-37173.442605579519
 20
378014.85684940271
 30
0.0
 40
3.0
 50
270.0
 51
0.0
  0
LINE
  5
68C9F
  8
S-OBRYS
  6
CONTINUOUS
 10
-37170.442605579519
 20
378015.85684940271
 30
0.0
 11
-37170.442605579519
 21
378014.85684940271
 31
0.0
  0
ARC
  5
68CA0
  8
S-OBRYS
  6
CONTINUOUS
 10
-37193.442605579519
 20
378008.85684940277
 30
0.0
 40
3.0
 50
90.0
 51
180.0
  0
LINE
  5
68CA1
  8
S-OBRYS
  6
CONTINUOUS
 10
-37173.442605579519
 20
378011.85684940271
 30
0.0
 11
-37193.442605579519
 21
378011.85684940271
 31
0.0
  0
LINE
  5
68CA2
  8
S-OBRYS
  6
CONTINUOUS
 10
-37227.442605579519
 20
378011.85684940271
 30
0.0
 11
-37207.442605579519
 21
378011.85684940271
 31
0.0
  0
LINE
  5
68CA3
  8
S-OBRYS
  6
CONTINUOUS
 10
-37215.942605579519
 20
378011.85684940271
 30
0.0
 11
-37207.442605579519
 21
378011.85684940271
 31
0.0
  0
ARC
  5
68CA4
  8
S-OBRYS
  6
CONTINUOUS
 10
-37207.442605579519
 20
378008.85684940277
 30
0.0
 40
3.0
 50
0.0
 51
90.0
  0
LINE
  5
68CA5
  8
S-OBRYS
  6
CONTINUOUS
 10
-37212.442605579519
 20
378001.35684940271
 30
0.0
 11
-37178.442605579519
 21
378001.35684940271
 31
0.0
  0
LINE
  5
68CA6
  8
S-OBRYS
  6
CONTINUOUS
 10
-37200.442605579519
 20
378035.85684940271
 30
0.0
 11
-37200.442605579519
 21
378005.85684940271
 31
0.0
  0
LINE
  5
68CA7
  8
S-OBRYS
  6
CONTINUOUS
 10
-37196.442605579519
 20
378028.85684940271
 30
0.0
 11
-37196.442605579519
 21
378008.85684940277
 31
0.0
  0
LINE
  5
68CA8
  8
S-OBRYS
  6
CONTINUOUS
 10
-37230.442605579519
 20
378015.85684940271
 30
0.0
 11
-37230.442605579519
 21
378014.85684940271
 31
0.0
  0
ARC
  5
68CA9
  8
S-OBRYS
  6
CONTINUOUS
 10
-37227.442605579519
 20
378014.85684940271
 30
0.0
 40
3.0
 50
180.0
 51
270.0
  0
LINE
  5
68CAA
  8
S-OBRYS
  6
CONTINUOUS
 10
-37211.942605579519
 20
378405.90357542841
 30
0.0
 11
-37211.942605579519
 21
378406.91053084761
 31
0.0
  0
LINE
  5
68CAB
  8
S-OBRYS
  6
CONTINUOUS
 10
-37217.961971710181
 20
378405.90357542841
 30
0.0
 11
-37227.461971710181
 21
378405.90357542841
 31
0.0
  0
LINE
  5
68CAC
  8
S-OBRYS
  6
CONTINUOUS
 10
-37208.461971710181
 20
378405.90357542841
 30
0.0
 11
-37206.992321710182
 21
378405.05507300101
 31
0.0
  0
LINE
  5
68CAD
  8
S-OBRYS
  6
CONTINUOUS
 10
-37217.961971710181
 20
378405.90357542841
 30
0.0
 11
-37208.461971710181
 21
378405.90357542841
 31
0.0
  0
LINE
  5
68CAE
  8
S-OBRYS
  6
CONTINUOUS
 10
-37222.942605579519
 20
378407.91053084767
 30
0.0
 11
-37223.942605579519
 21
378406.91053084761
 31
0.0
  0
LINE
  5
68CAF
  8
S-OBRYS
  6
CONTINUOUS
 10
-37212.942605579519
 20
378407.91053084767
 30
0.0
 11
-37211.942605579519
 21
378406.91053084761
 31
0.0
  0
LINE
  5
68CB0
  8
S-OBRYS
  6
CONTINUOUS
 10
-37211.942605579519
 20
378406.91053084761
 30
0.0
 11
-37223.942605579519
 21
378406.91053084761
 31
0.0
  0
LINE
  5
68CB1
  8
S-OBRYS
  6
CONTINUOUS
 10
-37222.942605579519
 20
378407.91053084767
 30
0.0
 11
-37212.942605579519
 21
378407.91053084767
 31
0.0
  0
LINE
  5
68CB2
  8
S-OBRYS
  6
CONTINUOUS
 10
-37223.942605579519
 20
378406.91053084761
 30
0.0
 11
-37223.942605579519
 21
378405.90357542841
 31
0.0
  0
LINE
  5
68CB3
  8
S-OBRYS
  6
CONTINUOUS
 10
-37217.961971710181
 20
378398.92261883081
 30
0.0
 11
-37208.461971710181
 21
378398.92261883081
 31
0.0
  0
LINE
  5
68CB4
  8
S-OBRYS
  6
CONTINUOUS
 10
-37208.461971710181
 20
378398.92261883081
 30
0.0
 11
-37206.992321710182
 21
378398.0741164033
 31
0.0
  0
LINE
  5
68CB5
  8
S-OBRYS
  6
CONTINUOUS
 10
-37217.961971710181
 20
378398.92261883081
 30
0.0
 11
-37227.461971710181
 21
378398.92261883081
 31
0.0
  0
LINE
  5
68CB6
  8
S-OBRYS
  6
CONTINUOUS
 10
-37227.461971710181
 20
378398.90357542841
 30
0.0
 11
-37217.961971710181
 21
378398.90357542841
 31
0.0
  0
LINE
  5
68CB7
  8
S-OBRYS
  6
CONTINUOUS
 10
-37208.461971710181
 20
378398.90357542841
 30
0.0
 11
-37217.961971710181
 21
378398.90357542841
 31
0.0
  0
LINE
  5
68CB8
  8
S-OBRYS
  6
CONTINUOUS
 10
-37206.992321710182
 20
378399.75207785593
 30
0.0
 11
-37208.461971710181
 21
378398.90357542841
 31
0.0
  0
LINE
  5
68CB9
  8
S-OBRYS
  6
CONTINUOUS
 10
-37207.942605579519
 20
378391.91053084761
 30
0.0
 11
-37227.942605579519
 21
378391.91053084761
 31
0.0
  0
LINE
  5
68CBA
  8
S-OBRYS
  6
CONTINUOUS
 10
-37223.942605579519
 20
378391.92261883081
 30
0.0
 11
-37223.942605579519
 21
378391.91053084761
 31
0.0
  0
LINE
  5
68CBB
  8
S-OBRYS
  6
CONTINUOUS
 10
-37222.942605579519
 20
378391.91053084761
 30
0.0
 11
-37222.942605579519
 21
378391.92261883081
 31
0.0
  0
LINE
  5
68CBC
  8
S-OBRYS
  6
CONTINUOUS
 10
-37208.461971710181
 20
378391.92261883081
 30
0.0
 11
-37217.961971710181
 21
378391.92261883081
 31
0.0
  0
LINE
  5
68CBD
  8
S-OBRYS
  6
CONTINUOUS
 10
-37206.992321710182
 20
378392.77112125832
 30
0.0
 11
-37208.461971710181
 21
378391.92261883081
 31
0.0
  0
LINE
  5
68CBE
  8
S-OBRYS
  6
CONTINUOUS
 10
-37227.461971710181
 20
378391.92261883081
 30
0.0
 11
-37217.961971710181
 21
378391.92261883081
 31
0.0
  0
LINE
  5
68CBF
  8
S-OBRYS
  6
CONTINUOUS
 10
-37204.942605579519
 20
378387.91053084761
 30
0.0
 11
-37204.942605579519
 21
378388.91053084767
 31
0.0
  0
ARC
  5
68CC0
  8
S-OBRYS
  6
CONTINUOUS
 10
-37207.942605579519
 20
378388.91053084767
 30
0.0
 40
3.0
 50
0.0
 51
90.0
  0
LINE
  5
68CC1
  8
S-OBRYS
  6
CONTINUOUS
 10
-37206.992321710182
 20
378398.0741164033
 30
0.0
 11
-37206.992321710182
 21
378392.77112125832
 31
0.0
  0
LINE
  5
68CC2
  8
S-OBRYS
  6
CONTINUOUS
 10
-37206.992321710182
 20
378405.05507300101
 30
0.0
 11
-37206.992321710182
 21
378399.75207785593
 31
0.0
  0
LINE
  5
68CC3
  8
S-OBRYS
  6
CONTINUOUS
 10
-37233.942605579519
 20
378417.91053084767
 30
0.0
 11
-37234.942605579519
 21
378417.91053084767
 31
0.0
  0
ARC
  5
68CC4
  8
S-OBRYS
  6
CONTINUOUS
 10
-37233.942605579519
 20
378414.91053084767
 30
0.0
 40
3.0
 50
0.0
 51
90.0
  0
LINE
  5
68CC5
  8
S-OBRYS
  6
CONTINUOUS
 10
-37228.931621710173
 20
378398.0741164033
 30
0.0
 11
-37228.931621710173
 21
378392.77112125832
 31
0.0
  0
LINE
  5
68CC6
  8
S-OBRYS
  6
CONTINUOUS
 10
-37234.942605579519
 20
378387.91053084761
 30
0.0
 11
-37234.942605579519
 21
378417.91053084767
 31
0.0
  0
LINE
  5
68CC7
  8
S-OBRYS
  6
CONTINUOUS
 10
-37230.942605579519
 20
378394.91053084761
 30
0.0
 11
-37230.942605579519
 21
378414.91053084767
 31
0.0
  0
LINE
  5
68CC8
  8
S-OBRYS
  6
CONTINUOUS
 10
-37228.931621710173
 20
378405.05507300101
 30
0.0
 11
-37228.931621710173
 21
378399.75207785593
 31
0.0
  0
LINE
  5
68CC9
  8
S-OBRYS
  6
CONTINUOUS
 10
-37227.461971710181
 20
378398.92261883081
 30
0.0
 11
-37228.931621710173
 21
378398.0741164033
 31
0.0
  0
LINE
  5
68CCA
  8
S-OBRYS
  6
CONTINUOUS
 10
-37228.931621710173
 20
378392.77112125832
 30
0.0
 11
-37227.461971710181
 21
378391.92261883081
 31
0.0
  0
LINE
  5
68CCB
  8
S-OBRYS
  6
CONTINUOUS
 10
-37234.942605579519
 20
378387.91053084761
 30
0.0
 11
-37204.942605579519
 21
378387.91053084761
 31
0.0
  0
LINE
  5
68CCC
  8
S-OBRYS
  6
CONTINUOUS
 10
-37228.931621710173
 20
378399.75207785593
 30
0.0
 11
-37227.461971710181
 21
378398.90357542841
 31
0.0
  0
ARC
  5
68CCD
  8
S-OBRYS
  6
CONTINUOUS
 10
-37227.942605579519
 20
378394.91053084761
 30
0.0
 40
3.0
 50
180.0
 51
270.0
  0
LINE
  5
68CCE
  8
S-OBRYS
  6
CONTINUOUS
 10
-37227.461971710181
 20
378405.90357542841
 30
0.0
 11
-37228.931621710173
 21
378405.05507300101
 31
0.0
  0
DIMENSION
  5
68CCF
  8
S-OBRYS
  6
CONTINUOUS
  2
*D26
 10
-31647.454610450019
 20
378697.92001154111
 30
0.0
 11
-32195.534897031779
 21
378697.92001154111
 31
0.0
 70
   128
  1
1053
 13
-32700.443681947228
 23
378370.28785324987
 33
0.0
 14
-31647.454610450019
 24
378288.23198068113
 34
0.0
1001
ACAD
1000
DSTYLE
1002
{
1070
   288
1070
     1
1002
}
  0
LINE
  5
68CD0
  8
S-OBRYS
  6
CONTINUOUS
 10
-32700.446065072902
 20
378296.25919860997
 30
0.0
 11
-32464.26496723896
 21
378296.25919860997
 31
0.0
  0
LINE
  5
68CD1
  8
S-OBRYS
  6
CONTINUOUS
 10
-32700.543715865701
 20
378015.78900588461
 30
0.0
 11
-32006.269789591199
 21
378015.78900588461
 31
0.0
  0
LINE
  5
68CD2
  8
S-OBRYS
  6
CONTINUOUS
 10
-32569.543715865701
 20
378132.85684940277
 30
0.0
 11
-32528.543715865701
 21
378132.85684940277
 31
0.0
  0
LINE
  5
68CD3
  8
S-OBRYS
  6
CONTINUOUS
 10
-32528.543715865701
 20
378262.85684940277
 30
0.0
 11
-32569.543715865701
 21
378262.85684940277
 31
0.0
  0
LINE
  5
68CD4
  8
S-OBRYS
  6
CONTINUOUS
 10
-35200.441414016692
 20
378370.34863535198
 30
0.0
 11
-32700.44487178505
 21
378370.28904308769
 31
0.0
  0
LINE
  5
68CD5
  8
S-OBRYS
  6
CONTINUOUS
 10
-35200.441414016692
 20
378387.93206218339
 30
0.0
 11
-32718.075974136322
 21
378387.93206218339
 31
0.0
  0
LINE
  5
68CD6
  8
S-OBRYS
  6
CONTINUOUS
 10
-32735.543715865701
 20
378015.85684940271
 30
0.0
 11
-35170.442605579519
 21
378015.85684940271
 31
0.0
  0
DIMENSION
  5
68CD7
  8
S-OBRYS
  6
CONTINUOUS
  2
*D27
 10
-32700.446063347881
 20
378697.92001154111
 30
0.0
 11
-33979.788281454021
 21
378697.92001154111
 31
0.0
 70
   128
 13
-35200.442605579519
 23
378243.89029923623
 33
0.0
 14
-32700.446063347881
 24
378226.24728014058
 34
0.0
1001
ACAD
1000
DSTYLE
1002
{
1070
   288
1070
     1
1002
}
  0
LINE
  5
68CD8
  8
S-OBRYS
  6
CONTINUOUS
 10
-35170.443107463238
 20
378014.33542619721
 30
0.0
 11
-35170.43462121526
 21
378370.34792008193
 31
0.0
  0
LINE
  5
68CD9
  8
S-OBRYS
  6
CONTINUOUS
 10
-35230.443071197173
 20
378015.85684940271
 30
0.0
 11
-35230.434621181172
 21
378370.34935029817
 31
0.0
  0
LINE
  5
68CDA
  8
S-OBRYS
  6
CONTINUOUS
 10
-35200.442605579519
 20
378035.85684940271
 30
0.0
 11
-35200.442605579519
 21
378257.92374906968
 31
0.0
  0
LINE
  5
68CDB
  8
S-OBRYS
  6
CONTINUOUS
 10
-35196.442605579527
 20
378370.34854003257
 30
0.0
 11
-35196.442605579519
 21
378005.89029923623
 31
0.0
  0
LINE
  5
68CDC
  8
S-OBRYS
  6
CONTINUOUS
 10
-35204.442605579527
 20
378370.34873072809
 30
0.0
 11
-35204.442605579527
 21
377988.39029923623
 31
0.0
  0
ARC
  5
68CDD
  8
S-OBRYS
  6
CONTINUOUS
 10
-35206.442605579519
 20
377909.94398068113
 30
0.0
 40
10.0
 50
270.0
 51
0.0
  0
ARC
  5
68CDE
  8
S-OBRYS
  6
CONTINUOUS
 10
-35206.442605579519
 20
377909.94398068113
 30
0.0
 40
15.0
 50
270.0
 51
0.0
  0
LINE
  5
68CDF
  8
S-OBRYS
  6
CONTINUOUS
 10
-35206.442605579519
 20
377894.94398068113
 30
0.0
 11
-35241.442605579519
 21
377894.94398068113
 31
0.0
  0
LINE
  5
68CE0
  8
S-OBRYS
  6
CONTINUOUS
 10
-35241.442605579519
 20
377899.94398068113
 30
0.0
 11
-35206.442605579519
 21
377899.94398068113
 31
0.0
  0
LINE
  5
68CE1
  8
S-OBRYS
  6
CONTINUOUS
 10
-35241.442605579519
 20
377894.94398068113
 30
0.0
 11
-35241.442605579519
 21
377899.94398068113
 31
0.0
  0
LINE
  5
68CE2
  8
S-OBRYS
  6
CONTINUOUS
 10
-35196.442605579519
 20
378005.89029923623
 30
0.0
 11
-35196.442605579519
 21
377988.39029923623
 31
0.0
  0
LINE
  5
68CE3
  8
S-OBRYS
  6
CONTINUOUS
 10
-35191.442605579519
 20
378011.39029923623
 30
0.0
 11
-35191.442605579519
 21
377909.94398068113
 31
0.0
  0
LINE
  5
68CE4
  8
S-OBRYS
  6
CONTINUOUS
 10
-35200.442605579519
 20
378035.39029923623
 30
0.0
 11
-35200.442605579519
 21
377985.39029923623
 31
0.0
  0
LINE
  5
68CE5
  8
S-OBRYS
  6
CONTINUOUS
 10
-35196.442605579519
 20
377909.94398068113
 30
0.0
 11
-35196.442605579519
 21
377988.39029923623
 31
0.0
  0
ARC
  5
68CE6
  8
S-OBRYS
  6
CONTINUOUS
 10
-35199.442605579519
 20
377988.39029923623
 30
0.0
 40
3.0
 50
270.0
 51
0.0
  0
LINE
  5
68CE7
  8
S-OBRYS
  6
CONTINUOUS
 10
-35199.442605579519
 20
377985.39029923623
 30
0.0
 11
-35200.442605579519
 21
377985.39029923623
 31
0.0
  0
ARC
  5
68CE8
  8
S-OBRYS
  6
CONTINUOUS
 10
-35201.442605579519
 20
377988.39029923623
 30
0.0
 40
3.0
 50
180.0
 51
270.0
  0
LINE
  5
68CE9
  8
S-OBRYS
  6
CONTINUOUS
 10
-35201.442605579519
 20
377985.39029923623
 30
0.0
 11
-35200.442605579519
 21
377985.39029923623
 31
0.0
  0
LINE
  5
68CEA
  8
S-OBRYS
  6
CONTINUOUS
 10
-35227.442605579519
 20
378011.39029923623
 30
0.0
 11
-35207.442605579519
 21
378011.39029923623
 31
0.0
  0
ARC
  5
68CEB
  8
S-OBRYS
  6
CONTINUOUS
 10
-35227.442605579519
 20
378014.39029923623
 30
0.0
 40
3.0
 50
180.0
 51
270.0
  0
LINE
  5
68CEC
  8
S-OBRYS
  6
CONTINUOUS
 10
-35230.442605579519
 20
378015.39029923623
 30
0.0
 11
-35230.442605579519
 21
378014.39029923623
 31
0.0
  0
LINE
  5
68CED
  8
S-OBRYS
  6
CONTINUOUS
 10
-35212.442605579519
 20
378020.89029923623
 30
0.0
 11
-35178.442605579519
 21
378020.89029923623
 31
0.0
  0
ARC
  5
68CEE
  8
S-OBRYS
  6
CONTINUOUS
 10
-35193.442605579519
 20
378008.39029923623
 30
0.0
 40
3.0
 50
90.0
 51
180.0
  0
LINE
  5
68CEF
  8
S-OBRYS
  6
CONTINUOUS
 10
-35200.442605579519
 20
378035.39029923623
 30
0.0
 11
-35200.442605579519
 21
378005.39029923623
 31
0.0
  0
LINE
  5
68CF0
  8
S-OBRYS
  6
CONTINUOUS
 10
-35196.442605579519
 20
378028.39029923623
 30
0.0
 11
-35196.442605579519
 21
378008.39029923623
 31
0.0
  0
ARC
  5
68CF1
  8
S-OBRYS
  6
CONTINUOUS
 10
-35173.442605579519
 20
378014.39029923623
 30
0.0
 40
3.0
 50
270.0
 51
0.0
  0
LINE
  5
68CF2
  8
S-OBRYS
  6
CONTINUOUS
 10
-35170.442605579519
 20
378015.39029923623
 30
0.0
 11
-35170.442605579519
 21
378014.39029923623
 31
0.0
  0
LINE
  5
68CF3
  8
S-OBRYS
  6
CONTINUOUS
 10
-35173.442605579519
 20
378011.39029923623
 30
0.0
 11
-35193.442605579519
 21
378011.39029923623
 31
0.0
  0
ARC
  5
68CF4
  8
S-OBRYS
  6
CONTINUOUS
 10
-35207.442605579519
 20
378008.39029923623
 30
0.0
 40
3.0
 50
0.0
 51
90.0
  0
LINE
  5
68CF5
  8
S-OBRYS
  6
CONTINUOUS
 10
-35217.961971710167
 20
378398.95606866421
 30
0.0
 11
-35227.461971710167
 21
378398.95606866421
 31
0.0
  0
LINE
  5
68CF6
  8
S-OBRYS
  6
CONTINUOUS
 10
-35227.461971710167
 20
378391.95606866432
 30
0.0
 11
-35217.961971710167
 21
378391.95606866432
 31
0.0
  0
LINE
  5
68CF7
  8
S-OBRYS
  6
CONTINUOUS
 10
-35207.942605579519
 20
378391.94398068113
 30
0.0
 11
-35227.942605579519
 21
378391.94398068113
 31
0.0
  0
LINE
  5
68CF8
  8
S-OBRYS
  6
CONTINUOUS
 10
-35234.942605579519
 20
378387.94398068113
 30
0.0
 11
-35204.942605579519
 21
378387.94398068113
 31
0.0
  0
LINE
  5
68CF9
  8
S-OBRYS
  6
CONTINUOUS
 10
-35227.461971710167
 20
378398.93702526193
 30
0.0
 11
-35217.961971710167
 21
378398.93702526193
 31
0.0
  0
LINE
  5
68CFA
  8
S-OBRYS
  6
CONTINUOUS
 10
-35217.961971710167
 20
378405.93702526193
 30
0.0
 11
-35227.461971710167
 21
378405.93702526193
 31
0.0
  0
LINE
  5
68CFB
  8
S-OBRYS
  6
CONTINUOUS
 10
-35211.942605579519
 20
378406.94398068113
 30
0.0
 11
-35223.942605579519
 21
378406.94398068113
 31
0.0
  0
LINE
  5
68CFC
  8
S-OBRYS
  6
CONTINUOUS
 10
-35222.942605579519
 20
378407.94398068113
 30
0.0
 11
-35212.942605579519
 21
378407.94398068113
 31
0.0
  0
LINE
  5
68CFD
  8
S-OBRYS
  6
CONTINUOUS
 10
-35223.942605579519
 20
378391.95606866432
 30
0.0
 11
-35223.942605579519
 21
378391.94398068113
 31
0.0
  0
LINE
  5
68CFE
  8
S-OBRYS
  6
CONTINUOUS
 10
-35222.942605579519
 20
378391.94398068113
 30
0.0
 11
-35222.942605579519
 21
378391.95606866432
 31
0.0
  0
LINE
  5
68CFF
  8
S-OBRYS
  6
CONTINUOUS
 10
-35227.461971710167
 20
378398.95606866421
 30
0.0
 11
-35228.931621710173
 21
378398.10756623669
 31
0.0
  0
LINE
  5
68D00
  8
S-OBRYS
  6
CONTINUOUS
 10
-35228.931621710173
 20
378392.80457109178
 30
0.0
 11
-35227.461971710167
 21
378391.95606866432
 31
0.0
  0
LINE
  5
68D01
  8
S-OBRYS
  6
CONTINUOUS
 10
-35228.931621710173
 20
378398.10756623669
 30
0.0
 11
-35228.931621710173
 21
378392.80457109178
 31
0.0
  0
ARC
  5
68D02
  8
S-OBRYS
  6
CONTINUOUS
 10
-35227.942605579519
 20
378394.94398068113
 30
0.0
 40
3.0
 50
180.0
 51
270.0
  0
LINE
  5
68D03
  8
S-OBRYS
  6
CONTINUOUS
 10
-35233.942605579519
 20
378417.94398068113
 30
0.0
 11
-35234.942605579519
 21
378417.94398068113
 31
0.0
  0
ARC
  5
68D04
  8
S-OBRYS
  6
CONTINUOUS
 10
-35233.942605579519
 20
378414.94398068113
 30
0.0
 40
3.0
 50
0.0
 51
90.0
  0
LINE
  5
68D05
  8
S-OBRYS
  6
CONTINUOUS
 10
-35234.942605579519
 20
378387.94398068113
 30
0.0
 11
-35234.942605579519
 21
378417.94398068113
 31
0.0
  0
LINE
  5
68D06
  8
S-OBRYS
  6
CONTINUOUS
 10
-35230.942605579519
 20
378394.94398068113
 30
0.0
 11
-35230.942605579519
 21
378414.94398068113
 31
0.0
  0
LINE
  5
68D07
  8
S-OBRYS
  6
CONTINUOUS
 10
-35228.931621710173
 20
378399.78552768938
 30
0.0
 11
-35227.461971710167
 21
378398.93702526193
 31
0.0
  0
LINE
  5
68D08
  8
S-OBRYS
  6
CONTINUOUS
 10
-35228.931621710173
 20
378405.08852283441
 30
0.0
 11
-35228.931621710173
 21
378399.78552768938
 31
0.0
  0
LINE
  5
68D09
  8
S-OBRYS
  6
CONTINUOUS
 10
-35227.461971710167
 20
378405.93702526193
 30
0.0
 11
-35228.931621710173
 21
378405.08852283441
 31
0.0
  0
LINE
  5
68D0A
  8
S-OBRYS
  6
CONTINUOUS
 10
-35222.942605579519
 20
378407.94398068113
 30
0.0
 11
-35223.942605579519
 21
378406.94398068113
 31
0.0
  0
LINE
  5
68D0B
  8
S-OBRYS
  6
CONTINUOUS
 10
-35223.942605579519
 20
378406.94398068113
 30
0.0
 11
-35223.942605579519
 21
378405.93702526193
 31
0.0
  0
LINE
  5
68D0C
  8
S-OBRYS
  6
CONTINUOUS
 10
-35211.942605579519
 20
378405.93702526193
 30
0.0
 11
-35211.942605579519
 21
378406.94398068113
 31
0.0
  0
LINE
  5
68D0D
  8
S-OBRYS
  6
CONTINUOUS
 10
-35217.961971710167
 20
378398.95606866421
 30
0.0
 11
-35208.461971710167
 21
378398.95606866421
 31
0.0
  0
LINE
  5
68D0E
  8
S-OBRYS
  6
CONTINUOUS
 10
-35208.461971710167
 20
378398.95606866421
 30
0.0
 11
-35206.992321710168
 21
378398.10756623669
 31
0.0
  0
LINE
  5
68D0F
  8
S-OBRYS
  6
CONTINUOUS
 10
-35208.461971710167
 20
378391.95606866432
 30
0.0
 11
-35217.961971710167
 21
378391.95606866432
 31
0.0
  0
LINE
  5
68D10
  8
S-OBRYS
  6
CONTINUOUS
 10
-35206.992321710168
 20
378392.80457109178
 30
0.0
 11
-35208.461971710167
 21
378391.95606866432
 31
0.0
  0
LINE
  5
68D11
  8
S-OBRYS
  6
CONTINUOUS
 10
-35206.992321710168
 20
378398.10756623669
 30
0.0
 11
-35206.992321710168
 21
378392.80457109178
 31
0.0
  0
LINE
  5
68D12
  8
S-OBRYS
  6
CONTINUOUS
 10
-35204.942605579519
 20
378387.94398068113
 30
0.0
 11
-35204.942605579519
 21
378388.94398068113
 31
0.0
  0
ARC
  5
68D13
  8
S-OBRYS
  6
CONTINUOUS
 10
-35207.942605579519
 20
378388.94398068113
 30
0.0
 40
3.0
 50
0.0
 51
90.0
  0
LINE
  5
68D14
  8
S-OBRYS
  6
CONTINUOUS
 10
-35208.461971710167
 20
378398.93702526193
 30
0.0
 11
-35217.961971710167
 21
378398.93702526193
 31
0.0
  0
LINE
  5
68D15
  8
S-OBRYS
  6
CONTINUOUS
 10
-35206.992321710168
 20
378399.78552768938
 30
0.0
 11
-35208.461971710167
 21
378398.93702526193
 31
0.0
  0
LINE
  5
68D16
  8
S-OBRYS
  6
CONTINUOUS
 10
-35206.992321710168
 20
378405.08852283441
 30
0.0
 11
-35206.992321710168
 21
378399.78552768938
 31
0.0
  0
LINE
  5
68D17
  8
S-OBRYS
  6
CONTINUOUS
 10
-35208.461971710167
 20
378405.93702526193
 30
0.0
 11
-35206.992321710168
 21
378405.08852283441
 31
0.0
  0
LINE
  5
68D18
  8
S-OBRYS
  6
CONTINUOUS
 10
-35217.961971710167
 20
378405.93702526193
 30
0.0
 11
-35208.461971710167
 21
378405.93702526193
 31
0.0
  0
LINE
  5
68D19
  8
S-OBRYS
  6
CONTINUOUS
 10
-35212.942605579519
 20
378407.94398068113
 30
0.0
 11
-35211.942605579519
 21
378406.94398068113
 31
0.0
  0
LINE
  5
68D1A
  8
S-OBRYS
  6
CONTINUOUS
 10
-32705.543715865701
 20
378035.85684940271
 30
0.0
 11
-32705.53574402312
 21
378370.28916443849
 31
0.0
  0
LINE
  5
68D1B
  8
S-OBRYS
  6
CONTINUOUS
 10
-32735.54419260447
 20
378015.85684940271
 30
0.0
 11
-32735.53574400608
 21
378370.28987954668
 31
0.0
  0
LINE
  5
68D1C
  8
S-OBRYS
  6
CONTINUOUS
 10
-32700.413079751688
 20
377998.35684940271
 30
0.0
 11
-32700.454610450019
 21
378285.30096178921
 31
0.0
  0
ARC
  5
68D1D
  8
S-OBRYS
  6
CONTINUOUS
 10
-32715.543715865701
 20
377909.94398068113
 30
0.0
 40
15.0
 50
270.0
 51
0.0
  0
ARC
  5
68D1E
  8
S-OBRYS
  6
CONTINUOUS
 10
-32715.543715865701
 20
377909.94398068113
 30
0.0
 40
10.0
 50
270.0
 51
0.0
  0
LINE
  5
68D1F
  8
S-OBRYS
  6
CONTINUOUS
 10
-32750.543715865701
 20
377899.94398068113
 30
0.0
 11
-32715.543715865701
 21
377899.94398068113
 31
0.0
  0
LINE
  5
68D20
  8
S-OBRYS
  6
CONTINUOUS
 10
-32715.543715865701
 20
377894.94398068113
 30
0.0
 11
-32750.543715865701
 21
377894.94398068113
 31
0.0
  0
LINE
  5
68D21
  8
S-OBRYS
  6
CONTINUOUS
 10
-32750.543715865701
 20
377894.94398068113
 30
0.0
 11
-32750.543715865701
 21
377899.94398068113
 31
0.0
  0
LINE
  5
68D22
  8
S-OBRYS
  6
CONTINUOUS
 10
-32721.543715865701
 20
378000.85684940271
 30
0.0
 11
-32687.543715865701
 21
378000.85684940271
 31
0.0
  0
LINE
  5
68D23
  8
S-OBRYS
  6
CONTINUOUS
 10
-32732.543715865701
 20
378011.85684940271
 30
0.0
 11
-32712.543715865701
 21
378011.85684940271
 31
0.0
  0
ARC
  5
68D24
  8
S-OBRYS
  6
CONTINUOUS
 10
-32732.543715865701
 20
378014.85684940271
 30
0.0
 40
3.0
 50
180.0
 51
270.0
  0
LINE
  5
68D25
  8
S-OBRYS
  6
CONTINUOUS
 10
-32735.543715865701
 20
378015.85684940271
 30
0.0
 11
-32735.543715865701
 21
378014.85684940271
 31
0.0
  0
LINE
  5
68D26
  8
S-OBRYS
  6
CONTINUOUS
 10
-32700.543715865701
 20
377909.91053084761
 30
0.0
 11
-32700.543715865701
 21
378003.53451484372
 31
0.0
  0
LINE
  5
68D27
  8
S-OBRYS
  6
CONTINUOUS
 10
-32709.543715865701
 20
378008.85684940277
 30
0.0
 11
-32709.543715865701
 21
377988.85684940271
 31
0.0
  0
LINE
  5
68D28
  8
S-OBRYS
  6
CONTINUOUS
 10
-32705.543715865701
 20
377909.91053084761
 30
0.0
 11
-32705.543715865701
 21
378035.85684940271
 31
0.0
  0
ARC
  5
68D29
  8
S-OBRYS
  6
CONTINUOUS
 10
-32706.543715865701
 20
377988.85684940271
 30
0.0
 40
3.0
 50
180.0
 51
270.0
  0
LINE
  5
68D2A
  8
S-OBRYS
  6
CONTINUOUS
 10
-32706.543715865701
 20
377985.85684940271
 30
0.0
 11
-32705.543715865701
 21
377985.85684940271
 31
0.0
  0
LINE
  5
68D2B
  8
S-OBRYS
  6
CONTINUOUS
 10
-32700.41850729358
 20
378035.85684940271
 30
0.0
 11
-32705.543715865701
 21
378035.85684940271
 31
0.0
  0
ARC
  5
68D2C
  8
S-OBRYS
  6
CONTINUOUS
 10
-32712.543715865701
 20
378008.85684940277
 30
0.0
 40
3.0
 50
0.0
 51
90.0
  0
LINE
  5
68D2D
  8
S-OBRYS
  6
CONTINUOUS
 10
-32571.543715865701
 20
378230.35684940277
 30
0.0
 11
-32571.543715865701
 21
378165.35684940277
 31
0.0
  0
LINE
  5
68D2E
  8
S-OBRYS
  6
CONTINUOUS
 10
-32690.422966288152
 20
378146.83391996019
 30
0.0
 11
-32690.422966288152
 21
378256.82930158451
 31
0.0
  0
LINE
  5
68D2F
  8
S-OBRYS
  6
CONTINUOUS
 10
-32632.422966288152
 20
378158.16495741252
 30
0.0
 11
-32632.422966288152
 21
378238.0883148312
 31
0.0
  0
LINE
  5
68D30
  8
S-OBRYS
  6
CONTINUOUS
 10
-32624.442920397662
 20
378213.17486581788
 30
0.0
 11
-32624.422966288152
 21
378183.16495741252
 31
0.0
  0
LINE
  5
68D31
  8
S-OBRYS
  6
CONTINUOUS
 10
-32611.543715865701
 20
378220.35684940277
 30
0.0
 11
-32611.543715865701
 21
378167.35684940277
 31
0.0
  0
LINE
  5
68D32
  8
S-OBRYS
  6
CONTINUOUS
 10
-32611.441538896412
 20
378183.16495741252
 30
0.0
 11
-32624.422966288152
 21
378183.16495741252
 31
0.0
  0
LINE
  5
68D33
  8
S-OBRYS
  6
CONTINUOUS
 10
-32711.043715865701
 20
378131.85684940277
 30
0.0
 11
-32685.543715865701
 21
378131.85684940277
 31
0.0
  0
ARC
  5
68D34
  8
S-OBRYS
  6
CONTINUOUS
 10
-32626.422966288152
 20
378160.1649574124
 30
0.0
 40
2.0
 50
270.0
 51
0.0
  0
ARC
  5
68D35
  8
S-OBRYS
  6
CONTINUOUS
 10
-32634.422966288152
 20
378152.66495741252
 30
0.0
 40
2.0
 50
270.0
 51
0.0
  0
LINE
  5
68D36
  8
S-OBRYS
  6
CONTINUOUS
 10
-32640.422966288152
 20
378150.66495741252
 30
0.0
 11
-32634.422966288152
 21
378150.66495741252
 31
0.0
  0
LINE
  5
68D37
  8
S-OBRYS
  6
CONTINUOUS
 10
-32640.422966288152
 20
378158.16495741252
 30
0.0
 11
-32640.422966288152
 21
378150.66495741252
 31
0.0
  0
LINE
  5
68D38
  8
S-OBRYS
  6
CONTINUOUS
 10
-32632.422966288152
 20
378152.66495741252
 30
0.0
 11
-32632.422966288152
 21
378158.16495741252
 31
0.0
  0
LINE
  5
68D39
  8
S-OBRYS
  6
CONTINUOUS
 10
-32632.422966288152
 20
378158.16495741252
 30
0.0
 11
-32626.422966288152
 21
378158.16495741252
 31
0.0
  0
ARC
  5
68D3A
  8
S-OBRYS
  6
CONTINUOUS
 10
-32687.89180733978
 20
378146.54601547588
 30
0.0
 40
2.5474800517290328
 50
91.936774901842696
 51
178.02731388382139
  0
ARC
  5
68D3B
  8
S-OBRYS
  6
CONTINUOUS
 10
-32693.422966288152
 20
378130.66495741252
 30
0.0
 40
3.0
 50
270.0
 51
0.0
  0
LINE
  5
68D3C
  8
S-OBRYS
  6
CONTINUOUS
 10
-32693.422966288152
 20
378127.66495741252
 30
0.0
 11
-32700.422966288152
 21
378127.66495741252
 31
0.0
  0
LINE
  5
68D3D
  8
S-OBRYS
  6
CONTINUOUS
 10
-32690.422966288152
 20
378146.83391996019
 30
0.0
 11
-32690.422966288152
 21
378130.66495741252
 31
0.0
  0
LINE
  5
68D3E
  8
S-OBRYS
  6
CONTINUOUS
 10
-32640.422966288152
 20
378150.66495741252
 30
0.0
 11
-32688.225563335829
 21
378149.0715375109
 31
0.0
  0
LINE
  5
68D3F
  8
S-OBRYS
  6
CONTINUOUS
 10
-32624.422966288152
 20
378160.1649574124
 30
0.0
 11
-32624.422966288152
 21
378183.16495741252
 31
0.0
  0
LINE
  5
68D40
  8
S-OBRYS
  6
CONTINUOUS
 10
-32571.543715865701
 20
378134.85684940277
 30
0.0
 11
-32569.543715865701
 21
378132.85684940277
 31
0.0
  0
ARC
  5
68D41
  8
S-OBRYS
  6
CONTINUOUS
 10
-32576.543715865701
 20
378160.35684940277
 30
0.0
 40
5.0
 50
0.0
 51
90.0
  0
LINE
  5
68D42
  8
S-OBRYS
  6
CONTINUOUS
 10
-32611.543715865701
 20
378167.35684940277
 30
0.0
 11
-32609.543715865701
 21
378165.35684940277
 31
0.0
  0
LINE
  5
68D43
  8
S-OBRYS
  6
CONTINUOUS
 10
-32571.543715865701
 20
378165.35684940277
 30
0.0
 11
-32571.543715865701
 21
378134.85684940277
 31
0.0
  0
LINE
  5
68D44
  8
S-OBRYS
  6
CONTINUOUS
 10
-32609.543715865701
 20
378165.35684940277
 30
0.0
 11
-32576.543715865701
 21
378165.35684940277
 31
0.0
  0
LINE
  5
68D45
  8
S-OBRYS
  6
CONTINUOUS
 10
-32611.441538896412
 20
378213.16495741252
 30
0.0
 11
-32624.442913809391
 21
378213.16495741252
 31
0.0
  0
LINE
  5
68D46
  8
S-OBRYS
  6
CONTINUOUS
 10
-32700.41850729358
 20
378260.03111195931
 30
0.0
 11
-32705.543715865701
 21
378260.03111195931
 31
0.0
  0
LINE
  5
68D47
  8
S-OBRYS
  6
CONTINUOUS
 10
-32711.543715865701
 20
378263.85684940277
 30
0.0
 11
-32686.043715865701
 21
378263.85684940277
 31
0.0
  0
LINE
  5
68D48
  8
S-OBRYS
  6
CONTINUOUS
 10
-32652.1506773254
 20
378262.91318874533
 30
0.0
 11
-32650.88993064428
 21
378263.6759308771
 31
0.0
  0
LINE
  5
68D49
  8
S-OBRYS
  6
CONTINUOUS
 10
-32652.091034732341
 20
378264.9122992378
 30
0.0
 11
-32650.878002125672
 21
378264.07575297559
 31
0.0
  0
LINE
  5
68D4A
  8
S-OBRYS
  6
CONTINUOUS
 10
-32650.88993064428
 20
378263.6759308771
 30
0.0
 11
-32650.878002125672
 21
378264.07575297559
 31
0.0
  0
LINE
  5
68D4B
  8
S-OBRYS
  6
CONTINUOUS
 10
-32660.14711929527
 20
378263.15175911749
 30
0.0
 11
-32652.1506773254
 21
378262.91318874533
 31
0.0
  0
LINE
  5
68D4C
  8
S-OBRYS
  6
CONTINUOUS
 10
-32660.087476702211
 20
378265.15086961002
 30
0.0
 11
-32652.091034732341
 21
378264.9122992378
 31
0.0
  0
LINE
  5
68D4D
  8
S-OBRYS
  6
CONTINUOUS
 10
-32653.418624240381
 20
378253.94701282569
 30
0.0
 11
-32652.315470894398
 21
378254.61441219109
 31
0.0
  0
LINE
  5
68D4E
  8
S-OBRYS
  6
CONTINUOUS
 10
-32652.315470894398
 20
378254.61441219109
 30
0.0
 11
-32652.23793552343
 21
378257.21325583127
 31
0.0
  0
LINE
  5
68D4F
  8
S-OBRYS
  6
CONTINUOUS
 10
-32653.383796081689
 20
378253.94260067702
 30
0.0
 11
-32653.383796081689
 21
378253.69019869529
 31
0.0
  0
LINE
  5
68D50
  8
S-OBRYS
  6
CONTINUOUS
 10
-32653.299339054269
 20
378257.94523381069
 30
0.0
 11
-32652.23793552343
 21
378257.21325583127
 31
0.0
  0
LINE
  5
68D51
  8
S-OBRYS
  6
CONTINUOUS
 10
-32660.296225777911
 20
378258.1539828864
 30
0.0
 11
-32653.299339054269
 21
378257.94523381069
 31
0.0
  0
LINE
  5
68D52
  8
S-OBRYS
  6
CONTINUOUS
 10
-32660.41551096402
 20
378254.15576190152
 30
0.0
 11
-32653.418624240381
 21
378253.94701282569
 31
0.0
  0
LINE
  5
68D53
  8
S-OBRYS
  6
CONTINUOUS
 10
-32654.298894300511
 20
378257.97505510721
 30
0.0
 11
-32654.14978781786
 21
378262.97283133841
 31
0.0
  0
LINE
  5
68D54
  8
S-OBRYS
  6
CONTINUOUS
 10
-32668.14356126514
 20
378263.39032948972
 30
0.0
 11
-32669.356593871809
 21
378264.22687575192
 31
0.0
  0
LINE
  5
68D55
  8
S-OBRYS
  6
CONTINUOUS
 10
-32668.08391867208
 20
378265.38943998219
 30
0.0
 11
-32669.344665353201
 21
378264.62669785041
 31
0.0
  0
LINE
  5
68D56
  8
S-OBRYS
  6
CONTINUOUS
 10
-32669.356593871809
 20
378264.22687575192
 30
0.0
 11
-32669.344665353201
 21
378264.62669785041
 31
0.0
  0
LINE
  5
68D57
  8
S-OBRYS
  6
CONTINUOUS
 10
-32667.293112501538
 20
378258.362731962
 30
0.0
 11
-32668.396265847521
 21
378257.69533259672
 31
0.0
  0
LINE
  5
68D58
  8
S-OBRYS
  6
CONTINUOUS
 10
-32667.412397687651
 20
378254.36451097712
 30
0.0
 11
-32668.47380121849
 21
378255.09648895648
 31
0.0
  0
LINE
  5
68D59
  8
S-OBRYS
  6
CONTINUOUS
 10
-32667.4262502524
 20
378254.34644773742
 30
0.0
 11
-32667.47676273869
 21
378254.14452420722
 31
0.0
  0
LINE
  5
68D5A
  8
S-OBRYS
  6
CONTINUOUS
 10
-32668.47380121849
 20
378255.09648895648
 30
0.0
 11
-32668.396265847521
 21
378257.69533259672
 31
0.0
  0
LINE
  5
68D5B
  8
S-OBRYS
  6
CONTINUOUS
 10
-32666.293557255311
 20
378258.33291066549
 30
0.0
 11
-32666.14445077267
 21
378263.33068689657
 31
0.0
  0
ARC
  5
68D5C
  8
S-OBRYS
  6
CONTINUOUS
 10
-32693.4407689129
 20
378265.66694300569
 30
0.0
 40
3.0
 50
0.0
 51
90.0
  0
ARC
  5
68D5D
  8
S-OBRYS
  6
CONTINUOUS
 10
-32687.909609964528
 20
378257.35874178051
 30
0.0
 40
2.5474800517290328
 50
191.9773164732492
 51
268.06322509815732
  0
LINE
  5
68D5E
  8
S-OBRYS
  6
CONTINUOUS
 10
-32690.4407689129
 20
378265.66694300569
 30
0.0
 11
-32690.401630959721
 21
378256.8300774509
 31
0.0
  0
LINE
  5
68D5F
  8
S-OBRYS
  6
CONTINUOUS
 10
-32693.4407689129
 20
378268.66694300558
 30
0.0
 11
-32700.4407689129
 21
378268.66694300558
 31
0.0
  0
LINE
  5
68D60
  8
S-OBRYS
  6
CONTINUOUS
 10
-32649.739215371821
 20
378253.5497480593
 30
0.0
 11
-32688.243365960581
 21
378254.8332197456
 31
0.0
  0
LINE
  5
68D61
  8
S-OBRYS
  6
CONTINUOUS
 10
-32660.14711929527
 20
378263.15175911749
 30
0.0
 11
-32668.14356126514
 21
378263.39032948972
 31
0.0
  0
LINE
  5
68D62
  8
S-OBRYS
  6
CONTINUOUS
 10
-32660.087476702211
 20
378265.15086961002
 30
0.0
 11
-32668.08391867208
 21
378265.38943998219
 31
0.0
  0
LINE
  5
68D63
  8
S-OBRYS
  6
CONTINUOUS
 10
-32660.41551096402
 20
378254.15576190152
 30
0.0
 11
-32667.412397687651
 21
378254.36451097712
 31
0.0
  0
LINE
  5
68D64
  8
S-OBRYS
  6
CONTINUOUS
 10
-32660.296225777911
 20
378258.1539828864
 30
0.0
 11
-32667.293112501538
 21
378258.362731962
 31
0.0
  0
ARC
  5
68D65
  8
S-OBRYS
  6
CONTINUOUS
 10
-32626.442920397662
 20
378236.17486581788
 30
0.0
 40
2.0
 50
0.0
 51
90.0
  0
ARC
  5
68D66
  8
S-OBRYS
  6
CONTINUOUS
 10
-32634.442920397662
 20
378249.37037351972
 30
0.0
 40
2.0
 50
0.0
 51
90.0
  0
LINE
  5
68D67
  8
S-OBRYS
  6
CONTINUOUS
 10
-32632.442920397662
 20
378243.674865818
 30
0.0
 11
-32632.442920397662
 21
378249.37037351972
 31
0.0
  0
LINE
  5
68D68
  8
S-OBRYS
  6
CONTINUOUS
 10
-32640.442920397662
 20
378251.37037351972
 30
0.0
 11
-32634.442920397662
 21
378251.37037351972
 31
0.0
  0
LINE
  5
68D69
  8
S-OBRYS
  6
CONTINUOUS
 10
-32632.442920397662
 20
378243.674865818
 30
0.0
 11
-32632.442920397662
 21
378238.17486581788
 31
0.0
  0
LINE
  5
68D6A
  8
S-OBRYS
  6
CONTINUOUS
 10
-32640.4407689129
 20
378251.38263517362
 30
0.0
 11
-32648.03215399016
 21
378251.63664660318
 31
0.0
  0
LINE
  5
68D6B
  8
S-OBRYS
  6
CONTINUOUS
 10
-32632.442920397662
 20
378238.17486581788
 30
0.0
 11
-32626.442920397662
 21
378238.17486581788
 31
0.0
  0
LINE
  5
68D6C
  8
S-OBRYS
  6
CONTINUOUS
 10
-32624.442920397662
 20
378236.17486581788
 30
0.0
 11
-32624.442920397662
 21
378213.17486581788
 31
0.0
  0
ARC
  5
68D6D
  8
S-OBRYS
  6
CONTINUOUS
 10
-32648.00028846251
 20
378253.38323681778
 30
0.0
 40
1.7468808744380571
 50
174.53030951566231
 51
268.95478762080722
  0
LINE
  5
68D6E
  8
S-OBRYS
  6
CONTINUOUS
 10
-32571.543715865701
 20
378260.85684940277
 30
0.0
 11
-32569.543715865701
 21
378262.85684940277
 31
0.0
  0
ARC
  5
68D6F
  8
S-OBRYS
  6
CONTINUOUS
 10
-32576.543715865701
 20
378235.35684940277
 30
0.0
 40
5.0
 50
270.0
 51
0.0
  0
LINE
  5
68D70
  8
S-OBRYS
  6
CONTINUOUS
 10
-32609.543715865701
 20
378230.35684940277
 30
0.0
 11
-32611.543715865701
 21
378228.35684940277
 31
0.0
  0
LINE
  5
68D71
  8
S-OBRYS
  6
CONTINUOUS
 10
-32611.543715865701
 20
378228.35684940277
 30
0.0
 11
-32611.543715865701
 21
378220.35684940277
 31
0.0
  0
LINE
  5
68D72
  8
S-OBRYS
  6
CONTINUOUS
 10
-32601.543715865701
 20
378230.35684940277
 30
0.0
 11
-32609.543715865701
 21
378230.35684940277
 31
0.0
  0
LINE
  5
68D73
  8
S-OBRYS
  6
CONTINUOUS
 10
-32576.543715865701
 20
378230.35684940277
 30
0.0
 11
-32601.543715865701
 21
378230.35684940277
 31
0.0
  0
LINE
  5
68D74
  8
S-OBRYS
  6
CONTINUOUS
 10
-32571.543715865701
 20
378260.85684940277
 30
0.0
 11
-32571.543715865701
 21
378230.35684940277
 31
0.0
  0
LINE
  5
68D75
  8
S-OBRYS
  6
CONTINUOUS
 10
-32700.443681947228
 20
378370.28785324987
 30
0.0
 11
-32718.07478257348
 21
378387.91895387619
 31
0.0
  0
LINE
  5
68D76
  8
S-OBRYS
  6
CONTINUOUS
 10
-32054.914904285069
 20
378198.02992511023
 30
0.0
 11
-32054.914904285069
 21
378050.28900588449
 31
0.0
  0
LINE
  5
68D77
  8
S-OBRYS
  6
CONTINUOUS
 10
-32078.575548174558
 20
378203.70762757107
 30
0.0
 11
-32078.575548174558
 21
378050.28900588449
 31
0.0
  0
LINE
  5
68D78
  8
S-OBRYS
  6
CONTINUOUS
 10
-32125.539000752378
 20
378214.97716493107
 30
0.0
 11
-32125.539000752389
 21
378050.28900588449
 31
0.0
  0
LINE
  5
68D79
  8
S-OBRYS
  6
CONTINUOUS
 10
-32006.269789591199
 20
378015.78900588461
 30
0.0
 11
-32006.269789591199
 21
378186.35684940277
 31
0.0
  0
LINE
  5
68D7A
  8
S-OBRYS
  6
CONTINUOUS
 10
-32143.184444317689
 20
378125.28900588461
 30
0.0
 11
-32143.184444317689
 21
378050.28900588449
 31
0.0
  0
LINE
  5
68D7B
  8
S-OBRYS
  6
CONTINUOUS
 10
-32327.521172042721
 20
378050.28900588449
 30
0.0
 11
-32327.521172042721
 21
378125.28900588461
 31
0.0
  0
LINE
  5
68D7C
  8
S-OBRYS
  6
CONTINUOUS
 10
-32449.543715865701
 20
378169.85684940277
 30
0.0
 11
-32449.543715865711
 21
378050.28900588449
 31
0.0
  0
LINE
  5
68D7D
  8
S-OBRYS
  6
CONTINUOUS
 10
-31719.792069681622
 20
378089.94398068113
 30
0.0
 11
-31662.492069681612
 21
378097.07198068098
 31
0.0
  0
LINE
  5
68D7E
  8
S-OBRYS
  6
CONTINUOUS
 10
-31719.792069681622
 20
378089.94398068113
 30
0.0
 11
-31719.792069681622
 21
378197.94398068113
 31
0.0
  0
LINE
  5
68D7F
  8
S-OBRYS
  6
CONTINUOUS
 10
-32036.690167831592
 20
378089.94398068113
 30
0.0
 11
-32036.690167831592
 21
378193.65664467477
 31
0.0
  0
LINE
  5
68D80
  8
S-OBRYS
  6
CONTINUOUS
 10
-32006.194421611519
 20
378089.94398068113
 30
0.0
 11
-31719.792069681622
 21
378089.94398068113
 31
0.0
  0
LINE
  5
68D81
  8
S-OBRYS
  6
CONTINUOUS
 10
-32194.94685847963
 20
378020.28900588449
 30
0.0
 11
-32045.613348755731
 21
378020.28900588449
 31
0.0
  0
LINE
  5
68D82
  8
S-OBRYS
  6
CONTINUOUS
 10
-32449.543715865701
 20
378020.28900588449
 30
0.0
 11
-32279.946858479641
 21
378020.28900588449
 31
0.0
  0
LINE
  5
68D83
  8
S-OBRYS
  6
CONTINUOUS
 10
-32327.521172042721
 20
378050.28900588449
 30
0.0
 11
-32390.668715865701
 21
378050.28900588449
 31
0.0
  0
LINE
  5
68D84
  8
S-OBRYS
  6
CONTINUOUS
 10
-32390.668715865701
 20
378050.28900588449
 30
0.0
 11
-32449.543715865701
 21
378050.28900588449
 31
0.0
  0
LINE
  5
68D85
  8
S-OBRYS
  6
CONTINUOUS
 10
-32449.543715865701
 20
378044.28900588461
 30
0.0
 11
-32449.543715865701
 21
378020.28900588449
 31
0.0
  0
LINE
  5
68D86
  8
S-OBRYS
  6
CONTINUOUS
 10
-32424.543715865701
 20
378055.28900588461
 30
0.0
 11
-32424.543715865701
 21
378014.78900588461
 31
0.0
  0
LINE
  5
68D87
  8
S-OBRYS
  6
CONTINUOUS
 10
-32276.94685847963
 20
378025.78900588461
 30
0.0
 11
-32197.946858479641
 21
378025.78900588461
 31
0.0
  0
LINE
  5
68D88
  8
S-OBRYS
  6
CONTINUOUS
 10
-32279.946858479641
 20
378022.78900588461
 30
0.0
 11
-32276.94685847963
 21
378025.78900588461
 31
0.0
  0
LINE
  5
68D89
  8
S-OBRYS
  6
CONTINUOUS
 10
-32279.946858479641
 20
378020.28900588449
 30
0.0
 11
-32279.946858479641
 21
378022.78900588461
 31
0.0
  0
LINE
  5
68D8A
  8
S-OBRYS
  6
CONTINUOUS
 10
-32194.94685847963
 20
378022.78900588461
 30
0.0
 11
-32197.946858479641
 21
378025.78900588461
 31
0.0
  0
LINE
  5
68D8B
  8
S-OBRYS
  6
CONTINUOUS
 10
-32194.94685847963
 20
378020.28900588449
 30
0.0
 11
-32194.94685847963
 21
378022.78900588461
 31
0.0
  0
LINE
  5
68D8C
  8
S-OBRYS
  6
CONTINUOUS
 10
-32045.613348755731
 20
378050.28900588449
 30
0.0
 11
-32143.184444317689
 21
378050.28900588449
 31
0.0
  0
LINE
  5
68D8D
  8
S-OBRYS
  6
CONTINUOUS
 10
-32068.11706630094
 20
378055.37613716291
 30
0.0
 11
-32068.11706630094
 21
378014.78900588461
 31
0.0
  0
LINE
  5
68D8E
  8
S-OBRYS
  6
CONTINUOUS
 10
-32045.613348755731
 20
378050.28900588449
 30
0.0
 11
-32045.613348755731
 21
378020.28900588449
 31
0.0
  0
LINE
  5
68D8F
  8
S-OBRYS
  6
CONTINUOUS
 10
-32006.194421611519
 20
378089.94398068113
 30
0.0
 11
-32054.914904285069
 21
378089.94398068113
 31
0.0
  0
LINE
  5
68D90
  8
S-OBRYS
  6
CONTINUOUS
 10
-32036.690167831592
 20
378296.44853821507
 30
0.0
 11
-31719.792069681622
 21
378296.44853821507
 31
0.0
  0
LINE
  5
68D91
  8
S-OBRYS
  6
CONTINUOUS
 10
-32036.690167831592
 20
378278.44853821502
 30
0.0
 11
-31719.792069681622
 21
378278.44853821502
 31
0.0
  0
LINE
  5
68D92
  8
S-OBRYS
  6
CONTINUOUS
 10
-32036.690167831592
 20
378248.44853821507
 30
0.0
 11
-31719.792069681622
 21
378248.44853821507
 31
0.0
  0
LINE
  5
68D93
  8
S-OBRYS
  6
CONTINUOUS
 10
-32036.690167831592
 20
378216.04853821499
 30
0.0
 11
-31719.792069681622
 21
378216.04853821499
 31
0.0
  0
LINE
  5
68D94
  8
S-OBRYS
  6
CONTINUOUS
 10
-32006.194421611519
 20
378147.43942314712
 30
0.0
 11
-31719.792069681622
 21
378147.43942314712
 31
0.0
  0
LINE
  5
68D95
  8
S-OBRYS
  6
CONTINUOUS
 10
-32006.194421611519
 20
378117.43942314712
 30
0.0
 11
-31719.792069681622
 21
378117.43942314712
 31
0.0
  0
LINE
  5
68D96
  8
S-OBRYS
  6
CONTINUOUS
 10
-32006.194421611519
 20
378099.43942314712
 30
0.0
 11
-31719.792069681622
 21
378099.43942314712
 31
0.0
  0
LINE
  5
68D97
  8
S-OBRYS
  6
CONTINUOUS
 10
-32006.194421611519
 20
378179.83942314709
 30
0.0
 11
-31719.792069681622
 21
378179.83942314709
 31
0.0
  0
LINE
  5
68D98
  8
S-OBRYS
  6
CONTINUOUS
 10
-31850.342767831589
 20
378305.94398068113
 30
0.0
 11
-31719.792069681611
 21
378305.94398068113
 31
0.0
  0
LINE
  5
68D99
  8
S-OBRYS
  6
CONTINUOUS
 10
-32464.26496723896
 20
378296.25919860997
 30
0.0
 11
-32006.269789591199
 21
378186.35684940277
 31
0.0
  0
LINE
  5
68D9A
  8
S-OBRYS
  6
CONTINUOUS
 10
-32449.543715865701
 20
378332.85684940277
 30
0.0
 11
-32054.914904285069
 21
378332.85684940277
 31
0.0
  0
LINE
  5
68D9B
  8
S-OBRYS
  6
CONTINUOUS
 10
-32179.539000752389
 20
378227.35684940277
 30
0.0
 11
-32125.539000752389
 21
378227.35684940277
 31
0.0
  0
LINE
  5
68D9C
  8
S-OBRYS
  6
CONTINUOUS
 10
-32327.521172042721
 20
378125.28900588461
 30
0.0
 11
-32143.184444317681
 21
378125.28900588461
 31
0.0
  0
LINE
  5
68D9D
  8
S-OBRYS
  6
CONTINUOUS
 10
-32179.539000752389
 20
378332.85684940277
 30
0.0
 11
-32179.539000752389
 21
378227.35684940277
 31
0.0
  0
LINE
  5
68D9E
  8
S-OBRYS
  6
CONTINUOUS
 10
-32449.543715865701
 20
378175.85684940277
 30
0.0
 11
-32449.543715865701
 21
378292.00622880401
 31
0.0
  0
LINE
  5
68D9F
  8
S-OBRYS
  6
CONTINUOUS
 10
-32407.489792054119
 20
378279.85684940277
 30
0.0
 11
-32179.539000752389
 21
378279.85684940277
 31
0.0
  0
LINE
  5
68DA0
  8
S-OBRYS
  6
CONTINUOUS
 10
-32526.543715865701
 20
378134.85684940277
 30
0.0
 11
-32526.543715865701
 21
378260.85684940277
 31
0.0
  0
LINE
  5
68DA1
  8
S-OBRYS
  6
CONTINUOUS
 10
-32449.543715865701
 20
378169.85684940277
 30
0.0
 11
-32449.543715865701
 21
378225.85684940277
 31
0.0
  0
LINE
  5
68DA2
  8
S-OBRYS
  6
CONTINUOUS
 10
-32454.543715865701
 20
378172.85684940277
 30
0.0
 11
-32454.543715865701
 21
378225.85684940277
 31
0.0
  0
LINE
  5
68DA3
  8
S-OBRYS
  6
CONTINUOUS
 10
-32464.519433410911
 20
378217.85684940277
 30
0.0
 11
-32464.519433410911
 21
378177.85684940277
 31
0.0
  0
LINE
  5
68DA4
  8
S-OBRYS
  6
CONTINUOUS
 10
-32466.543715865701
 20
378160.35684940277
 30
0.0
 11
-32464.543715865701
 21
378162.35684940277
 31
0.0
  0
LINE
  5
68DA5
  8
S-OBRYS
  6
CONTINUOUS
 10
-32528.543715865701
 20
378132.85684940277
 30
0.0
 11
-32526.543715865701
 21
378134.85684940277
 31
0.0
  0
LINE
  5
68DA6
  8
S-OBRYS
  6
CONTINUOUS
 10
-32464.543715865701
 20
378162.35684940277
 30
0.0
 11
-32464.543715865701
 21
378172.85684940277
 31
0.0
  0
LINE
  5
68DA7
  8
S-OBRYS
  6
CONTINUOUS
 10
-32526.543715865701
 20
378160.35684940277
 30
0.0
 11
-32466.543715865701
 21
378160.35684940277
 31
0.0
  0
LINE
  5
68DA8
  8
S-OBRYS
  6
CONTINUOUS
 10
-32454.543715865701
 20
378169.85684940277
 30
0.0
 11
-32449.543715865701
 21
378169.85684940277
 31
0.0
  0
LINE
  5
68DA9
  8
S-OBRYS
  6
CONTINUOUS
 10
-32454.543715865701
 20
378172.85684940277
 30
0.0
 11
-32454.543715865701
 21
378169.85684940277
 31
0.0
  0
LINE
  5
68DAA
  8
S-OBRYS
  6
CONTINUOUS
 10
-32464.519433410911
 20
378172.85684940277
 30
0.0
 11
-32454.543715865701
 21
378172.85684940277
 31
0.0
  0
LINE
  5
68DAB
  8
S-OBRYS
  6
CONTINUOUS
 10
-32464.519433410911
 20
378177.85684940277
 30
0.0
 11
-32464.519433410911
 21
378172.85684940277
 31
0.0
  0
LINE
  5
68DAC
  8
S-OBRYS
  6
CONTINUOUS
 10
-32407.48979205413
 20
378279.85684940277
 30
0.0
 11
-32449.543715865701
 21
378279.85684940277
 31
0.0
  0
LINE
  5
68DAD
  8
S-OBRYS
  6
CONTINUOUS
 10
-32466.543715865701
 20
378235.35684940277
 30
0.0
 11
-32464.543715865701
 21
378233.35684940277
 31
0.0
  0
LINE
  5
68DAE
  8
S-OBRYS
  6
CONTINUOUS
 10
-32528.543715865701
 20
378262.85684940277
 30
0.0
 11
-32526.543715865701
 21
378260.85684940277
 31
0.0
  0
LINE
  5
68DAF
  8
S-OBRYS
  6
CONTINUOUS
 10
-32466.543715865701
 20
378235.35684940277
 30
0.0
 11
-32526.543715865701
 21
378235.35684940277
 31
0.0
  0
LINE
  5
68DB0
  8
S-OBRYS
  6
CONTINUOUS
 10
-32464.543715865701
 20
378222.85684940277
 30
0.0
 11
-32464.543715865701
 21
378233.35684940277
 31
0.0
  0
LINE
  5
68DB1
  8
S-OBRYS
  6
CONTINUOUS
 10
-32449.543715865701
 20
378225.85684940277
 30
0.0
 11
-32454.543715865701
 21
378225.85684940277
 31
0.0
  0
LINE
  5
68DB2
  8
S-OBRYS
  6
CONTINUOUS
 10
-32464.519433410911
 20
378222.85684940277
 30
0.0
 11
-32454.543715865701
 21
378222.85684940277
 31
0.0
  0
LINE
  5
68DB3
  8
S-OBRYS
  6
CONTINUOUS
 10
-32464.519433410911
 20
378217.85684940277
 30
0.0
 11
-32464.519433410911
 21
378222.85684940277
 31
0.0
  0
LINE
  5
68DB4
  8
S-OBRYS
  6
CONTINUOUS
 10
-32179.539000752389
 20
378227.35684940277
 30
0.0
 11
-32179.539000752389
 21
378125.28900588461
 31
0.0
  0
LINE
  5
68DB5
  8
S-OBRYS
  6
CONTINUOUS
 10
-32449.543715865701
 20
378291.10207233269
 30
0.0
 11
-32449.543715865701
 21
378332.85684940277
 31
0.0
  0
LINE
  5
68DB6
  8
S-OBRYS
  6
CONTINUOUS
 10
-32054.914904285069
 20
378332.85684940277
 30
0.0
 11
-32054.914904285069
 21
378198.02992511023
 31
0.0
  0
LINE
  5
68DB7
  8
S-OBRYS
  6
CONTINUOUS
 10
-32125.539000752378
 20
378214.97716493107
 30
0.0
 11
-32125.539000752389
 21
378332.85684940277
 31
0.0
  0
LINE
  5
68DB8
  8
S-OBRYS
  6
CONTINUOUS
 10
-32078.575548174558
 20
378332.85684940277
 30
0.0
 11
-32078.575548174558
 21
378203.70762757107
 31
0.0
  0
LINE
  5
68DB9
  8
S-OBRYS
  6
CONTINUOUS
 10
-32036.690167831592
 20
378305.94398068113
 30
0.0
 11
-32036.690167831592
 21
378193.65664467477
 31
0.0
  0
LINE
  5
68DBA
  8
S-OBRYS
  6
CONTINUOUS
 10
-32036.652106777339
 20
378099.43942314712
 30
0.0
 11
-32006.194421611519
 21
378099.43942314712
 31
0.0
  0
LINE
  5
68DBB
  8
S-OBRYS
  6
CONTINUOUS
 10
-32036.652106777339
 20
378117.43942314712
 30
0.0
 11
-32006.194421611519
 21
378117.43942314712
 31
0.0
  0
LINE
  5
68DBC
  8
S-OBRYS
  6
CONTINUOUS
 10
-32036.652106777339
 20
378147.43942314712
 30
0.0
 11
-32006.194421611519
 21
378147.43942314712
 31
0.0
  0
LINE
  5
68DBD
  8
S-OBRYS
  6
CONTINUOUS
 10
-32036.652106777339
 20
378179.83942314709
 30
0.0
 11
-32006.194421611519
 21
378179.83942314709
 31
0.0
  0
LINE
  5
68DBE
  8
S-OBRYS
  6
CONTINUOUS
 10
-32054.914904285069
 20
378305.94398068113
 30
0.0
 11
-31959.935167831591
 21
378305.94398068113
 31
0.0
  0
LINE
  5
68DBF
  8
S-OBRYS
  6
CONTINUOUS
 10
-31959.935167831591
 20
378348.65198068111
 30
0.0
 11
-31850.342767831589
 21
378348.65198068111
 31
0.0
  0
LINE
  5
68DC0
  8
S-OBRYS
  6
CONTINUOUS
 10
-31959.935167831591
 20
378336.651980681
 30
0.0
 11
-31850.342767831589
 21
378336.651980681
 31
0.0
  0
LINE
  5
68DC1
  8
S-OBRYS
  6
CONTINUOUS
 10
-31959.935167831591
 20
378300.65198068111
 30
0.0
 11
-31850.342767831589
 21
378300.65198068111
 31
0.0
  0
LINE
  5
68DC2
  8
S-OBRYS
  6
CONTINUOUS
 10
-31959.935167831591
 20
378300.65198068111
 30
0.0
 11
-31959.935167831591
 21
378348.65198068111
 31
0.0
  0
LINE
  5
68DC3
  8
S-OBRYS
  6
CONTINUOUS
 10
-31850.342767831589
 20
378348.65198068111
 30
0.0
 11
-31850.342767831589
 21
378300.65198068111
 31
0.0
  0
LINE
  5
68DC4
  8
S-OBRYS
  6
CONTINUOUS
 10
-31647.454610450019
 20
378288.23198068113
 30
0.0
 11
-31647.454610450019
 21
378107.65598068113
 31
0.0
  0
LINE
  5
68DC5
  8
S-OBRYS
  6
CONTINUOUS
 10
-31662.492069681612
 20
378298.8159806811
 30
0.0
 11
-31662.492069681612
 21
378097.07198068098
 31
0.0
  0
LINE
  5
68DC6
  8
S-OBRYS
  6
CONTINUOUS
 10
-31719.792069681622
 20
378305.94398068113
 30
0.0
 11
-31719.792069681622
 21
378197.94398068113
 31
0.0
  0
LINE
  5
68DC7
  8
S-OBRYS
  6
CONTINUOUS
 10
-31662.492069681612
 20
378097.07198068098
 30
0.0
 11
-31647.454610450019
 21
378107.65598068113
 31
0.0
  0
LINE
  5
68DC8
  8
S-OBRYS
  6
CONTINUOUS
 10
-31719.792069681622
 20
378305.94398068113
 30
0.0
 11
-31662.492069681612
 21
378298.8159806811
 31
0.0
  0
LINE
  5
68DC9
  8
S-OBRYS
  6
CONTINUOUS
 10
-31662.492069681612
 20
378298.8159806811
 30
0.0
 11
-31647.454610450019
 21
378288.23198068113
 31
0.0
  0
LINE
  5
68DCA
  8
S-OBRYS
  6
CONTINUOUS
 10
-39479.339658626719
 20
377720.35458090052
 30
0.0
 11
-39479.339658626719
 21
378783.9453901141
 31
0.0
  0
LINE
  5
68DCB
  8
S-OBRYS
  6
CONTINUOUS
 10
-39479.339658626719
 20
378783.9453901141
 30
0.0
 11
-39604.848824887064
 21
378696.23482075927
 31
0.0
  0
LINE
  5
68DCC
  8
S-OBRYS
  6
CONTINUOUS
 10
-39479.339658626719
 20
378719.88451166661
 30
0.0
 11
-39604.848824887064
 21
378632.17394231202
 31
0.0
  0
LINE
  5
68DCD
  8
S-OBRYS
  6
CONTINUOUS
 10
-39479.339658626719
 20
378648.89813972323
 30
0.0
 11
-39604.848824887064
 21
378561.18757036852
 31
0.0
  0
LINE
  5
68DCE
  8
S-OBRYS
  6
CONTINUOUS
 10
-39479.339658626719
 20
378576.18043256982
 30
0.0
 11
-39604.848824887064
 21
378488.46986321511
 31
0.0
  0
LINE
  5
68DCF
  8
S-OBRYS
  6
CONTINUOUS
 10
-39479.339658626719
 20
378505.19406062632
 30
0.0
 11
-39604.848824887064
 21
378417.48349127162
 31
0.0
  0
DIMENSION
  5
68DD0
  8
S-OBRYS
  6
CONTINUOUS
  2
*D28
 10
-39479.339658626719
 20
378829.38917382847
 30
0.0
 11
-39982.911087198147
 21
378916.88917382859
 31
0.0
 70
     0
  1
MIN.200
 13
-39279.339658626719
 23
378197.68459991348
 33
0.0
 14
-39479.339658626719
 24
378197.68459991348
 34
0.0
  0
LINE
  5
68DD1
  8
S-OBRYS
  6
CONTINUOUS
 10
-39479.339658626719
 20
378783.9453901141
 30
0.0
 11
-39604.848824887064
 21
378696.23482075927
 31
0.0
  0
LINE
  5
68DD2
  8
S-OBRYS
  6
CONTINUOUS
 10
-39479.339658626719
 20
378719.88451166661
 30
0.0
 11
-39604.848824887064
 21
378632.17394231202
 31
0.0
  0
LINE
  5
68DD3
  8
S-OBRYS
  6
CONTINUOUS
 10
-39479.339658626719
 20
378648.89813972323
 30
0.0
 11
-39604.848824887064
 21
378561.18757036852
 31
0.0
  0
LINE
  5
68DD4
  8
S-OBRYS
  6
CONTINUOUS
 10
-39479.339658626719
 20
378576.18043256982
 30
0.0
 11
-39604.848824887064
 21
378488.46986321511
 31
0.0
  0
LINE
  5
68DD5
  8
S-OBRYS
  6
CONTINUOUS
 10
-39479.339658626719
 20
378505.19406062632
 30
0.0
 11
-39604.848824887064
 21
378417.48349127162
 31
0.0
  0
LINE
  5
68DD6
  8
S-OBRYS
  6
CONTINUOUS
 10
-39479.339658626719
 20
378418.62531559478
 30
0.0
 11
-39604.848824887064
 21
378330.91474624007
 31
0.0
  0
LINE
  5
68DD7
  8
S-OBRYS
  6
CONTINUOUS
 10
-39479.339658626719
 20
378333.78790577309
 30
0.0
 11
-39604.848824887064
 21
378246.07733641838
 31
0.0
  0
LINE
  5
68DD8
  8
S-OBRYS
  6
CONTINUOUS
 10
-39479.339658626719
 20
378247.21916074149
 30
0.0
 11
-39604.848824887064
 21
378159.5085913869
 31
0.0
  0
LINE
  5
68DD9
  8
S-OBRYS
  6
CONTINUOUS
 10
-39479.339658626719
 20
378160.65041571012
 30
0.0
 11
-39604.848824887064
 21
378072.93984635541
 31
0.0
  0
LINE
  5
68DDA
  8
S-OBRYS
  6
CONTINUOUS
 10
-39479.339658626719
 20
378077.54444286961
 30
0.0
 11
-39604.848824887064
 21
377989.8338735149
 31
0.0
  0
LINE
  5
68DDB
  8
S-OBRYS
  6
CONTINUOUS
 10
-39479.339658626719
 20
377992.70708393352
 30
0.0
 11
-39604.848824887064
 21
377904.99651457887
 31
0.0
  0
LINE
  5
68DDC
  8
S-OBRYS
  6
CONTINUOUS
 10
-39479.339658626719
 20
377914.79521849379
 30
0.0
 11
-39604.848824887064
 21
377827.08464913908
 31
0.0
  0
LINE
  5
68DDD
  8
S-OBRYS
  6
CONTINUOUS
 10
-39479.339658626719
 20
377842.07746045478
 30
0.0
 11
-39604.848824887064
 21
377754.36689110001
 31
0.0
  0
LINE
  5
68DDE
  8
S-OBRYS
  6
CONTINUOUS
 10
-39479.339658626719
 20
377752.04594323231
 30
0.0
 11
-39604.848824887064
 21
377664.33537387761
 31
0.0
  0
LINE
  5
68DDF
  8
S-OBRYS
  6
CONTINUOUS
 10
-39479.339658626719
 20
378783.9453901141
 30
0.0
 11
-39604.848824887064
 21
378696.23482075927
 31
0.0
  0
LINE
  5
68DE0
  8
S-OBRYS
  6
CONTINUOUS
 10
-39479.339658626719
 20
378719.88451166661
 30
0.0
 11
-39604.848824887064
 21
378632.17394231202
 31
0.0
  0
LINE
  5
68DE1
  8
S-OBRYS
  6
CONTINUOUS
 10
-39479.339658626719
 20
378648.89813972323
 30
0.0
 11
-39604.848824887064
 21
378561.18757036852
 31
0.0
  0
LINE
  5
68DE2
  8
S-OBRYS
  6
CONTINUOUS
 10
-39479.339658626719
 20
378576.18043256982
 30
0.0
 11
-39604.848824887064
 21
378488.46986321511
 31
0.0
  0
LINE
  5
68DE3
  8
S-OBRYS
  6
CONTINUOUS
 10
-39479.339658626719
 20
378505.19406062632
 30
0.0
 11
-39604.848824887064
 21
378417.48349127162
 31
0.0
  0
LINE
  5
68DE4
  8
S-OBRYS
  6
CONTINUOUS
 10
-39479.339658626719
 20
378418.62531559478
 30
0.0
 11
-39604.848824887064
 21
378330.91474624007
 31
0.0
  0
LINE
  5
68DE5
  8
S-OBRYS
  6
CONTINUOUS
 10
-39479.339658626719
 20
378333.78790577309
 30
0.0
 11
-39604.848824887064
 21
378246.07733641838
 31
0.0
  0
LINE
  5
68DE6
  8
S-OBRYS
  6
CONTINUOUS
 10
-39479.339658626719
 20
378247.21916074149
 30
0.0
 11
-39604.848824887064
 21
378159.5085913869
 31
0.0
  0
LINE
  5
68DE7
  8
S-OBRYS
  6
CONTINUOUS
 10
-39479.339658626719
 20
378160.65041571012
 30
0.0
 11
-39604.848824887064
 21
378072.93984635541
 31
0.0
  0
LINE
  5
68DE8
  8
S-OBRYS
  6
CONTINUOUS
 10
-39479.339658626719
 20
378077.54444286961
 30
0.0
 11
-39604.848824887064
 21
377989.8338735149
 31
0.0
  0
LINE
  5
68DE9
  8
S-OBRYS
  6
CONTINUOUS
 10
-39479.339658626719
 20
377992.70708393352
 30
0.0
 11
-39604.848824887064
 21
377904.99651457887
 31
0.0
  0
LINE
  5
68DEA
  8
S-OBRYS
  6
CONTINUOUS
 10
-39479.339658626719
 20
377914.79521849379
 30
0.0
 11
-39604.848824887064
 21
377827.08464913908
 31
0.0
  0
LINE
  5
68DEB
  8
S-OBRYS
  6
CONTINUOUS
 10
-39479.339658626719
 20
377842.07746045478
 30
0.0
 11
-39604.848824887064
 21
377754.36689110001
 31
0.0
  0
LINE
  5
68DEC
  8
S-OBRYS
  6
CONTINUOUS
 10
-39479.339658626719
 20
377752.04594323231
 30
0.0
 11
-39604.848824887064
 21
377664.33537387761
 31
0.0
  0
LINE
  5
68DED
  8
S-OBRYS
  6
CONTINUOUS
 10
-31247.454610450019
 20
377720.6139616681
 30
0.0
 11
-31247.454610450019
 21
378784.20477088162
 31
0.0
  0
LINE
  5
68DEE
  8
S-OBRYS
  6
CONTINUOUS
 10
-31247.454610450019
 20
378784.20477088162
 30
0.0
 11
-31121.945444189681
 21
378696.49420152692
 31
0.0
  0
LINE
  5
68DEF
  8
S-OBRYS
  6
CONTINUOUS
 10
-31247.454610450019
 20
378720.14389243431
 30
0.0
 11
-31121.945444189681
 21
378632.4333230796
 31
0.0
  0
LINE
  5
68DF0
  8
S-OBRYS
  6
CONTINUOUS
 10
-31247.454610450019
 20
378649.15752049081
 30
0.0
 11
-31121.945444189681
 21
378561.44695113611
 31
0.0
  0
LINE
  5
68DF1
  8
S-OBRYS
  6
CONTINUOUS
 10
-31247.454610450019
 20
378576.43981333752
 30
0.0
 11
-31121.945444189681
 21
378488.7292439827
 31
0.0
  0
LINE
  5
68DF2
  8
S-OBRYS
  6
CONTINUOUS
 10
-31247.454610450019
 20
378505.45344139391
 30
0.0
 11
-31121.945444189681
 21
378417.74287203921
 31
0.0
  0
LINE
  5
68DF3
  8
S-OBRYS
  6
CONTINUOUS
 10
-31247.454610450019
 20
378418.88469636242
 30
0.0
 11
-31121.945444189681
 21
378331.17412700772
 31
0.0
  0
LINE
  5
68DF4
  8
S-OBRYS
  6
CONTINUOUS
 10
-31247.454610450019
 20
378334.04728654068
 30
0.0
 11
-31121.945444189681
 21
378246.33671718597
 31
0.0
  0
LINE
  5
68DF5
  8
S-OBRYS
  6
CONTINUOUS
 10
-31247.454610450019
 20
378247.47854150919
 30
0.0
 11
-31121.945444189681
 21
378159.76797215443
 31
0.0
  0
LINE
  5
68DF6
  8
S-OBRYS
  6
CONTINUOUS
 10
-31247.454610450019
 20
378160.9097964777
 30
0.0
 11
-31121.945444189681
 21
378073.199227123
 31
0.0
  0
LINE
  5
68DF7
  8
S-OBRYS
  6
CONTINUOUS
 10
-31247.454610450019
 20
378077.80382363719
 30
0.0
 11
-31121.945444189681
 21
377990.09325428249
 31
0.0
  0
LINE
  5
68DF8
  8
S-OBRYS
  6
CONTINUOUS
 10
-31247.454610450019
 20
377992.96646470111
 30
0.0
 11
-31121.945444189681
 21
377905.2558953464
 31
0.0
  0
LINE
  5
68DF9
  8
S-OBRYS
  6
CONTINUOUS
 10
-31247.454610450019
 20
377915.05459926138
 30
0.0
 11
-31121.945444189681
 21
377827.34402990667
 31
0.0
  0
LINE
  5
68DFA
  8
S-OBRYS
  6
CONTINUOUS
 10
-31247.454610450019
 20
377842.33684122231
 30
0.0
 11
-31121.945444189681
 21
377754.6262718676
 31
0.0
  0
LINE
  5
68DFB
  8
S-OBRYS
  6
CONTINUOUS
 10
-31247.454610450019
 20
377752.3053239999
 30
0.0
 11
-31121.945444189681
 21
377664.59475464519
 31
0.0
  0
DIMENSION
  5
68DFC
  8
S-OBRYS
  6
CONTINUOUS
  2
*D29
 10
-31247.454610450019
 20
378835.18517367379
 30
0.0
 11
-30843.883181878591
 21
378835.18517367379
 31
0.0
 70
   128
  1
MIN.400
 13
-31647.454610450019
 23
378443.21198131092
 33
0.0
 14
-31247.454610450019
 24
378443.21198131092
 34
0.0
  0
VIEWPORT
  5
1FAB5
 67
     1
  8
0
  6
ČERCHOVANÁ
 10
12.669026204836801
 20
9.4585013259736659
 30
0.0
 40
41.707206501782828
 41
24.2248555085413
 68
     1
 69
     1
1001
ACAD
1000
MVIEW
1002
{
1070
    16
1010
0.0
1020
0.0
1030
0.0
1010
0.0
1020
0.0
1030
1.0
1040
0.0
1040
24.2248555085413
1040
12.669026204836801
1040
9.4585013259736659
1040
50.0
1040
0.0
1040
0.0
1070
     0
1070
   100
1070
     1
1070
     1
1070
     0
1070
     0
1070
     0
1070
     0
1040
0.0
1040
0.0
1040
0.0
1040
10.0
1040
10.0
1040
10.0
1040
10.0
1070
     0
1002
{
1002
}
1002
}
  0
VIEWPORT
  5
1FAB7
 67
     1
  8
2-VZT
  6
ČERCHOVANÁ
 10
5.24999976158142
 20
3.99999976158142
 30
0.0
 40
8.3999996185302717
 41
6.3999996185302717
 68
     2
 69
     2
1001
ACAD
1000
MVIEW
1002
{
1070
    16
1010
0.0
1020
0.0
1030
0.0
1010
0.0
1020
0.0
1030
1.0
1040
0.0
1040
517776.44812413253
1040
-335493.7046016907
1040
-205251.99203018961
1040
50.0
1040
0.0
1040
0.0
1070
     0
1070
   100
1070
     1
1070
     0
1070
     0
1070
     0
1070
     0
1070
     0
1040
0.0
1040
0.0
1040
0.0
1040
1.0
1040
1.0
1040
1.0
1040
1.0
1070
     0
1002
{
1002
}
1002
}
  0
ENDSEC
  0
EOF
