  0
SECTION
  2
HEADER
  9
$ACADVER
  1
AC1009
  9
$INSBASE
 10
0.0
 20
0.0
 30
0.0
  9
$EXTMIN
 10
-21865.11100384943
 20
393722.16586887481
 30
0.0
  9
$EXTMAX
 10
25993.875578750929
 20
408572.16586887481
 30
0.0
  9
$LIMMIN
 10
-127022.6804658414
 20
-67144.462473645661
  9
$LIMMAX
 10
-873.19720690528334
 20
6755.1563308572058
  9
$ORTHOMODE
 70
     0
  9
$REGENMODE
 70
     1
  9
$FILLMODE
 70
     1
  9
$QTEXTMODE
 70
     0
  9
$MIRRTEXT
 70
     0
  9
$DRAGMODE
 70
     2
  9
$LTSCALE
 40
50.0
  9
$OSMODE
 70
   679
  9
$ATTMODE
 70
     1
  9
$TEXTSIZE
 40
200.0
  9
$TRACEWID
 40
10.0
  9
$TEXTSTYLE
  7
R
  9
$CLAYER
  8
S-OBRYS
  9
$CELTYPE
  6
CONTINUOUS
  9
$CECOLOR
 62
   256
  9
$DIMSCALE
 40
50.0
  9
$DIMASZ
 40
2.0
  9
$DIMEXO
 40
0.063
  9
$DIMDLI
 40
5.0
  9
$DIMRND
 40
0.0
  9
$DIMDLE
 40
0.0
  9
$DIMEXE
 40
0.2
  9
$DIMTP
 40
0.0
  9
$DIMTM
 40
0.0
  9
$DIMTXT
 40
2.5
  9
$DIMCEN
 40
2.0
  9
$DIMTSZ
 40
0.0
  9
$DIMTOL
 70
     0
  9
$DIMLIM
 70
     0
  9
$DIMTIH
 70
     0
  9
$DIMTOH
 70
     0
  9
$DIMSE1
 70
     0
  9
$DIMSE2
 70
     0
  9
$DIMTAD
 70
     1
  9
$DIMZIN
 70
    12
  9
$DIMBLK
  1

  9
$DIMASO
 70
     1
  9
$DIMSHO
 70
     0
  9
$DIMPOST
  1

  9
$DIMAPOST
  1

  9
$DIMALT
 70
     0
  9
$DIMALTD
 70
     2
  9
$DIMALTF
 40
25.399999999999999
  9
$DIMLFAC
 40
1.0
  9
$DIMTOFL
 70
     1
  9
$DIMTVP
 40
0.0
  9
$DIMTIX
 70
     0
  9
$DIMSOXD
 70
     0
  9
$DIMSAH
 70
     1
  9
$DIMBLK1
  1
OPEN
  9
$DIMBLK2
  1
OPEN
  9
$DIMSTYLE
  2
EMBABA
  9
$DIMCLRD
 70
     0
  9
$DIMCLRE
 70
     0
  9
$DIMCLRT
 70
     7
  9
$DIMTFAC
 40
1.0
  9
$DIMGAP
 40
0.5
  9
$LUNITS
 70
     2
  9
$LUPREC
 70
     0
  9
$SKETCHINC
 40
10.0
  9
$FILLETRAD
 40
400.0
  9
$AUNITS
 70
     0
  9
$AUPREC
 70
     4
  9
$MENU
  1
ACAD
  9
$ELEVATION
 40
0.0
  9
$PELEVATION
 40
0.0
  9
$THICKNESS
 40
0.0
  9
$LIMCHECK
 70
     0
  9
$BLIPMODE
 70
     0
  9
$CHAMFERA
 40
0.0
  9
$CHAMFERB
 40
0.0
  9
$SKPOLY
 70
     0
  9
$TDCREATE
 40
2450205.720229167
  9
$TDUPDATE
 40
2453524.5004423382
  9
$TDINDWG
 40
42.445476585599998
  9
$TDUSRTIMER
 40
42.445476585599998
  9
$USRTIMER
 70
     1
  9
$ANGBASE
 50
0.0
  9
$ANGDIR
 70
     0
  9
$PDMODE
 70
     2
  9
$PDSIZE
 40
-5.0
  9
$PLINEWID
 40
0.0
  9
$COORDS
 70
     0
  9
$SPLFRAME
 70
     0
  9
$SPLINETYPE
 70
     6
  9
$SPLINESEGS
 70
     8
  9
$ATTDIA
 70
     0
  9
$ATTREQ
 70
     1
  9
$HANDLING
 70
     1
  9
$HANDSEED
  5
69DC0
  9
$SURFTAB1
 70
    18
  9
$SURFTAB2
 70
    18
  9
$SURFTYPE
 70
     6
  9
$SURFU
 70
    18
  9
$SURFV
 70
    18
  9
$UCSNAME
  2

  9
$UCSORG
 10
0.0
 20
0.0
 30
0.0
  9
$UCSXDIR
 10
1.0
 20
0.0
 30
0.0
  9
$UCSYDIR
 10
0.0
 20
1.0
 30
0.0
  9
$PUCSNAME
  2

  9
$PUCSORG
 10
0.0
 20
0.0
 30
0.0
  9
$PUCSXDIR
 10
1.0
 20
0.0
 30
0.0
  9
$PUCSYDIR
 10
0.0
 20
1.0
 30
0.0
  9
$USERI1
 70
     0
  9
$USERI2
 70
     0
  9
$USERI3
 70
     0
  9
$USERI4
 70
     0
  9
$USERI5
 70
     0
  9
$USERR1
 40
0.0
  9
$USERR2
 40
50.0
  9
$USERR3
 40
0.0
  9
$USERR4
 40
0.0
  9
$USERR5
 40
0.0
  9
$WORLDVIEW
 70
     1
  9
$SHADEDGE
 70
     3
  9
$SHADEDIF
 70
    70
  9
$TILEMODE
 70
     1
  9
$MAXACTVP
 70
    16
  9
$PLIMCHECK
 70
     0
  9
$PEXTMIN
 10
1.049999952316284
 20
0.7999999523162842
 30
0.0
  9
$PEXTMAX
 10
9.4499995708465558
 20
7.1999995708465558
 30
0.0
  9
$PLIMMIN
 10
-0.2500002402958907
 20
-0.2499999962453767
  9
$PLIMMAX
 10
10.74999951940821
 20
8.2499997634587316
  9
$UNITMODE
 70
     0
  9
$VISRETAIN
 70
     0
  9
$PLINEGEN
 70
     0
  9
$PSLTSCALE
 70
     1
  0
ENDSEC
  0
SECTION
  2
TABLES
  0
TABLE
  2
VPORT
 70
     4
  0
VPORT
  2
*ACTIVE
 70
     0
 10
0.0
 20
0.0
 11
1.0
 21
1.0
 12
2046.559917178078
 22
403394.09619462339
 13
0.0
 23
0.0
 14
1.0
 24
1.0
 15
1.0
 25
1.0
 16
0.0
 26
0.0
 36
1.0
 17
0.0
 27
0.0
 37
0.0
 40
62937.253009117732
 41
1.6116303219106951
 42
50.0
 43
0.0
 44
0.0
 50
0.0
 51
0.0
 71
     0
 72
   100
 73
     1
 74
     0
 75
     0
 76
     1
 77
     0
 78
     0
  0
ENDTAB
  0
TABLE
  2
LTYPE
 70
     3
  0
LTYPE
  2
CONTINUOUS
 70
     0
  3
Solid line
 72
    65
 73
     0
 40
0.0
  0
LTYPE
  2
ČERCHOVANÁ
 70
     0
  3
Čerchovaná __ . __ . __ . __ . __ . __ . __ . _
 72
    65
 73
     4
 40
1.0
 49
0.5
 49
-0.25
 49
0.0
 49
-0.25
  0
ENDTAB
  0
TABLE
  2
LAYER
 70
    13
  0
LAYER
  2
0
 70
     0
 62
     7
  6
CONTINUOUS
  0
LAYER
  2
RAZ
 70
     0
 62
     7
  6
CONTINUOUS
  0
LAYER
  2
KOTY
 70
     0
 62
     2
  6
CONTINUOUS
  0
LAYER
  2
DEFPOINTS
 70
     0
 62
     7
  6
CONTINUOUS
  0
LAYER
  2
2-VZT
 70
     0
 62
     4
  6
CONTINUOUS
  0
LAYER
  2
OBRYS
 70
     0
 62
     7
  6
CONTINUOUS
  0
LAYER
  2
S-OBRYS
 70
     0
 62
     7
  6
CONTINUOUS
  0
ENDTAB
  0
TABLE
  2
STYLE
 70
     9
  0
STYLE
  2
STANDARD
 70
     0
 40
0.0
 41
0.8
 50
0.0
 71
     0
 42
200.0
  3
ROMANS.SHX
  4

  0
STYLE
  2
R
 70
     0
 40
0.0
 41
1.0
 50
0.0
 71
     0
 42
200.0
  3
romans.shx
  4

  0
STYLE
  2
ROMANS
 70
     0
 40
0.0
 41
0.8
 50
0.0
 71
     0
 42
300.0
  3
ROMANS.shx
  4

  0
STYLE
  2
R08
 70
     0
 40
0.0
 41
0.8
 50
0.0
 71
     0
 42
800.0
  3
ROMANS.shx
  4

  0
STYLE
  2
ROMANT
 70
     0
 40
0.0
 41
0.7
 50
0.0
 71
     0
 42
3.0
  3
romant
  4

  0
STYLE
  2
CYRILLIC
 70
     0
 40
2.2999999999999989
 41
0.7
 50
0.0
 71
     0
 42
2.2999999999999989
  3
cyrillic
  4

  0
STYLE
  2
STYLE1
 70
     0
 40
0.0
 41
1.0
 50
0.0
 71
     0
 42
3.5
  3
romanc.shx
  4

  0
ENDTAB
  0
TABLE
  2
VIEW
 70
     0
  0
ENDTAB
  0
TABLE
  2
UCS
 70
     0
  0
ENDTAB
  0
TABLE
  2
APPID
 70
     6
  0
APPID
  2
ACAD
 70
     0
  0
APPID
  2
PHOENIX7010
 70
     0
  0
APPID
  2
CONTENTBLOCKICON
 70
     0
  0
APPID
  2
CONTENTLONGBLOCKNAME
 70
     0
  0
APPID
  2
ACAD_DSTYLE_DIMTEXT_FILL
 70
     0
  0
APPID
  2
DCO15
 70
     0
  0
ENDTAB
  0
TABLE
  2
DIMSTYLE
 70
     5
  0
DIMSTYLE
  2
STANDARD
 70
     0
  3

  4

  5

  6
OPEN
  7
OPEN
 40
1.0
 41
80.0
 42
1.0
 43
0.0
 44
1.0
 45
0.0
 46
0.8
 47
0.0
 48
0.0
140
70.0
141
-3.0
142
0.0
143
0.0394
144
1.0
145
1.0
146
0.5
147
1.0
 71
     0
 72
     0
 73
     0
 74
     0
 75
     0
 76
     0
 77
     0
 78
     8
170
     0
171
     2
172
     1
173
     1
174
     0
175
     0
176
     7
177
     7
178
     2
  0
DIMSTYLE
  2
EMBABA
 70
     0
  3

  4

  5

  6
OPEN
  7
OPEN
 40
50.0
 41
2.0
 42
0.063
 43
5.0
 44
0.2
 45
0.0
 46
0.0
 47
0.0
 48
0.0
140
2.5
141
2.0
142
0.0
143
25.399999999999999
144
1.0
145
0.0
146
1.0
147
0.5
 71
     0
 72
     0
 73
     0
 74
     0
 75
     0
 76
     0
 77
     1
 78
    12
170
     0
171
     2
172
     1
173
     1
174
     0
175
     0
176
     0
177
     0
178
     7
  0
ENDTAB
  0
ENDSEC
  0
SECTION
  2
BLOCKS
  0
BLOCK
  8
0
  2
$MODEL_SPACE
 70
     0
 10
0.0
 20
0.0
 30
0.0
  3
$MODEL_SPACE
  1

  0
ENDBLK
  5
9
  8
0
  0
BLOCK
 67
     1
  8
0
  2
$PAPER_SPACE
 70
     0
 10
0.0
 20
0.0
 30
0.0
  3
$PAPER_SPACE
  1

  0
ENDBLK
  5
E
 67
     1
  8
0
  0
BLOCK
  8
0
  2
_OPEN
 70
     0
 10
0.0
 20
0.0
 30
0.0
  3
_OPEN
  1

  0
LINE
  5
28
  8
0
  6
BYBLOCK
 62
     0
 10
-1.0
 20
0.1666666666666666
 30
0.0
 11
0.0
 21
0.0
 31
0.0
  0
LINE
  5
29
  8
0
  6
BYBLOCK
 62
     0
 10
0.0
 20
0.0
 30
0.0
 11
-1.0
 21
-0.1666666666666666
 31
0.0
  0
LINE
  5
2A
  8
0
  6
BYBLOCK
 62
     0
 10
0.0
 20
0.0
 30
0.0
 11
-1.0
 21
0.0
 31
0.0
  0
ENDBLK
  5
2C
  8
0
  0
BLOCK
  8
0
  2
_CLOSEDBLANK
 70
     0
 10
0.0
 20
0.0
 30
0.0
  3
_CLOSEDBLANK
  1

  0
LINE
  5
642B9
  8
0
  6
BYBLOCK
 62
     0
 10
-1.0
 20
0.1666666666666666
 30
0.0
 11
0.0
 21
0.0
 31
0.0
  0
LINE
  5
642BA
  8
0
  6
BYBLOCK
 62
     0
 10
0.0
 20
0.0
 30
0.0
 11
-1.0
 21
-0.1666666666666666
 31
0.0
  0
LINE
  5
642BB
  8
0
  6
BYBLOCK
 62
     0
 10
-1.0
 20
0.1666666666666666
 30
0.0
 11
-1.0
 21
-0.1666666666666666
 31
0.0
  0
ENDBLK
  5
642BC
  8
0
  0
BLOCK
  8
0
  2
*D36
 70
     1
 10
0.0
 20
0.0
 30
0.0
  3
*D36
  1

  0
LINE
  5
6983C
  8
S-OBRYS
  6
CONTINUOUS
 62
     0
 10
19069.91882885111
 20
405735.35196799308
 30
0.0
 11
19069.91882885111
 21
405946.6685181596
 31
0.0
  0
LINE
  5
6983D
  8
S-OBRYS
  6
CONTINUOUS
 62
     0
 10
21069.91882885111
 20
405710.5685181595
 30
0.0
 11
21069.91882885111
 21
405946.6685181596
 31
0.0
  0
LINE
  5
6983E
  8
S-OBRYS
  6
CONTINUOUS
 62
     0
 10
19169.91882885111
 20
405936.6685181596
 30
0.0
 11
20969.91882885111
 21
405936.6685181596
 31
0.0
  0
INSERT
  5
6983F
  8
S-OBRYS
  6
CONTINUOUS
 62
     0
  2
_OPEN
 10
19069.91882885111
 20
405936.6685181596
 30
0.0
 41
100.0
 42
100.0
 43
100.0
 50
180.0
  0
INSERT
  5
69840
  8
S-OBRYS
  6
CONTINUOUS
 62
     0
  2
_OPEN
 10
21069.91882885111
 20
405936.6685181596
 30
0.0
 41
100.0
 42
100.0
 43
100.0
  0
INSERT
  5
69841
  8
S-OBRYS
  6
CONTINUOUS
  2
*U98
 10
0.0
 20
0.0
 30
0.0
  0
POINT
  5
69842
  8
DEFPOINTS
  6
CONTINUOUS
 62
     0
 10
19069.91882885111
 20
405732.20196799299
 30
0.0
  0
POINT
  5
69843
  8
DEFPOINTS
  6
CONTINUOUS
 62
     0
 10
21069.91882885111
 20
405707.4185181596
 30
0.0
  0
POINT
  5
69844
  8
DEFPOINTS
  6
CONTINUOUS
 62
     0
 10
21069.91882885111
 20
405936.6685181596
 30
0.0
  0
ENDBLK
  5
697C5
  8
0
  0
BLOCK
  8
0
  2
*D37
 70
     1
 10
0.0
 20
0.0
 30
0.0
  3
*D37
  1

  0
LINE
  5
6984E
  8
S-OBRYS
  6
CONTINUOUS
 62
     0
 10
21069.91882885111
 20
405735.35196799308
 30
0.0
 11
21069.91882885111
 21
405946.4185181596
 31
0.0
  0
LINE
  5
6984F
  8
S-OBRYS
  6
CONTINUOUS
 62
     0
 10
23569.91537108276
 20
405717.70894889737
 30
0.0
 11
23569.91537108276
 21
405946.4185181596
 31
0.0
  0
LINE
  5
69850
  8
S-OBRYS
  6
CONTINUOUS
 62
     0
 10
21169.91882885111
 20
405936.41851815948
 30
0.0
 11
23469.91537108276
 21
405936.41851815948
 31
0.0
  0
INSERT
  5
69851
  8
S-OBRYS
  6
CONTINUOUS
 62
     0
  2
_OPEN
 10
21069.91882885111
 20
405936.41851815948
 30
0.0
 41
100.0
 42
100.0
 43
100.0
 50
180.0
  0
INSERT
  5
69852
  8
S-OBRYS
  6
CONTINUOUS
 62
     0
  2
_OPEN
 10
23569.91537108276
 20
405936.41851815948
 30
0.0
 41
100.0
 42
100.0
 43
100.0
  0
INSERT
  5
69853
  8
S-OBRYS
  6
CONTINUOUS
  2
*U100
 10
0.0
 20
0.0
 30
0.0
  0
POINT
  5
69854
  8
DEFPOINTS
  6
CONTINUOUS
 62
     0
 10
21069.91882885111
 20
405732.20196799299
 30
0.0
  0
POINT
  5
69855
  8
DEFPOINTS
  6
CONTINUOUS
 62
     0
 10
23569.91537108276
 20
405714.55894889741
 30
0.0
  0
POINT
  5
69856
  8
DEFPOINTS
  6
CONTINUOUS
 62
     0
 10
23569.91537108276
 20
405936.41851815948
 30
0.0
  0
ENDBLK
  5
697D1
  8
0
  0
BLOCK
  8
0
  2
*D38
 70
     1
 10
0.0
 20
0.0
 30
0.0
  3
*D38
  1

  0
LINE
  5
69857
  8
S-OBRYS
  6
CONTINUOUS
 62
     0
 10
23569.91727293278
 20
405704.56867703068
 30
0.0
 11
23569.91727293278
 21
405945.6685181596
 31
0.0
  0
LINE
  5
69858
  8
S-OBRYS
  6
CONTINUOUS
 62
     0
 10
24362.924871465071
 20
405704.56867703068
 30
0.0
 11
24362.924871465071
 21
405945.6685181596
 31
0.0
  0
LINE
  5
69859
  8
S-OBRYS
  6
CONTINUOUS
 62
     0
 10
23669.91727293278
 20
405935.6685181596
 30
0.0
 11
24262.924871465071
 21
405935.6685181596
 31
0.0
  0
INSERT
  5
6985A
  8
S-OBRYS
  6
CONTINUOUS
 62
     0
  2
_OPEN
 10
23569.91727293278
 20
405935.6685181596
 30
0.0
 41
100.0
 42
100.0
 43
100.0
 50
180.0
  0
INSERT
  5
6985B
  8
S-OBRYS
  6
CONTINUOUS
 62
     0
  2
_OPEN
 10
24362.924871465071
 20
405935.6685181596
 30
0.0
 41
100.0
 42
100.0
 43
100.0
  0
INSERT
  5
6985C
  8
S-OBRYS
  6
CONTINUOUS
  2
*U101
 10
0.0
 20
0.0
 30
0.0
  0
POINT
  5
6985D
  8
DEFPOINTS
  6
CONTINUOUS
 62
     0
 10
23569.91727293278
 20
405701.4186770306
 30
0.0
  0
POINT
  5
6985E
  8
DEFPOINTS
  6
CONTINUOUS
 62
     0
 10
24362.924871465071
 20
405701.4186770306
 30
0.0
  0
POINT
  5
6985F
  8
DEFPOINTS
  6
CONTINUOUS
 62
     0
 10
24362.924871465071
 20
405935.6685181596
 30
0.0
  0
ENDBLK
  5
697DD
  8
0
  0
BLOCK
  8
0
  2
*D39
 70
     1
 10
0.0
 20
0.0
 30
0.0
  3
*D39
  1

  0
LINE
  5
6987F
  8
S-OBRYS
  6
CONTINUOUS
 62
     0
 10
20306.40329258651
 20
398747.57679294882
 30
0.0
 11
20306.40329258651
 21
398895.72702515899
 31
0.0
  0
LINE
  5
69880
  8
S-OBRYS
  6
CONTINUOUS
 62
     0
 10
20631.40329258651
 20
398747.57679294882
 30
0.0
 11
20631.40329258651
 21
398895.72702515899
 31
0.0
  0
LINE
  5
69881
  8
S-OBRYS
  6
CONTINUOUS
 62
     0
 10
20406.40329258651
 20
398885.72702515888
 30
0.0
 11
20531.40329258651
 21
398885.72702515888
 31
0.0
  0
INSERT
  5
69882
  8
S-OBRYS
  6
CONTINUOUS
 62
     0
  2
_OPEN
 10
20306.40329258651
 20
398885.72702515888
 30
0.0
 41
100.0
 42
100.0
 43
100.0
 50
180.0
  0
INSERT
  5
69883
  8
S-OBRYS
  6
CONTINUOUS
 62
     0
  2
_OPEN
 10
20631.40329258651
 20
398885.72702515888
 30
0.0
 41
100.0
 42
100.0
 43
100.0
  0
INSERT
  5
69884
  8
S-OBRYS
  6
CONTINUOUS
  2
*U103
 10
0.0
 20
0.0
 30
0.0
  0
POINT
  5
69885
  8
DEFPOINTS
  6
CONTINUOUS
 62
     0
 10
20306.40329258651
 20
398744.4267929488
 30
0.0
  0
POINT
  5
69886
  8
DEFPOINTS
  6
CONTINUOUS
 62
     0
 10
20631.40329258651
 20
398744.4267929488
 30
0.0
  0
POINT
  5
69887
  8
DEFPOINTS
  6
CONTINUOUS
 62
     0
 10
20631.40329258651
 20
398885.72702515888
 30
0.0
  0
ENDBLK
  5
697E9
  8
0
  0
BLOCK
  8
0
  2
*D40
 70
     1
 10
0.0
 20
0.0
 30
0.0
  3
*D40
  1

  0
LINE
  5
69845
  8
S-OBRYS
  6
CONTINUOUS
 62
     0
 10
17070.021775803922
 20
405717.85196799302
 30
0.0
 11
17070.021775803922
 21
405947.01562238188
 31
0.0
  0
LINE
  5
69846
  8
S-OBRYS
  6
CONTINUOUS
 62
     0
 10
19069.91882885111
 20
405735.35196799308
 30
0.0
 11
19069.91882885111
 21
405947.01562238188
 31
0.0
  0
LINE
  5
69847
  8
S-OBRYS
  6
CONTINUOUS
 62
     0
 10
17170.021775803922
 20
405937.01562238199
 30
0.0
 11
18969.91882885111
 21
405937.01562238199
 31
0.0
  0
INSERT
  5
69848
  8
S-OBRYS
  6
CONTINUOUS
 62
     0
  2
_OPEN
 10
17070.021775803922
 20
405937.01562238199
 30
0.0
 41
100.0
 42
100.0
 43
100.0
 50
180.0
  0
INSERT
  5
69849
  8
S-OBRYS
  6
CONTINUOUS
 62
     0
  2
_OPEN
 10
19069.91882885111
 20
405937.01562238199
 30
0.0
 41
100.0
 42
100.0
 43
100.0
  0
INSERT
  5
6984A
  8
S-OBRYS
  6
CONTINUOUS
  2
*U99
 10
0.0
 20
0.0
 30
0.0
  0
POINT
  5
6984B
  8
DEFPOINTS
  6
CONTINUOUS
 62
     0
 10
17070.021775803922
 20
405714.70196799299
 30
0.0
  0
POINT
  5
6984C
  8
DEFPOINTS
  6
CONTINUOUS
 62
     0
 10
19069.91882885111
 20
405732.20196799299
 30
0.0
  0
POINT
  5
6984D
  8
DEFPOINTS
  6
CONTINUOUS
 62
     0
 10
19069.91882885111
 20
405937.01562238199
 30
0.0
  0
ENDBLK
  5
697F5
  8
0
  0
BLOCK
  8
0
  2
*D41
 70
     1
 10
0.0
 20
0.0
 30
0.0
  3
*D41
  1

  0
LINE
  5
69874
  8
S-OBRYS
  6
CONTINUOUS
 62
     0
 10
18577.44605408291
 20
398743.61037197668
 30
0.0
 11
18577.44605408291
 21
398896.8977910002
 31
0.0
  0
LINE
  5
69875
  8
S-OBRYS
  6
CONTINUOUS
 62
     0
 10
18761.62031663951
 20
398743.61037197668
 30
0.0
 11
18761.62031663951
 21
398896.8977910002
 31
0.0
  0
LINE
  5
69876
  8
S-OBRYS
  6
CONTINUOUS
 62
     0
 10
18477.44605408291
 20
398886.8977910002
 30
0.0
 11
18377.44605408292
 21
398886.8977910002
 31
0.0
  0
LINE
  5
69877
  8
S-OBRYS
  6
CONTINUOUS
 62
     0
 10
18861.62031663951
 20
398886.8977910002
 30
0.0
 11
18961.62031663951
 21
398886.8977910002
 31
0.0
  0
LINE
  5
69878
  8
S-OBRYS
  6
CONTINUOUS
 62
     0
 10
18577.44605408291
 20
398886.8977910002
 30
0.0
 11
18761.62031663951
 21
398886.8977910002
 31
0.0
  0
INSERT
  5
69879
  8
S-OBRYS
  6
CONTINUOUS
 62
     0
  2
_OPEN
 10
18577.44605408291
 20
398886.8977910002
 30
0.0
 41
100.0
 42
100.0
 43
100.0
  0
INSERT
  5
6987A
  8
S-OBRYS
  6
CONTINUOUS
 62
     0
  2
_OPEN
 10
18761.62031663951
 20
398886.8977910002
 30
0.0
 41
100.0
 42
100.0
 43
100.0
 50
180.0
  0
INSERT
  5
6987B
  8
S-OBRYS
  6
CONTINUOUS
  2
*U102
 10
0.0
 20
0.0
 30
0.0
  0
POINT
  5
6987C
  8
DEFPOINTS
  6
CONTINUOUS
 62
     0
 10
18577.44605408291
 20
398740.46037197672
 30
0.0
  0
POINT
  5
6987D
  8
DEFPOINTS
  6
CONTINUOUS
 62
     0
 10
18761.62031663951
 20
398740.46037197672
 30
0.0
  0
POINT
  5
6987E
  8
DEFPOINTS
  6
CONTINUOUS
 62
     0
 10
18761.62031663951
 20
398886.8977910002
 30
0.0
  0
ENDBLK
  5
69803
  8
0
  0
BLOCK
  8
0
  2
*D42
 70
     1
 10
0.0
 20
0.0
 30
0.0
  3
*D42
  1

  0
LINE
  5
69ABB
  8
S-OBRYS
  6
CONTINUOUS
 62
     0
 10
19079.71411426325
 20
403485.5716834807
 30
0.0
 11
19079.71411426325
 21
403696.88823364727
 31
0.0
  0
LINE
  5
69ABC
  8
S-OBRYS
  6
CONTINUOUS
 62
     0
 10
21079.71411426325
 20
403460.7882336473
 30
0.0
 11
21079.71411426325
 21
403696.88823364727
 31
0.0
  0
LINE
  5
69ABD
  8
S-OBRYS
  6
CONTINUOUS
 62
     0
 10
19179.71411426325
 20
403686.88823364727
 30
0.0
 11
20979.71411426325
 21
403686.88823364727
 31
0.0
  0
INSERT
  5
69ABE
  8
S-OBRYS
  6
CONTINUOUS
 62
     0
  2
_OPEN
 10
19079.71411426325
 20
403686.88823364727
 30
0.0
 41
100.0
 42
100.0
 43
100.0
 50
180.0
  0
INSERT
  5
69ABF
  8
S-OBRYS
  6
CONTINUOUS
 62
     0
  2
_OPEN
 10
21079.71411426325
 20
403686.88823364727
 30
0.0
 41
100.0
 42
100.0
 43
100.0
  0
INSERT
  5
69AC0
  8
S-OBRYS
  6
CONTINUOUS
  2
*U104
 10
0.0
 20
0.0
 30
0.0
  0
POINT
  5
69AC1
  8
DEFPOINTS
  6
CONTINUOUS
 62
     0
 10
19079.71411426325
 20
403482.42168348067
 30
0.0
  0
POINT
  5
69AC2
  8
DEFPOINTS
  6
CONTINUOUS
 62
     0
 10
21079.71411426325
 20
403457.63823364727
 30
0.0
  0
POINT
  5
69AC3
  8
DEFPOINTS
  6
CONTINUOUS
 62
     0
 10
21079.71411426325
 20
403686.88823364727
 30
0.0
  0
ENDBLK
  5
69A7B
  8
0
  0
BLOCK
  8
0
  2
*D43
 70
     1
 10
0.0
 20
0.0
 30
0.0
  3
*D43
  1

  0
LINE
  5
69AC4
  8
S-OBRYS
  6
CONTINUOUS
 62
     0
 10
17079.817061216061
 20
403468.0716834807
 30
0.0
 11
17079.817061216061
 21
403697.23533786961
 31
0.0
  0
LINE
  5
69AC5
  8
S-OBRYS
  6
CONTINUOUS
 62
     0
 10
19079.71411426325
 20
403485.5716834807
 30
0.0
 11
19079.71411426325
 21
403697.23533786961
 31
0.0
  0
LINE
  5
69AC6
  8
S-OBRYS
  6
CONTINUOUS
 62
     0
 10
17179.817061216061
 20
403687.23533786961
 30
0.0
 11
18979.71411426325
 21
403687.23533786961
 31
0.0
  0
INSERT
  5
69AC7
  8
S-OBRYS
  6
CONTINUOUS
 62
     0
  2
_OPEN
 10
17079.817061216061
 20
403687.23533786961
 30
0.0
 41
100.0
 42
100.0
 43
100.0
 50
180.0
  0
INSERT
  5
69AC8
  8
S-OBRYS
  6
CONTINUOUS
 62
     0
  2
_OPEN
 10
19079.71411426325
 20
403687.23533786961
 30
0.0
 41
100.0
 42
100.0
 43
100.0
  0
INSERT
  5
69AC9
  8
S-OBRYS
  6
CONTINUOUS
  2
*U105
 10
0.0
 20
0.0
 30
0.0
  0
POINT
  5
69ACA
  8
DEFPOINTS
  6
CONTINUOUS
 62
     0
 10
17079.817061216061
 20
403464.92168348061
 30
0.0
  0
POINT
  5
69ACB
  8
DEFPOINTS
  6
CONTINUOUS
 62
     0
 10
19079.71411426325
 20
403482.42168348067
 30
0.0
  0
POINT
  5
69ACC
  8
DEFPOINTS
  6
CONTINUOUS
 62
     0
 10
19079.71411426325
 20
403687.23533786961
 30
0.0
  0
ENDBLK
  5
69A87
  8
0
  0
BLOCK
  8
0
  2
*D44
 70
     1
 10
0.0
 20
0.0
 30
0.0
  3
*D44
  1

  0
LINE
  5
69ACD
  8
S-OBRYS
  6
CONTINUOUS
 62
     0
 10
21079.71411426325
 20
403485.5716834807
 30
0.0
 11
21079.71411426325
 21
403696.63823364727
 31
0.0
  0
LINE
  5
69ACE
  8
S-OBRYS
  6
CONTINUOUS
 62
     0
 10
23579.710656494892
 20
403467.92866438511
 30
0.0
 11
23579.710656494892
 21
403696.63823364727
 31
0.0
  0
LINE
  5
69ACF
  8
S-OBRYS
  6
CONTINUOUS
 62
     0
 10
21179.71411426325
 20
403686.63823364722
 30
0.0
 11
23479.710656494899
 21
403686.63823364722
 31
0.0
  0
INSERT
  5
69AD0
  8
S-OBRYS
  6
CONTINUOUS
 62
     0
  2
_OPEN
 10
21079.71411426325
 20
403686.63823364722
 30
0.0
 41
100.0
 42
100.0
 43
100.0
 50
180.0
  0
INSERT
  5
69AD1
  8
S-OBRYS
  6
CONTINUOUS
 62
     0
  2
_OPEN
 10
23579.710656494892
 20
403686.63823364722
 30
0.0
 41
100.0
 42
100.0
 43
100.0
  0
INSERT
  5
69AD2
  8
S-OBRYS
  6
CONTINUOUS
  2
*U106
 10
0.0
 20
0.0
 30
0.0
  0
POINT
  5
69AD3
  8
DEFPOINTS
  6
CONTINUOUS
 62
     0
 10
21079.71411426325
 20
403482.42168348067
 30
0.0
  0
POINT
  5
69AD4
  8
DEFPOINTS
  6
CONTINUOUS
 62
     0
 10
23579.710656494892
 20
403464.77866438508
 30
0.0
  0
POINT
  5
69AD5
  8
DEFPOINTS
  6
CONTINUOUS
 62
     0
 10
23579.710656494892
 20
403686.63823364722
 30
0.0
  0
ENDBLK
  5
69A93
  8
0
  0
BLOCK
  8
0
  2
*D45
 70
     1
 10
0.0
 20
0.0
 30
0.0
  3
*D45
  1

  0
LINE
  5
69AD6
  8
S-OBRYS
  6
CONTINUOUS
 62
     0
 10
23579.71255834492
 20
403454.78839251841
 30
0.0
 11
23579.71255834492
 21
403695.88823364727
 31
0.0
  0
LINE
  5
69AD7
  8
S-OBRYS
  6
CONTINUOUS
 62
     0
 10
24372.720156877211
 20
403454.78839251841
 30
0.0
 11
24372.720156877211
 21
403695.88823364727
 31
0.0
  0
LINE
  5
69AD8
  8
S-OBRYS
  6
CONTINUOUS
 62
     0
 10
23679.71255834492
 20
403685.88823364727
 30
0.0
 11
24272.720156877211
 21
403685.88823364727
 31
0.0
  0
INSERT
  5
69AD9
  8
S-OBRYS
  6
CONTINUOUS
 62
     0
  2
_OPEN
 10
23579.71255834492
 20
403685.88823364727
 30
0.0
 41
100.0
 42
100.0
 43
100.0
 50
180.0
  0
INSERT
  5
69ADA
  8
S-OBRYS
  6
CONTINUOUS
 62
     0
  2
_OPEN
 10
24372.720156877211
 20
403685.88823364727
 30
0.0
 41
100.0
 42
100.0
 43
100.0
  0
INSERT
  5
69ADB
  8
S-OBRYS
  6
CONTINUOUS
  2
*U107
 10
0.0
 20
0.0
 30
0.0
  0
POINT
  5
69ADC
  8
DEFPOINTS
  6
CONTINUOUS
 62
     0
 10
23579.71255834492
 20
403451.63839251827
 30
0.0
  0
POINT
  5
69ADD
  8
DEFPOINTS
  6
CONTINUOUS
 62
     0
 10
24372.720156877211
 20
403451.63839251827
 30
0.0
  0
POINT
  5
69ADE
  8
DEFPOINTS
  6
CONTINUOUS
 62
     0
 10
24372.720156877211
 20
403685.88823364727
 30
0.0
  0
ENDBLK
  5
69A9F
  8
0
  0
BLOCK
  8
0
  2
*D46
 70
     1
 10
0.0
 20
0.0
 30
0.0
  3
*D46
  1

  0
LINE
  5
69ADF
  8
S-OBRYS
  6
CONTINUOUS
 62
     0
 10
17003.696311638501
 20
403369.6253649256
 30
0.0
 11
17003.696311638501
 21
404008.17993884051
 31
0.0
  0
LINE
  5
69AE0
  8
S-OBRYS
  6
CONTINUOUS
 62
     0
 10
16803.696311638501
 20
403369.6253649256
 30
0.0
 11
16803.696311638501
 21
404008.17993884051
 31
0.0
  0
LINE
  5
69AE1
  8
S-OBRYS
  6
CONTINUOUS
 62
     0
 10
17103.696311638501
 20
403998.17993884062
 30
0.0
 11
17203.696311638501
 21
403998.17993884062
 31
0.0
  0
LINE
  5
69AE2
  8
S-OBRYS
  6
CONTINUOUS
 62
     0
 10
16703.696311638501
 20
403998.17993884062
 30
0.0
 11
15996.553454495641
 21
403998.17993884062
 31
0.0
  0
LINE
  5
69AE3
  8
S-OBRYS
  6
CONTINUOUS
 62
     0
 10
17003.696311638501
 20
403998.17993884062
 30
0.0
 11
16803.696311638501
 21
403998.17993884062
 31
0.0
  0
INSERT
  5
69AE4
  8
S-OBRYS
  6
CONTINUOUS
 62
     0
  2
_OPEN
 10
17003.696311638501
 20
403998.17993884062
 30
0.0
 41
100.0
 42
100.0
 43
100.0
 50
180.0
  0
INSERT
  5
69AE5
  8
S-OBRYS
  6
CONTINUOUS
 62
     0
  2
_OPEN
 10
16803.696311638501
 20
403998.17993884062
 30
0.0
 41
100.0
 42
100.0
 43
100.0
  0
INSERT
  5
69AE6
  8
S-OBRYS
  6
CONTINUOUS
  2
*U108
 10
0.0
 20
0.0
 30
0.0
  0
POINT
  5
69AE7
  8
DEFPOINTS
  6
CONTINUOUS
 62
     0
 10
17003.696311638501
 20
403366.47536492551
 30
0.0
  0
POINT
  5
69AE8
  8
DEFPOINTS
  6
CONTINUOUS
 62
     0
 10
16803.696311638501
 20
403366.47536492551
 30
0.0
  0
POINT
  5
69AE9
  8
DEFPOINTS
  6
CONTINUOUS
 62
     0
 10
16803.696311638501
 20
403998.17993884062
 30
0.0
  0
ENDBLK
  5
69AAD
  8
0
  0
BLOCK
  8
0
  2
*D47
 70
     1
 10
0.0
 20
0.0
 30
0.0
  3
*D47
  1

  0
LINE
  5
69AEA
  8
S-OBRYS
  6
CONTINUOUS
 62
     0
 10
24372.720156877211
 20
403614.89336555533
 30
0.0
 11
24372.720156877211
 21
404013.71655791829
 31
0.0
  0
LINE
  5
69AEB
  8
S-OBRYS
  6
CONTINUOUS
 62
     0
 10
24772.720156877211
 20
403614.89336555533
 30
0.0
 11
24772.720156877211
 21
404013.71655791829
 31
0.0
  0
LINE
  5
69AEC
  8
S-OBRYS
  6
CONTINUOUS
 62
     0
 10
24472.720156877211
 20
404003.71655791841
 30
0.0
 11
24672.720156877211
 21
404003.71655791841
 31
0.0
  0
LINE
  5
69AED
  8
S-OBRYS
  6
CONTINUOUS
 62
     0
 10
24772.720156877211
 20
404003.71655791841
 30
0.0
 11
25479.863014020069
 21
404003.71655791841
 31
0.0
  0
INSERT
  5
69AEE
  8
S-OBRYS
  6
CONTINUOUS
 62
     0
  2
_OPEN
 10
24372.720156877211
 20
404003.71655791841
 30
0.0
 41
100.0
 42
100.0
 43
100.0
 50
180.0
  0
INSERT
  5
69AEF
  8
S-OBRYS
  6
CONTINUOUS
 62
     0
  2
_OPEN
 10
24772.720156877211
 20
404003.71655791841
 30
0.0
 41
100.0
 42
100.0
 43
100.0
  0
INSERT
  5
69AF0
  8
S-OBRYS
  6
CONTINUOUS
  2
*U109
 10
0.0
 20
0.0
 30
0.0
  0
POINT
  5
69AF1
  8
DEFPOINTS
  6
CONTINUOUS
 62
     0
 10
24372.720156877211
 20
403611.74336555542
 30
0.0
  0
POINT
  5
69AF2
  8
DEFPOINTS
  6
CONTINUOUS
 62
     0
 10
24772.720156877211
 20
403611.74336555542
 30
0.0
  0
POINT
  5
69AF3
  8
DEFPOINTS
  6
CONTINUOUS
 62
     0
 10
24772.720156877211
 20
404003.71655791841
 30
0.0
  0
ENDBLK
  5
69ABA
  8
0
  0
BLOCK
  8
0
  2
*U48
 70
     1
 10
0.0
 20
0.0
 30
0.0
  3
*U48
  1

  0
TEXT
  5
69CBC
  8
S-OBRYS
  6
CONTINUOUS
 62
     7
 10
-6456.5840162711656
 20
405195.81617279048
 30
0.0
 40
125.0
  1
2000
 41
0.8
  0
ENDBLK
  5
69CBE
  8
0
  0
BLOCK
  8
0
  2
*U49
 70
     1
 10
0.0
 20
0.0
 30
0.0
  3
*U49
  1

  0
TEXT
  5
69CC0
  8
S-OBRYS
  6
CONTINUOUS
 62
     7
 10
-512.51419878071079
 20
405194.46906856808
 30
0.0
 40
125.0
  1
793
 41
0.8
  0
ENDBLK
  5
69CC2
  8
0
  0
BLOCK
  8
0
  2
*U50
 70
     1
 10
0.0
 20
0.0
 30
0.0
  3
*U50
  1

  0
TEXT
  5
69CC4
  8
S-OBRYS
  6
CONTINUOUS
 62
     7
 10
-2206.6372186317471
 20
405195.21906856808
 30
0.0
 40
125.0
  1
2500
 41
0.8
  0
ENDBLK
  5
69CC6
  8
0
  0
BLOCK
  8
0
  2
*U51
 70
     1
 10
0.0
 20
0.0
 30
0.0
  3
*U51
  1

  0
TEXT
  5
69CC8
  8
S-OBRYS
  6
CONTINUOUS
 62
     7
 10
-4456.6354897475676
 20
405195.4690685682
 30
0.0
 40
125.0
  1
2000
 41
0.8
  0
ENDBLK
  5
69CCA
  8
0
  0
BLOCK
  8
0
  2
*U52
 70
     1
 10
0.0
 20
0.0
 30
0.0
  3
*U52
  1

  0
TEXT
  5
69CCC
  8
S-OBRYS
  6
CONTINUOUS
 62
     7
 10
-4010.0319783931268
 20
400906.03797125141
 30
0.0
 40
125.0
  1
325
 41
0.8
  0
ENDBLK
  5
69CCE
  8
0
  0
BLOCK
  8
0
  2
*U53
 70
     1
 10
0.0
 20
0.0
 30
0.0
  3
*U53
  1

  0
TEXT
  5
69CD0
  8
S-OBRYS
  6
CONTINUOUS
 62
     7
 10
-5816.5449427612766
 20
400907.20873709267
 30
0.0
 40
125.0
  1
185
 41
0.8
  0
ENDBLK
  5
69CD2
  8
0
  0
BLOCK
  8
0
  2
*U54
 70
     1
 10
0.0
 20
0.0
 30
0.0
  3
*U54
  1

  0
TEXT
  5
69CD4
  8
S-OBRYS
  6
CONTINUOUS
 62
     7
 10
-17032.940432870979
 20
400906.03797125141
 30
0.0
 40
125.0
  1
325
 41
0.8
  0
ENDBLK
  5
69CD6
  8
0
  0
BLOCK
  8
0
  2
*U55
 70
     1
 10
0.0
 20
0.0
 30
0.0
  3
*U55
  1

  0
TEXT
  5
69CD8
  8
S-OBRYS
  6
CONTINUOUS
 62
     7
 10
-19479.492470749032
 20
405195.81617279048
 30
0.0
 40
125.0
  1
2000
 41
0.8
  0
ENDBLK
  5
69CDA
  8
0
  0
BLOCK
  8
0
  2
*U56
 70
     1
 10
0.0
 20
0.0
 30
0.0
  3
*U56
  1

  0
TEXT
  5
69CDC
  8
S-OBRYS
  6
CONTINUOUS
 62
     7
 10
-18839.453397239129
 20
400907.20873709267
 30
0.0
 40
125.0
  1
185
 41
0.8
  0
ENDBLK
  5
69CDE
  8
0
  0
BLOCK
  8
0
  2
*U57
 70
     1
 10
0.0
 20
0.0
 30
0.0
  3
*U57
  1

  0
TEXT
  5
69CE0
  8
S-OBRYS
  6
CONTINUOUS
 62
     7
 10
-17479.543944225428
 20
405195.4690685682
 30
0.0
 40
125.0
  1
2000
 41
0.8
  0
ENDBLK
  5
69CE2
  8
0
  0
BLOCK
  8
0
  2
*U58
 70
     1
 10
0.0
 20
0.0
 30
0.0
  3
*U58
  1

  0
TEXT
  5
69CE4
  8
S-OBRYS
  6
CONTINUOUS
 62
     7
 10
-15229.545673109609
 20
405195.21906856808
 30
0.0
 40
125.0
  1
2500
 41
0.8
  0
ENDBLK
  5
69CE6
  8
0
  0
BLOCK
  8
0
  2
*U59
 70
     1
 10
0.0
 20
0.0
 30
0.0
  3
*U59
  1

  0
TEXT
  5
69CE8
  8
S-OBRYS
  6
CONTINUOUS
 62
     7
 10
-13535.422653258571
 20
405194.46906856808
 30
0.0
 40
125.0
  1
793
 41
0.8
  0
ENDBLK
  5
69CEA
  8
0
  0
BLOCK
  8
0
  2
*U60
 70
     1
 10
0.0
 20
0.0
 30
0.0
  3
*U60
  1

  0
TEXT
  5
69CEC
  8
S-OBRYS
  6
CONTINUOUS
 62
     7
 10
8458.4834924102106
 20
401316.70577227691
 30
0.0
 40
125.0
  1
2000
 41
0.8
  0
ENDBLK
  5
69CEE
  8
0
  0
BLOCK
  8
0
  2
*U61
 70
     1
 10
0.0
 20
0.0
 30
0.0
  3
*U61
  1

  0
TEXT
  5
69CF0
  8
S-OBRYS
  6
CONTINUOUS
 62
     7
 10
5518.5319483680942
 20
400819.43576069799
 30
0.0
 40
125.0
  1
448
 50
90.0
 41
0.8
  0
ENDBLK
  5
69CF2
  8
0
  0
BLOCK
  8
0
  2
*U62
 70
     1
 10
0.0
 20
0.0
 30
0.0
  3
*U62
  1

  0
TEXT
  5
69CF4
  8
S-OBRYS
  6
CONTINUOUS
 62
     7
 10
5696.3224191127374
 20
400083.99330893718
 30
0.0
 40
125.0
  1
253
 50
90.0
 41
0.8
  0
ENDBLK
  5
69CF6
  8
0
  0
BLOCK
  8
0
  2
*U63
 70
     1
 10
0.0
 20
0.0
 30
0.0
  3
*U63
  1

  0
TEXT
  5
69CF8
  8
S-OBRYS
  6
CONTINUOUS
 62
     7
 10
6458.4834924102106
 20
401316.62720204552
 30
0.0
 40
125.0
  1
2000
 41
0.8
  0
ENDBLK
  5
69CFA
  8
0
  0
BLOCK
  8
0
  2
*U64
 70
     1
 10
0.0
 20
0.0
 30
0.0
  3
*U64
  1

  0
TEXT
  5
69CFC
  8
S-OBRYS
  6
CONTINUOUS
 62
     7
 10
12492.0990822609
 20
401316.26595094689
 30
0.0
 40
125.0
  1
972
 41
0.8
  0
ENDBLK
  5
69CFE
  8
0
  0
BLOCK
  8
0
  2
*U65
 70
     1
 10
0.0
 20
0.0
 30
0.0
  3
*U65
  1

  0
TEXT
  5
69D00
  8
S-OBRYS
  6
CONTINUOUS
 62
     7
 10
10708.48176352603
 20
401316.45577227691
 30
0.0
 40
125.0
  1
2500
 41
0.8
  0
ENDBLK
  5
69D02
  8
0
  0
BLOCK
  8
0
  2
*U66
 70
     1
 10
0.0
 20
0.0
 30
0.0
  3
*U66
  1

  0
TEXT
  5
69D04
  8
S-OBRYS
  6
CONTINUOUS
 62
     7
 10
4568.8721536487246
 20
401647.73809670261
 30
0.0
 40
125.0
  1
MIN.200
 41
0.8
  0
ENDBLK
  5
69D06
  8
0
  0
BLOCK
  8
0
  2
*U67
 70
     1
 10
0.0
 20
0.0
 30
0.0
  3
*U67
  1

  0
TEXT
  5
69D08
  8
S-OBRYS
  6
CONTINUOUS
 62
     7
 10
13626.90860607043
 20
401653.53409654798
 30
0.0
 40
125.0
  1
MIN.400
 41
0.8
  0
ENDBLK
  5
69D0A
  8
0
  0
BLOCK
  8
0
  2
*U68
 70
     1
 10
0.0
 20
0.0
 30
0.0
  3
*U68
  1

  0
TEXT
  5
69D0C
  8
S-OBRYS
  6
CONTINUOUS
 62
     7
 10
8433.5953309556426
 20
397556.53256273433
 30
0.0
 40
125.0
  1
2000
 41
0.8
  0
ENDBLK
  5
69D0E
  8
0
  0
BLOCK
  8
0
  2
*U69
 70
     1
 10
0.0
 20
0.0
 30
0.0
  3
*U69
  1

  0
TEXT
  5
69D10
  8
S-OBRYS
  6
CONTINUOUS
 62
     7
 10
6620.3802007616096
 20
397553.13833107927
 30
0.0
 40
125.0
  1
2000
 41
0.8
  0
ENDBLK
  5
69D12
  8
0
  0
BLOCK
  8
0
  2
*U70
 70
     1
 10
0.0
 20
0.0
 30
0.0
  3
*U70
  1

  0
TEXT
  5
69D14
  8
S-OBRYS
  6
CONTINUOUS
 62
     7
 10
5490.0590989723951
 20
397850.98764224019
 30
0.0
 40
125.0
  1
533
 50
90.0
 41
0.8
  0
ENDBLK
  5
69D16
  8
0
  0
BLOCK
  8
0
  2
*U71
 70
     1
 10
0.0
 20
0.0
 30
0.0
  3
*U71
  1

  0
TEXT
  5
69D18
  8
S-OBRYS
  6
CONTINUOUS
 62
     7
 10
5489.1722709559263
 20
396114.17489168502
 30
0.0
 40
125.0
  1
303
 50
90.0
 41
0.8
  0
ENDBLK
  5
69D1A
  8
0
  0
BLOCK
  8
0
  2
*U72
 70
     1
 10
0.0
 20
0.0
 30
0.0
  3
*U72
  1

  0
TEXT
  5
69D1C
  8
S-OBRYS
  6
CONTINUOUS
 62
     7
 10
12487.54846586464
 20
397553.13833107927
 30
0.0
 40
125.0
  1
1053
 41
0.8
  0
ENDBLK
  5
69D1E
  8
0
  0
BLOCK
  8
0
  2
*U73
 70
     1
 10
0.0
 20
0.0
 30
0.0
  3
*U73
  1

  0
TEXT
  5
69D20
  8
S-OBRYS
  6
CONTINUOUS
 62
     7
 10
10710.437938585261
 20
397553.13833107927
 30
0.0
 40
125.0
  1
2500
 41
0.8
  0
ENDBLK
  5
69D22
  8
0
  0
BLOCK
  8
0
  2
*U74
 70
     1
 10
0.0
 20
0.0
 30
0.0
  3
*U74
  1

  0
TEXT
  5
69D24
  8
S-OBRYS
  6
CONTINUOUS
 62
     7
 10
4600.1722756982754
 20
397684.60749336681
 30
0.0
 40
125.0
  1
MIN.200
 41
0.8
  0
ENDBLK
  5
69D26
  8
0
  0
BLOCK
  8
0
  2
*U75
 70
     1
 10
0.0
 20
0.0
 30
0.0
  3
*U75
  1

  0
TEXT
  5
69D28
  8
S-OBRYS
  6
CONTINUOUS
 62
     7
 10
13739.20018101783
 20
397690.40349321213
 30
0.0
 40
125.0
  1
MIN.400
 41
0.8
  0
ENDBLK
  5
69D2A
  8
0
  0
BLOCK
  8
0
  2
*U76
 70
     1
 10
0.0
 20
0.0
 30
0.0
  3
*U76
  1

  0
TEXT
  5
69D2C
  8
S-OBRYS
  6
CONTINUOUS
 62
     7
 10
8599.3145364282682
 20
405387.94943616702
 30
0.0
 40
125.0
  1
2000
 41
0.8
  0
ENDBLK
  5
69D2E
  8
0
  0
BLOCK
  8
0
  2
*U77
 70
     1
 10
0.0
 20
0.0
 30
0.0
  3
*U77
  1

  0
TEXT
  5
69D30
  8
S-OBRYS
  6
CONTINUOUS
 62
     7
 10
6599.3660099046701
 20
405388.29654038942
 30
0.0
 40
125.0
  1
2000
 41
0.8
  0
ENDBLK
  5
69D32
  8
0
  0
BLOCK
  8
0
  2
*U78
 70
     1
 10
0.0
 20
0.0
 30
0.0
  3
*U78
  1

  0
TEXT
  5
69D34
  8
S-OBRYS
  6
CONTINUOUS
 62
     7
 10
10849.312807544091
 20
405387.69943616708
 30
0.0
 40
125.0
  1
2500
 41
0.8
  0
ENDBLK
  5
69D36
  8
0
  0
BLOCK
  8
0
  2
*U79
 70
     1
 10
0.0
 20
0.0
 30
0.0
  3
*U79
  1

  0
TEXT
  5
69D38
  8
S-OBRYS
  6
CONTINUOUS
 62
     7
 10
12543.43582739512
 20
405386.94943616702
 30
0.0
 40
125.0
  1
793
 41
0.8
  0
ENDBLK
  5
69D3A
  8
0
  0
BLOCK
  8
0
  2
*U80
 70
     1
 10
0.0
 20
0.0
 30
0.0
  3
*U80
  1

  0
TEXT
  5
69D3C
  8
S-OBRYS
  6
CONTINUOUS
 62
     7
 10
4712.5824480892297
 20
405699.24114136031
 30
0.0
 40
125.0
  1
MIN.200
 41
0.8
  0
ENDBLK
  5
69D3E
  8
0
  0
BLOCK
  8
0
  2
*U81
 70
     1
 10
0.0
 20
0.0
 30
0.0
  3
*U81
  1

  0
TEXT
  5
69D40
  8
S-OBRYS
  6
CONTINUOUS
 62
     7
 10
13588.74915047079
 20
405704.77776043798
 30
0.0
 40
125.0
  1
MIN.400
 41
0.8
  0
ENDBLK
  5
69D42
  8
0
  0
BLOCK
  8
0
  2
*U82
 70
     1
 10
0.0
 20
0.0
 30
0.0
  3
*U82
  1

  0
TEXT
  5
69D44
  8
OBRYS
  6
CONTINUOUS
 10
17194.461632526851
 20
406980.72254460119
 30
0.0
 40
400.0
  1
Dopravník šnekový DS 160
  7
R
  0
ENDBLK
  5
69D46
  8
0
  0
BLOCK
  8
0
  2
*U83
 70
     1
 10
0.0
 20
0.0
 30
0.0
  3
*U83
  1

  0
TEXT
  5
69D48
  8
S-OBRYS
  6
CONTINUOUS
 10
18561.050020473001
 20
396185.57189571997
 30
0.0
 40
100.0
  1
Pozn: Rozměr motoru s převodovkou (793) je uváděn 
  7
STYLE1
  0
TEXT
  5
69D49
  8
S-OBRYS
  6
CONTINUOUS
 10
18561.050020473001
 20
396018.9052290534
 30
0.0
 40
100.0
  1
největší možný u tohoto typu dopravníku
  7
STYLE1
  0
ENDBLK
  5
69D4B
  8
0
  0
BLOCK
  8
0
  2
*U84
 70
     1
 10
0.0
 20
0.0
 30
0.0
  3
*U84
  1

  0
TEXT
  5
69D4D
  8
S-OBRYS
  6
CONTINUOUS
 10
20432.453944456571
 20
396401.64659131807
 30
0.0
 40
100.0
  1
1500 mm
  7
STYLE1
  0
ENDBLK
  5
69D4F
  8
0
  0
BLOCK
  8
0
  2
*U85
 70
     1
 10
0.0
 20
0.0
 30
0.0
  3
*U85
  1

  0
TEXT
  5
69D51
  8
S-OBRYS
  6
CONTINUOUS
 10
20446.739658742292
 20
396595.80194818269
 30
0.0
 40
100.0
  1
2000 mm
  7
STYLE1
  0
ENDBLK
  5
69D53
  8
0
  0
BLOCK
  8
0
  2
*U86
 70
     1
 10
0.0
 20
0.0
 30
0.0
  3
*U86
  1

  0
TEXT
  5
69D55
  8
S-OBRYS
  6
CONTINUOUS
 10
20446.739658742292
 20
396789.9573050472
 30
0.0
 40
100.0
  1
3000 mm
  7
STYLE1
  0
ENDBLK
  5
69D57
  8
0
  0
BLOCK
  8
0
  2
*U87
 70
     1
 10
0.0
 20
0.0
 30
0.0
  3
*U87
  1

  0
TEXT
  5
69D5C
  8
S-OBRYS
  6
CONTINUOUS
 10
20347.56103646975
 20
397030.7099564643
 30
0.0
 40
100.0
  1
Středové díly
  7
STYLE1
  0
ENDBLK
  5
69D5E
  8
0
  0
BLOCK
  8
0
  2
*U88
 70
     1
 10
0.0
 20
0.0
 30
0.0
  3
*U88
  1

  0
TEXT
  5
69D66
  8
S-OBRYS
  6
CONTINUOUS
 10
18896.77117514177
 20
396393.88036813849
 30
0.0
 40
100.0
  1
2000 mm
  7
STYLE1
  0
ENDBLK
  5
69D68
  8
0
  0
BLOCK
  8
0
  2
*U89
 70
     1
 10
0.0
 20
0.0
 30
0.0
  3
*U89
  1

  0
TEXT
  5
69D6A
  8
S-OBRYS
  6
CONTINUOUS
 10
18896.77117514177
 20
396591.91883659287
 30
0.0
 40
100.0
  1
2500 mm
  7
STYLE1
  0
ENDBLK
  5
69D6C
  8
0
  0
BLOCK
  8
0
  2
*U90
 70
     1
 10
0.0
 20
0.0
 30
0.0
  3
*U90
  1

  0
TEXT
  5
69D6E
  8
S-OBRYS
  6
CONTINUOUS
 10
18896.77117514177
 20
396789.9573050472
 30
0.0
 40
100.0
  1
3000 mm
  7
STYLE1
  0
ENDBLK
  5
69D70
  8
0
  0
BLOCK
  8
0
  2
*U91
 70
     1
 10
0.0
 20
0.0
 30
0.0
  3
*U91
  1

  0
TEXT
  5
69D72
  8
S-OBRYS
  6
CONTINUOUS
 10
18765.769159184099
 20
397030.7099564643
 30
0.0
 40
100.0
  1
Poháněcí díly
  7
STYLE1
  0
ENDBLK
  5
69D74
  8
0
  0
BLOCK
  8
0
  2
*U92
 70
     1
 10
0.0
 20
0.0
 30
0.0
  3
*U92
  1

  0
TEXT
  5
69D79
  8
S-OBRYS
  6
CONTINUOUS
 10
21969.01689386287
 20
396789.9573050472
 30
0.0
 40
100.0
  1
3000 mm
  7
STYLE1
  0
ENDBLK
  5
69D7B
  8
0
  0
BLOCK
  8
0
  2
*U93
 70
     1
 10
0.0
 20
0.0
 30
0.0
  3
*U93
  1

  0
TEXT
  5
69D7D
  8
S-OBRYS
  6
CONTINUOUS
 10
21969.01689386287
 20
396595.80194818269
 30
0.0
 40
100.0
  1
2000 mm
  7
STYLE1
  0
ENDBLK
  5
69D7F
  8
0
  0
BLOCK
  8
0
  2
*U94
 70
     1
 10
0.0
 20
0.0
 30
0.0
  3
*U94
  1

  0
TEXT
  5
69D81
  8
S-OBRYS
  6
CONTINUOUS
 10
21954.73117957716
 20
396401.64659131807
 30
0.0
 40
100.0
  1
1500 mm
  7
STYLE1
  0
ENDBLK
  5
69D83
  8
0
  0
BLOCK
  8
0
  2
*U95
 70
     1
 10
0.0
 20
0.0
 30
0.0
  3
*U95
  1

  0
TEXT
  5
69D85
  8
S-OBRYS
  6
CONTINUOUS
 10
21891.498279380488
 20
397030.7099564643
 30
0.0
 40
100.0
  1
Koncové díly
  7
STYLE1
  0
ENDBLK
  5
69D87
  8
0
  0
BLOCK
  8
0
  2
*U96
 70
     1
 10
0.0
 20
0.0
 30
0.0
  3
*U96
  1

  0
TEXT
  5
69D89
  8
S-OBRYS
  6
CONTINUOUS
 10
22978.15041559808
 20
399120.59737399162
 30
0.0
 40
90.0
  1
Body vložení
 41
0.8
  0
ENDBLK
  5
69D8B
  8
0
  0
BLOCK
  8
0
  2
*U97
 70
     1
 10
0.0
 20
0.0
 30
0.0
  3
*U97
  1

  0
TEXT
  5
69D8D
  8
S-OBRYS
  6
CONTINUOUS
 10
18561.050020473001
 20
395790.72879463917
 30
0.0
 40
100.0
  1
Poháněcí díl s výpadem = 1500 mm
  7
STYLE1
  0
ENDBLK
  5
69D8F
  8
0
  0
BLOCK
  8
0
  2
*U98
 70
     1
 10
0.0
 20
0.0
 30
0.0
  3
*U98
  1

  0
TEXT
  5
69D91
  8
S-OBRYS
  6
CONTINUOUS
 62
     7
 10
19879.44263837492
 20
405961.6685181596
 30
0.0
 40
125.0
  1
2000
 41
0.8
  0
ENDBLK
  5
69D93
  8
0
  0
BLOCK
  8
0
  2
*U99
 70
     1
 10
0.0
 20
0.0
 30
0.0
  3
*U99
  1

  0
TEXT
  5
69D95
  8
S-OBRYS
  6
CONTINUOUS
 62
     7
 10
17879.49411185132
 20
405962.01562238199
 30
0.0
 40
125.0
  1
2000
 41
0.8
  0
ENDBLK
  5
69D97
  8
0
  0
BLOCK
  8
0
  2
*U100
 70
     1
 10
0.0
 20
0.0
 30
0.0
  3
*U100
  1

  0
TEXT
  5
69D99
  8
S-OBRYS
  6
CONTINUOUS
 62
     7
 10
22129.44090949075
 20
405961.41851815971
 30
0.0
 40
125.0
  1
2500
 41
0.8
  0
ENDBLK
  5
69D9B
  8
0
  0
BLOCK
  8
0
  2
*U101
 70
     1
 10
0.0
 20
0.0
 30
0.0
  3
*U101
  1

  0
TEXT
  5
69D9D
  8
S-OBRYS
  6
CONTINUOUS
 62
     7
 10
23823.563929341781
 20
405960.6685181596
 30
0.0
 40
125.0
  1
793
 41
0.8
  0
ENDBLK
  5
69D9F
  8
0
  0
BLOCK
  8
0
  2
*U102
 70
     1
 10
0.0
 20
0.0
 30
0.0
  3
*U102
  1

  0
TEXT
  5
69DA1
  8
S-OBRYS
  6
CONTINUOUS
 62
     7
 10
18519.533185361212
 20
398911.8977910002
 30
0.0
 40
125.0
  1
185
 41
0.8
  0
ENDBLK
  5
69DA3
  8
0
  0
BLOCK
  8
0
  2
*U103
 70
     1
 10
0.0
 20
0.0
 30
0.0
  3
*U103
  1

  0
TEXT
  5
69DA5
  8
S-OBRYS
  6
CONTINUOUS
 62
     7
 10
20326.046149729369
 20
398910.72702515888
 30
0.0
 40
125.0
  1
325
 41
0.8
  0
ENDBLK
  5
69DA7
  8
0
  0
BLOCK
  8
0
  2
*U104
 70
     1
 10
0.0
 20
0.0
 30
0.0
  3
*U104
  1

  0
TEXT
  5
69DA9
  8
S-OBRYS
  6
CONTINUOUS
 62
     7
 10
19889.237923787059
 20
403711.88823364727
 30
0.0
 40
125.0
  1
2000
 41
0.8
  0
ENDBLK
  5
69DAB
  8
0
  0
BLOCK
  8
0
  2
*U105
 70
     1
 10
0.0
 20
0.0
 30
0.0
  3
*U105
  1

  0
TEXT
  5
69DAD
  8
S-OBRYS
  6
CONTINUOUS
 62
     7
 10
17889.289397263459
 20
403712.23533786967
 30
0.0
 40
125.0
  1
2000
 41
0.8
  0
ENDBLK
  5
69DAF
  8
0
  0
BLOCK
  8
0
  2
*U106
 70
     1
 10
0.0
 20
0.0
 30
0.0
  3
*U106
  1

  0
TEXT
  5
69DB1
  8
S-OBRYS
  6
CONTINUOUS
 62
     7
 10
22139.236194902889
 20
403711.63823364727
 30
0.0
 40
125.0
  1
2500
 41
0.8
  0
ENDBLK
  5
69DB3
  8
0
  0
BLOCK
  8
0
  2
*U107
 70
     1
 10
0.0
 20
0.0
 30
0.0
  3
*U107
  1

  0
TEXT
  5
69DB5
  8
S-OBRYS
  6
CONTINUOUS
 62
     7
 10
23833.35921475392
 20
403710.88823364727
 30
0.0
 40
125.0
  1
793
 41
0.8
  0
ENDBLK
  5
69DB7
  8
0
  0
BLOCK
  8
0
  2
*U108
 70
     1
 10
0.0
 20
0.0
 30
0.0
  3
*U108
  1

  0
TEXT
  5
69DB9
  8
S-OBRYS
  6
CONTINUOUS
 62
     7
 10
16002.505835448021
 20
404023.17993884062
 30
0.0
 40
125.0
  1
MIN.200
 41
0.8
  0
ENDBLK
  5
69DBB
  8
0
  0
BLOCK
  8
0
  2
*U109
 70
     1
 10
0.0
 20
0.0
 30
0.0
  3
*U109
  1

  0
TEXT
  5
69DBD
  8
S-OBRYS
  6
CONTINUOUS
 62
     7
 10
24878.672537829589
 20
404028.71655791829
 30
0.0
 40
125.0
  1
MIN.400
 41
0.8
  0
ENDBLK
  5
69DBF
  8
0
  0
ENDSEC
  0
SECTION
  2
ENTITIES
  0
TEXT
  5
2F7A5
  8
KOTY
 10
-393803.77638965531
 20
-299016.15321175661
 30
0.0
 40
150.0
  1

 41
0.7
  7
ROMANT
  0
TEXT
  5
3AD8B
  8
KOTY
 10
-14797.18019204357
 20
454294.55370899959
 30
0.0
 40
150.0
  1

 41
0.7
  7
ROMANT
  0
TEXT
  5
404AD
  8
KOTY
 10
44010.2314385153
 20
465617.23741859582
 30
0.0
 40
92.0
  1

 41
0.7
  7
CYRILLIC
  0
TEXT
  5
404B4
  8
KOTY
 10
39575.071591094718
 20
465613.29777162091
 30
0.0
 40
92.0
  1

 41
0.7
  7
CYRILLIC
  0
TEXT
  5
40B14
  8
KOTY
 10
5856.0590664841584
 20
486921.1132385282
 30
0.0
 40
150.0
  1

 41
0.7
  7
ROMANT
  0
TEXT
  5
40BFC
  8
KOTY
 10
8767.7265956277752
 20
466337.2608060218
 30
0.0
 40
150.0
  1

 41
0.7
  7
ROMANS
  0
TEXT
  5
51A7C
  8
KOTY
 10
-47677.341387967608
 20
395133.71812193602
 30
0.0
 40
150.0
  1

 41
0.7
  7
ROMANS
  0
TEXT
  5
51A94
  8
KOTY
 10
-45176.819295693742
 20
395133.7181219359
 30
0.0
 40
150.0
  1

 41
0.7
  7
ROMANS
  0
TEXT
  5
51A9B
  8
KOTY
 10
-48084.423320344351
 20
397411.27855615731
 30
0.0
 40
150.0
  1

 41
0.7
  7
ROMANT
  0
TEXT
  5
51B05
  8
RAZ
 62
     6
 10
-47365.887544580757
 20
392999.37567832542
 30
0.0
 40
193.54103193599991
  1

 41
0.8
  7
R08
  0
TEXT
  5
51B06
  8
RAZ
 62
     1
 10
-47245.037660778231
 20
393401.77274166199
 30
0.0
 40
125.41458869452801
  1

  7
ROMANS
  0
TEXT
  5
58307
  8
KOTY
 10
22966.528519463162
 20
383405.87475258159
 30
0.0
 40
150.0
  1

 41
0.7
  7
ROMANS
  0
TEXT
  5
58308
  8
KOTY
 10
22966.528519463169
 20
383855.87475258159
 30
0.0
 40
150.0
  1

 41
0.7
  7
ROMANS
  0
TEXT
  5
58315
  8
KOTY
 10
25467.050611737021
 20
383855.87475258141
 30
0.0
 40
150.0
  1

 41
0.7
  7
ROMANS
  0
TEXT
  5
58316
  8
KOTY
 10
25467.050611737021
 20
383405.87475258141
 30
0.0
 40
150.0
  1

 41
0.7
  7
ROMANS
  0
TEXT
  5
5833F
  8
KOTY
 10
22966.528519463162
 20
385205.87475258153
 30
0.0
 40
150.0
  1

 41
0.7
  7
ROMANS
  0
TEXT
  5
58340
  8
KOTY
 10
22966.528519463169
 20
385655.87475258159
 30
0.0
 40
150.0
  1

 41
0.7
  7
ROMANS
  0
TEXT
  5
58354
  8
KOTY
 10
25467.050611737021
 20
385655.87475258141
 30
0.0
 40
150.0
  1

 41
0.7
  7
ROMANS
  0
TEXT
  5
58355
  8
KOTY
 10
25467.050611737021
 20
385205.87475258141
 30
0.0
 40
150.0
  1

 41
0.7
  7
ROMANS
  0
TEXT
  5
58397
  8
KOTY
 10
25467.050611737039
 20
390605.87475258129
 30
0.0
 40
150.0
  1

 41
0.7
  7
ROMANS
  0
TEXT
  5
58398
  8
KOTY
 10
25467.050611737039
 20
391055.87475258141
 30
0.0
 40
150.0
  1

 41
0.7
  7
ROMANS
  0
TEXT
  5
583C1
  8
KOTY
 10
25467.050611737031
 20
389255.87475258141
 30
0.0
 40
150.0
  1

 41
0.7
  7
ROMANS
  0
TEXT
  5
58C84
  8
KOTY
 10
22966.52851946322
 20
387905.87475258153
 30
0.0
 40
150.0
  1

 41
0.7
  7
ROMANS
  0
LINE
  5
69352
  8
S-OBRYS
  6
CONTINUOUS
 10
15493.87557875092
 20
393722.16586887481
 30
0.0
 11
25993.875578750929
 21
393722.16586887481
 31
0.0
  0
LINE
  5
69353
  8
S-OBRYS
  6
CONTINUOUS
 10
25993.875578750929
 20
393722.16586887481
 30
0.0
 11
25993.875578750929
 21
408572.16586887481
 31
0.0
  0
LINE
  5
69354
  8
S-OBRYS
  6
CONTINUOUS
 10
25993.875578750929
 20
408572.16586887481
 30
0.0
 11
15493.875578750931
 21
408572.16586887481
 31
0.0
  0
LINE
  5
69355
  8
S-OBRYS
  6
CONTINUOUS
 10
15493.875578750931
 20
408572.16586887481
 30
0.0
 11
15493.87557875092
 21
393722.16586887481
 31
0.0
  0
INSERT
  5
69356
  8
S-OBRYS
  6
CONTINUOUS
  2
*U82
 10
0.0
 20
0.0
 30
0.0
  0
LINE
  5
69357
  8
S-OBRYS
  6
CONTINUOUS
 10
17069.91882885111
 20
401139.86153196829
 30
0.0
 11
23569.929598956751
 21
401139.86153196829
 31
0.0
  0
LINE
  5
69358
  8
S-OBRYS
  6
CONTINUOUS
 10
17069.91882885111
 20
401299.86153196823
 30
0.0
 11
23569.929598956751
 21
401299.86153196823
 31
0.0
  0
INSERT
  5
69359
  8
S-OBRYS
  6
CONTINUOUS
  2
*U83
 10
0.0
 20
0.0
 30
0.0
  0
INSERT
  5
6935A
  8
S-OBRYS
  6
CONTINUOUS
  2
*U84
 10
0.0
 20
0.0
 30
0.0
  0
INSERT
  5
6935B
  8
S-OBRYS
  6
CONTINUOUS
  2
*U85
 10
0.0
 20
0.0
 30
0.0
  0
INSERT
  5
6935C
  8
S-OBRYS
  6
CONTINUOUS
  2
*U86
 10
0.0
 20
0.0
 30
0.0
  0
LINE
  5
6935D
  8
S-OBRYS
  6
CONTINUOUS
 10
18580.243788537398
 20
396742.30249250837
 30
0.0
 11
23147.827025585731
 21
396742.30249250837
 31
0.0
  0
LINE
  5
6935E
  8
S-OBRYS
  6
CONTINUOUS
 10
18580.243788537398
 20
396549.6424925084
 30
0.0
 11
23147.827025585731
 21
396549.6424925084
 31
0.0
  0
POLYLINE
  5
6935F
  8
S-OBRYS
  6
CONTINUOUS
 66
     1
 10
0.0
 20
0.0
 30
0.0
 40
10.0
 41
10.0
  0
VERTEX
  5
69D58
  8
S-OBRYS
  6
CONTINUOUS
 10
23147.827025585731
 20
397202.92533605482
 30
0.0
  0
VERTEX
  5
69D59
  8
S-OBRYS
  6
CONTINUOUS
 10
18580.243788537398
 20
397202.92533605482
 30
0.0
  0
SEQEND
  5
69D5A
  8
S-OBRYS
  6
CONTINUOUS
  0
LINE
  5
69360
  8
S-OBRYS
  6
CONTINUOUS
 10
18580.243788537398
 20
396356.98249250842
 30
0.0
 11
23147.827025585731
 21
396356.98249250842
 31
0.0
  0
INSERT
  5
69361
  8
S-OBRYS
  6
CONTINUOUS
  2
*U87
 10
0.0
 20
0.0
 30
0.0
  0
POLYLINE
  5
69362
  8
S-OBRYS
  6
CONTINUOUS
 66
     1
 10
0.0
 20
0.0
 30
0.0
 40
10.0
 41
10.0
  0
VERTEX
  5
69D5F
  8
S-OBRYS
  6
CONTINUOUS
 10
18580.243788537398
 20
396935.04707896378
 30
0.0
  0
VERTEX
  5
69D60
  8
S-OBRYS
  6
CONTINUOUS
 10
23147.827025585731
 20
396935.04707896378
 30
0.0
  0
SEQEND
  5
69D61
  8
S-OBRYS
  6
CONTINUOUS
  0
LINE
  5
69363
  8
S-OBRYS
  6
CONTINUOUS
 10
19069.91882885111
 20
405714.66621503892
 30
0.0
 11
21069.91882885111
 21
405714.6185411617
 31
0.0
  0
LINE
  5
69364
  8
S-OBRYS
  6
CONTINUOUS
 10
19069.91882885111
 20
405732.20196799299
 30
0.0
 11
21069.91882885111
 21
405732.20196799299
 31
0.0
  0
LINE
  5
69365
  8
S-OBRYS
  6
CONTINUOUS
 10
16993.901026226358
 20
401219.86153196823
 30
0.0
 11
24362.924871465071
 21
401219.86153196823
 31
0.0
  0
LINE
  5
69366
  8
S-OBRYS
  6
CONTINUOUS
 10
23569.929598956751
 20
401127.77440068987
 30
0.0
 11
17069.91882885111
 21
401127.77440068987
 31
0.0
  0
LINE
  5
69367
  8
S-OBRYS
  6
CONTINUOUS
 10
23569.929598956751
 20
401311.94866324653
 30
0.0
 11
17069.91882885111
 21
401311.94866324653
 31
0.0
  0
LINE
  5
69368
  8
S-OBRYS
  6
CONTINUOUS
 10
16993.901026226358
 20
405616.2556494379
 30
0.0
 11
24362.924871465071
 21
405616.2556494379
 31
0.0
  0
LINE
  5
69369
  8
S-OBRYS
  6
CONTINUOUS
 10
21039.91882885111
 20
405524.1685181596
 30
0.0
 11
19099.91882885111
 21
405524.1685181596
 31
0.0
  0
DIMENSION
  5
6936A
  8
S-OBRYS
  6
CONTINUOUS
  2
*D36
 10
21069.91882885111
 20
405936.6685181596
 30
0.0
 11
20069.91882885111
 21
406024.1685181596
 31
0.0
 70
     0
 13
19069.91882885111
 23
405732.20196799299
 33
0.0
 14
21069.91882885111
 24
405707.4185181596
 34
0.0
  0
ARC
  5
6936B
  8
S-OBRYS
  6
CONTINUOUS
 10
18669.533185361212
 20
398624.5140534215
 30
0.0
 40
125.0
 50
180.0
 51
0.0
  0
LINE
  5
6936C
  8
S-OBRYS
  6
CONTINUOUS
 10
17416.907279723629
 20
405616.2556494379
 30
0.0
 11
17416.907279723629
 21
405511.25564943778
 31
0.0
  0
LINE
  5
6936D
  8
S-OBRYS
  6
CONTINUOUS
 10
17202.907279723629
 20
405616.2556494379
 30
0.0
 11
17202.907279723629
 21
405511.25564943778
 31
0.0
  0
LINE
  5
6936E
  8
S-OBRYS
  6
CONTINUOUS
 10
17309.907279723629
 20
405616.2556494379
 30
0.0
 11
17309.907279723629
 21
405511.25564943778
 31
0.0
  0
LINE
  5
6936F
  8
S-OBRYS
  6
CONTINUOUS
 10
18794.533185361212
 20
398434.96037197672
 30
0.0
 11
18794.533185361212
 21
398571.78520883358
 31
0.0
  0
LINE
  5
69370
  8
S-OBRYS
  6
CONTINUOUS
 10
18544.533185361212
 20
398434.96037197672
 30
0.0
 11
18544.533185361212
 21
398571.78520883358
 31
0.0
  0
LINE
  5
69371
  8
S-OBRYS
  6
CONTINUOUS
 10
18669.533185361212
 20
398780.92692214332
 30
0.0
 11
18669.533185361212
 21
398434.96037197672
 31
0.0
  0
ARC
  5
69372
  8
S-OBRYS
  6
CONTINUOUS
 10
19096.91882885111
 20
405523.16851815948
 30
0.0
 40
3.0
 50
270.0
 51
0.0
  0
LINE
  5
69373
  8
S-OBRYS
  6
CONTINUOUS
 10
19073.91882885111
 20
405714.66611969122
 30
0.0
 11
19073.91882885111
 21
405494.6685181596
 31
0.0
  0
LINE
  5
69374
  8
S-OBRYS
  6
CONTINUOUS
 10
19069.91882885111
 20
405524.1685181596
 30
0.0
 11
19069.91882885111
 21
405494.1685181596
 31
0.0
  0
LINE
  5
69375
  8
S-OBRYS
  6
CONTINUOUS
 10
19069.91882885111
 20
405524.1685181596
 30
0.0
 11
19069.91882885111
 21
405494.1685181596
 31
0.0
  0
LINE
  5
69376
  8
S-OBRYS
  6
CONTINUOUS
 10
19065.91882885111
 20
405714.66631038667
 30
0.0
 11
19065.91882885111
 21
405497.1685181596
 31
0.0
  0
ARC
  5
69377
  8
S-OBRYS
  6
CONTINUOUS
 10
19042.91882885111
 20
405523.16851815948
 30
0.0
 40
3.0
 50
180.0
 51
270.0
  0
LINE
  5
69378
  8
S-OBRYS
  6
CONTINUOUS
 10
17079.021775803922
 20
405714.70175346063
 30
0.0
 11
17079.021775803922
 21
405497.20196799288
 31
0.0
  0
ARC
  5
69379
  8
S-OBRYS
  6
CONTINUOUS
 10
17102.021775803922
 20
405523.20196799288
 30
0.0
 40
3.0
 50
270.0
 51
0.0
  0
LINE
  5
6937A
  8
S-OBRYS
  6
CONTINUOUS
 10
17070.021775803922
 20
405524.1685181596
 30
0.0
 11
17070.021775803922
 21
405486.70196799299
 31
0.0
  0
LINE
  5
6937B
  8
S-OBRYS
  6
CONTINUOUS
 10
17075.021775803922
 20
405714.70184880833
 30
0.0
 11
17075.021775803922
 21
405494.20196799299
 31
0.0
  0
LINE
  5
6937C
  8
S-OBRYS
  6
CONTINUOUS
 10
17069.91882885111
 20
401311.94866324653
 30
0.0
 11
17069.91882885111
 21
401127.77440068987
 31
0.0
  0
LINE
  5
6937D
  8
S-OBRYS
  6
CONTINUOUS
 10
17059.901026226358
 20
401168.78492108081
 30
0.0
 11
17059.901026226358
 21
401278.78030270513
 31
0.0
  0
LINE
  5
6937E
  8
S-OBRYS
  6
CONTINUOUS
 10
17001.901026226358
 20
401180.11595853302
 30
0.0
 11
17001.901026226358
 21
401219.86153196823
 31
0.0
  0
LINE
  5
6937F
  8
S-OBRYS
  6
CONTINUOUS
 10
17013.31960016724
 20
401166.27563618321
 30
0.0
 11
17013.31960016724
 21
401219.86153196823
 31
0.0
  0
LINE
  5
69380
  8
S-OBRYS
  6
CONTINUOUS
 10
16993.901026226358
 20
401182.11595853308
 30
0.0
 11
16993.901026226358
 21
401257.60710540332
 31
0.0
  0
LINE
  5
69381
  8
S-OBRYS
  6
CONTINUOUS
 10
17076.598665968319
 20
401100.77440068981
 30
0.0
 11
17076.598665968319
 21
401120.77440068987
 31
0.0
  0
LINE
  5
69382
  8
S-OBRYS
  6
CONTINUOUS
 10
17073.598665968319
 20
401097.77440068999
 30
0.0
 11
17073.598665968319
 21
401127.77440068987
 31
0.0
  0
ARC
  5
69383
  8
S-OBRYS
  6
CONTINUOUS
 10
17073.598665968319
 20
401100.77440068981
 30
0.0
 40
3.0
 50
270.0
 51
0.0
  0
LINE
  5
69384
  8
S-OBRYS
  6
CONTINUOUS
 10
17019.217275310039
 20
401164.22231475648
 30
0.0
 11
17057.721425898791
 21
401162.93884307018
 31
0.0
  0
ARC
  5
69385
  8
S-OBRYS
  6
CONTINUOUS
 10
17017.47834840072
 20
401164.388825998
 30
0.0
 40
1.7468808744380571
 50
354.53030951565239
 51
88.954787620911375
  0
LINE
  5
69386
  8
S-OBRYS
  6
CONTINUOUS
 10
17009.5523770859
 20
401166.4016892963
 30
0.0
 11
17017.51021392837
 21
401166.13541621249
 31
0.0
  0
LINE
  5
69387
  8
S-OBRYS
  6
CONTINUOUS
 10
17001.901026226358
 20
401180.11595853302
 30
0.0
 11
16995.901026226358
 21
401180.11595853302
 31
0.0
  0
ARC
  5
69388
  8
S-OBRYS
  6
CONTINUOUS
 10
16995.901026226358
 20
401182.11595853308
 30
0.0
 40
2.0
 50
180.0
 51
270.0
  0
ARC
  5
69389
  8
S-OBRYS
  6
CONTINUOUS
 10
17003.901026226358
 20
401168.4016892963
 30
0.0
 40
2.0
 50
180.0
 51
270.0
  0
LINE
  5
6938A
  8
S-OBRYS
  6
CONTINUOUS
 10
17009.920980335872
 20
401166.4016892963
 30
0.0
 11
17003.901026226358
 21
401166.4016892963
 31
0.0
  0
LINE
  5
6938B
  8
S-OBRYS
  6
CONTINUOUS
 10
17001.901026226358
 20
401168.4016892963
 30
0.0
 11
17001.901026226358
 21
401180.11595853302
 31
0.0
  0
ARC
  5
6938C
  8
S-OBRYS
  6
CONTINUOUS
 10
17099.598665968319
 20
401126.77440068987
 30
0.0
 40
3.0
 50
270.0
 51
0.0
  0
LINE
  5
6938D
  8
S-OBRYS
  6
CONTINUOUS
 10
17102.598665968319
 20
401126.77440068987
 30
0.0
 11
17102.598665968319
 21
401127.77440068987
 31
0.0
  0
ARC
  5
6938E
  8
S-OBRYS
  6
CONTINUOUS
 10
17079.598665968329
 20
401120.77440068987
 30
0.0
 40
3.0
 50
90.0
 51
180.0
  0
LINE
  5
6938F
  8
S-OBRYS
  6
CONTINUOUS
 10
17079.598665968329
 20
401123.77440068999
 30
0.0
 11
17099.598665968319
 21
401123.77440068999
 31
0.0
  0
LINE
  5
69390
  8
S-OBRYS
  6
CONTINUOUS
 10
17062.901026226358
 20
401149.61595853302
 30
0.0
 11
17069.901026226358
 21
401149.61595853302
 31
0.0
  0
ARC
  5
69391
  8
S-OBRYS
  6
CONTINUOUS
 10
17057.38766990275
 20
401160.41332103527
 30
0.0
 40
2.5474800517290328
 50
11.977316473314101
 51
88.063225098261498
  0
ARC
  5
69392
  8
S-OBRYS
  6
CONTINUOUS
 10
17062.901026226358
 20
401152.61595853308
 30
0.0
 40
3.0
 50
180.0
 51
270.0
  0
LINE
  5
69393
  8
S-OBRYS
  6
CONTINUOUS
 10
17080.521775803922
 20
401153.80785052339
 30
0.0
 11
17055.021775803922
 21
401153.80785052339
 31
0.0
  0
LINE
  5
69394
  8
S-OBRYS
  6
CONTINUOUS
 10
17059.901026226358
 20
401168.78492108081
 30
0.0
 11
17059.901026226358
 21
401152.61595853308
 31
0.0
  0
LINE
  5
69395
  8
S-OBRYS
  6
CONTINUOUS
 10
18794.533185361212
 20
398439.96037197672
 30
0.0
 11
18544.533185361212
 21
398439.96037197672
 31
0.0
  0
LINE
  5
69396
  8
S-OBRYS
  6
CONTINUOUS
 10
18544.533185361212
 20
398434.96037197672
 30
0.0
 11
18794.533185361212
 21
398434.96037197672
 31
0.0
  0
LINE
  5
69397
  8
S-OBRYS
  6
CONTINUOUS
 10
17019.217275310039
 20
401275.50074917992
 30
0.0
 11
17057.721425898791
 21
401276.78422086622
 31
0.0
  0
LINE
  5
69398
  8
S-OBRYS
  6
CONTINUOUS
 10
17001.901026226358
 20
401271.32137464022
 30
0.0
 11
17001.901026226358
 21
401259.60710540338
 31
0.0
  0
LINE
  5
69399
  8
S-OBRYS
  6
CONTINUOUS
 10
17009.920980335872
 20
401273.32137464022
 30
0.0
 11
17003.901026226358
 21
401273.32137464022
 31
0.0
  0
ARC
  5
6939A
  8
S-OBRYS
  6
CONTINUOUS
 10
17003.901026226358
 20
401271.32137464022
 30
0.0
 40
2.0
 50
90.0
 51
180.0
  0
ARC
  5
6939B
  8
S-OBRYS
  6
CONTINUOUS
 10
16995.901026226358
 20
401257.60710540332
 30
0.0
 40
2.0
 50
90.0
 51
180.0
  0
LINE
  5
6939C
  8
S-OBRYS
  6
CONTINUOUS
 10
17001.901026226358
 20
401259.60710540338
 30
0.0
 11
16995.901026226358
 21
401259.60710540338
 31
0.0
  0
LINE
  5
6939D
  8
S-OBRYS
  6
CONTINUOUS
 10
17009.5523770859
 20
401273.32137464022
 30
0.0
 11
17017.51021392837
 21
401273.58764772391
 31
0.0
  0
ARC
  5
6939E
  8
S-OBRYS
  6
CONTINUOUS
 10
17017.47834840072
 20
401275.3342379384
 30
0.0
 40
1.7468808744380571
 50
271.04521237908858
 51
5.4696904843475611
  0
LINE
  5
6939F
  8
S-OBRYS
  6
CONTINUOUS
 10
17013.31960016724
 20
401273.44742775313
 30
0.0
 11
17013.31960016724
 21
401219.86153196823
 31
0.0
  0
LINE
  5
693A0
  8
S-OBRYS
  6
CONTINUOUS
 10
17001.901026226358
 20
401259.60710540338
 30
0.0
 11
17001.901026226358
 21
401219.86153196823
 31
0.0
  0
LINE
  5
693A1
  8
S-OBRYS
  6
CONTINUOUS
 10
17062.901026226358
 20
401290.10710540338
 30
0.0
 11
17069.901026226358
 21
401290.10710540338
 31
0.0
  0
LINE
  5
693A2
  8
S-OBRYS
  6
CONTINUOUS
 10
17059.901026226358
 20
401270.93814285559
 30
0.0
 11
17059.901026226358
 21
401287.10710540338
 31
0.0
  0
ARC
  5
693A3
  8
S-OBRYS
  6
CONTINUOUS
 10
17057.38766990275
 20
401279.30974290112
 30
0.0
 40
2.5474800517290328
 50
271.93677490173849
 51
348.02268352668591
  0
LINE
  5
693A4
  8
S-OBRYS
  6
CONTINUOUS
 10
17080.521775803922
 20
401285.91521341301
 30
0.0
 11
17055.021775803922
 21
401285.91521341301
 31
0.0
  0
ARC
  5
693A5
  8
S-OBRYS
  6
CONTINUOUS
 10
17062.901026226358
 20
401287.10710540338
 30
0.0
 40
3.0
 50
90.0
 51
180.0
  0
LINE
  5
693A6
  8
S-OBRYS
  6
CONTINUOUS
 10
17073.598665968319
 20
401341.94866324653
 30
0.0
 11
17073.598665968319
 21
401311.94866324653
 31
0.0
  0
LINE
  5
693A7
  8
S-OBRYS
  6
CONTINUOUS
 10
17102.598665968319
 20
401312.94866324653
 30
0.0
 11
17102.598665968319
 21
401311.94866324653
 31
0.0
  0
ARC
  5
693A8
  8
S-OBRYS
  6
CONTINUOUS
 10
17073.598665968319
 20
401338.94866324653
 30
0.0
 40
3.0
 50
0.0
 51
90.0
  0
ARC
  5
693A9
  8
S-OBRYS
  6
CONTINUOUS
 10
17099.598665968319
 20
401312.94866324653
 30
0.0
 40
3.0
 50
0.0
 51
90.0
  0
ARC
  5
693AA
  8
S-OBRYS
  6
CONTINUOUS
 10
17079.598665968329
 20
401318.94866324653
 30
0.0
 40
3.0
 50
180.0
 51
270.0
  0
LINE
  5
693AB
  8
S-OBRYS
  6
CONTINUOUS
 10
17079.598665968329
 20
401315.94866324653
 30
0.0
 11
17099.598665968319
 21
401315.94866324653
 31
0.0
  0
LINE
  5
693AC
  8
S-OBRYS
  6
CONTINUOUS
 10
17076.598665968319
 20
401338.94866324653
 30
0.0
 11
17076.598665968319
 21
401318.94866324653
 31
0.0
  0
LINE
  5
693AD
  8
S-OBRYS
  6
CONTINUOUS
 10
17175.407279723629
 20
405511.25564943778
 30
0.0
 11
17444.407279723629
 21
405511.25564943778
 31
0.0
  0
LINE
  5
693AE
  8
S-OBRYS
  6
CONTINUOUS
 10
17120.021775803922
 20
405431.70196799299
 30
0.0
 11
17085.021775803922
 21
405431.70196799299
 31
0.0
  0
LINE
  5
693AF
  8
S-OBRYS
  6
CONTINUOUS
 10
17085.021775803922
 20
405426.70196799288
 30
0.0
 11
17120.021775803922
 21
405426.70196799288
 31
0.0
  0
ARC
  5
693B0
  8
S-OBRYS
  6
CONTINUOUS
 10
17085.021775803922
 20
405441.70196799299
 30
0.0
 40
15.0
 50
180.0
 51
270.0
  0
LINE
  5
693B1
  8
S-OBRYS
  6
CONTINUOUS
 10
17102.021775803922
 20
405520.20196799299
 30
0.0
 11
17082.021775803922
 21
405520.20196799299
 31
0.0
  0
ARC
  5
693B2
  8
S-OBRYS
  6
CONTINUOUS
 10
17082.021775803922
 20
405517.20196799299
 30
0.0
 40
3.0
 50
90.0
 51
180.0
  0
LINE
  5
693B3
  8
S-OBRYS
  6
CONTINUOUS
 10
17091.021775803922
 20
405509.20196799299
 30
0.0
 11
17057.021775803911
 21
405509.20196799299
 31
0.0
  0
LINE
  5
693B4
  8
S-OBRYS
  6
CONTINUOUS
 10
17075.021775803922
 20
405494.20196799299
 30
0.0
 11
17075.021775803922
 21
405480.20196799299
 31
0.0
  0
LINE
  5
693B5
  8
S-OBRYS
  6
CONTINUOUS
 10
17076.021775803911
 20
405494.20196799299
 30
0.0
 11
17075.021775803922
 21
405494.20196799299
 31
0.0
  0
ARC
  5
693B6
  8
S-OBRYS
  6
CONTINUOUS
 10
17076.021775803911
 20
405497.20196799288
 30
0.0
 40
3.0
 50
270.0
 51
0.0
  0
ARC
  5
693B7
  8
S-OBRYS
  6
CONTINUOUS
 10
17085.021775803922
 20
405441.70196799299
 30
0.0
 40
10.0
 50
180.0
 51
270.0
  0
LINE
  5
693B8
  8
S-OBRYS
  6
CONTINUOUS
 10
17070.021775803922
 20
405486.70196799299
 30
0.0
 11
17070.021775803922
 21
405441.70196799299
 31
0.0
  0
LINE
  5
693B9
  8
S-OBRYS
  6
CONTINUOUS
 10
17075.021775803922
 20
405441.70196799299
 30
0.0
 11
17075.021775803922
 21
405480.20196799299
 31
0.0
  0
LINE
  5
693BA
  8
S-OBRYS
  6
CONTINUOUS
 10
17120.021775803922
 20
405426.70196799288
 30
0.0
 11
17120.021775803922
 21
405431.70196799299
 31
0.0
  0
POLYLINE
  5
693BB
  8
S-OBRYS
  6
CONTINUOUS
 66
     1
 10
0.0
 20
0.0
 30
0.0
 40
10.0
 41
10.0
  0
VERTEX
  5
69D62
  8
S-OBRYS
  6
CONTINUOUS
 10
18580.243788537398
 20
396935.04707896378
 30
0.0
  0
VERTEX
  5
69D63
  8
S-OBRYS
  6
CONTINUOUS
 10
18580.243788537398
 20
397202.92533605482
 30
0.0
  0
SEQEND
  5
69D64
  8
S-OBRYS
  6
CONTINUOUS
  0
LINE
  5
693BC
  8
S-OBRYS
  6
CONTINUOUS
 10
20102.243788537398
 20
396356.98249250842
 30
0.0
 11
20102.243788537398
 21
397202.92533605482
 31
0.0
  0
INSERT
  5
693BD
  8
S-OBRYS
  6
CONTINUOUS
  2
*U88
 10
0.0
 20
0.0
 30
0.0
  0
INSERT
  5
693BE
  8
S-OBRYS
  6
CONTINUOUS
  2
*U89
 10
0.0
 20
0.0
 30
0.0
  0
INSERT
  5
693BF
  8
S-OBRYS
  6
CONTINUOUS
  2
*U90
 10
0.0
 20
0.0
 30
0.0
  0
LINE
  5
693C0
  8
S-OBRYS
  6
CONTINUOUS
 10
18580.243788537398
 20
396935.04707896378
 30
0.0
 11
18580.243788537398
 21
396356.98249250842
 31
0.0
  0
INSERT
  5
693C1
  8
S-OBRYS
  6
CONTINUOUS
  2
*U91
 10
0.0
 20
0.0
 30
0.0
  0
LINE
  5
693C2
  8
S-OBRYS
  6
CONTINUOUS
 10
19069.91882885111
 20
401127.77440068987
 30
0.0
 11
19069.91882885111
 21
401311.94866324653
 31
0.0
  0
LINE
  5
693C3
  8
S-OBRYS
  6
CONTINUOUS
 10
19065.91882885111
 20
401120.77440068987
 30
0.0
 11
19065.91882885111
 21
401100.77440068981
 31
0.0
  0
LINE
  5
693C4
  8
S-OBRYS
  6
CONTINUOUS
 10
19069.91882885111
 20
401127.77440068987
 30
0.0
 11
19069.91882885111
 21
401097.77440068999
 31
0.0
  0
LINE
  5
693C5
  8
S-OBRYS
  6
CONTINUOUS
 10
19073.91882885111
 20
401120.77440068987
 30
0.0
 11
19073.91882885111
 21
401100.77440068981
 31
0.0
  0
ARC
  5
693C6
  8
S-OBRYS
  6
CONTINUOUS
 10
19068.91882885111
 20
401100.77440068981
 30
0.0
 40
3.0
 50
180.0
 51
289.4712206343815
  0
ARC
  5
693C7
  8
S-OBRYS
  6
CONTINUOUS
 10
19070.91882885111
 20
401100.77440068981
 30
0.0
 40
3.0
 50
250.52877936561859
 51
0.0
  0
ARC
  5
693C8
  8
S-OBRYS
  6
CONTINUOUS
 10
19096.91882885111
 20
401126.77440068987
 30
0.0
 40
3.0
 50
270.0
 51
0.0
  0
LINE
  5
693C9
  8
S-OBRYS
  6
CONTINUOUS
 10
19099.91882885111
 20
401127.77440068987
 30
0.0
 11
19099.91882885111
 21
401126.77440068987
 31
0.0
  0
ARC
  5
693CA
  8
S-OBRYS
  6
CONTINUOUS
 10
19042.91882885111
 20
401126.77440068987
 30
0.0
 40
3.0
 50
180.0
 51
270.0
  0
LINE
  5
693CB
  8
S-OBRYS
  6
CONTINUOUS
 10
19085.41882885111
 20
401123.77440068999
 30
0.0
 11
19076.91882885111
 21
401123.77440068999
 31
0.0
  0
ARC
  5
693CC
  8
S-OBRYS
  6
CONTINUOUS
 10
19062.91882885111
 20
401120.77440068987
 30
0.0
 40
3.0
 50
0.0
 51
90.0
  0
ARC
  5
693CD
  8
S-OBRYS
  6
CONTINUOUS
 10
19076.91882885111
 20
401120.77440068987
 30
0.0
 40
3.0
 50
90.0
 51
180.0
  0
LINE
  5
693CE
  8
S-OBRYS
  6
CONTINUOUS
 10
19042.91882885111
 20
401123.77440068999
 30
0.0
 11
19062.91882885111
 21
401123.77440068999
 31
0.0
  0
LINE
  5
693CF
  8
S-OBRYS
  6
CONTINUOUS
 10
19096.91882885111
 20
401123.77440068999
 30
0.0
 11
19076.91882885111
 21
401123.77440068999
 31
0.0
  0
LINE
  5
693D0
  8
S-OBRYS
  6
CONTINUOUS
 10
19065.91882885111
 20
401318.94866324653
 30
0.0
 11
19065.91882885111
 21
401338.94866324653
 31
0.0
  0
ARC
  5
693D1
  8
S-OBRYS
  6
CONTINUOUS
 10
19042.91882885111
 20
401312.94866324653
 30
0.0
 40
3.0
 50
90.0
 51
180.0
  0
ARC
  5
693D2
  8
S-OBRYS
  6
CONTINUOUS
 10
19076.91882885111
 20
401318.94866324653
 30
0.0
 40
3.0
 50
180.0
 51
270.0
  0
LINE
  5
693D3
  8
S-OBRYS
  6
CONTINUOUS
 10
19042.91882885111
 20
401315.94866324653
 30
0.0
 11
19062.91882885111
 21
401315.94866324653
 31
0.0
  0
ARC
  5
693D4
  8
S-OBRYS
  6
CONTINUOUS
 10
19062.91882885111
 20
401318.94866324653
 30
0.0
 40
3.0
 50
270.0
 51
0.0
  0
LINE
  5
693D5
  8
S-OBRYS
  6
CONTINUOUS
 10
19069.91882885111
 20
401311.94866324653
 30
0.0
 11
19069.91882885111
 21
401341.94866324653
 31
0.0
  0
ARC
  5
693D6
  8
S-OBRYS
  6
CONTINUOUS
 10
19068.91882885111
 20
401338.94866324653
 30
0.0
 40
3.0
 50
70.528779365618561
 51
180.0
  0
ARC
  5
693D7
  8
S-OBRYS
  6
CONTINUOUS
 10
19070.91882885111
 20
401338.94866324653
 30
0.0
 40
3.0
 50
0.0
 51
109.4712206343814
  0
LINE
  5
693D8
  8
S-OBRYS
  6
CONTINUOUS
 10
19073.91882885111
 20
401318.94866324653
 30
0.0
 11
19073.91882885111
 21
401338.94866324653
 31
0.0
  0
LINE
  5
693D9
  8
S-OBRYS
  6
CONTINUOUS
 10
19096.91882885111
 20
401315.94866324653
 30
0.0
 11
19076.91882885111
 21
401315.94866324653
 31
0.0
  0
LINE
  5
693DA
  8
S-OBRYS
  6
CONTINUOUS
 10
19099.91882885111
 20
401311.94866324653
 30
0.0
 11
19099.91882885111
 21
401312.94866324653
 31
0.0
  0
ARC
  5
693DB
  8
S-OBRYS
  6
CONTINUOUS
 10
19096.91882885111
 20
401312.94866324653
 30
0.0
 40
3.0
 50
0.0
 51
90.0
  0
LINE
  5
693DC
  8
S-OBRYS
  6
CONTINUOUS
 10
19085.41882885111
 20
401315.94866324653
 30
0.0
 11
19076.91882885111
 21
401315.94866324653
 31
0.0
  0
ARC
  5
693DD
  8
S-OBRYS
  6
CONTINUOUS
 10
19063.91882885111
 20
405442.1685181596
 30
0.0
 40
15.0
 50
270.0
 51
0.0
  0
LINE
  5
693DE
  8
S-OBRYS
  6
CONTINUOUS
 10
19063.91882885111
 20
405427.16851815948
 30
0.0
 11
19028.91882885111
 21
405427.16851815948
 31
0.0
  0
LINE
  5
693DF
  8
S-OBRYS
  6
CONTINUOUS
 10
19028.91882885111
 20
405432.1685181596
 30
0.0
 11
19063.91882885111
 21
405432.1685181596
 31
0.0
  0
LINE
  5
693E0
  8
S-OBRYS
  6
CONTINUOUS
 10
19028.91882885111
 20
405427.16851815948
 30
0.0
 11
19028.91882885111
 21
405432.1685181596
 31
0.0
  0
ARC
  5
693E1
  8
S-OBRYS
  6
CONTINUOUS
 10
19076.91882885111
 20
405517.1685181596
 30
0.0
 40
3.0
 50
90.0
 51
180.0
  0
LINE
  5
693E2
  8
S-OBRYS
  6
CONTINUOUS
 10
19085.41882885111
 20
405520.1685181596
 30
0.0
 11
19076.91882885111
 21
405520.1685181596
 31
0.0
  0
LINE
  5
693E3
  8
S-OBRYS
  6
CONTINUOUS
 10
19042.91882885111
 20
405520.1685181596
 30
0.0
 11
19062.91882885111
 21
405520.1685181596
 31
0.0
  0
LINE
  5
693E4
  8
S-OBRYS
  6
CONTINUOUS
 10
19054.41882885111
 20
405520.1685181596
 30
0.0
 11
19062.91882885111
 21
405520.1685181596
 31
0.0
  0
ARC
  5
693E5
  8
S-OBRYS
  6
CONTINUOUS
 10
19062.91882885111
 20
405517.1685181596
 30
0.0
 40
3.0
 50
0.0
 51
90.0
  0
LINE
  5
693E6
  8
S-OBRYS
  6
CONTINUOUS
 10
19096.91882885111
 20
405520.1685181596
 30
0.0
 11
19076.91882885111
 21
405520.1685181596
 31
0.0
  0
LINE
  5
693E7
  8
S-OBRYS
  6
CONTINUOUS
 10
19057.91882885111
 20
405509.6685181596
 30
0.0
 11
19091.91882885111
 21
405509.6685181596
 31
0.0
  0
LINE
  5
693E8
  8
S-OBRYS
  6
CONTINUOUS
 10
19072.91882885111
 20
405494.6685181596
 30
0.0
 11
19073.91882885111
 21
405494.6685181596
 31
0.0
  0
ARC
  5
693E9
  8
S-OBRYS
  6
CONTINUOUS
 10
19070.91882885111
 20
405497.1685181596
 30
0.0
 40
3.0
 50
270.0
 51
0.0
  0
LINE
  5
693EA
  8
S-OBRYS
  6
CONTINUOUS
 10
19070.91882885111
 20
405494.1685181596
 30
0.0
 11
19069.91882885111
 21
405494.1685181596
 31
0.0
  0
LINE
  5
693EB
  8
S-OBRYS
  6
CONTINUOUS
 10
19068.91882885111
 20
405494.1685181596
 30
0.0
 11
19069.91882885111
 21
405494.1685181596
 31
0.0
  0
ARC
  5
693EC
  8
S-OBRYS
  6
CONTINUOUS
 10
19068.91882885111
 20
405497.1685181596
 30
0.0
 40
3.0
 50
180.0
 51
270.0
  0
LINE
  5
693ED
  8
S-OBRYS
  6
CONTINUOUS
 10
19078.91882885111
 20
405491.6685181596
 30
0.0
 11
19078.91882885111
 21
405487.1685181596
 31
0.0
  0
LINE
  5
693EE
  8
S-OBRYS
  6
CONTINUOUS
 10
19073.91882885111
 20
405494.6685181596
 30
0.0
 11
19073.91882885111
 21
405480.6685181596
 31
0.0
  0
LINE
  5
693EF
  8
S-OBRYS
  6
CONTINUOUS
 10
19073.91882885111
 20
405517.1685181596
 30
0.0
 11
19073.91882885111
 21
405497.1685181596
 31
0.0
  0
ARC
  5
693F0
  8
S-OBRYS
  6
CONTINUOUS
 10
19063.91882885111
 20
405442.1685181596
 30
0.0
 40
10.0
 50
270.0
 51
0.0
  0
LINE
  5
693F1
  8
S-OBRYS
  6
CONTINUOUS
 10
19073.91882885111
 20
405442.1685181596
 30
0.0
 11
19073.91882885111
 21
405480.6685181596
 31
0.0
  0
LINE
  5
693F2
  8
S-OBRYS
  6
CONTINUOUS
 10
19078.91882885111
 20
405520.1685181596
 30
0.0
 11
19078.91882885111
 21
405442.1685181596
 31
0.0
  0
DIMENSION
  5
693F3
  8
S-OBRYS
  6
CONTINUOUS
  2
*D40
 10
19069.91882885111
 20
405937.01562238199
 30
0.0
 11
18069.970302327511
 21
406024.51562238199
 31
0.0
 70
     0
  1
2000
 13
17070.021775803922
 23
405714.70196799299
 33
0.0
 14
19069.91882885111
 24
405732.20196799299
 34
0.0
  0
LINE
  5
693F4
  8
S-OBRYS
  6
CONTINUOUS
 10
19039.91882885111
 20
405524.1685181596
 30
0.0
 11
17416.907279723629
 21
405524.1685181596
 31
0.0
  0
LINE
  5
693F5
  8
S-OBRYS
  6
CONTINUOUS
 10
17169.773925662848
 20
405732.20196799299
 30
0.0
 11
19069.91882885111
 21
405732.20196799299
 31
0.0
  0
LINE
  5
693F6
  8
S-OBRYS
  6
CONTINUOUS
 10
17169.773925662848
 20
405714.71150867653
 30
0.0
 11
19069.91882885111
 21
405714.66621503892
 31
0.0
  0
DIMENSION
  5
693F7
  8
S-OBRYS
  6
CONTINUOUS
  2
*D41
 10
18761.62031663951
 20
398886.8977910002
 30
0.0
 11
18669.533185361212
 21
398886.8977910002
 31
0.0
 70
   128
  1
185
 13
18577.44605408291
 23
398740.46037197672
 33
0.0
 14
18761.62031663951
 24
398740.46037197672
 34
0.0
  0
LINE
  5
693F8
  8
S-OBRYS
  6
CONTINUOUS
 10
18794.533185361212
 20
398624.5140534215
 30
0.0
 11
18794.533185361212
 21
398722.96037197672
 31
0.0
  0
LINE
  5
693F9
  8
S-OBRYS
  6
CONTINUOUS
 10
18544.533185361212
 20
398624.5140534215
 30
0.0
 11
18544.533185361212
 21
398722.96037197672
 31
0.0
  0
LINE
  5
693FA
  8
S-OBRYS
  6
CONTINUOUS
 10
18577.44605408291
 20
398624.5140534215
 30
0.0
 11
18577.44605408291
 21
398722.96037197672
 31
0.0
  0
LINE
  5
693FB
  8
S-OBRYS
  6
CONTINUOUS
 10
18761.62031663951
 20
398624.5140534215
 30
0.0
 11
18761.62031663951
 21
398722.96037197672
 31
0.0
  0
ARC
  5
693FC
  8
S-OBRYS
  6
CONTINUOUS
 10
18669.533185361212
 20
398624.5140534215
 30
0.0
 40
92.087131278298557
 50
180.0
 51
0.0
  0
CIRCLE
  5
693FD
  8
S-OBRYS
  6
CONTINUOUS
 10
18669.533185361212
 20
398624.5140534215
 30
0.0
 40
70.756412158056037
  0
CIRCLE
  5
693FE
  8
S-OBRYS
  6
CONTINUOUS
 10
18669.533185361212
 20
398624.5140534215
 30
0.0
 40
53.459842671989229
  0
CIRCLE
  5
693FF
  8
S-OBRYS
  6
CONTINUOUS
 10
18669.533185361212
 20
398624.5140534215
 30
0.0
 40
40.264334970300517
  0
LINE
  5
69400
  8
S-OBRYS
  6
CONTINUOUS
 10
18528.278314785872
 20
398624.5140534215
 30
0.0
 11
18802.363435040701
 21
398624.5140534215
 31
0.0
  0
LINE
  5
69401
  8
S-OBRYS
  6
CONTINUOUS
 10
18544.533185361212
 20
398571.78520883358
 30
0.0
 11
18552.727507792039
 21
398580.00075554772
 31
0.0
  0
LINE
  5
69402
  8
S-OBRYS
  6
CONTINUOUS
 10
18669.556957550962
 20
398667.7640708785
 30
0.0
 11
18669.68396131921
 21
398692.7603330022
 31
0.0
  0
LINE
  5
69403
  8
S-OBRYS
  6
CONTINUOUS
 10
18677.694958994722
 20
398678.61588860588
 30
0.0
 11
18677.70816919125
 21
398681.21585504629
 31
0.0
  0
LINE
  5
69404
  8
S-OBRYS
  6
CONTINUOUS
 10
18663.029707260011
 20
398677.71739776578
 30
0.0
 11
18661.529647652391
 21
398678.69802310452
 31
0.0
  0
LINE
  5
69405
  8
S-OBRYS
  6
CONTINUOUS
 10
18676.256758060699
 20
398677.69642507978
 30
0.0
 11
18677.694958994722
 21
398678.61588860588
 31
0.0
  0
LINE
  5
69406
  8
S-OBRYS
  6
CONTINUOUS
 10
18669.654474335559
 20
398686.9568487223
 30
0.0
 11
18677.654371074961
 21
398686.91620196367
 31
0.0
  0
LINE
  5
69407
  8
S-OBRYS
  6
CONTINUOUS
 10
18669.664636025202
 20
398688.9568229072
 30
0.0
 11
18677.664532764589
 21
398688.91617614857
 31
0.0
  0
LINE
  5
69408
  8
S-OBRYS
  6
CONTINUOUS
 10
18669.654474335559
 20
398686.9568487223
 30
0.0
 11
18661.65457759616
 21
398686.99749548087
 31
0.0
  0
LINE
  5
69409
  8
S-OBRYS
  6
CONTINUOUS
 10
18669.664636025202
 20
398688.9568229072
 30
0.0
 11
18661.66473928581
 21
398688.99746966577
 31
0.0
  0
LINE
  5
6940A
  8
S-OBRYS
  6
CONTINUOUS
 10
18677.654371074961
 20
398686.91620196367
 30
0.0
 11
18678.895859778459
 21
398687.70990439708
 31
0.0
  0
LINE
  5
6940B
  8
S-OBRYS
  6
CONTINUOUS
 10
18677.664532764589
 20
398688.91617614857
 30
0.0
 11
18678.897892116391
 21
398688.10989923403
 31
0.0
  0
LINE
  5
6940C
  8
S-OBRYS
  6
CONTINUOUS
 10
18678.895859778459
 20
398687.70990439708
 30
0.0
 11
18678.897892116391
 21
398688.10989923403
 31
0.0
  0
LINE
  5
6940D
  8
S-OBRYS
  6
CONTINUOUS
 10
18669.629070111459
 20
398681.95691326022
 30
0.0
 11
18676.628979758429
 21
398681.92134734651
 31
0.0
  0
LINE
  5
6940E
  8
S-OBRYS
  6
CONTINUOUS
 10
18662.62916046449
 20
398681.99247917399
 30
0.0
 11
18661.542857848919
 21
398681.29798954481
 31
0.0
  0
LINE
  5
6940F
  8
S-OBRYS
  6
CONTINUOUS
 10
18669.629070111459
 20
398681.95691326022
 30
0.0
 11
18662.62916046449
 21
398681.99247917399
 31
0.0
  0
LINE
  5
69410
  8
S-OBRYS
  6
CONTINUOUS
 10
18676.628979758429
 20
398681.92134734651
 30
0.0
 11
18677.70816919125
 21
398681.21585504629
 31
0.0
  0
LINE
  5
69411
  8
S-OBRYS
  6
CONTINUOUS
 10
18663.629147556909
 20
398681.98739832907
 30
0.0
 11
18663.654551781008
 21
398686.98733379127
 31
0.0
  0
LINE
  5
69412
  8
S-OBRYS
  6
CONTINUOUS
 10
18675.628992665999
 20
398681.92642819119
 30
0.0
 11
18675.65439689011
 21
398686.92636365339
 31
0.0
  0
LINE
  5
69413
  8
S-OBRYS
  6
CONTINUOUS
 10
18661.66473928581
 20
398688.99746966577
 30
0.0
 11
18660.423250582298
 21
398688.20376723242
 31
0.0
  0
LINE
  5
69414
  8
S-OBRYS
  6
CONTINUOUS
 10
18661.65457759616
 20
398686.99749548087
 30
0.0
 11
18660.42121824437
 21
398687.80377239542
 31
0.0
  0
LINE
  5
69415
  8
S-OBRYS
  6
CONTINUOUS
 10
18660.42121824437
 20
398687.80377239542
 30
0.0
 11
18660.423250582298
 21
398688.20376723242
 31
0.0
  0
LINE
  5
69416
  8
S-OBRYS
  6
CONTINUOUS
 10
18661.529647652391
 20
398678.69802310452
 30
0.0
 11
18661.542857848919
 21
398681.29798954481
 31
0.0
  0
LINE
  5
69417
  8
S-OBRYS
  6
CONTINUOUS
 10
18794.533185361212
 20
398571.78520883358
 30
0.0
 11
18786.338862930392
 21
398580.00075554772
 31
0.0
  0
LINE
  5
69418
  8
S-OBRYS
  6
CONTINUOUS
 10
18649.533185361212
 20
398780.92692214332
 30
0.0
 11
18689.533185361212
 21
398780.92692214332
 31
0.0
  0
LINE
  5
69419
  8
S-OBRYS
  6
CONTINUOUS
 10
18794.533185361212
 20
398722.96037197672
 30
0.0
 11
18544.533185361212
 21
398722.96037197672
 31
0.0
  0
LINE
  5
6941A
  8
S-OBRYS
  6
CONTINUOUS
 10
18794.533185361212
 20
398740.46037197672
 30
0.0
 11
18544.533185361212
 21
398740.46037197672
 31
0.0
  0
LINE
  5
6941B
  8
S-OBRYS
  6
CONTINUOUS
 10
18544.533185361212
 20
398740.46037197672
 30
0.0
 11
18544.533185361212
 21
398722.96037197672
 31
0.0
  0
LINE
  5
6941C
  8
S-OBRYS
  6
CONTINUOUS
 10
18649.533185361212
 20
398780.92692214332
 30
0.0
 11
18649.533185361212
 21
398740.46037197672
 31
0.0
  0
LINE
  5
6941D
  8
S-OBRYS
  6
CONTINUOUS
 10
18689.533185361212
 20
398780.92692214332
 30
0.0
 11
18689.533185361212
 21
398740.42692214332
 31
0.0
  0
LINE
  5
6941E
  8
S-OBRYS
  6
CONTINUOUS
 10
18794.533185361212
 20
398722.96037197672
 30
0.0
 11
18794.533185361212
 21
398740.46037197672
 31
0.0
  0
LINE
  5
6941F
  8
S-OBRYS
  6
CONTINUOUS
 10
17202.907279723629
 20
405572.49208451778
 30
0.0
 11
17416.907279723629
 21
405572.49208451778
 31
0.0
  0
LINE
  5
69420
  8
S-OBRYS
  6
CONTINUOUS
 10
17105.021775803922
 20
405524.1685181596
 30
0.0
 11
17105.026317518179
 21
405714.70113359188
 31
0.0
  0
LINE
  5
69421
  8
S-OBRYS
  6
CONTINUOUS
 10
17139.773925662848
 20
405735.6685181596
 30
0.0
 11
17139.773925662848
 21
405683.6685181596
 31
0.0
  0
LINE
  5
69422
  8
S-OBRYS
  6
CONTINUOUS
 10
17169.773925662848
 20
405683.6685181596
 30
0.0
 11
17169.773925662848
 21
405735.6685181596
 31
0.0
  0
LINE
  5
69423
  8
S-OBRYS
  6
CONTINUOUS
 10
17069.91882885111
 20
405678.01206159592
 30
0.0
 11
17069.91882885111
 21
405714.70196799299
 31
0.0
  0
LINE
  5
69424
  8
S-OBRYS
  6
CONTINUOUS
 10
17202.907279723629
 20
405524.1685181596
 30
0.0
 11
17105.021775803911
 21
405524.1685181596
 31
0.0
  0
LINE
  5
69425
  8
S-OBRYS
  6
CONTINUOUS
 10
16993.901026226358
 20
405578.5100760028
 30
0.0
 11
16993.901026226358
 21
405654.51998440822
 31
0.0
  0
LINE
  5
69426
  8
S-OBRYS
  6
CONTINUOUS
 10
17001.901026226358
 20
405576.51007600268
 30
0.0
 11
17001.901026226358
 21
405656.43343342148
 31
0.0
  0
LINE
  5
69427
  8
S-OBRYS
  6
CONTINUOUS
 10
17059.901026226358
 20
405565.17903855047
 30
0.0
 11
17059.901026226358
 21
405675.17442017479
 31
0.0
  0
LINE
  5
69428
  8
S-OBRYS
  6
CONTINUOUS
 10
17013.31960016724
 20
405562.66975365288
 30
0.0
 11
17013.31960016724
 21
405669.61068977398
 31
0.0
  0
LINE
  5
69429
  8
S-OBRYS
  6
CONTINUOUS
 10
17069.901026226358
 20
405555.0100760028
 30
0.0
 11
17069.91882885111
 21
405678.01206159592
 31
0.0
  0
LINE
  5
6942A
  8
S-OBRYS
  6
CONTINUOUS
 10
17019.217275310039
 20
405560.6164322262
 30
0.0
 11
17057.721425898791
 21
405559.3329605399
 31
0.0
  0
ARC
  5
6942B
  8
S-OBRYS
  6
CONTINUOUS
 10
17017.47834840072
 20
405560.78294346761
 30
0.0
 40
1.7468808744380571
 50
354.53030951565239
 51
88.954787620911375
  0
LINE
  5
6942C
  8
S-OBRYS
  6
CONTINUOUS
 10
17009.920980335872
 20
405562.79580676591
 30
0.0
 11
17003.901026226358
 21
405562.79580676591
 31
0.0
  0
ARC
  5
6942D
  8
S-OBRYS
  6
CONTINUOUS
 10
17003.901026226358
 20
405564.79580676591
 30
0.0
 40
2.0
 50
180.0
 51
270.0
  0
LINE
  5
6942E
  8
S-OBRYS
  6
CONTINUOUS
 10
17009.5523770859
 20
405562.79580676591
 30
0.0
 11
17017.51021392837
 21
405562.52953368222
 31
0.0
  0
ARC
  5
6942F
  8
S-OBRYS
  6
CONTINUOUS
 10
16995.901026226358
 20
405578.5100760028
 30
0.0
 40
2.0
 50
180.0
 51
270.0
  0
LINE
  5
69430
  8
S-OBRYS
  6
CONTINUOUS
 10
17001.901026226358
 20
405576.51007600268
 30
0.0
 11
16995.901026226358
 21
405576.51007600268
 31
0.0
  0
LINE
  5
69431
  8
S-OBRYS
  6
CONTINUOUS
 10
17001.901026226358
 20
405564.79580676591
 30
0.0
 11
17001.901026226358
 21
405576.51007600268
 31
0.0
  0
ARC
  5
69432
  8
S-OBRYS
  6
CONTINUOUS
 10
17057.38766990275
 20
405556.80743850488
 30
0.0
 40
2.5474800517290328
 50
11.977316473314101
 51
88.063225098261498
  0
LINE
  5
69433
  8
S-OBRYS
  6
CONTINUOUS
 10
17075.021775803922
 20
405524.1685181596
 30
0.0
 11
17070.021775803922
 21
405524.1685181596
 31
0.0
  0
LINE
  5
69434
  8
S-OBRYS
  6
CONTINUOUS
 10
17062.901026226358
 20
405546.01007600268
 30
0.0
 11
17069.901026226358
 21
405546.01007600268
 31
0.0
  0
LINE
  5
69435
  8
S-OBRYS
  6
CONTINUOUS
 10
17069.901026226358
 20
405546.01007600268
 30
0.0
 11
17069.901026226358
 21
405555.0100760028
 31
0.0
  0
ARC
  5
69436
  8
S-OBRYS
  6
CONTINUOUS
 10
17062.901026226358
 20
405549.01007600268
 30
0.0
 40
3.0
 50
180.0
 51
270.0
  0
LINE
  5
69437
  8
S-OBRYS
  6
CONTINUOUS
 10
17059.901026226358
 20
405565.17903855047
 30
0.0
 11
17059.901026226358
 21
405549.01007600268
 31
0.0
  0
LINE
  5
69438
  8
S-OBRYS
  6
CONTINUOUS
 10
17080.521775803922
 20
405550.20196799299
 30
0.0
 11
17055.021775803922
 21
405550.20196799299
 31
0.0
  0
LINE
  5
69439
  8
S-OBRYS
  6
CONTINUOUS
 10
17105.021775803922
 20
405524.20196799299
 30
0.0
 11
17105.021775803922
 21
405523.20196799288
 31
0.0
  0
LINE
  5
6943A
  8
S-OBRYS
  6
CONTINUOUS
 10
17070.021775803922
 20
405546.20196799299
 30
0.0
 11
17070.021775803922
 21
405524.1685181596
 31
0.0
  0
LINE
  5
6943B
  8
S-OBRYS
  6
CONTINUOUS
 10
17021.628737263611
 20
405681.25830733549
 30
0.0
 11
17020.36799058249
 21
405682.02104946738
 31
0.0
  0
LINE
  5
6943C
  8
S-OBRYS
  6
CONTINUOUS
 10
17021.569094670562
 20
405683.25741782802
 30
0.0
 11
17020.356062063878
 21
405682.42087156588
 31
0.0
  0
LINE
  5
6943D
  8
S-OBRYS
  6
CONTINUOUS
 10
17019.217275310039
 20
405671.89486664953
 30
0.0
 11
17057.721425898791
 21
405673.17833833583
 31
0.0
  0
LINE
  5
6943E
  8
S-OBRYS
  6
CONTINUOUS
 10
17020.36799058249
 20
405682.02104946738
 30
0.0
 11
17020.356062063878
 21
405682.42087156588
 31
0.0
  0
ARC
  5
6943F
  8
S-OBRYS
  6
CONTINUOUS
 10
16995.901026226358
 20
405654.51998440822
 30
0.0
 40
2.0
 50
90.0
 51
180.0
  0
LINE
  5
69440
  8
S-OBRYS
  6
CONTINUOUS
 10
17001.920980335872
 20
405662.01998440822
 30
0.0
 11
17001.920980335872
 21
405656.51998440822
 31
0.0
  0
LINE
  5
69441
  8
S-OBRYS
  6
CONTINUOUS
 10
17009.91882885111
 20
405669.72775376373
 30
0.0
 11
17017.51021392837
 21
405669.98176519352
 31
0.0
  0
ARC
  5
69442
  8
S-OBRYS
  6
CONTINUOUS
 10
17017.47834840072
 20
405671.72835540812
 30
0.0
 40
1.7468808744380571
 50
271.04521237908858
 51
5.4696904843475611
  0
LINE
  5
69443
  8
S-OBRYS
  6
CONTINUOUS
 10
17009.920980335872
 20
405669.71549210983
 30
0.0
 11
17003.920980335872
 21
405669.71549210983
 31
0.0
  0
LINE
  5
69444
  8
S-OBRYS
  6
CONTINUOUS
 10
17001.920980335872
 20
405662.01998440822
 30
0.0
 11
17001.920980335872
 21
405667.71549210988
 31
0.0
  0
ARC
  5
69445
  8
S-OBRYS
  6
CONTINUOUS
 10
17003.920980335872
 20
405667.71549210988
 30
0.0
 40
2.0
 50
90.0
 51
180.0
  0
LINE
  5
69446
  8
S-OBRYS
  6
CONTINUOUS
 10
17001.920980335872
 20
405656.51998440822
 30
0.0
 11
16995.901026226358
 21
405656.51998440822
 31
0.0
  0
LINE
  5
69447
  8
S-OBRYS
  6
CONTINUOUS
 10
17023.776954238721
 20
405676.32017369737
 30
0.0
 11
17023.62784775607
 21
405681.31794992852
 31
0.0
  0
LINE
  5
69448
  8
S-OBRYS
  6
CONTINUOUS
 10
17022.777398992479
 20
405676.29035240092
 30
0.0
 11
17021.71599546164
 21
405675.5583744215
 31
0.0
  0
LINE
  5
69449
  8
S-OBRYS
  6
CONTINUOUS
 10
17023.326899975229
 20
405672.03185413842
 30
0.0
 11
17021.793530832609
 21
405672.95953078131
 31
0.0
  0
LINE
  5
6944A
  8
S-OBRYS
  6
CONTINUOUS
 10
17021.793530832609
 20
405672.95953078131
 30
0.0
 11
17021.71599546164
 21
405675.5583744215
 31
0.0
  0
LINE
  5
6944B
  8
S-OBRYS
  6
CONTINUOUS
 10
17035.771617193521
 20
405676.67802925583
 30
0.0
 11
17035.62251071088
 21
405681.67580548691
 31
0.0
  0
LINE
  5
6944C
  8
S-OBRYS
  6
CONTINUOUS
 10
17036.77117243976
 20
405676.70785055222
 30
0.0
 11
17037.874325785739
 21
405676.04045118688
 31
0.0
  0
LINE
  5
6944D
  8
S-OBRYS
  6
CONTINUOUS
 10
17037.951861156711
 20
405673.4416075467
 30
0.0
 11
17037.874325785739
 21
405676.04045118688
 31
0.0
  0
LINE
  5
6944E
  8
S-OBRYS
  6
CONTINUOUS
 10
17029.774285716121
 20
405676.49910147651
 30
0.0
 11
17036.77117243976
 21
405676.70785055222
 31
0.0
  0
LINE
  5
6944F
  8
S-OBRYS
  6
CONTINUOUS
 10
17037.621621203351
 20
405681.73544808
 30
0.0
 11
17038.83465381003
 21
405682.57199434208
 31
0.0
  0
LINE
  5
69450
  8
S-OBRYS
  6
CONTINUOUS
 10
17029.625179233481
 20
405681.49687770777
 30
0.0
 11
17037.621621203351
 21
405681.73544808
 31
0.0
  0
LINE
  5
69451
  8
S-OBRYS
  6
CONTINUOUS
 10
17037.561978610302
 20
405683.73455857253
 30
0.0
 11
17038.822725291418
 21
405682.97181644058
 31
0.0
  0
LINE
  5
69452
  8
S-OBRYS
  6
CONTINUOUS
 10
17038.83465381003
 20
405682.57199434208
 30
0.0
 11
17038.822725291418
 21
405682.97181644058
 31
0.0
  0
LINE
  5
69453
  8
S-OBRYS
  6
CONTINUOUS
 10
17029.565536640421
 20
405683.49598820019
 30
0.0
 11
17037.561978610302
 21
405683.73455857253
 31
0.0
  0
LINE
  5
69454
  8
S-OBRYS
  6
CONTINUOUS
 10
17059.91882885111
 20
405684.01206159592
 30
0.0
 11
17059.879690897931
 21
405675.17519604112
 31
0.0
  0
LINE
  5
69455
  8
S-OBRYS
  6
CONTINUOUS
 10
17062.91882885111
 20
405687.01206159592
 30
0.0
 11
17069.91882885111
 21
405687.01206159592
 31
0.0
  0
ARC
  5
69456
  8
S-OBRYS
  6
CONTINUOUS
 10
17062.91882885111
 20
405684.01206159592
 30
0.0
 40
3.0
 50
90.0
 51
180.0
  0
ARC
  5
69457
  8
S-OBRYS
  6
CONTINUOUS
 10
17057.38766990275
 20
405675.70386037079
 30
0.0
 40
2.5474800517290328
 50
271.93677490173849
 51
348.02268352668591
  0
LINE
  5
69458
  8
S-OBRYS
  6
CONTINUOUS
 10
17030.281145910471
 20
405659.51007600268
 30
0.0
 11
17029.5357153439
 21
405684.49554344639
 31
0.0
  0
LINE
  5
69459
  8
S-OBRYS
  6
CONTINUOUS
 10
17036.546625150138
 20
405672.47251164418
 30
0.0
 11
17037.951861156711
 21
405673.4416075467
 31
0.0
  0
LINE
  5
6945A
  8
S-OBRYS
  6
CONTINUOUS
 10
17081.021775803922
 20
405682.20196799299
 30
0.0
 11
17055.521775803922
 21
405682.20196799299
 31
0.0
  0
LINE
  5
6945B
  8
S-OBRYS
  6
CONTINUOUS
 10
17029.774285716121
 20
405676.49910147651
 30
0.0
 11
17022.777398992479
 21
405676.29035240092
 31
0.0
  0
LINE
  5
6945C
  8
S-OBRYS
  6
CONTINUOUS
 10
17029.625179233481
 20
405681.49687770777
 30
0.0
 11
17021.628737263611
 21
405681.25830733549
 31
0.0
  0
LINE
  5
6945D
  8
S-OBRYS
  6
CONTINUOUS
 10
17029.565536640421
 20
405683.49598820019
 30
0.0
 11
17021.569094670562
 21
405683.25741782802
 31
0.0
  0
LINE
  5
6945E
  8
S-OBRYS
  6
CONTINUOUS
 10
17154.773925662848
 20
405683.6685181596
 30
0.0
 11
17154.773925662848
 21
405612.6685181596
 31
0.0
  0
ARC
  5
6945F
  8
S-OBRYS
  6
CONTINUOUS
 10
17173.273925662848
 20
405616.6685181596
 30
0.0
 40
4.0
 50
262.8749836510982
 51
0.0
  0
LINE
  5
69460
  8
S-OBRYS
  6
CONTINUOUS
 10
17179.773925662848
 20
405608.1685181596
 30
0.0
 11
17179.773925662848
 21
405681.1685181596
 31
0.0
  0
ARC
  5
69461
  8
S-OBRYS
  6
CONTINUOUS
 10
17136.273925662848
 20
405616.6685181596
 30
0.0
 40
4.0
 50
180.0
 51
270.0
  0
LINE
  5
69462
  8
S-OBRYS
  6
CONTINUOUS
 10
17129.773925662848
 20
405681.1685181596
 30
0.0
 11
17129.773925662848
 21
405608.1685181596
 31
0.0
  0
LINE
  5
69463
  8
S-OBRYS
  6
CONTINUOUS
 10
17129.773925662848
 20
405608.1685181596
 30
0.0
 11
17179.773925662848
 21
405608.1685181596
 31
0.0
  0
LINE
  5
69464
  8
S-OBRYS
  6
CONTINUOUS
 10
17173.273925662848
 20
405612.6685181596
 30
0.0
 11
17136.273925662848
 21
405612.6685181596
 31
0.0
  0
LINE
  5
69465
  8
S-OBRYS
  6
CONTINUOUS
 10
17177.273925662848
 20
405670.6685181596
 30
0.0
 11
17177.273925662848
 21
405616.6685181596
 31
0.0
  0
ARC
  5
69466
  8
S-OBRYS
  6
CONTINUOUS
 10
17173.273925662848
 20
405670.6685181596
 30
0.0
 40
4.0
 50
0.0
 51
90.0
  0
LINE
  5
69467
  8
S-OBRYS
  6
CONTINUOUS
 10
17139.773925662848
 20
405683.6685181596
 30
0.0
 11
17169.773925662848
 21
405683.6685181596
 31
0.0
  0
LINE
  5
69468
  8
S-OBRYS
  6
CONTINUOUS
 10
17157.273925662848
 20
405681.6685181596
 30
0.0
 11
17157.273925662848
 21
405681.1685181596
 31
0.0
  0
ARC
  5
69469
  8
S-OBRYS
  6
CONTINUOUS
 10
17156.773925662848
 20
405681.6685181596
 30
0.0
 40
0.5
 50
0.0
 51
90.0
  0
LINE
  5
6946A
  8
S-OBRYS
  6
CONTINUOUS
 10
17152.273925662848
 20
405681.6685181596
 30
0.0
 11
17152.273925662848
 21
405681.1685181596
 31
0.0
  0
ARC
  5
6946B
  8
S-OBRYS
  6
CONTINUOUS
 10
17152.773925662848
 20
405681.6685181596
 30
0.0
 40
0.5
 50
90.0
 51
180.0
  0
LINE
  5
6946C
  8
S-OBRYS
  6
CONTINUOUS
 10
17157.273925662848
 20
405681.1685181596
 30
0.0
 11
17152.273925662848
 21
405681.1685181596
 31
0.0
  0
LINE
  5
6946D
  8
S-OBRYS
  6
CONTINUOUS
 10
17156.773925662848
 20
405682.1685181596
 30
0.0
 11
17152.773925662848
 21
405682.1685181596
 31
0.0
  0
ARC
  5
6946E
  8
S-OBRYS
  6
CONTINUOUS
 10
17154.773925662848
 20
405682.1685181596
 30
0.0
 40
1.5
 50
0.0
 51
180.0
  0
LINE
  5
6946F
  8
S-OBRYS
  6
CONTINUOUS
 10
17148.773925662848
 20
405679.6685181596
 30
0.0
 11
17148.773925662848
 21
405677.6685181596
 31
0.0
  0
ARC
  5
69470
  8
S-OBRYS
  6
CONTINUOUS
 10
17150.273925662848
 20
405679.6685181596
 30
0.0
 40
1.5
 50
90.0
 51
180.0
  0
LINE
  5
69471
  8
S-OBRYS
  6
CONTINUOUS
 10
17160.773925662848
 20
405679.6685181596
 30
0.0
 11
17160.773925662848
 21
405677.6685181596
 31
0.0
  0
ARC
  5
69472
  8
S-OBRYS
  6
CONTINUOUS
 10
17159.273925662848
 20
405679.6685181596
 30
0.0
 40
1.5
 50
0.0
 51
90.0
  0
ARC
  5
69473
  8
S-OBRYS
  6
CONTINUOUS
 10
17162.773925662848
 20
405675.66851815948
 30
0.0
 40
2.0
 50
0.0
 51
90.0
  0
ARC
  5
69474
  8
S-OBRYS
  6
CONTINUOUS
 10
17146.773925662848
 20
405675.66851815948
 30
0.0
 40
2.0
 50
90.0
 51
180.0
  0
LINE
  5
69475
  8
S-OBRYS
  6
CONTINUOUS
 10
17162.773925662848
 20
405677.6685181596
 30
0.0
 11
17146.773925662848
 21
405677.6685181596
 31
0.0
  0
LINE
  5
69476
  8
S-OBRYS
  6
CONTINUOUS
 10
17132.273925662848
 20
405670.6685181596
 30
0.0
 11
17132.273925662848
 21
405616.6685181596
 31
0.0
  0
ARC
  5
69477
  8
S-OBRYS
  6
CONTINUOUS
 10
17136.273925662848
 20
405670.6685181596
 30
0.0
 40
4.0
 50
90.0
 51
180.0
  0
LINE
  5
69478
  8
S-OBRYS
  6
CONTINUOUS
 10
17173.273925662848
 20
405674.6685181596
 30
0.0
 11
17136.273925662848
 21
405674.6685181596
 31
0.0
  0
LINE
  5
69479
  8
S-OBRYS
  6
CONTINUOUS
 10
17179.773925662848
 20
405681.1685181596
 30
0.0
 11
17129.773925662848
 21
405681.1685181596
 31
0.0
  0
LINE
  5
6947A
  8
S-OBRYS
  6
CONTINUOUS
 10
17070.021775803922
 20
405714.70196799299
 30
0.0
 11
17139.773925662848
 21
405714.70030531532
 31
0.0
  0
LINE
  5
6947B
  8
S-OBRYS
  6
CONTINUOUS
 10
17087.521775803911
 20
405732.20196799299
 30
0.0
 11
17139.773925662848
 21
405732.20196799299
 31
0.0
  0
LINE
  5
6947C
  8
S-OBRYS
  6
CONTINUOUS
 10
17087.773925662848
 20
405772.6685181596
 30
0.0
 11
17127.773925662848
 21
405772.6685181596
 31
0.0
  0
LINE
  5
6947D
  8
S-OBRYS
  6
CONTINUOUS
 10
17087.773925662848
 20
405772.6685181596
 30
0.0
 11
17087.773925662848
 21
405732.20196799299
 31
0.0
  0
LINE
  5
6947E
  8
S-OBRYS
  6
CONTINUOUS
 10
17070.021775803922
 20
405714.70196799299
 30
0.0
 11
17088.021775803922
 21
405732.70196799299
 31
0.0
  0
LINE
  5
6947F
  8
S-OBRYS
  6
CONTINUOUS
 10
17107.773925662848
 20
405719.45196799299
 30
0.0
 11
17107.773925662848
 21
405780.4185181596
 31
0.0
  0
LINE
  5
69480
  8
S-OBRYS
  6
CONTINUOUS
 10
17162.773925662848
 20
405740.1685181596
 30
0.0
 11
17162.773925662848
 21
405724.6685181596
 31
0.0
  0
LINE
  5
69481
  8
S-OBRYS
  6
CONTINUOUS
 10
17146.273925662848
 20
405740.1685181596
 30
0.0
 11
17146.273925662848
 21
405724.6685181596
 31
0.0
  0
LINE
  5
69482
  8
S-OBRYS
  6
CONTINUOUS
 10
17169.773925662848
 20
405735.6685181596
 30
0.0
 11
17139.773925662848
 21
405735.6685181596
 31
0.0
  0
LINE
  5
69483
  8
S-OBRYS
  6
CONTINUOUS
 10
17127.773925662848
 20
405772.6685181596
 30
0.0
 11
17127.773925662848
 21
405732.1685181596
 31
0.0
  0
LINE
  5
69484
  8
S-OBRYS
  6
CONTINUOUS
 10
19099.91882885111
 20
405524.1685181596
 30
0.0
 11
19099.92336971598
 21
405714.66549982259
 31
0.0
  0
LINE
  5
69485
  8
S-OBRYS
  6
CONTINUOUS
 10
19039.91882885111
 20
405524.1685181596
 30
0.0
 11
19039.923369750071
 21
405714.66693003889
 31
0.0
  0
LINE
  5
69486
  8
S-OBRYS
  6
CONTINUOUS
 10
19069.91882885111
 20
405524.1685181596
 30
0.0
 11
19069.91882885111
 21
405732.20196799299
 31
0.0
  0
LINE
  5
69487
  8
S-OBRYS
  6
CONTINUOUS
 10
19099.91882885111
 20
405524.1685181596
 30
0.0
 11
19099.91882885111
 21
405523.16851815948
 31
0.0
  0
LINE
  5
69488
  8
S-OBRYS
  6
CONTINUOUS
 10
19039.91882885111
 20
405524.1685181596
 30
0.0
 11
19039.91882885111
 21
405523.16851815948
 31
0.0
  0
LINE
  5
69489
  8
S-OBRYS
  6
CONTINUOUS
 10
19058.41882885111
 20
405750.1615627404
 30
0.0
 11
19058.41882885111
 21
405751.1685181596
 31
0.0
  0
LINE
  5
6948A
  8
S-OBRYS
  6
CONTINUOUS
 10
19052.399462720459
 20
405750.1615627404
 30
0.0
 11
19042.899462720459
 21
405750.1615627404
 31
0.0
  0
LINE
  5
6948B
  8
S-OBRYS
  6
CONTINUOUS
 10
19061.899462720459
 20
405750.1615627404
 30
0.0
 11
19063.369112720458
 21
405749.313060313
 31
0.0
  0
LINE
  5
6948C
  8
S-OBRYS
  6
CONTINUOUS
 10
19052.399462720459
 20
405750.1615627404
 30
0.0
 11
19061.899462720459
 21
405750.1615627404
 31
0.0
  0
LINE
  5
6948D
  8
S-OBRYS
  6
CONTINUOUS
 10
19047.41882885111
 20
405752.1685181596
 30
0.0
 11
19046.41882885111
 21
405751.1685181596
 31
0.0
  0
LINE
  5
6948E
  8
S-OBRYS
  6
CONTINUOUS
 10
19057.41882885111
 20
405752.1685181596
 30
0.0
 11
19058.41882885111
 21
405751.1685181596
 31
0.0
  0
LINE
  5
6948F
  8
S-OBRYS
  6
CONTINUOUS
 10
19058.41882885111
 20
405751.1685181596
 30
0.0
 11
19046.41882885111
 21
405751.1685181596
 31
0.0
  0
LINE
  5
69490
  8
S-OBRYS
  6
CONTINUOUS
 10
19047.41882885111
 20
405752.1685181596
 30
0.0
 11
19057.41882885111
 21
405752.1685181596
 31
0.0
  0
LINE
  5
69491
  8
S-OBRYS
  6
CONTINUOUS
 10
19046.41882885111
 20
405751.1685181596
 30
0.0
 11
19046.41882885111
 21
405750.1615627404
 31
0.0
  0
LINE
  5
69492
  8
S-OBRYS
  6
CONTINUOUS
 10
19052.399462720459
 20
405743.18060614268
 30
0.0
 11
19061.899462720459
 21
405743.18060614268
 31
0.0
  0
LINE
  5
69493
  8
S-OBRYS
  6
CONTINUOUS
 10
19061.899462720459
 20
405743.18060614268
 30
0.0
 11
19063.369112720458
 21
405742.33210371522
 31
0.0
  0
LINE
  5
69494
  8
S-OBRYS
  6
CONTINUOUS
 10
19052.399462720459
 20
405743.18060614268
 30
0.0
 11
19042.899462720459
 21
405743.18060614268
 31
0.0
  0
LINE
  5
69495
  8
S-OBRYS
  6
CONTINUOUS
 10
19042.899462720459
 20
405743.1615627404
 30
0.0
 11
19052.399462720459
 21
405743.1615627404
 31
0.0
  0
LINE
  5
69496
  8
S-OBRYS
  6
CONTINUOUS
 10
19061.899462720459
 20
405743.1615627404
 30
0.0
 11
19052.399462720459
 21
405743.1615627404
 31
0.0
  0
LINE
  5
69497
  8
S-OBRYS
  6
CONTINUOUS
 10
19063.369112720458
 20
405744.01006516791
 30
0.0
 11
19061.899462720459
 21
405743.1615627404
 31
0.0
  0
LINE
  5
69498
  8
S-OBRYS
  6
CONTINUOUS
 10
19062.41882885111
 20
405736.1685181596
 30
0.0
 11
19042.41882885111
 21
405736.1685181596
 31
0.0
  0
LINE
  5
69499
  8
S-OBRYS
  6
CONTINUOUS
 10
19046.41882885111
 20
405736.18060614268
 30
0.0
 11
19046.41882885111
 21
405736.1685181596
 31
0.0
  0
LINE
  5
6949A
  8
S-OBRYS
  6
CONTINUOUS
 10
19047.41882885111
 20
405736.1685181596
 30
0.0
 11
19047.41882885111
 21
405736.18060614268
 31
0.0
  0
LINE
  5
6949B
  8
S-OBRYS
  6
CONTINUOUS
 10
19061.899462720459
 20
405736.18060614268
 30
0.0
 11
19052.399462720459
 21
405736.18060614268
 31
0.0
  0
LINE
  5
6949C
  8
S-OBRYS
  6
CONTINUOUS
 10
19063.369112720458
 20
405737.02910857019
 30
0.0
 11
19061.899462720459
 21
405736.18060614268
 31
0.0
  0
LINE
  5
6949D
  8
S-OBRYS
  6
CONTINUOUS
 10
19042.899462720459
 20
405736.18060614268
 30
0.0
 11
19052.399462720459
 21
405736.18060614268
 31
0.0
  0
LINE
  5
6949E
  8
S-OBRYS
  6
CONTINUOUS
 10
19065.41882885111
 20
405732.1685181596
 30
0.0
 11
19065.41882885111
 21
405733.1685181596
 31
0.0
  0
ARC
  5
6949F
  8
S-OBRYS
  6
CONTINUOUS
 10
19062.41882885111
 20
405733.1685181596
 30
0.0
 40
3.0
 50
0.0
 51
90.0
  0
LINE
  5
694A0
  8
S-OBRYS
  6
CONTINUOUS
 10
19063.369112720458
 20
405742.33210371522
 30
0.0
 11
19063.369112720458
 21
405737.02910857019
 31
0.0
  0
LINE
  5
694A1
  8
S-OBRYS
  6
CONTINUOUS
 10
19063.369112720458
 20
405749.313060313
 30
0.0
 11
19063.369112720458
 21
405744.01006516791
 31
0.0
  0
LINE
  5
694A2
  8
S-OBRYS
  6
CONTINUOUS
 10
19036.41882885111
 20
405762.1685181596
 30
0.0
 11
19035.41882885111
 21
405762.1685181596
 31
0.0
  0
ARC
  5
694A3
  8
S-OBRYS
  6
CONTINUOUS
 10
19036.41882885111
 20
405759.1685181596
 30
0.0
 40
3.0
 50
0.0
 51
90.0
  0
LINE
  5
694A4
  8
S-OBRYS
  6
CONTINUOUS
 10
19041.42981272046
 20
405742.33210371522
 30
0.0
 11
19041.42981272046
 21
405737.02910857019
 31
0.0
  0
LINE
  5
694A5
  8
S-OBRYS
  6
CONTINUOUS
 10
19035.41882885111
 20
405732.1685181596
 30
0.0
 11
19035.41882885111
 21
405762.1685181596
 31
0.0
  0
LINE
  5
694A6
  8
S-OBRYS
  6
CONTINUOUS
 10
19039.41882885111
 20
405739.16851815948
 30
0.0
 11
19039.41882885111
 21
405759.1685181596
 31
0.0
  0
LINE
  5
694A7
  8
S-OBRYS
  6
CONTINUOUS
 10
19041.42981272046
 20
405749.313060313
 30
0.0
 11
19041.42981272046
 21
405744.01006516791
 31
0.0
  0
LINE
  5
694A8
  8
S-OBRYS
  6
CONTINUOUS
 10
19042.899462720459
 20
405743.18060614268
 30
0.0
 11
19041.42981272046
 21
405742.33210371522
 31
0.0
  0
LINE
  5
694A9
  8
S-OBRYS
  6
CONTINUOUS
 10
19041.42981272046
 20
405737.02910857019
 30
0.0
 11
19042.899462720459
 21
405736.18060614268
 31
0.0
  0
LINE
  5
694AA
  8
S-OBRYS
  6
CONTINUOUS
 10
19035.41882885111
 20
405732.1685181596
 30
0.0
 11
19065.41882885111
 21
405732.1685181596
 31
0.0
  0
LINE
  5
694AB
  8
S-OBRYS
  6
CONTINUOUS
 10
19041.42981272046
 20
405744.01006516791
 30
0.0
 11
19042.899462720459
 21
405743.1615627404
 31
0.0
  0
ARC
  5
694AC
  8
S-OBRYS
  6
CONTINUOUS
 10
19042.41882885111
 20
405739.16851815948
 30
0.0
 40
3.0
 50
180.0
 51
270.0
  0
LINE
  5
694AD
  8
S-OBRYS
  6
CONTINUOUS
 10
19042.899462720459
 20
405750.1615627404
 30
0.0
 11
19041.42981272046
 21
405749.313060313
 31
0.0
  0
LINE
  5
694AE
  8
S-OBRYS
  6
CONTINUOUS
 10
20577.34679990177
 20
398523.8933431154
 30
0.0
 11
20577.34679990177
 21
398726.79569232248
 31
0.0
  0
LINE
  5
694AF
  8
S-OBRYS
  6
CONTINUOUS
 10
20360.45978527124
 20
398523.8933431154
 30
0.0
 11
20360.45978527125
 21
398726.79569232248
 31
0.0
  0
LINE
  5
694B0
  8
S-OBRYS
  6
CONTINUOUS
 10
20570.778092819241
 20
398526.69659206987
 30
0.0
 11
20570.778092819241
 21
398726.79569232248
 31
0.0
  0
LINE
  5
694B1
  8
S-OBRYS
  6
CONTINUOUS
 10
20367.02849235378
 20
398526.69659206987
 30
0.0
 11
20367.02849235378
 21
398726.79569232248
 31
0.0
  0
LINE
  5
694B2
  8
S-OBRYS
  6
CONTINUOUS
 10
20631.40329258651
 20
398438.8933431154
 30
0.0
 11
20631.40329258651
 21
398744.4267929488
 31
0.0
  0
LINE
  5
694B3
  8
S-OBRYS
  6
CONTINUOUS
 10
20306.40329258651
 20
398438.8933431154
 30
0.0
 11
20306.40329258651
 21
398744.4267929488
 31
0.0
  0
LINE
  5
694B4
  8
S-OBRYS
  6
CONTINUOUS
 10
20468.903292586499
 20
398763.39273763518
 30
0.0
 11
20468.90329258651
 21
398438.8933431154
 31
0.0
  0
LINE
  5
694B5
  8
S-OBRYS
  6
CONTINUOUS
 10
21073.91882885111
 20
405714.61844581389
 30
0.0
 11
21073.91882885111
 21
405494.6685181596
 31
0.0
  0
LINE
  5
694B6
  8
S-OBRYS
  6
CONTINUOUS
 10
21069.91882885111
 20
405524.1685181596
 30
0.0
 11
21069.91882885111
 21
405494.1685181596
 31
0.0
  0
ARC
  5
694B7
  8
S-OBRYS
  6
CONTINUOUS
 10
21096.91882885111
 20
405523.16851815948
 30
0.0
 40
3.0
 50
270.0
 51
0.0
  0
LINE
  5
694B8
  8
S-OBRYS
  6
CONTINUOUS
 10
21069.91882885111
 20
405524.1685181596
 30
0.0
 11
21069.91882885111
 21
405494.1685181596
 31
0.0
  0
LINE
  5
694B9
  8
S-OBRYS
  6
CONTINUOUS
 10
21065.918828851121
 20
405714.6186365094
 30
0.0
 11
21065.918828851121
 21
405497.1685181596
 31
0.0
  0
ARC
  5
694BA
  8
S-OBRYS
  6
CONTINUOUS
 10
21042.918828851121
 20
405523.16851815948
 30
0.0
 40
3.0
 50
180.0
 51
270.0
  0
ARC
  5
694BB
  8
S-OBRYS
  6
CONTINUOUS
 10
23537.81771856494
 20
405523.16851815948
 30
0.0
 40
3.0
 50
180.0
 51
270.0
  0
LINE
  5
694BC
  8
S-OBRYS
  6
CONTINUOUS
 10
24119.81771856494
 20
405491.1685181596
 30
0.0
 11
24119.81771856494
 21
405604.6685181596
 31
0.0
  0
LINE
  5
694BD
  8
S-OBRYS
  6
CONTINUOUS
 10
23564.81771856494
 20
405441.66851815948
 30
0.0
 11
23564.81771856494
 21
405524.1685181596
 31
0.0
  0
LINE
  5
694BE
  8
S-OBRYS
  6
CONTINUOUS
 10
23569.948354678942
 20
405486.6685181596
 30
0.0
 11
23569.91536935775
 21
405714.5708673668
 31
0.0
  0
LINE
  5
694BF
  8
S-OBRYS
  6
CONTINUOUS
 10
24083.20287146507
 20
405526.2556494379
 30
0.0
 11
24083.20287146507
 21
405485.6685181596
 31
0.0
  0
LINE
  5
694C0
  8
S-OBRYS
  6
CONTINUOUS
 10
23845.81771856494
 20
405526.1685181596
 30
0.0
 11
23845.81771856494
 21
405485.6685181596
 31
0.0
  0
LINE
  5
694C1
  8
S-OBRYS
  6
CONTINUOUS
 10
24105.706589010271
 20
405521.16851815948
 30
0.0
 11
24105.706589010271
 21
405491.1685181596
 31
0.0
  0
LINE
  5
694C2
  8
S-OBRYS
  6
CONTINUOUS
 10
23820.81771856494
 20
405588.1685181596
 30
0.0
 11
23820.81771856494
 21
405515.1685181596
 31
0.0
  0
POLYLINE
  5
694C3
  8
S-OBRYS
  6
CONTINUOUS
 66
     1
 10
0.0
 20
0.0
 30
0.0
 40
10.0
 41
10.0
  0
VERTEX
  5
69D75
  8
S-OBRYS
  6
CONTINUOUS
 10
23147.827025585731
 20
396935.04707896378
 30
0.0
  0
VERTEX
  5
69D76
  8
S-OBRYS
  6
CONTINUOUS
 10
23147.827025585731
 20
397202.92533605482
 30
0.0
  0
SEQEND
  5
69D77
  8
S-OBRYS
  6
CONTINUOUS
  0
LINE
  5
694C4
  8
S-OBRYS
  6
CONTINUOUS
 10
21625.827025585731
 20
396356.98249250842
 30
0.0
 11
21625.827025585731
 21
397202.92533605482
 31
0.0
  0
INSERT
  5
694C5
  8
S-OBRYS
  6
CONTINUOUS
  2
*U92
 10
0.0
 20
0.0
 30
0.0
  0
INSERT
  5
694C6
  8
S-OBRYS
  6
CONTINUOUS
  2
*U93
 10
0.0
 20
0.0
 30
0.0
  0
INSERT
  5
694C7
  8
S-OBRYS
  6
CONTINUOUS
  2
*U94
 10
0.0
 20
0.0
 30
0.0
  0
LINE
  5
694C8
  8
S-OBRYS
  6
CONTINUOUS
 10
23147.827025585731
 20
396356.98249250842
 30
0.0
 11
23147.827025585731
 21
396935.04707896378
 31
0.0
  0
INSERT
  5
694C9
  8
S-OBRYS
  6
CONTINUOUS
  2
*U95
 10
0.0
 20
0.0
 30
0.0
  0
LINE
  5
694CA
  8
S-OBRYS
  6
CONTINUOUS
 10
21069.91882885111
 20
401127.77440068987
 30
0.0
 11
21069.91882885111
 21
401311.94866324653
 31
0.0
  0
LINE
  5
694CB
  8
S-OBRYS
  6
CONTINUOUS
 10
21073.91882885111
 20
401120.77440068987
 30
0.0
 11
21073.91882885111
 21
401100.77440068981
 31
0.0
  0
LINE
  5
694CC
  8
S-OBRYS
  6
CONTINUOUS
 10
21065.918828851121
 20
401120.77440068987
 30
0.0
 11
21065.918828851121
 21
401100.77440068981
 31
0.0
  0
LINE
  5
694CD
  8
S-OBRYS
  6
CONTINUOUS
 10
21069.91882885111
 20
401127.77440068987
 30
0.0
 11
21069.91882885111
 21
401097.77440068999
 31
0.0
  0
ARC
  5
694CE
  8
S-OBRYS
  6
CONTINUOUS
 10
21070.91882885111
 20
401100.77440068981
 30
0.0
 40
3.0
 50
250.52877936561859
 51
0.0
  0
ARC
  5
694CF
  8
S-OBRYS
  6
CONTINUOUS
 10
21068.91882885111
 20
401100.77440068981
 30
0.0
 40
3.0
 50
180.0
 51
289.4712206343815
  0
LINE
  5
694D0
  8
S-OBRYS
  6
CONTINUOUS
 10
21042.918828851121
 20
401123.77440068999
 30
0.0
 11
21062.91882885111
 21
401123.77440068999
 31
0.0
  0
ARC
  5
694D1
  8
S-OBRYS
  6
CONTINUOUS
 10
21042.918828851121
 20
401126.77440068987
 30
0.0
 40
3.0
 50
180.0
 51
270.0
  0
LINE
  5
694D2
  8
S-OBRYS
  6
CONTINUOUS
 10
21099.918828851121
 20
401127.77440068987
 30
0.0
 11
21099.918828851121
 21
401126.77440068987
 31
0.0
  0
LINE
  5
694D3
  8
S-OBRYS
  6
CONTINUOUS
 10
21085.41882885111
 20
401123.77440068999
 30
0.0
 11
21076.918828851121
 21
401123.77440068999
 31
0.0
  0
LINE
  5
694D4
  8
S-OBRYS
  6
CONTINUOUS
 10
21096.91882885111
 20
401123.77440068999
 30
0.0
 11
21076.918828851121
 21
401123.77440068999
 31
0.0
  0
ARC
  5
694D5
  8
S-OBRYS
  6
CONTINUOUS
 10
21076.918828851121
 20
401120.77440068987
 30
0.0
 40
3.0
 50
90.0
 51
180.0
  0
ARC
  5
694D6
  8
S-OBRYS
  6
CONTINUOUS
 10
21062.91882885111
 20
401120.77440068987
 30
0.0
 40
3.0
 50
0.0
 51
90.0
  0
ARC
  5
694D7
  8
S-OBRYS
  6
CONTINUOUS
 10
21096.91882885111
 20
401126.77440068987
 30
0.0
 40
3.0
 50
270.0
 51
0.0
  0
LINE
  5
694D8
  8
S-OBRYS
  6
CONTINUOUS
 10
21042.918828851121
 20
401315.94866324653
 30
0.0
 11
21062.91882885111
 21
401315.94866324653
 31
0.0
  0
ARC
  5
694D9
  8
S-OBRYS
  6
CONTINUOUS
 10
21042.918828851121
 20
401312.94866324653
 30
0.0
 40
3.0
 50
90.0
 51
180.0
  0
ARC
  5
694DA
  8
S-OBRYS
  6
CONTINUOUS
 10
21068.91882885111
 20
401338.94866324653
 30
0.0
 40
3.0
 50
70.528779365618561
 51
180.0
  0
ARC
  5
694DB
  8
S-OBRYS
  6
CONTINUOUS
 10
21070.91882885111
 20
401338.94866324653
 30
0.0
 40
3.0
 50
0.0
 51
109.4712206343814
  0
ARC
  5
694DC
  8
S-OBRYS
  6
CONTINUOUS
 10
21096.91882885111
 20
401312.94866324653
 30
0.0
 40
3.0
 50
0.0
 51
90.0
  0
LINE
  5
694DD
  8
S-OBRYS
  6
CONTINUOUS
 10
21099.918828851121
 20
401311.94866324653
 30
0.0
 11
21099.918828851121
 21
401312.94866324653
 31
0.0
  0
LINE
  5
694DE
  8
S-OBRYS
  6
CONTINUOUS
 10
21085.41882885111
 20
401315.94866324653
 30
0.0
 11
21076.918828851121
 21
401315.94866324653
 31
0.0
  0
ARC
  5
694DF
  8
S-OBRYS
  6
CONTINUOUS
 10
21062.91882885111
 20
401318.94866324653
 30
0.0
 40
3.0
 50
270.0
 51
0.0
  0
ARC
  5
694E0
  8
S-OBRYS
  6
CONTINUOUS
 10
21076.918828851121
 20
401318.94866324653
 30
0.0
 40
3.0
 50
180.0
 51
270.0
  0
LINE
  5
694E1
  8
S-OBRYS
  6
CONTINUOUS
 10
21096.91882885111
 20
401315.94866324653
 30
0.0
 11
21076.918828851121
 21
401315.94866324653
 31
0.0
  0
LINE
  5
694E2
  8
S-OBRYS
  6
CONTINUOUS
 10
21065.918828851121
 20
401318.94866324653
 30
0.0
 11
21065.918828851121
 21
401338.94866324653
 31
0.0
  0
LINE
  5
694E3
  8
S-OBRYS
  6
CONTINUOUS
 10
21069.91882885111
 20
401311.94866324653
 30
0.0
 11
21069.91882885111
 21
401341.94866324653
 31
0.0
  0
LINE
  5
694E4
  8
S-OBRYS
  6
CONTINUOUS
 10
21073.91882885111
 20
401318.94866324653
 30
0.0
 11
21073.91882885111
 21
401338.94866324653
 31
0.0
  0
ARC
  5
694E5
  8
S-OBRYS
  6
CONTINUOUS
 10
21063.918828851121
 20
405442.1685181596
 30
0.0
 40
15.0
 50
270.0
 51
0.0
  0
LINE
  5
694E6
  8
S-OBRYS
  6
CONTINUOUS
 10
21063.918828851121
 20
405427.16851815948
 30
0.0
 11
21028.91882885111
 21
405427.16851815948
 31
0.0
  0
LINE
  5
694E7
  8
S-OBRYS
  6
CONTINUOUS
 10
21028.91882885111
 20
405432.1685181596
 30
0.0
 11
21063.918828851121
 21
405432.1685181596
 31
0.0
  0
LINE
  5
694E8
  8
S-OBRYS
  6
CONTINUOUS
 10
21042.918828851121
 20
405520.1685181596
 30
0.0
 11
21062.91882885111
 21
405520.1685181596
 31
0.0
  0
LINE
  5
694E9
  8
S-OBRYS
  6
CONTINUOUS
 10
21028.91882885111
 20
405427.16851815948
 30
0.0
 11
21028.91882885111
 21
405432.1685181596
 31
0.0
  0
LINE
  5
694EA
  8
S-OBRYS
  6
CONTINUOUS
 10
21057.918828851121
 20
405509.6685181596
 30
0.0
 11
21091.918828851121
 21
405509.6685181596
 31
0.0
  0
LINE
  5
694EB
  8
S-OBRYS
  6
CONTINUOUS
 10
21078.918828851121
 20
405491.6685181596
 30
0.0
 11
21078.918828851121
 21
405487.1685181596
 31
0.0
  0
LINE
  5
694EC
  8
S-OBRYS
  6
CONTINUOUS
 10
21072.918828851121
 20
405494.6685181596
 30
0.0
 11
21073.91882885111
 21
405494.6685181596
 31
0.0
  0
LINE
  5
694ED
  8
S-OBRYS
  6
CONTINUOUS
 10
21073.91882885111
 20
405494.6685181596
 30
0.0
 11
21073.91882885111
 21
405480.6685181596
 31
0.0
  0
ARC
  5
694EE
  8
S-OBRYS
  6
CONTINUOUS
 10
21063.918828851121
 20
405442.1685181596
 30
0.0
 40
10.0
 50
270.0
 51
0.0
  0
LINE
  5
694EF
  8
S-OBRYS
  6
CONTINUOUS
 10
21073.91882885111
 20
405442.1685181596
 30
0.0
 11
21073.91882885111
 21
405480.6685181596
 31
0.0
  0
LINE
  5
694F0
  8
S-OBRYS
  6
CONTINUOUS
 10
21078.918828851121
 20
405520.1685181596
 30
0.0
 11
21078.918828851121
 21
405442.1685181596
 31
0.0
  0
ARC
  5
694F1
  8
S-OBRYS
  6
CONTINUOUS
 10
21076.918828851121
 20
405517.1685181596
 30
0.0
 40
3.0
 50
90.0
 51
180.0
  0
ARC
  5
694F2
  8
S-OBRYS
  6
CONTINUOUS
 10
21070.91882885111
 20
405497.1685181596
 30
0.0
 40
3.0
 50
270.0
 51
0.0
  0
LINE
  5
694F3
  8
S-OBRYS
  6
CONTINUOUS
 10
21070.91882885111
 20
405494.1685181596
 30
0.0
 11
21069.91882885111
 21
405494.1685181596
 31
0.0
  0
LINE
  5
694F4
  8
S-OBRYS
  6
CONTINUOUS
 10
21073.91882885111
 20
405517.1685181596
 30
0.0
 11
21073.91882885111
 21
405497.1685181596
 31
0.0
  0
LINE
  5
694F5
  8
S-OBRYS
  6
CONTINUOUS
 10
21096.91882885111
 20
405520.1685181596
 30
0.0
 11
21076.918828851121
 21
405520.1685181596
 31
0.0
  0
LINE
  5
694F6
  8
S-OBRYS
  6
CONTINUOUS
 10
21085.41882885111
 20
405520.1685181596
 30
0.0
 11
21076.918828851121
 21
405520.1685181596
 31
0.0
  0
ARC
  5
694F7
  8
S-OBRYS
  6
CONTINUOUS
 10
21062.91882885111
 20
405517.1685181596
 30
0.0
 40
3.0
 50
0.0
 51
90.0
  0
ARC
  5
694F8
  8
S-OBRYS
  6
CONTINUOUS
 10
21068.91882885111
 20
405497.1685181596
 30
0.0
 40
3.0
 50
180.0
 51
270.0
  0
LINE
  5
694F9
  8
S-OBRYS
  6
CONTINUOUS
 10
21068.91882885111
 20
405494.1685181596
 30
0.0
 11
21069.91882885111
 21
405494.1685181596
 31
0.0
  0
LINE
  5
694FA
  8
S-OBRYS
  6
CONTINUOUS
 10
21054.418828851121
 20
405520.1685181596
 30
0.0
 11
21062.91882885111
 21
405520.1685181596
 31
0.0
  0
LINE
  5
694FB
  8
S-OBRYS
  6
CONTINUOUS
 10
23579.938468142489
 20
401168.75147124729
 30
0.0
 11
23579.938468142489
 21
401287.14055523678
 31
0.0
  0
LINE
  5
694FC
  8
S-OBRYS
  6
CONTINUOUS
 10
23645.938468142489
 20
401182.08250869962
 30
0.0
 11
23645.938468142489
 21
401205.08250869962
 31
0.0
  0
LINE
  5
694FD
  8
S-OBRYS
  6
CONTINUOUS
 10
23637.938468142489
 20
401180.08250869962
 30
0.0
 11
23637.938468142489
 21
401260.00586611842
 31
0.0
  0
LINE
  5
694FE
  8
S-OBRYS
  6
CONTINUOUS
 10
23658.81771856494
 20
401242.27440068987
 30
0.0
 11
23658.81771856494
 21
401189.27440068987
 31
0.0
  0
LINE
  5
694FF
  8
S-OBRYS
  6
CONTINUOUS
 10
23805.84200101973
 20
401239.77440068987
 30
0.0
 11
23805.84200101973
 21
401199.77440068987
 31
0.0
  0
LINE
  5
69500
  8
S-OBRYS
  6
CONTINUOUS
 10
23743.81771856494
 20
401156.77440068987
 30
0.0
 11
23743.81771856494
 21
401282.77440068987
 31
0.0
  0
LINE
  5
69501
  8
S-OBRYS
  6
CONTINUOUS
 10
23698.81771856494
 20
401252.27440068999
 30
0.0
 11
23698.81771856494
 21
401187.27440068987
 31
0.0
  0
LINE
  5
69502
  8
S-OBRYS
  6
CONTINUOUS
 10
23820.81771856494
 20
401303.9448990823
 30
0.0
 11
23820.81771856494
 21
401135.77816485398
 31
0.0
  0
LINE
  5
69503
  8
S-OBRYS
  6
CONTINUOUS
 10
24065.843593559272
 20
401303.56244519952
 30
0.0
 11
24065.843593559272
 21
401136.16061873687
 31
0.0
  0
LINE
  5
69504
  8
S-OBRYS
  6
CONTINUOUS
 10
24043.206589010279
 20
401313.68023351108
 30
0.0
 11
24043.206589010279
 21
401126.04283042531
 31
0.0
  0
LINE
  5
69505
  8
S-OBRYS
  6
CONTINUOUS
 10
24001.206589010279
 20
401313.68023351108
 30
0.0
 11
24001.206589010279
 21
401126.04283042531
 31
0.0
  0
LINE
  5
69506
  8
S-OBRYS
  6
CONTINUOUS
 10
24232.46437146507
 20
401192.03435280832
 30
0.0
 11
24232.46437146507
 21
401247.68871112808
 31
0.0
  0
LINE
  5
69507
  8
S-OBRYS
  6
CONTINUOUS
 10
24141.137371465069
 20
401192.03435280832
 30
0.0
 11
24141.137371465069
 21
401247.68871112808
 31
0.0
  0
LINE
  5
69508
  8
S-OBRYS
  6
CONTINUOUS
 10
24077.174871465071
 20
401309.86153196823
 30
0.0
 11
24077.174871465071
 21
401129.86153196823
 31
0.0
  0
LINE
  5
69509
  8
S-OBRYS
  6
CONTINUOUS
 10
24353.174871465071
 20
401303.92153196823
 30
0.0
 11
24353.174871465071
 21
401135.80153196817
 31
0.0
  0
LINE
  5
6950A
  8
S-OBRYS
  6
CONTINUOUS
 10
24362.924871465071
 20
401295.10153196822
 30
0.0
 11
24362.924871465071
 21
401144.62153196818
 31
0.0
  0
LINE
  5
6950B
  8
S-OBRYS
  6
CONTINUOUS
 10
24305.424871465071
 20
401129.86153196823
 30
0.0
 11
24305.424871465071
 21
401219.86153196823
 31
0.0
  0
LINE
  5
6950C
  8
S-OBRYS
  6
CONTINUOUS
 10
23569.929598956751
 20
401328.30503928353
 30
0.0
 11
23569.929598956751
 21
401111.41802465293
 31
0.0
  0
LINE
  5
6950D
  8
S-OBRYS
  6
CONTINUOUS
 10
24077.174871465071
 20
401129.86153196823
 30
0.0
 11
24283.924871465071
 21
401129.86153196823
 31
0.0
  0
LINE
  5
6950E
  8
S-OBRYS
  6
CONTINUOUS
 10
24077.174871465071
 20
401137.77440068987
 30
0.0
 11
24305.456589010279
 21
401137.77440068987
 31
0.0
  0
LINE
  5
6950F
  8
S-OBRYS
  6
CONTINUOUS
 10
24077.174871465071
 20
401152.77440068987
 30
0.0
 11
24305.456589010279
 21
401152.77440068987
 31
0.0
  0
LINE
  5
69510
  8
S-OBRYS
  6
CONTINUOUS
 10
24077.174871465071
 20
401177.77440068999
 30
0.0
 11
24305.456589010279
 21
401177.77440068999
 31
0.0
  0
LINE
  5
69511
  8
S-OBRYS
  6
CONTINUOUS
 10
23820.81771856494
 20
401164.88490520138
 30
0.0
 11
24001.206589010279
 21
401164.88490520138
 31
0.0
  0
LINE
  5
69512
  8
S-OBRYS
  6
CONTINUOUS
 10
23820.81771856494
 20
401135.77816485398
 30
0.0
 11
24001.206589010279
 21
401135.77816485398
 31
0.0
  0
LINE
  5
69513
  8
S-OBRYS
  6
CONTINUOUS
 10
23569.929598956751
 20
401120.35427735711
 30
0.0
 11
24119.81771856494
 21
401120.35427735711
 31
0.0
  0
LINE
  5
69514
  8
S-OBRYS
  6
CONTINUOUS
 10
24119.817718564929
 20
401111.41802465293
 30
0.0
 11
23569.929598956751
 21
401111.41802465293
 31
0.0
  0
LINE
  5
69515
  8
S-OBRYS
  6
CONTINUOUS
 10
23660.81771856494
 20
401187.27440068987
 30
0.0
 11
23693.81771856494
 21
401187.27440068987
 31
0.0
  0
LINE
  5
69516
  8
S-OBRYS
  6
CONTINUOUS
 10
23569.929598956751
 20
401111.41802465293
 30
0.0
 11
23569.929598956751
 21
401057.36153196823
 31
0.0
  0
LINE
  5
69517
  8
S-OBRYS
  6
CONTINUOUS
 10
23564.81771856494
 20
401057.36153196823
 30
0.0
 11
23564.81771856494
 21
401127.77440068987
 31
0.0
  0
LINE
  5
69518
  8
S-OBRYS
  6
CONTINUOUS
 10
23560.81771856494
 20
401100.77440068981
 30
0.0
 11
23560.81771856494
 21
401120.77440068987
 31
0.0
  0
LINE
  5
69519
  8
S-OBRYS
  6
CONTINUOUS
 10
23564.817718564929
 20
401057.36153196823
 30
0.0
 11
23569.929598956751
 21
401057.36153196823
 31
0.0
  0
LINE
  5
6951A
  8
S-OBRYS
  6
CONTINUOUS
 10
23564.81771856494
 20
401097.77440068999
 30
0.0
 11
23563.81771856494
 21
401097.77440068999
 31
0.0
  0
ARC
  5
6951B
  8
S-OBRYS
  6
CONTINUOUS
 10
23563.81771856494
 20
401100.77440068981
 30
0.0
 40
3.0
 50
180.0
 51
270.0
  0
LINE
  5
6951C
  8
S-OBRYS
  6
CONTINUOUS
 10
23629.938468142489
 20
401172.58250869968
 30
0.0
 11
23582.135871094812
 21
401170.989088798
 31
0.0
  0
ARC
  5
6951D
  8
S-OBRYS
  6
CONTINUOUS
 10
23557.81771856494
 20
401120.77440068987
 30
0.0
 40
3.0
 50
0.0
 51
90.0
  0
LINE
  5
6951E
  8
S-OBRYS
  6
CONTINUOUS
 10
23534.81771856494
 20
401126.77440068987
 30
0.0
 11
23534.81771856494
 21
401127.77440068987
 31
0.0
  0
ARC
  5
6951F
  8
S-OBRYS
  6
CONTINUOUS
 10
23537.81771856494
 20
401126.77440068987
 30
0.0
 40
3.0
 50
180.0
 51
270.0
  0
LINE
  5
69520
  8
S-OBRYS
  6
CONTINUOUS
 10
23557.81771856494
 20
401123.77440068999
 30
0.0
 11
23537.81771856494
 21
401123.77440068999
 31
0.0
  0
LINE
  5
69521
  8
S-OBRYS
  6
CONTINUOUS
 10
23559.31771856494
 20
401153.77440068999
 30
0.0
 11
23584.81771856494
 21
401153.77440068999
 31
0.0
  0
ARC
  5
69522
  8
S-OBRYS
  6
CONTINUOUS
 10
23576.938468142489
 20
401152.58250869962
 30
0.0
 40
3.0
 50
270.0
 51
0.0
  0
LINE
  5
69523
  8
S-OBRYS
  6
CONTINUOUS
 10
23576.938468142489
 20
401149.58250869962
 30
0.0
 11
23569.938468142489
 21
401149.58250869962
 31
0.0
  0
ARC
  5
69524
  8
S-OBRYS
  6
CONTINUOUS
 10
23582.469627090861
 20
401168.46356676298
 30
0.0
 40
2.5474800517290328
 50
91.936774901738502
 51
178.027313883825
  0
LINE
  5
69525
  8
S-OBRYS
  6
CONTINUOUS
 10
23579.938468142489
 20
401168.75147124729
 30
0.0
 11
23579.938468142489
 21
401152.58250869962
 31
0.0
  0
LINE
  5
69526
  8
S-OBRYS
  6
CONTINUOUS
 10
23645.938468142489
 20
401199.94866324653
 30
0.0
 11
23658.81771856494
 21
401199.94866324653
 31
0.0
  0
ARC
  5
69527
  8
S-OBRYS
  6
CONTINUOUS
 10
23643.9384681425
 20
401182.08250869962
 30
0.0
 40
2.0
 50
270.0
 51
0.0
  0
LINE
  5
69528
  8
S-OBRYS
  6
CONTINUOUS
 10
23637.938468142489
 20
401174.58250869962
 30
0.0
 11
23637.938468142489
 21
401180.08250869962
 31
0.0
  0
LINE
  5
69529
  8
S-OBRYS
  6
CONTINUOUS
 10
23637.938468142489
 20
401180.08250869962
 30
0.0
 11
23643.9384681425
 21
401180.08250869962
 31
0.0
  0
LINE
  5
6952A
  8
S-OBRYS
  6
CONTINUOUS
 10
23629.938468142489
 20
401172.58250869968
 30
0.0
 11
23635.938468142489
 21
401172.58250869968
 31
0.0
  0
ARC
  5
6952B
  8
S-OBRYS
  6
CONTINUOUS
 10
23635.938468142489
 20
401174.58250869962
 30
0.0
 40
2.0
 50
270.0
 51
0.0
  0
LINE
  5
6952C
  8
S-OBRYS
  6
CONTINUOUS
 10
23658.81771856494
 20
401189.27440068987
 30
0.0
 11
23660.81771856494
 21
401187.27440068987
 31
0.0
  0
LINE
  5
6952D
  8
S-OBRYS
  6
CONTINUOUS
 10
23743.81771856494
 20
401182.27440068987
 30
0.0
 11
23803.81771856494
 21
401182.27440068987
 31
0.0
  0
LINE
  5
6952E
  8
S-OBRYS
  6
CONTINUOUS
 10
23700.81771856494
 20
401154.77440068987
 30
0.0
 11
23741.81771856494
 21
401154.77440068987
 31
0.0
  0
ARC
  5
6952F
  8
S-OBRYS
  6
CONTINUOUS
 10
23693.81771856494
 20
401182.27440068987
 30
0.0
 40
5.0
 50
0.0
 51
90.0
  0
LINE
  5
69530
  8
S-OBRYS
  6
CONTINUOUS
 10
23698.81771856494
 20
401156.77440068987
 30
0.0
 11
23700.81771856494
 21
401154.77440068987
 31
0.0
  0
LINE
  5
69531
  8
S-OBRYS
  6
CONTINUOUS
 10
23698.81771856494
 20
401187.27440068987
 30
0.0
 11
23698.81771856494
 21
401156.77440068987
 31
0.0
  0
LINE
  5
69532
  8
S-OBRYS
  6
CONTINUOUS
 10
23741.81771856494
 20
401154.77440068987
 30
0.0
 11
23743.81771856494
 21
401156.77440068987
 31
0.0
  0
LINE
  5
69533
  8
S-OBRYS
  6
CONTINUOUS
 10
23805.84200101973
 20
401199.94866324653
 30
0.0
 11
23820.817718564929
 21
401199.94866324653
 31
0.0
  0
LINE
  5
69534
  8
S-OBRYS
  6
CONTINUOUS
 10
23803.81771856494
 20
401182.27440068987
 30
0.0
 11
23805.81771856494
 21
401184.27440068987
 31
0.0
  0
LINE
  5
69535
  8
S-OBRYS
  6
CONTINUOUS
 10
23805.84200101973
 20
401199.77440068987
 30
0.0
 11
23805.84200101973
 21
401194.77440068987
 31
0.0
  0
LINE
  5
69536
  8
S-OBRYS
  6
CONTINUOUS
 10
23805.81771856494
 20
401184.27440068987
 30
0.0
 11
23805.81771856494
 21
401194.77440068987
 31
0.0
  0
LINE
  5
69537
  8
S-OBRYS
  6
CONTINUOUS
 10
23804.81771856494
 20
401120.35427735711
 30
0.0
 11
23804.81771856494
 21
401111.41802465293
 31
0.0
  0
LINE
  5
69538
  8
S-OBRYS
  6
CONTINUOUS
 10
24043.206589010279
 20
401136.16061873687
 30
0.0
 11
24065.843593559272
 21
401136.16061873687
 31
0.0
  0
LINE
  5
69539
  8
S-OBRYS
  6
CONTINUOUS
 10
24001.206589010279
 20
401126.04283042531
 30
0.0
 11
24043.206589010279
 21
401126.04283042531
 31
0.0
  0
LINE
  5
6953A
  8
S-OBRYS
  6
CONTINUOUS
 10
24141.137371465069
 20
401192.03435280832
 30
0.0
 11
24232.46437146507
 21
401192.03435280832
 31
0.0
  0
LINE
  5
6953B
  8
S-OBRYS
  6
CONTINUOUS
 10
24065.843593559272
 20
401188.06275588798
 30
0.0
 11
24077.174871465071
 21
401188.06275588798
 31
0.0
  0
LINE
  5
6953C
  8
S-OBRYS
  6
CONTINUOUS
 10
24119.817718564929
 20
401129.86153196823
 30
0.0
 11
24119.817718564929
 21
401111.41802465293
 31
0.0
  0
LINE
  5
6953D
  8
S-OBRYS
  6
CONTINUOUS
 10
24305.424871465071
 20
401129.86153196823
 30
0.0
 11
24353.174871465071
 21
401135.80153196817
 31
0.0
  0
LINE
  5
6953E
  8
S-OBRYS
  6
CONTINUOUS
 10
24283.924871465071
 20
401129.86153196823
 30
0.0
 11
24305.424871465071
 21
401129.86153196823
 31
0.0
  0
LINE
  5
6953F
  8
S-OBRYS
  6
CONTINUOUS
 10
24353.174871465071
 20
401135.80153196817
 30
0.0
 11
24362.924871465071
 21
401144.62153196818
 31
0.0
  0
LINE
  5
69540
  8
S-OBRYS
  6
CONTINUOUS
 10
24232.46437146507
 20
401204.77440068987
 30
0.0
 11
24305.456589010279
 21
401204.77440068987
 31
0.0
  0
LINE
  5
69541
  8
S-OBRYS
  6
CONTINUOUS
 10
24232.46437146507
 20
401234.94866324653
 30
0.0
 11
24305.456589010279
 21
401234.94866324653
 31
0.0
  0
LINE
  5
69542
  8
S-OBRYS
  6
CONTINUOUS
 10
24077.174871465071
 20
401309.86153196823
 30
0.0
 11
24305.424871465071
 21
401309.86153196823
 31
0.0
  0
LINE
  5
69543
  8
S-OBRYS
  6
CONTINUOUS
 10
24077.174871465071
 20
401261.94866324653
 30
0.0
 11
24305.456589010279
 21
401261.94866324653
 31
0.0
  0
LINE
  5
69544
  8
S-OBRYS
  6
CONTINUOUS
 10
24077.174871465071
 20
401286.94866324659
 30
0.0
 11
24305.456589010279
 21
401286.94866324659
 31
0.0
  0
LINE
  5
69545
  8
S-OBRYS
  6
CONTINUOUS
 10
24077.174871465071
 20
401301.94866324653
 30
0.0
 11
24305.456589010279
 21
401301.94866324653
 31
0.0
  0
LINE
  5
69546
  8
S-OBRYS
  6
CONTINUOUS
 10
23820.81771856494
 20
401274.83815873502
 30
0.0
 11
24001.206589010279
 21
401274.83815873502
 31
0.0
  0
LINE
  5
69547
  8
S-OBRYS
  6
CONTINUOUS
 10
23820.81771856494
 20
401303.9448990823
 30
0.0
 11
24001.206589010279
 21
401303.9448990823
 31
0.0
  0
LINE
  5
69548
  8
S-OBRYS
  6
CONTINUOUS
 10
23569.929598956751
 20
401319.36878657929
 30
0.0
 11
24119.81771856494
 21
401319.36878657929
 31
0.0
  0
LINE
  5
69549
  8
S-OBRYS
  6
CONTINUOUS
 10
24119.81771856494
 20
401328.30503928353
 30
0.0
 11
23569.929598956751
 21
401328.30503928353
 31
0.0
  0
LINE
  5
6954A
  8
S-OBRYS
  6
CONTINUOUS
 10
23693.81771856494
 20
401252.27440068999
 30
0.0
 11
23668.81771856494
 21
401252.27440068999
 31
0.0
  0
LINE
  5
6954B
  8
S-OBRYS
  6
CONTINUOUS
 10
23629.938468142489
 20
401267.14055523672
 30
0.0
 11
23582.135871094812
 21
401268.7339751384
 31
0.0
  0
ARC
  5
6954C
  8
S-OBRYS
  6
CONTINUOUS
 10
23582.469627090861
 20
401271.25949717331
 30
0.0
 40
2.5474800517290328
 50
181.97268611617491
 51
268.06322509826151
  0
ARC
  5
6954D
  8
S-OBRYS
  6
CONTINUOUS
 10
23576.938468142489
 20
401287.14055523678
 30
0.0
 40
3.0
 50
0.0
 51
90.0
  0
LINE
  5
6954E
  8
S-OBRYS
  6
CONTINUOUS
 10
23576.938468142489
 20
401290.14055523678
 30
0.0
 11
23569.938468142489
 21
401290.14055523678
 31
0.0
  0
LINE
  5
6954F
  8
S-OBRYS
  6
CONTINUOUS
 10
23559.31771856494
 20
401285.94866324653
 30
0.0
 11
23584.81771856494
 21
401285.94866324653
 31
0.0
  0
LINE
  5
69550
  8
S-OBRYS
  6
CONTINUOUS
 10
23645.918514032979
 20
401239.77440068987
 30
0.0
 11
23658.81771856494
 21
401239.77440068987
 31
0.0
  0
LINE
  5
69551
  8
S-OBRYS
  6
CONTINUOUS
 10
23637.938468142489
 20
401259.64055523672
 30
0.0
 11
23643.9384681425
 21
401259.64055523672
 31
0.0
  0
ARC
  5
69552
  8
S-OBRYS
  6
CONTINUOUS
 10
23643.9384681425
 20
401257.64055523678
 30
0.0
 40
2.0
 50
8.1002897131359077
 51
90.0
  0
ARC
  5
69553
  8
S-OBRYS
  6
CONTINUOUS
 10
23635.938468142489
 20
401265.14055523672
 30
0.0
 40
2.0
 50
8.1002897131212226
 51
90.0
  0
LINE
  5
69554
  8
S-OBRYS
  6
CONTINUOUS
 10
23629.938468142489
 20
401267.14055523672
 30
0.0
 11
23635.938468142489
 21
401267.14055523672
 31
0.0
  0
LINE
  5
69555
  8
S-OBRYS
  6
CONTINUOUS
 10
23637.918514032979
 20
401265.4223677126
 30
0.0
 11
23637.918514032979
 21
401260.09241710498
 31
0.0
  0
LINE
  5
69556
  8
S-OBRYS
  6
CONTINUOUS
 10
23645.918514032979
 20
401257.92236771277
 30
0.0
 11
23645.918514032979
 21
401235.0924171051
 31
0.0
  0
LINE
  5
69557
  8
S-OBRYS
  6
CONTINUOUS
 10
23645.918514032979
 20
401235.0924171051
 30
0.0
 11
23645.938468142489
 21
401205.08250869962
 31
0.0
  0
LINE
  5
69558
  8
S-OBRYS
  6
CONTINUOUS
 10
23660.81771856494
 20
401252.27440068999
 30
0.0
 11
23658.81771856494
 21
401250.27440068999
 31
0.0
  0
LINE
  5
69559
  8
S-OBRYS
  6
CONTINUOUS
 10
23658.81771856494
 20
401250.27440068999
 30
0.0
 11
23658.81771856494
 21
401242.27440068987
 31
0.0
  0
LINE
  5
6955A
  8
S-OBRYS
  6
CONTINUOUS
 10
23668.81771856494
 20
401252.27440068999
 30
0.0
 11
23660.81771856494
 21
401252.27440068999
 31
0.0
  0
LINE
  5
6955B
  8
S-OBRYS
  6
CONTINUOUS
 10
23569.929598956751
 20
401328.30503928353
 30
0.0
 11
23569.929598956751
 21
401382.36153196823
 31
0.0
  0
LINE
  5
6955C
  8
S-OBRYS
  6
CONTINUOUS
 10
23564.81771856494
 20
401382.36153196823
 30
0.0
 11
23564.81771856494
 21
401311.94866324653
 31
0.0
  0
LINE
  5
6955D
  8
S-OBRYS
  6
CONTINUOUS
 10
23564.81771856494
 20
401341.94866324653
 30
0.0
 11
23563.81771856494
 21
401341.94866324653
 31
0.0
  0
LINE
  5
6955E
  8
S-OBRYS
  6
CONTINUOUS
 10
23560.81771856494
 20
401338.94866324653
 30
0.0
 11
23560.81771856494
 21
401318.94866324653
 31
0.0
  0
ARC
  5
6955F
  8
S-OBRYS
  6
CONTINUOUS
 10
23557.81771856494
 20
401318.94866324653
 30
0.0
 40
3.0
 50
270.0
 51
0.0
  0
LINE
  5
69560
  8
S-OBRYS
  6
CONTINUOUS
 10
23534.81771856494
 20
401312.94866324653
 30
0.0
 11
23534.81771856494
 21
401311.94866324653
 31
0.0
  0
ARC
  5
69561
  8
S-OBRYS
  6
CONTINUOUS
 10
23537.81771856494
 20
401312.94866324653
 30
0.0
 40
3.0
 50
90.0
 51
180.0
  0
LINE
  5
69562
  8
S-OBRYS
  6
CONTINUOUS
 10
23557.81771856494
 20
401315.94866324653
 30
0.0
 11
23537.81771856494
 21
401315.94866324653
 31
0.0
  0
ARC
  5
69563
  8
S-OBRYS
  6
CONTINUOUS
 10
23563.81771856494
 20
401338.94866324653
 30
0.0
 40
3.0
 50
90.0
 51
180.0
  0
LINE
  5
69564
  8
S-OBRYS
  6
CONTINUOUS
 10
23564.817718564929
 20
401382.36153196823
 30
0.0
 11
23569.929598956751
 21
401382.36153196823
 31
0.0
  0
LINE
  5
69565
  8
S-OBRYS
  6
CONTINUOUS
 10
23803.81771856494
 20
401257.27440068987
 30
0.0
 11
23743.81771856494
 21
401257.27440068987
 31
0.0
  0
LINE
  5
69566
  8
S-OBRYS
  6
CONTINUOUS
 10
23741.81771856494
 20
401284.77440068999
 30
0.0
 11
23700.81771856494
 21
401284.77440068999
 31
0.0
  0
ARC
  5
69567
  8
S-OBRYS
  6
CONTINUOUS
 10
23693.81771856494
 20
401257.27440068987
 30
0.0
 40
5.0
 50
270.0
 51
0.0
  0
LINE
  5
69568
  8
S-OBRYS
  6
CONTINUOUS
 10
23698.81771856494
 20
401282.77440068987
 30
0.0
 11
23700.81771856494
 21
401284.77440068999
 31
0.0
  0
LINE
  5
69569
  8
S-OBRYS
  6
CONTINUOUS
 10
23698.81771856494
 20
401282.77440068987
 30
0.0
 11
23698.81771856494
 21
401252.27440068999
 31
0.0
  0
LINE
  5
6956A
  8
S-OBRYS
  6
CONTINUOUS
 10
23741.81771856494
 20
401284.77440068999
 30
0.0
 11
23743.81771856494
 21
401282.77440068987
 31
0.0
  0
LINE
  5
6956B
  8
S-OBRYS
  6
CONTINUOUS
 10
23805.84200101973
 20
401239.77440068987
 30
0.0
 11
23820.817718564929
 21
401239.77440068987
 31
0.0
  0
LINE
  5
6956C
  8
S-OBRYS
  6
CONTINUOUS
 10
23803.81771856494
 20
401257.27440068987
 30
0.0
 11
23805.81771856494
 21
401255.27440068987
 31
0.0
  0
LINE
  5
6956D
  8
S-OBRYS
  6
CONTINUOUS
 10
23805.84200101973
 20
401239.77440068987
 30
0.0
 11
23805.84200101973
 21
401244.77440068987
 31
0.0
  0
LINE
  5
6956E
  8
S-OBRYS
  6
CONTINUOUS
 10
23805.81771856494
 20
401244.77440068987
 30
0.0
 11
23805.81771856494
 21
401255.27440068987
 31
0.0
  0
LINE
  5
6956F
  8
S-OBRYS
  6
CONTINUOUS
 10
23804.81771856494
 20
401328.30503928353
 30
0.0
 11
23804.81771856494
 21
401319.36878657929
 31
0.0
  0
LINE
  5
69570
  8
S-OBRYS
  6
CONTINUOUS
 10
24043.206589010279
 20
401303.56244519952
 30
0.0
 11
24065.843593559272
 21
401303.56244519952
 31
0.0
  0
LINE
  5
69571
  8
S-OBRYS
  6
CONTINUOUS
 10
24001.206589010279
 20
401313.68023351108
 30
0.0
 11
24043.206589010279
 21
401313.68023351108
 31
0.0
  0
LINE
  5
69572
  8
S-OBRYS
  6
CONTINUOUS
 10
24141.137371465069
 20
401247.68871112808
 30
0.0
 11
24232.46437146507
 21
401247.68871112808
 31
0.0
  0
LINE
  5
69573
  8
S-OBRYS
  6
CONTINUOUS
 10
24065.843593559272
 20
401251.6603080483
 30
0.0
 11
24077.174871465071
 21
401251.6603080483
 31
0.0
  0
LINE
  5
69574
  8
S-OBRYS
  6
CONTINUOUS
 10
24077.174871465071
 20
401204.77440068987
 30
0.0
 11
24141.137371465069
 21
401204.77440068987
 31
0.0
  0
LINE
  5
69575
  8
S-OBRYS
  6
CONTINUOUS
 10
24077.174871465071
 20
401234.94866324653
 30
0.0
 11
24141.137371465069
 21
401234.94866324653
 31
0.0
  0
LINE
  5
69576
  8
S-OBRYS
  6
CONTINUOUS
 10
24119.81771856494
 20
401328.30503928353
 30
0.0
 11
24119.81771856494
 21
401309.86153196823
 31
0.0
  0
LINE
  5
69577
  8
S-OBRYS
  6
CONTINUOUS
 10
23820.81771856494
 20
405491.1685181596
 30
0.0
 11
23895.81771856494
 21
405491.1685181596
 31
0.0
  0
LINE
  5
69578
  8
S-OBRYS
  6
CONTINUOUS
 10
23569.81771856494
 20
405486.6685181596
 30
0.0
 11
24119.81771856494
 21
405486.6685181596
 31
0.0
  0
ARC
  5
69579
  8
S-OBRYS
  6
CONTINUOUS
 10
23554.817718564929
 20
405441.66851815948
 30
0.0
 40
15.0
 50
270.0
 51
0.0
  0
LINE
  5
6957A
  8
S-OBRYS
  6
CONTINUOUS
 10
23569.81771856494
 20
405441.66851815948
 30
0.0
 11
23569.81771856494
 21
405486.6685181596
 31
0.0
  0
LINE
  5
6957B
  8
S-OBRYS
  6
CONTINUOUS
 10
23548.81771856494
 20
405509.1685181596
 30
0.0
 11
23582.81771856494
 21
405509.1685181596
 31
0.0
  0
ARC
  5
6957C
  8
S-OBRYS
  6
CONTINUOUS
 10
23563.81771856494
 20
405497.1685181596
 30
0.0
 40
3.0
 50
180.0
 51
270.0
  0
ARC
  5
6957D
  8
S-OBRYS
  6
CONTINUOUS
 10
23557.81771856494
 20
405517.1685181596
 30
0.0
 40
3.0
 50
0.0
 51
90.0
  0
LINE
  5
6957E
  8
S-OBRYS
  6
CONTINUOUS
 10
23563.81771856494
 20
405494.1685181596
 30
0.0
 11
23564.81771856494
 21
405494.1685181596
 31
0.0
  0
LINE
  5
6957F
  8
S-OBRYS
  6
CONTINUOUS
 10
23560.81771856494
 20
405517.1685181596
 30
0.0
 11
23560.81771856494
 21
405497.1685181596
 31
0.0
  0
LINE
  5
69580
  8
S-OBRYS
  6
CONTINUOUS
 10
23537.81771856494
 20
405520.1685181596
 30
0.0
 11
23557.81771856494
 21
405520.1685181596
 31
0.0
  0
ARC
  5
69581
  8
S-OBRYS
  6
CONTINUOUS
 10
23554.817718564929
 20
405441.66851815948
 30
0.0
 40
10.0
 50
270.0
 51
0.0
  0
LINE
  5
69582
  8
S-OBRYS
  6
CONTINUOUS
 10
23519.81771856494
 20
405431.66851815948
 30
0.0
 11
23554.817718564929
 21
405431.66851815948
 31
0.0
  0
LINE
  5
69583
  8
S-OBRYS
  6
CONTINUOUS
 10
23519.81771856494
 20
405426.6685181596
 30
0.0
 11
23519.81771856494
 21
405431.66851815948
 31
0.0
  0
LINE
  5
69584
  8
S-OBRYS
  6
CONTINUOUS
 10
23554.817718564929
 20
405426.6685181596
 30
0.0
 11
23519.81771856494
 21
405426.6685181596
 31
0.0
  0
LINE
  5
69585
  8
S-OBRYS
  6
CONTINUOUS
 10
23820.81771856494
 20
405515.1685181596
 30
0.0
 11
23820.81771856494
 21
405491.1685181596
 31
0.0
  0
LINE
  5
69586
  8
S-OBRYS
  6
CONTINUOUS
 10
23980.81771856494
 20
405491.1685181596
 30
0.0
 11
24105.706589010279
 21
405491.1685181596
 31
0.0
  0
LINE
  5
69587
  8
S-OBRYS
  6
CONTINUOUS
 10
23898.81771856494
 20
405496.6685181596
 30
0.0
 11
23977.817718564929
 21
405496.6685181596
 31
0.0
  0
LINE
  5
69588
  8
S-OBRYS
  6
CONTINUOUS
 10
23895.81771856494
 20
405493.6685181596
 30
0.0
 11
23898.81771856494
 21
405496.6685181596
 31
0.0
  0
LINE
  5
69589
  8
S-OBRYS
  6
CONTINUOUS
 10
23895.81771856494
 20
405491.1685181596
 30
0.0
 11
23895.81771856494
 21
405493.6685181596
 31
0.0
  0
LINE
  5
6958A
  8
S-OBRYS
  6
CONTINUOUS
 10
23980.81771856494
 20
405493.6685181596
 30
0.0
 11
23977.817718564929
 21
405496.6685181596
 31
0.0
  0
LINE
  5
6958B
  8
S-OBRYS
  6
CONTINUOUS
 10
23980.81771856494
 20
405491.1685181596
 30
0.0
 11
23980.81771856494
 21
405493.6685181596
 31
0.0
  0
LINE
  5
6958C
  8
S-OBRYS
  6
CONTINUOUS
 10
24119.81771856494
 20
405486.6685181596
 30
0.0
 11
24119.81771856494
 21
405491.1685181596
 31
0.0
  0
LINE
  5
6958D
  8
S-OBRYS
  6
CONTINUOUS
 10
24353.174871465071
 20
401303.92153196823
 30
0.0
 11
24362.924871465071
 21
401295.10153196822
 31
0.0
  0
LINE
  5
6958E
  8
S-OBRYS
  6
CONTINUOUS
 10
24305.424871465071
 20
401309.86153196823
 30
0.0
 11
24305.424871465071
 21
401219.86153196823
 31
0.0
  0
LINE
  5
6958F
  8
S-OBRYS
  6
CONTINUOUS
 10
24305.424871465071
 20
401309.86153196823
 30
0.0
 11
24353.174871465071
 21
401303.92153196823
 31
0.0
  0
LINE
  5
69590
  8
S-OBRYS
  6
CONTINUOUS
 10
20306.40329258651
 20
398443.89334311528
 30
0.0
 11
20631.40329258651
 21
398443.89334311528
 31
0.0
  0
LINE
  5
69591
  8
S-OBRYS
  6
CONTINUOUS
 10
20385.45978527124
 20
398498.8933431154
 30
0.0
 11
20552.34679990177
 21
398498.8933431154
 31
0.0
  0
LINE
  5
69592
  8
S-OBRYS
  6
CONTINUOUS
 10
20387.02849235378
 20
398506.69659206987
 30
0.0
 11
20550.778092819241
 21
398506.69659206987
 31
0.0
  0
LINE
  5
69593
  8
S-OBRYS
  6
CONTINUOUS
 10
20306.40329258651
 20
398438.8933431154
 30
0.0
 11
20631.40329258651
 21
398438.8933431154
 31
0.0
  0
ARC
  5
69594
  8
S-OBRYS
  6
CONTINUOUS
 10
20385.45978527124
 20
398523.8933431154
 30
0.0
 40
25.0
 50
180.0
 51
270.0
  0
ARC
  5
69595
  8
S-OBRYS
  6
CONTINUOUS
 10
20387.02849235378
 20
398526.69659206987
 30
0.0
 40
20.0
 50
180.0
 51
270.0
  0
ARC
  5
69596
  8
S-OBRYS
  6
CONTINUOUS
 10
20552.34679990177
 20
398523.8933431154
 30
0.0
 40
25.0
 50
270.0
 51
0.0
  0
ARC
  5
69597
  8
S-OBRYS
  6
CONTINUOUS
 10
20550.778092819241
 20
398526.69659206987
 30
0.0
 40
20.0
 50
270.0
 51
0.0
  0
INSERT
  5
69598
  8
S-OBRYS
  6
CONTINUOUS
  2
_CLOSEDBLANK
 10
22860.008038731059
 20
398726.7956923226
 30
0.0
 41
99.999999999989299
 42
100.0
 43
100.0
 50
308.11651162341673
  0
LINE
  5
69599
  8
S-OBRYS
  6
CONTINUOUS
 10
22623.36124785243
 20
399022.47562643472
 30
0.0
 11
23562.186794525631
 21
399022.47562643472
 31
0.0
  0
INSERT
  5
6959A
  8
S-OBRYS
  6
CONTINUOUS
  2
*U96
 10
0.0
 20
0.0
 30
0.0
  0
LINE
  5
6959B
  8
S-OBRYS
  6
CONTINUOUS
 10
22177.978342017868
 20
398628.4804743937
 30
0.0
 11
23653.017540838398
 21
398628.4804743937
 31
0.0
  0
LINE
  5
6959C
  8
S-OBRYS
  6
CONTINUOUS
 10
21069.91882885111
 20
405714.6185411617
 30
0.0
 11
23569.91537108276
 21
405714.55894889741
 31
0.0
  0
LINE
  5
6959D
  8
S-OBRYS
  6
CONTINUOUS
 10
21069.91882885111
 20
405732.20196799299
 30
0.0
 11
23552.284268731491
 21
405732.20196799299
 31
0.0
  0
LINE
  5
6959E
  8
S-OBRYS
  6
CONTINUOUS
 10
23534.81771856494
 20
405524.1685181596
 30
0.0
 11
21099.918828851121
 21
405524.1685181596
 31
0.0
  0
DIMENSION
  5
6959F
  8
S-OBRYS
  6
CONTINUOUS
  2
*D37
 10
23569.91537108276
 20
405936.41851815948
 30
0.0
 11
22319.91709996694
 21
406023.9185181596
 31
0.0
 70
     0
 13
21069.91882885111
 23
405732.20196799299
 33
0.0
 14
23569.91537108276
 24
405714.55894889741
 34
0.0
  0
LINE
  5
695A0
  8
S-OBRYS
  6
CONTINUOUS
 10
22798.28177571344
 20
398805.47140937613
 30
0.0
 11
22628.027726818189
 21
399022.47562643472
 31
0.0
  0
INSERT
  5
695A1
  8
S-OBRYS
  6
CONTINUOUS
  2
_CLOSEDBLANK
 10
22545.737053201581
 20
398744.4267929488
 30
0.0
 41
99.999999999973994
 42
100.0
 43
100.0
 50
253.84778387308049
  0
LINE
  5
695A2
  8
S-OBRYS
  6
CONTINUOUS
 10
22332.034094549501
 20
398789.17580801429
 30
0.0
 11
22623.36124785243
 21
399022.47562643472
 31
0.0
  0
LINE
  5
695A3
  8
S-OBRYS
  6
CONTINUOUS
 10
21099.918828851121
 20
405524.1685181596
 30
0.0
 11
21099.923368579581
 21
405714.6178259452
 31
0.0
  0
LINE
  5
695A4
  8
S-OBRYS
  6
CONTINUOUS
 10
21039.91882885111
 20
405524.1685181596
 30
0.0
 11
21039.923368613669
 21
405714.6192561615
 31
0.0
  0
LINE
  5
695A5
  8
S-OBRYS
  6
CONTINUOUS
 10
21069.91882885111
 20
405524.1685181596
 30
0.0
 11
21069.91882885111
 21
405732.20196799299
 31
0.0
  0
LINE
  5
695A6
  8
S-OBRYS
  6
CONTINUOUS
 10
21039.91882885111
 20
405524.1685181596
 30
0.0
 11
21039.91882885111
 21
405523.16851815948
 31
0.0
  0
LINE
  5
695A7
  8
S-OBRYS
  6
CONTINUOUS
 10
21099.918828851121
 20
405524.1685181596
 30
0.0
 11
21099.918828851121
 21
405523.16851815948
 31
0.0
  0
LINE
  5
695A8
  8
S-OBRYS
  6
CONTINUOUS
 10
21052.399462720459
 20
405743.21405597619
 30
0.0
 11
21042.899462720459
 21
405743.21405597619
 31
0.0
  0
LINE
  5
695A9
  8
S-OBRYS
  6
CONTINUOUS
 10
21042.899462720459
 20
405736.21405597619
 30
0.0
 11
21052.399462720459
 21
405736.21405597619
 31
0.0
  0
LINE
  5
695AA
  8
S-OBRYS
  6
CONTINUOUS
 10
21062.41882885111
 20
405736.20196799299
 30
0.0
 11
21042.418828851121
 21
405736.20196799299
 31
0.0
  0
LINE
  5
695AB
  8
S-OBRYS
  6
CONTINUOUS
 10
21035.418828851121
 20
405732.20196799299
 30
0.0
 11
21065.418828851121
 21
405732.20196799299
 31
0.0
  0
LINE
  5
695AC
  8
S-OBRYS
  6
CONTINUOUS
 10
21042.899462720459
 20
405743.19501257379
 30
0.0
 11
21052.399462720459
 21
405743.19501257379
 31
0.0
  0
LINE
  5
695AD
  8
S-OBRYS
  6
CONTINUOUS
 10
21052.399462720459
 20
405750.19501257391
 30
0.0
 11
21042.899462720459
 21
405750.19501257391
 31
0.0
  0
LINE
  5
695AE
  8
S-OBRYS
  6
CONTINUOUS
 10
21042.899462720459
 20
405743.21405597619
 30
0.0
 11
21041.42981272046
 21
405742.36555354868
 31
0.0
  0
LINE
  5
695AF
  8
S-OBRYS
  6
CONTINUOUS
 10
21041.42981272046
 20
405737.0625584037
 30
0.0
 11
21042.899462720459
 21
405736.21405597619
 31
0.0
  0
LINE
  5
695B0
  8
S-OBRYS
  6
CONTINUOUS
 10
21041.42981272046
 20
405742.36555354868
 30
0.0
 11
21041.42981272046
 21
405737.0625584037
 31
0.0
  0
ARC
  5
695B1
  8
S-OBRYS
  6
CONTINUOUS
 10
21042.418828851121
 20
405739.20196799288
 30
0.0
 40
3.0
 50
180.0
 51
270.0
  0
LINE
  5
695B2
  8
S-OBRYS
  6
CONTINUOUS
 10
21036.41882885111
 20
405762.20196799288
 30
0.0
 11
21035.418828851121
 21
405762.20196799288
 31
0.0
  0
ARC
  5
695B3
  8
S-OBRYS
  6
CONTINUOUS
 10
21036.41882885111
 20
405759.20196799299
 30
0.0
 40
3.0
 50
0.0
 51
90.0
  0
LINE
  5
695B4
  8
S-OBRYS
  6
CONTINUOUS
 10
21035.418828851121
 20
405732.20196799299
 30
0.0
 11
21035.418828851121
 21
405762.20196799288
 31
0.0
  0
LINE
  5
695B5
  8
S-OBRYS
  6
CONTINUOUS
 10
21039.41882885111
 20
405739.20196799288
 30
0.0
 11
21039.41882885111
 21
405759.20196799299
 31
0.0
  0
LINE
  5
695B6
  8
S-OBRYS
  6
CONTINUOUS
 10
21041.42981272046
 20
405744.04351500131
 30
0.0
 11
21042.899462720459
 21
405743.19501257379
 31
0.0
  0
LINE
  5
695B7
  8
S-OBRYS
  6
CONTINUOUS
 10
21041.42981272046
 20
405749.3465101464
 30
0.0
 11
21041.42981272046
 21
405744.04351500131
 31
0.0
  0
LINE
  5
695B8
  8
S-OBRYS
  6
CONTINUOUS
 10
21042.899462720459
 20
405750.19501257391
 30
0.0
 11
21041.42981272046
 21
405749.3465101464
 31
0.0
  0
LINE
  5
695B9
  8
S-OBRYS
  6
CONTINUOUS
 10
21046.418828851121
 20
405736.21405597619
 30
0.0
 11
21046.418828851121
 21
405736.20196799299
 31
0.0
  0
LINE
  5
695BA
  8
S-OBRYS
  6
CONTINUOUS
 10
21047.41882885111
 20
405736.20196799299
 30
0.0
 11
21047.41882885111
 21
405736.21405597619
 31
0.0
  0
LINE
  5
695BB
  8
S-OBRYS
  6
CONTINUOUS
 10
21058.41882885111
 20
405750.19501257391
 30
0.0
 11
21058.41882885111
 21
405751.20196799299
 31
0.0
  0
LINE
  5
695BC
  8
S-OBRYS
  6
CONTINUOUS
 10
21052.399462720459
 20
405743.21405597619
 30
0.0
 11
21061.899462720459
 21
405743.21405597619
 31
0.0
  0
LINE
  5
695BD
  8
S-OBRYS
  6
CONTINUOUS
 10
21061.899462720459
 20
405743.21405597619
 30
0.0
 11
21063.369112720458
 21
405742.36555354868
 31
0.0
  0
LINE
  5
695BE
  8
S-OBRYS
  6
CONTINUOUS
 10
21061.899462720459
 20
405736.21405597619
 30
0.0
 11
21052.399462720459
 21
405736.21405597619
 31
0.0
  0
LINE
  5
695BF
  8
S-OBRYS
  6
CONTINUOUS
 10
21063.369112720458
 20
405737.0625584037
 30
0.0
 11
21061.899462720459
 21
405736.21405597619
 31
0.0
  0
LINE
  5
695C0
  8
S-OBRYS
  6
CONTINUOUS
 10
21063.369112720458
 20
405742.36555354868
 30
0.0
 11
21063.369112720458
 21
405737.0625584037
 31
0.0
  0
LINE
  5
695C1
  8
S-OBRYS
  6
CONTINUOUS
 10
21065.418828851121
 20
405732.20196799299
 30
0.0
 11
21065.418828851121
 21
405733.20196799299
 31
0.0
  0
ARC
  5
695C2
  8
S-OBRYS
  6
CONTINUOUS
 10
21062.41882885111
 20
405733.20196799299
 30
0.0
 40
3.0
 50
0.0
 51
90.0
  0
LINE
  5
695C3
  8
S-OBRYS
  6
CONTINUOUS
 10
21061.899462720459
 20
405743.19501257379
 30
0.0
 11
21052.399462720459
 21
405743.19501257379
 31
0.0
  0
LINE
  5
695C4
  8
S-OBRYS
  6
CONTINUOUS
 10
21063.369112720458
 20
405744.04351500131
 30
0.0
 11
21061.899462720459
 21
405743.19501257379
 31
0.0
  0
LINE
  5
695C5
  8
S-OBRYS
  6
CONTINUOUS
 10
21063.369112720458
 20
405749.3465101464
 30
0.0
 11
21063.369112720458
 21
405744.04351500131
 31
0.0
  0
LINE
  5
695C6
  8
S-OBRYS
  6
CONTINUOUS
 10
21061.899462720459
 20
405750.19501257391
 30
0.0
 11
21063.369112720458
 21
405749.3465101464
 31
0.0
  0
LINE
  5
695C7
  8
S-OBRYS
  6
CONTINUOUS
 10
21052.399462720459
 20
405750.19501257391
 30
0.0
 11
21061.899462720459
 21
405750.19501257391
 31
0.0
  0
LINE
  5
695C8
  8
S-OBRYS
  6
CONTINUOUS
 10
21047.41882885111
 20
405752.20196799299
 30
0.0
 11
21046.418828851121
 21
405751.20196799299
 31
0.0
  0
LINE
  5
695C9
  8
S-OBRYS
  6
CONTINUOUS
 10
21057.41882885111
 20
405752.20196799299
 30
0.0
 11
21058.41882885111
 21
405751.20196799299
 31
0.0
  0
LINE
  5
695CA
  8
S-OBRYS
  6
CONTINUOUS
 10
21058.41882885111
 20
405751.20196799299
 30
0.0
 11
21046.418828851121
 21
405751.20196799299
 31
0.0
  0
LINE
  5
695CB
  8
S-OBRYS
  6
CONTINUOUS
 10
21047.41882885111
 20
405752.20196799299
 30
0.0
 11
21057.41882885111
 21
405752.20196799299
 31
0.0
  0
LINE
  5
695CC
  8
S-OBRYS
  6
CONTINUOUS
 10
21046.418828851121
 20
405751.20196799299
 30
0.0
 11
21046.418828851121
 21
405750.19501257391
 31
0.0
  0
LINE
  5
695CD
  8
S-OBRYS
  6
CONTINUOUS
 10
22185.978342017868
 20
398588.4755201909
 30
0.0
 11
22185.978342017868
 21
398668.39887760981
 31
0.0
  0
LINE
  5
695CE
  8
S-OBRYS
  6
CONTINUOUS
 10
22177.978342017868
 20
398590.4755201909
 30
0.0
 11
22177.978342017868
 21
398666.48542859638
 31
0.0
  0
LINE
  5
695CF
  8
S-OBRYS
  6
CONTINUOUS
 10
22289.099091595421
 20
398536.13396234781
 30
0.0
 11
22289.103633309689
 21
398726.6665777801
 31
0.0
  0
LINE
  5
695D0
  8
S-OBRYS
  6
CONTINUOUS
 10
22263.099091595421
 20
398726.66719764879
 30
0.0
 11
22263.099091595421
 21
398509.16741218121
 31
0.0
  0
LINE
  5
695D1
  8
S-OBRYS
  6
CONTINUOUS
 10
22197.39691595874
 20
398574.6351978411
 30
0.0
 11
22197.39691595874
 21
398681.57613396231
 31
0.0
  0
LINE
  5
695D2
  8
S-OBRYS
  6
CONTINUOUS
 10
22243.978342017861
 20
398577.14448273869
 30
0.0
 11
22243.978342017861
 21
398687.13986436313
 31
0.0
  0
LINE
  5
695D3
  8
S-OBRYS
  6
CONTINUOUS
 10
22259.099091595421
 20
398726.6672929966
 30
0.0
 11
22259.099091595421
 21
398506.16741218121
 31
0.0
  0
LINE
  5
695D4
  8
S-OBRYS
  6
CONTINUOUS
 10
22253.978342017861
 20
398557.9755201909
 30
0.0
 11
22253.978342017861
 21
398726.66741260432
 31
0.0
  0
LINE
  5
695D5
  8
S-OBRYS
  6
CONTINUOUS
 10
22246.978342017868
 20
398557.9755201909
 30
0.0
 11
22253.978342017861
 21
398557.9755201909
 31
0.0
  0
LINE
  5
695D6
  8
S-OBRYS
  6
CONTINUOUS
 10
22264.599091595421
 20
398562.16741218121
 30
0.0
 11
22239.099091595421
 21
398562.16741218121
 31
0.0
  0
ARC
  5
695D7
  8
S-OBRYS
  6
CONTINUOUS
 10
22269.099091595421
 20
398453.66741218121
 30
0.0
 40
15.0
 50
180.0
 51
270.0
  0
ARC
  5
695D8
  8
S-OBRYS
  6
CONTINUOUS
 10
22246.978342017868
 20
398560.97552019102
 30
0.0
 40
3.0
 50
180.0
 51
270.0
  0
ARC
  5
695D9
  8
S-OBRYS
  6
CONTINUOUS
 10
22241.464985694249
 20
398568.77288269321
 30
0.0
 40
2.5474800517290328
 50
11.977316473314101
 51
88.063225098261498
  0
LINE
  5
695DA
  8
S-OBRYS
  6
CONTINUOUS
 10
22243.978342017861
 20
398577.14448273869
 30
0.0
 11
22243.978342017861
 21
398560.97552019102
 31
0.0
  0
LINE
  5
695DB
  8
S-OBRYS
  6
CONTINUOUS
 10
22185.978342017868
 20
398588.4755201909
 30
0.0
 11
22179.978342017868
 21
398588.4755201909
 31
0.0
  0
LINE
  5
695DC
  8
S-OBRYS
  6
CONTINUOUS
 10
22185.978342017868
 20
398576.76125095412
 30
0.0
 11
22185.978342017868
 21
398588.4755201909
 31
0.0
  0
ARC
  5
695DD
  8
S-OBRYS
  6
CONTINUOUS
 10
22179.978342017868
 20
398590.4755201909
 30
0.0
 40
2.0
 50
180.0
 51
270.0
  0
LINE
  5
695DE
  8
S-OBRYS
  6
CONTINUOUS
 10
22193.62969287741
 20
398574.76125095412
 30
0.0
 11
22201.58752971988
 21
398574.49497787037
 31
0.0
  0
LINE
  5
695DF
  8
S-OBRYS
  6
CONTINUOUS
 10
22193.998296127382
 20
398574.76125095412
 30
0.0
 11
22187.978342017868
 21
398574.76125095412
 31
0.0
  0
ARC
  5
695E0
  8
S-OBRYS
  6
CONTINUOUS
 10
22201.555664192219
 20
398572.74838765588
 30
0.0
 40
1.7468808744380571
 50
354.53030951565239
 51
88.954787620911375
  0
ARC
  5
695E1
  8
S-OBRYS
  6
CONTINUOUS
 10
22187.978342017868
 20
398576.76125095412
 30
0.0
 40
2.0
 50
180.0
 51
270.0
  0
LINE
  5
695E2
  8
S-OBRYS
  6
CONTINUOUS
 10
22203.294591101541
 20
398572.58187641442
 30
0.0
 11
22241.798741690291
 21
398571.29840472818
 31
0.0
  0
LINE
  5
695E3
  8
S-OBRYS
  6
CONTINUOUS
 10
22254.099091595421
 20
398536.13396234781
 30
0.0
 11
22254.099091595421
 21
398453.66741218121
 31
0.0
  0
ARC
  5
695E4
  8
S-OBRYS
  6
CONTINUOUS
 10
22260.099091595421
 20
398509.16741218121
 30
0.0
 40
3.0
 50
270.0
 51
0.0
  0
LINE
  5
695E5
  8
S-OBRYS
  6
CONTINUOUS
 10
22260.099091595421
 20
398506.16741218121
 30
0.0
 11
22259.099091595421
 21
398506.16741218121
 31
0.0
  0
ARC
  5
695E6
  8
S-OBRYS
  6
CONTINUOUS
 10
22269.099091595421
 20
398453.66741218121
 30
0.0
 40
10.0
 50
180.0
 51
270.0
  0
LINE
  5
695E7
  8
S-OBRYS
  6
CONTINUOUS
 10
22269.099091595421
 20
398438.66741218121
 30
0.0
 11
22304.099091595421
 21
398438.66741218121
 31
0.0
  0
LINE
  5
695E8
  8
S-OBRYS
  6
CONTINUOUS
 10
22304.099091595421
 20
398443.66741218133
 30
0.0
 11
22269.099091595421
 21
398443.66741218133
 31
0.0
  0
LINE
  5
695E9
  8
S-OBRYS
  6
CONTINUOUS
 10
22304.099091595421
 20
398438.66741218121
 30
0.0
 11
22304.099091595421
 21
398443.66741218133
 31
0.0
  0
LINE
  5
695EA
  8
S-OBRYS
  6
CONTINUOUS
 10
22259.099091595421
 20
398453.66741218121
 30
0.0
 11
22259.099091595421
 21
398506.16741218121
 31
0.0
  0
LINE
  5
695EB
  8
S-OBRYS
  6
CONTINUOUS
 10
22254.099091595421
 20
398558.16741218121
 30
0.0
 11
22254.099091595421
 21
398536.13396234781
 31
0.0
  0
LINE
  5
695EC
  8
S-OBRYS
  6
CONTINUOUS
 10
22289.099091595421
 20
398536.16741218133
 30
0.0
 11
22289.099091595421
 21
398535.16741218121
 31
0.0
  0
ARC
  5
695ED
  8
S-OBRYS
  6
CONTINUOUS
 10
22286.099091595421
 20
398535.16741218121
 30
0.0
 40
3.0
 50
270.0
 51
0.0
  0
LINE
  5
695EE
  8
S-OBRYS
  6
CONTINUOUS
 10
22286.099091595421
 20
398532.16741218121
 30
0.0
 11
22266.099091595421
 21
398532.16741218121
 31
0.0
  0
LINE
  5
695EF
  8
S-OBRYS
  6
CONTINUOUS
 10
22254.099091595421
 20
398536.13396234781
 30
0.0
 11
22259.099091595421
 21
398536.13396234781
 31
0.0
  0
ARC
  5
695F0
  8
S-OBRYS
  6
CONTINUOUS
 10
22266.099091595421
 20
398529.16741218133
 30
0.0
 40
3.0
 50
90.0
 51
180.0
  0
LINE
  5
695F1
  8
S-OBRYS
  6
CONTINUOUS
 10
22246.99614464262
 20
398698.97750578419
 30
0.0
 11
22253.99614464262
 21
398698.97750578419
 31
0.0
  0
LINE
  5
695F2
  8
S-OBRYS
  6
CONTINUOUS
 10
22265.099091595421
 20
398694.16741218121
 30
0.0
 11
22239.599091595421
 21
398694.16741218121
 31
0.0
  0
LINE
  5
695F3
  8
S-OBRYS
  6
CONTINUOUS
 10
22220.623940941641
 20
398684.43795583252
 30
0.0
 11
22222.02917694821
 21
398685.40705173498
 31
0.0
  0
LINE
  5
695F4
  8
S-OBRYS
  6
CONTINUOUS
 10
22222.91196960153
 20
398694.5374385303
 30
0.0
 11
22222.900041082921
 21
398694.93726062891
 31
0.0
  0
LINE
  5
695F5
  8
S-OBRYS
  6
CONTINUOUS
 10
22221.639294401801
 20
398695.70000276068
 30
0.0
 11
22222.900041082921
 21
398694.93726062891
 31
0.0
  0
LINE
  5
695F6
  8
S-OBRYS
  6
CONTINUOUS
 10
22221.698936994861
 20
398693.70089226827
 30
0.0
 11
22222.91196960153
 21
398694.5374385303
 31
0.0
  0
LINE
  5
695F7
  8
S-OBRYS
  6
CONTINUOUS
 10
22222.02917694821
 20
398685.40705173498
 30
0.0
 11
22221.951641577241
 21
398688.0058953751
 31
0.0
  0
LINE
  5
695F8
  8
S-OBRYS
  6
CONTINUOUS
 10
22220.848488231259
 20
398688.6732947405
 30
0.0
 11
22221.951641577241
 21
398688.0058953751
 31
0.0
  0
ARC
  5
695F9
  8
S-OBRYS
  6
CONTINUOUS
 10
22241.464985694249
 20
398687.66930455912
 30
0.0
 40
2.5474800517290328
 50
271.93677490173849
 51
348.02268352668591
  0
ARC
  5
695FA
  8
S-OBRYS
  6
CONTINUOUS
 10
22246.99614464262
 20
398695.97750578419
 30
0.0
 40
3.0
 50
90.0
 51
180.0
  0
LINE
  5
695FB
  8
S-OBRYS
  6
CONTINUOUS
 10
22243.99614464262
 20
398695.97750578419
 30
0.0
 11
22243.957006689441
 21
398687.14064022928
 31
0.0
  0
LINE
  5
695FC
  8
S-OBRYS
  6
CONTINUOUS
 10
22213.642852431931
 20
398695.46143238852
 30
0.0
 11
22205.646410462061
 21
398695.22286201618
 31
0.0
  0
LINE
  5
695FD
  8
S-OBRYS
  6
CONTINUOUS
 10
22213.70249502498
 20
398693.46232189599
 30
0.0
 11
22205.70605305511
 21
398693.22375152382
 31
0.0
  0
LINE
  5
695FE
  8
S-OBRYS
  6
CONTINUOUS
 10
22213.85160150762
 20
398688.46454566478
 30
0.0
 11
22206.854714783989
 21
398688.25579658919
 31
0.0
  0
LINE
  5
695FF
  8
S-OBRYS
  6
CONTINUOUS
 10
22219.848932985031
 20
398688.64347344398
 30
0.0
 11
22219.69982650239
 21
398693.64124967519
 31
0.0
  0
LINE
  5
69600
  8
S-OBRYS
  6
CONTINUOUS
 10
22205.870846624111
 20
398684.92497496947
 30
0.0
 11
22205.79331125315
 21
398687.52381860971
 31
0.0
  0
ARC
  5
69601
  8
S-OBRYS
  6
CONTINUOUS
 10
22187.998296127382
 20
398679.6809362981
 30
0.0
 40
2.0
 50
90.0
 51
180.0
  0
LINE
  5
69602
  8
S-OBRYS
  6
CONTINUOUS
 10
22193.998296127382
 20
398681.6809362981
 30
0.0
 11
22187.998296127382
 21
398681.6809362981
 31
0.0
  0
LINE
  5
69603
  8
S-OBRYS
  6
CONTINUOUS
 10
22207.404215766732
 20
398683.99729832658
 30
0.0
 11
22205.870846624111
 21
398684.92497496947
 31
0.0
  0
ARC
  5
69604
  8
S-OBRYS
  6
CONTINUOUS
 10
22201.555664192219
 20
398683.69379959628
 30
0.0
 40
1.7468808744380571
 50
271.04521237908858
 51
5.4696904843475611
  0
LINE
  5
69605
  8
S-OBRYS
  6
CONTINUOUS
 10
22193.99614464262
 20
398681.693197952
 30
0.0
 11
22201.58752971988
 21
398681.94720938179
 31
0.0
  0
LINE
  5
69606
  8
S-OBRYS
  6
CONTINUOUS
 10
22205.646410462061
 20
398695.22286201618
 30
0.0
 11
22204.433377855381
 21
398694.38631575409
 31
0.0
  0
LINE
  5
69607
  8
S-OBRYS
  6
CONTINUOUS
 10
22205.70605305511
 20
398693.22375152382
 30
0.0
 11
22204.445306373989
 21
398693.9864936556
 31
0.0
  0
LINE
  5
69608
  8
S-OBRYS
  6
CONTINUOUS
 10
22204.445306373989
 20
398693.9864936556
 30
0.0
 11
22204.433377855381
 21
398694.38631575409
 31
0.0
  0
LINE
  5
69609
  8
S-OBRYS
  6
CONTINUOUS
 10
22206.854714783989
 20
398688.25579658919
 30
0.0
 11
22205.79331125315
 21
398687.52381860971
 31
0.0
  0
LINE
  5
6960A
  8
S-OBRYS
  6
CONTINUOUS
 10
22207.854270030221
 20
398688.2856178857
 30
0.0
 11
22207.70516354758
 21
398693.28339411679
 31
0.0
  0
LINE
  5
6960B
  8
S-OBRYS
  6
CONTINUOUS
 10
22203.294591101541
 20
398683.8603108378
 30
0.0
 11
22241.798741690291
 21
398685.1437825241
 31
0.0
  0
LINE
  5
6960C
  8
S-OBRYS
  6
CONTINUOUS
 10
22213.642852431931
 20
398695.46143238852
 30
0.0
 11
22221.639294401801
 21
398695.70000276068
 31
0.0
  0
LINE
  5
6960D
  8
S-OBRYS
  6
CONTINUOUS
 10
22213.70249502498
 20
398693.46232189599
 30
0.0
 11
22221.698936994861
 21
398693.70089226827
 31
0.0
  0
LINE
  5
6960E
  8
S-OBRYS
  6
CONTINUOUS
 10
22213.85160150762
 20
398688.46454566478
 30
0.0
 11
22220.848488231259
 21
398688.6732947405
 31
0.0
  0
LINE
  5
6960F
  8
S-OBRYS
  6
CONTINUOUS
 10
22185.998296127382
 20
398668.48542859638
 30
0.0
 11
22179.978342017868
 21
398668.48542859638
 31
0.0
  0
LINE
  5
69610
  8
S-OBRYS
  6
CONTINUOUS
 10
22185.998296127382
 20
398673.98542859638
 30
0.0
 11
22185.998296127382
 21
398668.48542859638
 31
0.0
  0
ARC
  5
69611
  8
S-OBRYS
  6
CONTINUOUS
 10
22179.978342017868
 20
398666.48542859638
 30
0.0
 40
2.0
 50
90.0
 51
180.0
  0
LINE
  5
69612
  8
S-OBRYS
  6
CONTINUOUS
 10
22214.35846170197
 20
398671.4755201909
 30
0.0
 11
22213.613031135399
 21
398696.46098763472
 31
0.0
  0
LINE
  5
69613
  8
S-OBRYS
  6
CONTINUOUS
 10
22185.998296127382
 20
398673.98542859638
 30
0.0
 11
22185.998296127382
 21
398679.6809362981
 31
0.0
  0
INSERT
  5
69614
  8
S-OBRYS
  6
CONTINUOUS
  2
_CLOSEDBLANK
 10
22253.978342017861
 20
398726.66741260432
 30
0.0
 41
100.0000000000085
 42
100.0
 43
100.0
 50
218.6883497263006
  0
LINE
  5
69615
  8
S-OBRYS
  6
CONTINUOUS
 10
22253.978342017861
 20
398726.66741260432
 30
0.0
 11
22289.103633309689
 21
398726.6665777801
 31
0.0
  0
LINE
  5
69616
  8
S-OBRYS
  6
CONTINUOUS
 10
22545.73705320157
 20
398536.3933431154
 30
0.0
 11
22545.73705320157
 21
398744.4267929488
 31
0.0
  0
LINE
  5
69617
  8
S-OBRYS
  6
CONTINUOUS
 10
22549.73705320157
 20
398726.84327076969
 30
0.0
 11
22549.73705320157
 21
398506.8933431154
 31
0.0
  0
LINE
  5
69618
  8
S-OBRYS
  6
CONTINUOUS
 10
22541.737053201581
 20
398726.84346146521
 30
0.0
 11
22541.737053201581
 21
398509.3933431154
 31
0.0
  0
LINE
  5
69619
  8
S-OBRYS
  6
CONTINUOUS
 10
22575.737053201581
 20
398536.3933431154
 30
0.0
 11
22575.74159293004
 21
398726.84265090112
 31
0.0
  0
LINE
  5
6961A
  8
S-OBRYS
  6
CONTINUOUS
 10
22515.73705320157
 20
398536.3933431154
 30
0.0
 11
22515.741592964139
 21
398726.84408111742
 31
0.0
  0
LINE
  5
6961B
  8
S-OBRYS
  6
CONTINUOUS
 10
22545.73705320157
 20
398536.3933431154
 30
0.0
 11
22545.73705320157
 21
398506.3933431154
 31
0.0
  0
LINE
  5
6961C
  8
S-OBRYS
  6
CONTINUOUS
 10
22549.73705320157
 20
398529.3933431154
 30
0.0
 11
22549.73705320157
 21
398509.3933431154
 31
0.0
  0
LINE
  5
6961D
  8
S-OBRYS
  6
CONTINUOUS
 10
22545.73705320157
 20
398536.3933431154
 30
0.0
 11
22545.73705320157
 21
398506.3933431154
 31
0.0
  0
LINE
  5
6961E
  8
S-OBRYS
  6
CONTINUOUS
 10
22554.737053201581
 20
398532.3933431154
 30
0.0
 11
22554.737053201581
 21
398454.3933431154
 31
0.0
  0
LINE
  5
6961F
  8
S-OBRYS
  6
CONTINUOUS
 10
22539.737053201581
 20
398439.39334311528
 30
0.0
 11
22504.73705320157
 21
398439.39334311528
 31
0.0
  0
LINE
  5
69620
  8
S-OBRYS
  6
CONTINUOUS
 10
22504.73705320157
 20
398444.3933431154
 30
0.0
 11
22539.737053201581
 21
398444.3933431154
 31
0.0
  0
LINE
  5
69621
  8
S-OBRYS
  6
CONTINUOUS
 10
22504.73705320157
 20
398439.39334311528
 30
0.0
 11
22504.73705320157
 21
398444.3933431154
 31
0.0
  0
LINE
  5
69622
  8
S-OBRYS
  6
CONTINUOUS
 10
22554.737053201581
 20
398503.8933431154
 30
0.0
 11
22554.737053201581
 21
398499.3933431154
 31
0.0
  0
LINE
  5
69623
  8
S-OBRYS
  6
CONTINUOUS
 10
22548.73705320157
 20
398506.8933431154
 30
0.0
 11
22549.73705320157
 21
398506.8933431154
 31
0.0
  0
LINE
  5
69624
  8
S-OBRYS
  6
CONTINUOUS
 10
22549.73705320157
 20
398506.8933431154
 30
0.0
 11
22549.73705320157
 21
398492.8933431154
 31
0.0
  0
ARC
  5
69625
  8
S-OBRYS
  6
CONTINUOUS
 10
22546.73705320157
 20
398509.3933431154
 30
0.0
 40
3.0
 50
270.0
 51
0.0
  0
LINE
  5
69626
  8
S-OBRYS
  6
CONTINUOUS
 10
22546.73705320157
 20
398506.3933431154
 30
0.0
 11
22545.73705320157
 21
398506.3933431154
 31
0.0
  0
ARC
  5
69627
  8
S-OBRYS
  6
CONTINUOUS
 10
22544.73705320157
 20
398509.3933431154
 30
0.0
 40
3.0
 50
180.0
 51
270.0
  0
LINE
  5
69628
  8
S-OBRYS
  6
CONTINUOUS
 10
22544.73705320157
 20
398506.3933431154
 30
0.0
 11
22545.73705320157
 21
398506.3933431154
 31
0.0
  0
ARC
  5
69629
  8
S-OBRYS
  6
CONTINUOUS
 10
22539.737053201581
 20
398454.3933431154
 30
0.0
 40
10.0
 50
270.0
 51
0.0
  0
ARC
  5
6962A
  8
S-OBRYS
  6
CONTINUOUS
 10
22539.737053201581
 20
398454.3933431154
 30
0.0
 40
15.0
 50
270.0
 51
0.0
  0
LINE
  5
6962B
  8
S-OBRYS
  6
CONTINUOUS
 10
22549.73705320157
 20
398454.3933431154
 30
0.0
 11
22549.73705320157
 21
398492.8933431154
 31
0.0
  0
LINE
  5
6962C
  8
S-OBRYS
  6
CONTINUOUS
 10
22518.737053201581
 20
398532.3933431154
 30
0.0
 11
22538.73705320157
 21
398532.3933431154
 31
0.0
  0
ARC
  5
6962D
  8
S-OBRYS
  6
CONTINUOUS
 10
22518.737053201581
 20
398535.3933431154
 30
0.0
 40
3.0
 50
180.0
 51
270.0
  0
LINE
  5
6962E
  8
S-OBRYS
  6
CONTINUOUS
 10
22515.73705320157
 20
398536.3933431154
 30
0.0
 11
22515.73705320157
 21
398535.3933431154
 31
0.0
  0
ARC
  5
6962F
  8
S-OBRYS
  6
CONTINUOUS
 10
22572.73705320157
 20
398535.3933431154
 30
0.0
 40
3.0
 50
270.0
 51
0.0
  0
LINE
  5
69630
  8
S-OBRYS
  6
CONTINUOUS
 10
22575.737053201581
 20
398536.3933431154
 30
0.0
 11
22575.737053201581
 21
398535.3933431154
 31
0.0
  0
ARC
  5
69631
  8
S-OBRYS
  6
CONTINUOUS
 10
22552.737053201581
 20
398529.3933431154
 30
0.0
 40
3.0
 50
90.0
 51
180.0
  0
LINE
  5
69632
  8
S-OBRYS
  6
CONTINUOUS
 10
22561.23705320157
 20
398532.3933431154
 30
0.0
 11
22552.737053201581
 21
398532.3933431154
 31
0.0
  0
ARC
  5
69633
  8
S-OBRYS
  6
CONTINUOUS
 10
22538.73705320157
 20
398529.3933431154
 30
0.0
 40
3.0
 50
0.0
 51
90.0
  0
LINE
  5
69634
  8
S-OBRYS
  6
CONTINUOUS
 10
22530.237053201581
 20
398532.3933431154
 30
0.0
 11
22538.73705320157
 21
398532.3933431154
 31
0.0
  0
LINE
  5
69635
  8
S-OBRYS
  6
CONTINUOUS
 10
22572.73705320157
 20
398532.3933431154
 30
0.0
 11
22552.737053201581
 21
398532.3933431154
 31
0.0
  0
LINE
  5
69636
  8
S-OBRYS
  6
CONTINUOUS
 10
22533.737053201581
 20
398521.8933431154
 30
0.0
 11
22567.73705320157
 21
398521.8933431154
 31
0.0
  0
LINE
  5
69637
  8
S-OBRYS
  6
CONTINUOUS
 10
22534.237053201581
 20
398763.4267929488
 30
0.0
 11
22522.237053201581
 21
398763.4267929488
 31
0.0
  0
LINE
  5
69638
  8
S-OBRYS
  6
CONTINUOUS
 10
22528.217687070919
 20
398762.41983752971
 30
0.0
 11
22518.717687070919
 21
398762.41983752971
 31
0.0
  0
LINE
  5
69639
  8
S-OBRYS
  6
CONTINUOUS
 10
22518.717687070919
 20
398755.41983752971
 30
0.0
 11
22528.217687070919
 21
398755.41983752971
 31
0.0
  0
LINE
  5
6963A
  8
S-OBRYS
  6
CONTINUOUS
 10
22511.237053201581
 20
398744.4267929488
 30
0.0
 11
22541.237053201581
 21
398744.4267929488
 31
0.0
  0
LINE
  5
6963B
  8
S-OBRYS
  6
CONTINUOUS
 10
22538.23705320157
 20
398748.4267929488
 30
0.0
 11
22518.23705320157
 21
398748.4267929488
 31
0.0
  0
LINE
  5
6963C
  8
S-OBRYS
  6
CONTINUOUS
 10
22518.717687070919
 20
398748.43888093199
 30
0.0
 11
22528.217687070919
 21
398748.43888093199
 31
0.0
  0
LINE
  5
6963D
  8
S-OBRYS
  6
CONTINUOUS
 10
22528.217687070919
 20
398755.43888093211
 30
0.0
 11
22518.717687070919
 21
398755.43888093211
 31
0.0
  0
LINE
  5
6963E
  8
S-OBRYS
  6
CONTINUOUS
 10
22523.23705320157
 20
398764.4267929488
 30
0.0
 11
22533.23705320157
 21
398764.4267929488
 31
0.0
  0
LINE
  5
6963F
  8
S-OBRYS
  6
CONTINUOUS
 10
22515.741592964139
 20
398726.84408111742
 30
0.0
 11
22575.74159293004
 21
398726.84265090112
 31
0.0
  0
LINE
  5
69640
  8
S-OBRYS
  6
CONTINUOUS
 10
22515.23705320157
 20
398751.4267929488
 30
0.0
 11
22515.23705320157
 21
398771.42679294891
 31
0.0
  0
LINE
  5
69641
  8
S-OBRYS
  6
CONTINUOUS
 10
22511.237053201581
 20
398744.4267929488
 30
0.0
 11
22511.237053201581
 21
398774.4267929488
 31
0.0
  0
LINE
  5
69642
  8
S-OBRYS
  6
CONTINUOUS
 10
22523.23705320157
 20
398764.4267929488
 30
0.0
 11
22522.237053201581
 21
398763.4267929488
 31
0.0
  0
LINE
  5
69643
  8
S-OBRYS
  6
CONTINUOUS
 10
22523.23705320157
 20
398748.4267929488
 30
0.0
 11
22523.23705320157
 21
398748.43888093199
 31
0.0
  0
LINE
  5
69644
  8
S-OBRYS
  6
CONTINUOUS
 10
22522.237053201581
 20
398763.4267929488
 30
0.0
 11
22522.237053201581
 21
398762.41983752971
 31
0.0
  0
LINE
  5
69645
  8
S-OBRYS
  6
CONTINUOUS
 10
22518.717687070919
 20
398762.41983752971
 30
0.0
 11
22517.24803707092
 21
398761.5713351022
 31
0.0
  0
LINE
  5
69646
  8
S-OBRYS
  6
CONTINUOUS
 10
22517.24803707092
 20
398756.26833995711
 30
0.0
 11
22518.717687070919
 21
398755.41983752971
 31
0.0
  0
ARC
  5
69647
  8
S-OBRYS
  6
CONTINUOUS
 10
22518.23705320157
 20
398751.4267929488
 30
0.0
 40
3.0
 50
180.0
 51
270.0
  0
LINE
  5
69648
  8
S-OBRYS
  6
CONTINUOUS
 10
22517.24803707092
 20
398754.59037850448
 30
0.0
 11
22517.24803707092
 21
398749.28738335951
 31
0.0
  0
LINE
  5
69649
  8
S-OBRYS
  6
CONTINUOUS
 10
22517.24803707092
 20
398749.28738335951
 30
0.0
 11
22518.717687070919
 21
398748.43888093199
 31
0.0
  0
LINE
  5
6964A
  8
S-OBRYS
  6
CONTINUOUS
 10
22518.717687070919
 20
398755.43888093211
 30
0.0
 11
22517.24803707092
 21
398754.59037850448
 31
0.0
  0
LINE
  5
6964B
  8
S-OBRYS
  6
CONTINUOUS
 10
22522.237053201581
 20
398748.43888093199
 30
0.0
 11
22522.237053201581
 21
398748.4267929488
 31
0.0
  0
LINE
  5
6964C
  8
S-OBRYS
  6
CONTINUOUS
 10
22517.24803707092
 20
398761.5713351022
 30
0.0
 11
22517.24803707092
 21
398756.26833995711
 31
0.0
  0
ARC
  5
6964D
  8
S-OBRYS
  6
CONTINUOUS
 10
22512.23705320157
 20
398771.42679294891
 30
0.0
 40
3.0
 50
0.0
 51
90.0
  0
LINE
  5
6964E
  8
S-OBRYS
  6
CONTINUOUS
 10
22512.23705320157
 20
398774.4267929488
 30
0.0
 11
22511.237053201581
 21
398774.4267929488
 31
0.0
  0
LINE
  5
6964F
  8
S-OBRYS
  6
CONTINUOUS
 10
22533.23705320157
 20
398764.4267929488
 30
0.0
 11
22534.237053201581
 21
398763.4267929488
 31
0.0
  0
LINE
  5
69650
  8
S-OBRYS
  6
CONTINUOUS
 10
22528.217687070919
 20
398762.41983752971
 30
0.0
 11
22537.717687070919
 21
398762.41983752971
 31
0.0
  0
LINE
  5
69651
  8
S-OBRYS
  6
CONTINUOUS
 10
22537.717687070919
 20
398762.41983752971
 30
0.0
 11
22539.187337070922
 21
398761.5713351022
 31
0.0
  0
LINE
  5
69652
  8
S-OBRYS
  6
CONTINUOUS
 10
22534.237053201581
 20
398762.41983752971
 30
0.0
 11
22534.237053201581
 21
398763.4267929488
 31
0.0
  0
LINE
  5
69653
  8
S-OBRYS
  6
CONTINUOUS
 10
22539.187337070922
 20
398756.26833995711
 30
0.0
 11
22537.717687070919
 21
398755.41983752971
 31
0.0
  0
LINE
  5
69654
  8
S-OBRYS
  6
CONTINUOUS
 10
22537.717687070919
 20
398755.41983752971
 30
0.0
 11
22528.217687070919
 21
398755.41983752971
 31
0.0
  0
ARC
  5
69655
  8
S-OBRYS
  6
CONTINUOUS
 10
22538.23705320157
 20
398745.4267929488
 30
0.0
 40
3.0
 50
0.0
 51
90.0
  0
LINE
  5
69656
  8
S-OBRYS
  6
CONTINUOUS
 10
22541.237053201581
 20
398744.4267929488
 30
0.0
 11
22541.237053201581
 21
398745.4267929488
 31
0.0
  0
LINE
  5
69657
  8
S-OBRYS
  6
CONTINUOUS
 10
22539.187337070922
 20
398754.59037850448
 30
0.0
 11
22539.187337070922
 21
398749.28738335951
 31
0.0
  0
LINE
  5
69658
  8
S-OBRYS
  6
CONTINUOUS
 10
22539.187337070922
 20
398749.28738335951
 30
0.0
 11
22537.717687070919
 21
398748.43888093199
 31
0.0
  0
LINE
  5
69659
  8
S-OBRYS
  6
CONTINUOUS
 10
22537.717687070919
 20
398748.43888093199
 30
0.0
 11
22528.217687070919
 21
398748.43888093199
 31
0.0
  0
LINE
  5
6965A
  8
S-OBRYS
  6
CONTINUOUS
 10
22537.717687070919
 20
398755.43888093211
 30
0.0
 11
22539.187337070922
 21
398754.59037850448
 31
0.0
  0
LINE
  5
6965B
  8
S-OBRYS
  6
CONTINUOUS
 10
22528.217687070919
 20
398755.43888093211
 30
0.0
 11
22537.717687070919
 21
398755.43888093211
 31
0.0
  0
LINE
  5
6965C
  8
S-OBRYS
  6
CONTINUOUS
 10
22539.187337070922
 20
398761.5713351022
 30
0.0
 11
22539.187337070922
 21
398756.26833995711
 31
0.0
  0
LINE
  5
6965D
  8
S-OBRYS
  6
CONTINUOUS
 10
22573.556066971629
 20
398840.47939558327
 30
0.0
 11
22626.266306083191
 21
399022.47562643472
 31
0.0
  0
DIMENSION
  5
6965E
  8
S-OBRYS
  6
CONTINUOUS
  2
*D38
 10
24362.924871465071
 20
405935.6685181596
 30
0.0
 11
23966.421072198918
 21
406023.1685181596
 31
0.0
 70
     0
  1
793
 13
23569.91727293278
 23
405701.4186770306
 33
0.0
 14
24362.924871465071
 24
405701.4186770306
 34
0.0
  0
LINE
  5
6965F
  8
S-OBRYS
  6
CONTINUOUS
 10
24077.174871465071
 20
405698.34278071619
 30
0.0
 11
24305.456589010271
 21
405698.34278071619
 31
0.0
  0
LINE
  5
69660
  8
S-OBRYS
  6
CONTINUOUS
 10
24077.174871465071
 20
405683.34278071619
 30
0.0
 11
24305.456589010271
 21
405683.34278071619
 31
0.0
  0
LINE
  5
69661
  8
S-OBRYS
  6
CONTINUOUS
 10
24077.174871465071
 20
405658.34278071608
 30
0.0
 11
24305.456589010271
 21
405658.34278071608
 31
0.0
  0
LINE
  5
69662
  8
S-OBRYS
  6
CONTINUOUS
 10
24077.174871465071
 20
405631.34278071619
 30
0.0
 11
24305.456589010271
 21
405631.34278071619
 31
0.0
  0
LINE
  5
69663
  8
S-OBRYS
  6
CONTINUOUS
 10
24119.81771856494
 20
405574.1685181596
 30
0.0
 11
24305.456589010271
 21
405574.1685181596
 31
0.0
  0
LINE
  5
69664
  8
S-OBRYS
  6
CONTINUOUS
 10
24119.81771856494
 20
405549.16851815948
 30
0.0
 11
24305.456589010271
 21
405549.16851815948
 31
0.0
  0
LINE
  5
69665
  8
S-OBRYS
  6
CONTINUOUS
 10
24119.81771856494
 20
405534.1685181596
 30
0.0
 11
24305.456589010271
 21
405534.1685181596
 31
0.0
  0
LINE
  5
69666
  8
S-OBRYS
  6
CONTINUOUS
 10
24119.81771856494
 20
405601.1685181596
 30
0.0
 11
24305.456589010271
 21
405601.1685181596
 31
0.0
  0
LINE
  5
69667
  8
S-OBRYS
  6
CONTINUOUS
 10
24232.46437146507
 20
405706.25564943778
 30
0.0
 11
24305.424871465071
 21
405706.25564943778
 31
0.0
  0
LINE
  5
69668
  8
S-OBRYS
  6
CONTINUOUS
 10
24119.81771856494
 20
405526.2556494379
 30
0.0
 11
24283.924871465071
 21
405526.2556494379
 31
0.0
  0
LINE
  5
69669
  8
S-OBRYS
  6
CONTINUOUS
 10
23805.81771856494
 20
405714.6685181596
 30
0.0
 11
24119.81771856494
 21
405604.6685181596
 31
0.0
  0
LINE
  5
6966A
  8
S-OBRYS
  6
CONTINUOUS
 10
23852.917718564931
 20
405698.1685181596
 30
0.0
 11
24001.206589010279
 21
405698.1685181596
 31
0.0
  0
LINE
  5
6966B
  8
S-OBRYS
  6
CONTINUOUS
 10
23820.81771856494
 20
405751.1685181596
 30
0.0
 11
24067.206589010271
 21
405751.1685181596
 31
0.0
  0
LINE
  5
6966C
  8
S-OBRYS
  6
CONTINUOUS
 10
23879.69271856494
 20
405521.16851815948
 30
0.0
 11
23820.81771856494
 21
405521.16851815948
 31
0.0
  0
LINE
  5
6966D
  8
S-OBRYS
  6
CONTINUOUS
 10
23564.81771856494
 20
405524.1685181596
 30
0.0
 11
23564.82225689285
 21
405714.55907030171
 31
0.0
  0
LINE
  5
6966E
  8
S-OBRYS
  6
CONTINUOUS
 10
23534.81771856494
 20
405524.1685181596
 30
0.0
 11
23534.822256909891
 21
405714.55978540977
 31
0.0
  0
LINE
  5
6966F
  8
S-OBRYS
  6
CONTINUOUS
 10
23820.81771856494
 20
405709.41374108952
 30
0.0
 11
23820.81771856494
 21
405751.1685181596
 31
0.0
  0
LINE
  5
69670
  8
S-OBRYS
  6
CONTINUOUS
 10
23660.81771856494
 20
405583.6685181596
 30
0.0
 11
23693.81771856494
 21
405583.6685181596
 31
0.0
  0
LINE
  5
69671
  8
S-OBRYS
  6
CONTINUOUS
 10
23693.81771856494
 20
405648.6685181596
 30
0.0
 11
23668.81771856494
 21
405648.6685181596
 31
0.0
  0
LINE
  5
69672
  8
S-OBRYS
  6
CONTINUOUS
 10
23579.938468142489
 20
405565.14558871702
 30
0.0
 11
23579.938468142489
 21
405675.14097034128
 31
0.0
  0
LINE
  5
69673
  8
S-OBRYS
  6
CONTINUOUS
 10
23637.938468142489
 20
405576.47662616929
 30
0.0
 11
23637.938468142489
 21
405656.39998358802
 31
0.0
  0
LINE
  5
69674
  8
S-OBRYS
  6
CONTINUOUS
 10
23645.918514032979
 20
405631.48653457471
 30
0.0
 11
23645.938468142489
 21
405601.47662616923
 31
0.0
  0
LINE
  5
69675
  8
S-OBRYS
  6
CONTINUOUS
 10
23658.81771856494
 20
405638.66851815948
 30
0.0
 11
23658.81771856494
 21
405585.6685181596
 31
0.0
  0
LINE
  5
69676
  8
S-OBRYS
  6
CONTINUOUS
 10
23629.938468142489
 20
405568.97662616929
 30
0.0
 11
23582.135871094812
 21
405567.38320626772
 31
0.0
  0
LINE
  5
69677
  8
S-OBRYS
  6
CONTINUOUS
 10
23569.942927137061
 20
405524.1685181596
 30
0.0
 11
23564.81771856494
 21
405524.1685181596
 31
0.0
  0
LINE
  5
69678
  8
S-OBRYS
  6
CONTINUOUS
 10
23534.81771856494
 20
405524.1685181596
 30
0.0
 11
23534.81771856494
 21
405523.16851815948
 31
0.0
  0
LINE
  5
69679
  8
S-OBRYS
  6
CONTINUOUS
 10
23559.31771856494
 20
405550.1685181596
 30
0.0
 11
23584.81771856494
 21
405550.1685181596
 31
0.0
  0
ARC
  5
6967A
  8
S-OBRYS
  6
CONTINUOUS
 10
23582.469627090861
 20
405564.8576842327
 30
0.0
 40
2.5474800517290328
 50
91.936774901738502
 51
178.027313883825
  0
ARC
  5
6967B
  8
S-OBRYS
  6
CONTINUOUS
 10
23576.938468142489
 20
405548.97662616923
 30
0.0
 40
3.0
 50
270.0
 51
0.0
  0
LINE
  5
6967C
  8
S-OBRYS
  6
CONTINUOUS
 10
23576.938468142489
 20
405545.97662616929
 30
0.0
 11
23569.938468142489
 21
405545.97662616929
 31
0.0
  0
LINE
  5
6967D
  8
S-OBRYS
  6
CONTINUOUS
 10
23579.938468142489
 20
405565.14558871702
 30
0.0
 11
23579.938468142489
 21
405548.97662616923
 31
0.0
  0
LINE
  5
6967E
  8
S-OBRYS
  6
CONTINUOUS
 10
23658.81771856494
 20
405585.6685181596
 30
0.0
 11
23660.81771856494
 21
405583.6685181596
 31
0.0
  0
LINE
  5
6967F
  8
S-OBRYS
  6
CONTINUOUS
 10
23658.919895534229
 20
405601.47662616923
 30
0.0
 11
23645.938468142489
 21
405601.47662616923
 31
0.0
  0
ARC
  5
69680
  8
S-OBRYS
  6
CONTINUOUS
 10
23643.938468142489
 20
405578.47662616929
 30
0.0
 40
2.0
 50
270.0
 51
0.0
  0
ARC
  5
69681
  8
S-OBRYS
  6
CONTINUOUS
 10
23635.938468142489
 20
405570.97662616929
 30
0.0
 40
2.0
 50
270.0
 51
0.0
  0
LINE
  5
69682
  8
S-OBRYS
  6
CONTINUOUS
 10
23629.938468142489
 20
405568.97662616929
 30
0.0
 11
23635.938468142489
 21
405568.97662616929
 31
0.0
  0
LINE
  5
69683
  8
S-OBRYS
  6
CONTINUOUS
 10
23629.938468142489
 20
405576.47662616929
 30
0.0
 11
23629.938468142489
 21
405568.97662616929
 31
0.0
  0
LINE
  5
69684
  8
S-OBRYS
  6
CONTINUOUS
 10
23637.938468142489
 20
405570.97662616929
 30
0.0
 11
23637.938468142489
 21
405576.47662616929
 31
0.0
  0
LINE
  5
69685
  8
S-OBRYS
  6
CONTINUOUS
 10
23637.938468142489
 20
405576.47662616929
 30
0.0
 11
23643.938468142489
 21
405576.47662616929
 31
0.0
  0
LINE
  5
69686
  8
S-OBRYS
  6
CONTINUOUS
 10
23645.938468142489
 20
405578.47662616929
 30
0.0
 11
23645.938468142489
 21
405601.47662616923
 31
0.0
  0
LINE
  5
69687
  8
S-OBRYS
  6
CONTINUOUS
 10
23603.068321929099
 20
405676.67440071882
 30
0.0
 11
23601.96516858312
 21
405676.00700135349
 31
0.0
  0
LINE
  5
69688
  8
S-OBRYS
  6
CONTINUOUS
 10
23602.94903674299
 20
405672.67617973388
 30
0.0
 11
23601.887633212151
 21
405673.4081577133
 31
0.0
  0
LINE
  5
69689
  8
S-OBRYS
  6
CONTINUOUS
 10
23620.622219058809
 20
405671.86141681607
 30
0.0
 11
23582.118068470059
 21
405673.14488850237
 31
0.0
  0
LINE
  5
6968A
  8
S-OBRYS
  6
CONTINUOUS
 10
23610.21431513537
 20
405681.46342787432
 30
0.0
 11
23602.2178731655
 21
405681.7019982466
 31
0.0
  0
LINE
  5
6968B
  8
S-OBRYS
  6
CONTINUOUS
 10
23610.27395772843
 20
405683.46253836667
 30
0.0
 11
23602.27751575856
 21
405683.70110873901
 31
0.0
  0
LINE
  5
6968C
  8
S-OBRYS
  6
CONTINUOUS
 10
23558.81771856494
 20
405682.1685181596
 30
0.0
 11
23584.31771856494
 21
405682.1685181596
 31
0.0
  0
LINE
  5
6968D
  8
S-OBRYS
  6
CONTINUOUS
 10
23602.2178731655
 20
405681.7019982466
 30
0.0
 11
23601.004840558831
 21
405682.53854450869
 31
0.0
  0
LINE
  5
6968E
  8
S-OBRYS
  6
CONTINUOUS
 10
23602.27751575856
 20
405683.70110873901
 30
0.0
 11
23601.016769077429
 21
405682.93836660718
 31
0.0
  0
LINE
  5
6968F
  8
S-OBRYS
  6
CONTINUOUS
 10
23601.004840558831
 20
405682.53854450869
 30
0.0
 11
23601.016769077429
 21
405682.93836660718
 31
0.0
  0
LINE
  5
69690
  8
S-OBRYS
  6
CONTINUOUS
 10
23601.887633212151
 20
405673.4081577133
 30
0.0
 11
23601.96516858312
 21
405676.00700135349
 31
0.0
  0
ARC
  5
69691
  8
S-OBRYS
  6
CONTINUOUS
 10
23576.92066551774
 20
405683.97861176252
 30
0.0
 40
3.0
 50
0.0
 51
90.0
  0
ARC
  5
69692
  8
S-OBRYS
  6
CONTINUOUS
 10
23582.451824466101
 20
405675.67041053739
 30
0.0
 40
2.5474800517290328
 50
191.97731647331409
 51
268.06322509826151
  0
LINE
  5
69693
  8
S-OBRYS
  6
CONTINUOUS
 10
23579.92066551774
 20
405683.97861176252
 30
0.0
 11
23579.95980347092
 21
405675.14174620761
 31
0.0
  0
LINE
  5
69694
  8
S-OBRYS
  6
CONTINUOUS
 10
23576.92066551774
 20
405686.97861176252
 30
0.0
 11
23569.92066551774
 21
405686.97861176252
 31
0.0
  0
LINE
  5
69695
  8
S-OBRYS
  6
CONTINUOUS
 10
23660.81771856494
 20
405648.6685181596
 30
0.0
 11
23658.81771856494
 21
405646.6685181596
 31
0.0
  0
LINE
  5
69696
  8
S-OBRYS
  6
CONTINUOUS
 10
23658.81771856494
 20
405646.6685181596
 30
0.0
 11
23658.81771856494
 21
405638.66851815948
 31
0.0
  0
LINE
  5
69697
  8
S-OBRYS
  6
CONTINUOUS
 10
23668.81771856494
 20
405648.6685181596
 30
0.0
 11
23660.81771856494
 21
405648.6685181596
 31
0.0
  0
LINE
  5
69698
  8
S-OBRYS
  6
CONTINUOUS
 10
23658.919895534229
 20
405631.47662616923
 30
0.0
 11
23645.91852062125
 21
405631.47662616923
 31
0.0
  0
LINE
  5
69699
  8
S-OBRYS
  6
CONTINUOUS
 10
23618.21075710524
 20
405681.22485750198
 30
0.0
 11
23619.471503786361
 21
405681.98759963393
 31
0.0
  0
LINE
  5
6969A
  8
S-OBRYS
  6
CONTINUOUS
 10
23618.2703996983
 20
405683.22396799462
 30
0.0
 11
23619.483432304969
 21
405682.38742173242
 31
0.0
  0
LINE
  5
6969B
  8
S-OBRYS
  6
CONTINUOUS
 10
23619.471503786361
 20
405681.98759963393
 30
0.0
 11
23619.483432304969
 21
405682.38742173242
 31
0.0
  0
LINE
  5
6969C
  8
S-OBRYS
  6
CONTINUOUS
 10
23610.21431513537
 20
405681.46342787432
 30
0.0
 11
23618.21075710524
 21
405681.22485750198
 31
0.0
  0
LINE
  5
6969D
  8
S-OBRYS
  6
CONTINUOUS
 10
23610.27395772843
 20
405683.46253836667
 30
0.0
 11
23618.2703996983
 21
405683.22396799462
 31
0.0
  0
LINE
  5
6969E
  8
S-OBRYS
  6
CONTINUOUS
 10
23616.942810190259
 20
405672.25868158252
 30
0.0
 11
23618.045963536239
 21
405672.9260809478
 31
0.0
  0
LINE
  5
6969F
  8
S-OBRYS
  6
CONTINUOUS
 10
23618.045963536239
 20
405672.9260809478
 30
0.0
 11
23618.123498907211
 21
405675.52492458798
 31
0.0
  0
LINE
  5
696A0
  8
S-OBRYS
  6
CONTINUOUS
 10
23616.977638348952
 20
405672.25426943379
 30
0.0
 11
23616.977638348952
 21
405672.001867452
 31
0.0
  0
LINE
  5
696A1
  8
S-OBRYS
  6
CONTINUOUS
 10
23617.062095376368
 20
405676.2569025674
 30
0.0
 11
23618.123498907211
 21
405675.52492458798
 31
0.0
  0
LINE
  5
696A2
  8
S-OBRYS
  6
CONTINUOUS
 10
23610.06520865273
 20
405676.46565164311
 30
0.0
 11
23617.062095376368
 21
405676.2569025674
 31
0.0
  0
LINE
  5
696A3
  8
S-OBRYS
  6
CONTINUOUS
 10
23609.945923466621
 20
405672.46743065817
 30
0.0
 11
23616.942810190259
 21
405672.25868158252
 31
0.0
  0
LINE
  5
696A4
  8
S-OBRYS
  6
CONTINUOUS
 10
23616.06254013014
 20
405676.28672386392
 30
0.0
 11
23616.21164661277
 21
405681.28450009512
 31
0.0
  0
LINE
  5
696A5
  8
S-OBRYS
  6
CONTINUOUS
 10
23602.935184178241
 20
405672.65811649431
 30
0.0
 11
23602.884671691951
 21
405672.45619296399
 31
0.0
  0
LINE
  5
696A6
  8
S-OBRYS
  6
CONTINUOUS
 10
23604.06787717533
 20
405676.64457942231
 30
0.0
 11
23604.216983657971
 21
405681.64235565352
 31
0.0
  0
LINE
  5
696A7
  8
S-OBRYS
  6
CONTINUOUS
 10
23609.945923466621
 20
405672.46743065817
 30
0.0
 11
23602.94903674299
 21
405672.67617973388
 31
0.0
  0
LINE
  5
696A8
  8
S-OBRYS
  6
CONTINUOUS
 10
23610.06520865273
 20
405676.46565164311
 30
0.0
 11
23603.068321929099
 21
405676.67440071882
 31
0.0
  0
ARC
  5
696A9
  8
S-OBRYS
  6
CONTINUOUS
 10
23643.918514032979
 20
405654.48653457471
 30
0.0
 40
2.0
 50
0.0
 51
90.0
  0
ARC
  5
696AA
  8
S-OBRYS
  6
CONTINUOUS
 10
23635.918514032979
 20
405667.68204227643
 30
0.0
 40
2.0
 50
0.0
 51
90.0
  0
LINE
  5
696AB
  8
S-OBRYS
  6
CONTINUOUS
 10
23637.918514032979
 20
405661.98653457471
 30
0.0
 11
23637.918514032979
 21
405667.68204227643
 31
0.0
  0
LINE
  5
696AC
  8
S-OBRYS
  6
CONTINUOUS
 10
23629.918514032979
 20
405669.68204227643
 30
0.0
 11
23635.918514032979
 21
405669.68204227643
 31
0.0
  0
LINE
  5
696AD
  8
S-OBRYS
  6
CONTINUOUS
 10
23637.918514032979
 20
405661.98653457471
 30
0.0
 11
23637.918514032979
 21
405656.48653457471
 31
0.0
  0
LINE
  5
696AE
  8
S-OBRYS
  6
CONTINUOUS
 10
23629.92066551774
 20
405669.69430393039
 30
0.0
 11
23622.32928044047
 21
405669.94831536
 31
0.0
  0
LINE
  5
696AF
  8
S-OBRYS
  6
CONTINUOUS
 10
23637.918514032979
 20
405656.48653457471
 30
0.0
 11
23643.918514032979
 21
405656.48653457471
 31
0.0
  0
LINE
  5
696B0
  8
S-OBRYS
  6
CONTINUOUS
 10
23645.918514032979
 20
405654.48653457471
 30
0.0
 11
23645.918514032979
 21
405631.48653457471
 31
0.0
  0
ARC
  5
696B1
  8
S-OBRYS
  6
CONTINUOUS
 10
23622.361145968131
 20
405671.69490557461
 30
0.0
 40
1.7468808744380571
 50
174.53030951565239
 51
268.95478762091142
  0
LINE
  5
696B2
  8
S-OBRYS
  6
CONTINUOUS
 10
23698.81771856494
 20
405648.6685181596
 30
0.0
 11
23698.81771856494
 21
405583.6685181596
 31
0.0
  0
LINE
  5
696B3
  8
S-OBRYS
  6
CONTINUOUS
 10
23743.81771856494
 20
405553.1685181596
 30
0.0
 11
23743.81771856494
 21
405679.1685181596
 31
0.0
  0
LINE
  5
696B4
  8
S-OBRYS
  6
CONTINUOUS
 10
23820.81771856494
 20
405588.1685181596
 30
0.0
 11
23820.81771856494
 21
405644.1685181596
 31
0.0
  0
LINE
  5
696B5
  8
S-OBRYS
  6
CONTINUOUS
 10
23815.81771856494
 20
405591.1685181596
 30
0.0
 11
23815.81771856494
 21
405644.1685181596
 31
0.0
  0
LINE
  5
696B6
  8
S-OBRYS
  6
CONTINUOUS
 10
23805.84200101973
 20
405636.1685181596
 30
0.0
 11
23805.84200101973
 21
405596.16851815948
 31
0.0
  0
LINE
  5
696B7
  8
S-OBRYS
  6
CONTINUOUS
 10
23743.81771856494
 20
405578.6685181596
 30
0.0
 11
23803.81771856494
 21
405578.6685181596
 31
0.0
  0
LINE
  5
696B8
  8
S-OBRYS
  6
CONTINUOUS
 10
23741.81771856494
 20
405551.16851815948
 30
0.0
 11
23743.81771856494
 21
405553.1685181596
 31
0.0
  0
LINE
  5
696B9
  8
S-OBRYS
  6
CONTINUOUS
 10
23698.81771856494
 20
405553.1685181596
 30
0.0
 11
23700.81771856494
 21
405551.16851815948
 31
0.0
  0
ARC
  5
696BA
  8
S-OBRYS
  6
CONTINUOUS
 10
23693.81771856494
 20
405578.6685181596
 30
0.0
 40
5.0
 50
0.0
 51
90.0
  0
LINE
  5
696BB
  8
S-OBRYS
  6
CONTINUOUS
 10
23700.81771856494
 20
405551.16851815948
 30
0.0
 11
23741.81771856494
 21
405551.16851815948
 31
0.0
  0
LINE
  5
696BC
  8
S-OBRYS
  6
CONTINUOUS
 10
23698.81771856494
 20
405583.6685181596
 30
0.0
 11
23698.81771856494
 21
405553.1685181596
 31
0.0
  0
LINE
  5
696BD
  8
S-OBRYS
  6
CONTINUOUS
 10
23803.81771856494
 20
405578.6685181596
 30
0.0
 11
23805.81771856494
 21
405580.6685181596
 31
0.0
  0
LINE
  5
696BE
  8
S-OBRYS
  6
CONTINUOUS
 10
23805.81771856494
 20
405580.6685181596
 30
0.0
 11
23805.81771856494
 21
405591.1685181596
 31
0.0
  0
LINE
  5
696BF
  8
S-OBRYS
  6
CONTINUOUS
 10
23815.81771856494
 20
405588.1685181596
 30
0.0
 11
23820.81771856494
 21
405588.1685181596
 31
0.0
  0
LINE
  5
696C0
  8
S-OBRYS
  6
CONTINUOUS
 10
23815.81771856494
 20
405591.1685181596
 30
0.0
 11
23815.81771856494
 21
405588.1685181596
 31
0.0
  0
LINE
  5
696C1
  8
S-OBRYS
  6
CONTINUOUS
 10
23805.84200101973
 20
405591.1685181596
 30
0.0
 11
23815.81771856494
 21
405591.1685181596
 31
0.0
  0
LINE
  5
696C2
  8
S-OBRYS
  6
CONTINUOUS
 10
23805.84200101973
 20
405596.16851815948
 30
0.0
 11
23805.84200101973
 21
405591.1685181596
 31
0.0
  0
LINE
  5
696C3
  8
S-OBRYS
  6
CONTINUOUS
 10
23803.81771856494
 20
405653.6685181596
 30
0.0
 11
23743.81771856494
 21
405653.6685181596
 31
0.0
  0
LINE
  5
696C4
  8
S-OBRYS
  6
CONTINUOUS
 10
23741.81771856494
 20
405681.1685181596
 30
0.0
 11
23743.81771856494
 21
405679.1685181596
 31
0.0
  0
LINE
  5
696C5
  8
S-OBRYS
  6
CONTINUOUS
 10
23698.81771856494
 20
405679.1685181596
 30
0.0
 11
23700.81771856494
 21
405681.1685181596
 31
0.0
  0
ARC
  5
696C6
  8
S-OBRYS
  6
CONTINUOUS
 10
23693.81771856494
 20
405653.6685181596
 30
0.0
 40
5.0
 50
270.0
 51
0.0
  0
LINE
  5
696C7
  8
S-OBRYS
  6
CONTINUOUS
 10
23698.81771856494
 20
405679.1685181596
 30
0.0
 11
23698.81771856494
 21
405648.6685181596
 31
0.0
  0
LINE
  5
696C8
  8
S-OBRYS
  6
CONTINUOUS
 10
23741.81771856494
 20
405681.1685181596
 30
0.0
 11
23700.81771856494
 21
405681.1685181596
 31
0.0
  0
LINE
  5
696C9
  8
S-OBRYS
  6
CONTINUOUS
 10
23852.917718564931
 20
405698.1685181596
 30
0.0
 11
23820.81771856494
 21
405698.1685181596
 31
0.0
  0
LINE
  5
696CA
  8
S-OBRYS
  6
CONTINUOUS
 10
23803.81771856494
 20
405653.6685181596
 30
0.0
 11
23805.81771856494
 21
405651.6685181596
 31
0.0
  0
LINE
  5
696CB
  8
S-OBRYS
  6
CONTINUOUS
 10
23805.81771856494
 20
405641.1685181596
 30
0.0
 11
23805.81771856494
 21
405651.6685181596
 31
0.0
  0
LINE
  5
696CC
  8
S-OBRYS
  6
CONTINUOUS
 10
23820.81771856494
 20
405644.1685181596
 30
0.0
 11
23820.81771856494
 21
405709.41374108952
 31
0.0
  0
LINE
  5
696CD
  8
S-OBRYS
  6
CONTINUOUS
 10
23820.81771856494
 20
405644.1685181596
 30
0.0
 11
23815.81771856494
 21
405644.1685181596
 31
0.0
  0
LINE
  5
696CE
  8
S-OBRYS
  6
CONTINUOUS
 10
23805.84200101973
 20
405641.1685181596
 30
0.0
 11
23815.81771856494
 21
405641.1685181596
 31
0.0
  0
LINE
  5
696CF
  8
S-OBRYS
  6
CONTINUOUS
 10
23805.84200101973
 20
405636.1685181596
 30
0.0
 11
23805.84200101973
 21
405641.1685181596
 31
0.0
  0
LINE
  5
696D0
  8
S-OBRYS
  6
CONTINUOUS
 10
23569.915369357739
 20
405714.5708673668
 30
0.0
 11
23804.81802216727
 21
405714.5708673668
 31
0.0
  0
LINE
  5
696D1
  8
S-OBRYS
  6
CONTINUOUS
 10
23569.915369357739
 20
405714.5708673668
 30
0.0
 11
23552.284268731491
 21
405732.20196799299
 31
0.0
  0
LINE
  5
696D2
  8
S-OBRYS
  6
CONTINUOUS
 10
24043.206589010279
 20
405631.50681195263
 30
0.0
 11
24043.206589010279
 21
405751.1685181596
 31
0.0
  0
LINE
  5
696D3
  8
S-OBRYS
  6
CONTINUOUS
 10
24001.206589010279
 20
405751.1685181596
 30
0.0
 11
24001.206589010279
 21
405646.22018774872
 31
0.0
  0
LINE
  5
696D4
  8
S-OBRYS
  6
CONTINUOUS
 10
24067.206589010271
 20
405751.1685181596
 30
0.0
 11
24067.206589010271
 21
405623.0991686405
 31
0.0
  0
LINE
  5
696D5
  8
S-OBRYS
  6
CONTINUOUS
 10
24141.137371465069
 20
405701.8456494378
 30
0.0
 11
24141.137371465069
 21
405741.8456494378
 31
0.0
  0
LINE
  5
696D6
  8
S-OBRYS
  6
CONTINUOUS
 10
24232.46437146507
 20
405741.8456494378
 30
0.0
 11
24232.46437146507
 21
405701.8456494378
 31
0.0
  0
LINE
  5
696D7
  8
S-OBRYS
  6
CONTINUOUS
 10
24105.706589010271
 20
405521.16851815948
 30
0.0
 11
24046.831589010279
 21
405521.16851815948
 31
0.0
  0
LINE
  5
696D8
  8
S-OBRYS
  6
CONTINUOUS
 10
24043.206589010279
 20
405631.50681195263
 30
0.0
 11
24043.206589010279
 21
405521.16851815948
 31
0.0
  0
LINE
  5
696D9
  8
S-OBRYS
  6
CONTINUOUS
 10
23895.81771856494
 20
405596.16851815948
 30
0.0
 11
24030.206589010279
 21
405596.16851815948
 31
0.0
  0
LINE
  5
696DA
  8
S-OBRYS
  6
CONTINUOUS
 10
23895.81771856494
 20
405521.16851815948
 30
0.0
 11
23895.81771856494
 21
405596.16851815948
 31
0.0
  0
LINE
  5
696DB
  8
S-OBRYS
  6
CONTINUOUS
 10
23895.81771856494
 20
405521.16851815948
 30
0.0
 11
23879.69271856494
 21
405521.16851815948
 31
0.0
  0
LINE
  5
696DC
  8
S-OBRYS
  6
CONTINUOUS
 10
24030.206589010279
 20
405596.16851815948
 30
0.0
 11
24030.206589010279
 21
405521.16851815948
 31
0.0
  0
LINE
  5
696DD
  8
S-OBRYS
  6
CONTINUOUS
 10
24046.831589010279
 20
405521.16851815948
 30
0.0
 11
24030.206589010279
 21
405521.16851815948
 31
0.0
  0
LINE
  5
696DE
  8
S-OBRYS
  6
CONTINUOUS
 10
24001.206589010279
 20
405645.6685181596
 30
0.0
 11
24043.206589010279
 21
405645.6685181596
 31
0.0
  0
LINE
  5
696DF
  8
S-OBRYS
  6
CONTINUOUS
 10
24067.206589010271
 20
405623.0991686405
 30
0.0
 11
24067.206589010271
 21
405521.16851815948
 31
0.0
  0
LINE
  5
696E0
  8
S-OBRYS
  6
CONTINUOUS
 10
24077.174871465071
 20
405526.2556494379
 30
0.0
 11
24077.174871465071
 21
405619.60709516908
 31
0.0
  0
LINE
  5
696E1
  8
S-OBRYS
  6
CONTINUOUS
 10
24077.206589010279
 20
405534.1685181596
 30
0.0
 11
24119.81771856494
 21
405534.1685181596
 31
0.0
  0
LINE
  5
696E2
  8
S-OBRYS
  6
CONTINUOUS
 10
24077.206589010279
 20
405549.16851815948
 30
0.0
 11
24119.81771856494
 21
405549.16851815948
 31
0.0
  0
LINE
  5
696E3
  8
S-OBRYS
  6
CONTINUOUS
 10
24077.206589010279
 20
405574.1685181596
 30
0.0
 11
24119.81771856494
 21
405574.1685181596
 31
0.0
  0
LINE
  5
696E4
  8
S-OBRYS
  6
CONTINUOUS
 10
24077.206589010279
 20
405601.1685181596
 30
0.0
 11
24119.81771856494
 21
405601.1685181596
 31
0.0
  0
LINE
  5
696E5
  8
S-OBRYS
  6
CONTINUOUS
 10
24119.81771856494
 20
405526.2556494379
 30
0.0
 11
24077.174871465071
 21
405526.2556494379
 31
0.0
  0
LINE
  5
696E6
  8
S-OBRYS
  6
CONTINUOUS
 10
24228.956589010271
 20
405526.2556494379
 30
0.0
 11
24238.924871465071
 21
405526.2556494379
 31
0.0
  0
LINE
  5
696E7
  8
S-OBRYS
  6
CONTINUOUS
 10
24141.137371465069
 20
405701.8456494378
 30
0.0
 11
24232.46437146507
 21
405701.8456494378
 31
0.0
  0
LINE
  5
696E8
  8
S-OBRYS
  6
CONTINUOUS
 10
24077.174871465071
 20
405706.25564943778
 30
0.0
 11
24141.137371465069
 21
405706.25564943778
 31
0.0
  0
LINE
  5
696E9
  8
S-OBRYS
  6
CONTINUOUS
 10
24077.174871465071
 20
405706.25564943778
 30
0.0
 11
24077.174871465071
 21
405619.60709516908
 31
0.0
  0
LINE
  5
696EA
  8
S-OBRYS
  6
CONTINUOUS
 10
24141.137371465069
 20
405741.8456494378
 30
0.0
 11
24232.46437146507
 21
405741.8456494378
 31
0.0
  0
LINE
  5
696EB
  8
S-OBRYS
  6
CONTINUOUS
 10
24141.137371465069
 20
405731.8456494378
 30
0.0
 11
24232.46437146507
 21
405731.8456494378
 31
0.0
  0
DIMENSION
  5
696EC
  8
S-OBRYS
  6
CONTINUOUS
  2
*D39
 10
20631.40329258651
 20
398885.72702515888
 30
0.0
 11
20468.90329258651
 21
398973.22702515899
 31
0.0
 70
     0
 13
20306.40329258651
 23
398744.4267929488
 33
0.0
 14
20631.40329258651
 24
398744.4267929488
 34
0.0
  0
LINE
  5
696ED
  8
S-OBRYS
  6
CONTINUOUS
 10
24362.924871465071
 20
405691.49564943789
 30
0.0
 11
24362.924871465071
 21
405541.01564943779
 31
0.0
  0
LINE
  5
696EE
  8
S-OBRYS
  6
CONTINUOUS
 10
24353.174871465071
 20
405700.31564943789
 30
0.0
 11
24353.174871465071
 21
405532.1956494379
 31
0.0
  0
LINE
  5
696EF
  8
S-OBRYS
  6
CONTINUOUS
 10
24305.424871465071
 20
405706.25564943778
 30
0.0
 11
24305.424871465071
 21
405616.2556494379
 31
0.0
  0
LINE
  5
696F0
  8
S-OBRYS
  6
CONTINUOUS
 10
24305.424871465071
 20
405526.2556494379
 30
0.0
 11
24353.174871465071
 21
405532.1956494379
 31
0.0
  0
LINE
  5
696F1
  8
S-OBRYS
  6
CONTINUOUS
 10
24283.924871465071
 20
405526.2556494379
 30
0.0
 11
24305.424871465071
 21
405526.2556494379
 31
0.0
  0
LINE
  5
696F2
  8
S-OBRYS
  6
CONTINUOUS
 10
24305.424871465071
 20
405526.2556494379
 30
0.0
 11
24305.424871465071
 21
405616.2556494379
 31
0.0
  0
LINE
  5
696F3
  8
S-OBRYS
  6
CONTINUOUS
 10
24353.174871465071
 20
405532.1956494379
 30
0.0
 11
24362.924871465071
 21
405541.01564943779
 31
0.0
  0
LINE
  5
696F4
  8
S-OBRYS
  6
CONTINUOUS
 10
24305.424871465071
 20
405706.25564943778
 30
0.0
 11
24353.174871465071
 21
405700.31564943789
 31
0.0
  0
LINE
  5
696F5
  8
S-OBRYS
  6
CONTINUOUS
 10
24353.174871465071
 20
405700.31564943789
 30
0.0
 11
24362.924871465071
 21
405691.49564943789
 31
0.0
  0
ARC
  5
696F6
  8
S-OBRYS
  6
CONTINUOUS
 10
20469.257577476968
 20
398659.74160810211
 30
0.0
 40
103.651735013188
 50
30.13165227104335
 51
150.6579996061291
  0
LINE
  5
696F7
  8
S-OBRYS
  6
CONTINUOUS
 10
20496.730471746461
 20
398714.07047439361
 30
0.0
 11
20496.730471746461
 21
398754.07047439361
 31
0.0
  0
LINE
  5
696F8
  8
S-OBRYS
  6
CONTINUOUS
 10
20441.076113426549
 20
398714.07047439361
 30
0.0
 11
20441.076113426549
 21
398754.07047439361
 31
0.0
  0
LINE
  5
696F9
  8
S-OBRYS
  6
CONTINUOUS
 10
20306.40329258651
 20
398628.4804743937
 30
0.0
 11
20631.403292586499
 21
398628.4804743937
 31
0.0
  0
LINE
  5
696FA
  8
S-OBRYS
  6
CONTINUOUS
 10
20367.02849235378
 20
398533.39334311528
 30
0.0
 11
20570.778092819241
 21
398533.39334311528
 31
0.0
  0
CIRCLE
  5
696FB
  8
S-OBRYS
  6
CONTINUOUS
 10
20468.90329258651
 20
398628.4804743937
 30
0.0
 40
90.0
  0
CIRCLE
  5
696FC
  8
S-OBRYS
  6
CONTINUOUS
 10
20468.90329258651
 20
398628.4804743937
 30
0.0
 40
75.239999999999782
  0
LINE
  5
696FD
  8
S-OBRYS
  6
CONTINUOUS
 10
20378.90329258651
 20
398533.39334311528
 30
0.0
 11
20378.903292586499
 21
398710.5331957243
 31
0.0
  0
LINE
  5
696FE
  8
S-OBRYS
  6
CONTINUOUS
 10
20558.90329258651
 20
398533.39334311528
 30
0.0
 11
20558.90329258651
 21
398711.77359762538
 31
0.0
  0
LINE
  5
696FF
  8
S-OBRYS
  6
CONTINUOUS
 10
20441.076113426549
 20
398754.07047439361
 30
0.0
 11
20496.730471746461
 21
398754.07047439361
 31
0.0
  0
LINE
  5
69700
  8
S-OBRYS
  6
CONTINUOUS
 10
20306.40329258651
 20
398744.4267929488
 30
0.0
 11
20409.49051599043
 21
398744.4267929488
 31
0.0
  0
LINE
  5
69701
  8
S-OBRYS
  6
CONTINUOUS
 10
20306.40359618884
 20
398726.79569232248
 30
0.0
 11
20390.21687934866
 21
398726.79569232248
 31
0.0
  0
LINE
  5
69702
  8
S-OBRYS
  6
CONTINUOUS
 10
20529.02463896351
 20
398744.4267929488
 30
0.0
 11
20631.40329258651
 21
398744.4267929488
 31
0.0
  0
LINE
  5
69703
  8
S-OBRYS
  6
CONTINUOUS
 10
20548.298275605281
 20
398726.79569232248
 30
0.0
 11
20631.40359618884
 21
398726.79569232248
 31
0.0
  0
LINE
  5
69704
  8
S-OBRYS
  6
CONTINUOUS
 10
23522.557040838401
 20
398718.48047439358
 30
0.0
 11
23595.517540838398
 21
398718.48047439358
 31
0.0
  0
LINE
  5
69705
  8
S-OBRYS
  6
CONTINUOUS
 10
23367.267540838398
 20
398695.56760567188
 30
0.0
 11
23595.549258383609
 21
398695.56760567188
 31
0.0
  0
LINE
  5
69706
  8
S-OBRYS
  6
CONTINUOUS
 10
23367.267540838398
 20
398710.56760567188
 30
0.0
 11
23595.549258383609
 21
398710.56760567188
 31
0.0
  0
LINE
  5
69707
  8
S-OBRYS
  6
CONTINUOUS
 10
23409.910387938271
 20
398538.4804743937
 30
0.0
 11
23574.017540838398
 21
398538.4804743937
 31
0.0
  0
LINE
  5
69708
  8
S-OBRYS
  6
CONTINUOUS
 10
23409.910387938271
 20
398546.3933431154
 30
0.0
 11
23595.549258383609
 21
398546.3933431154
 31
0.0
  0
LINE
  5
69709
  8
S-OBRYS
  6
CONTINUOUS
 10
23367.267540838398
 20
398670.567605672
 30
0.0
 11
23595.549258383609
 21
398670.567605672
 31
0.0
  0
LINE
  5
6970A
  8
S-OBRYS
  6
CONTINUOUS
 10
23367.267540838398
 20
398643.567605672
 30
0.0
 11
23595.549258383609
 21
398643.567605672
 31
0.0
  0
LINE
  5
6970B
  8
S-OBRYS
  6
CONTINUOUS
 10
23409.910387938271
 20
398586.39334311528
 30
0.0
 11
23595.549258383609
 21
398586.39334311528
 31
0.0
  0
LINE
  5
6970C
  8
S-OBRYS
  6
CONTINUOUS
 10
23409.910387938271
 20
398561.39334311528
 30
0.0
 11
23595.549258383609
 21
398561.39334311528
 31
0.0
  0
LINE
  5
6970D
  8
S-OBRYS
  6
CONTINUOUS
 10
23409.910387938271
 20
398613.3933431154
 30
0.0
 11
23595.549258383609
 21
398613.3933431154
 31
0.0
  0
LINE
  5
6970E
  8
S-OBRYS
  6
CONTINUOUS
 10
23143.01038793827
 20
398710.39334311528
 30
0.0
 11
23291.299258383609
 21
398710.39334311528
 31
0.0
  0
LINE
  5
6970F
  8
S-OBRYS
  6
CONTINUOUS
 10
23110.910387938271
 20
398763.3933431154
 30
0.0
 11
23357.299258383609
 21
398763.3933431154
 31
0.0
  0
LINE
  5
69710
  8
S-OBRYS
  6
CONTINUOUS
 10
23110.910387938271
 20
398503.3933431154
 30
0.0
 11
23185.910387938271
 21
398503.3933431154
 31
0.0
  0
LINE
  5
69711
  8
S-OBRYS
  6
CONTINUOUS
 10
23169.785387938271
 20
398533.39334311528
 30
0.0
 11
23110.910387938271
 21
398533.39334311528
 31
0.0
  0
LINE
  5
69712
  8
S-OBRYS
  6
CONTINUOUS
 10
22859.910387938271
 20
398498.8933431154
 30
0.0
 11
23409.910387938271
 21
398498.8933431154
 31
0.0
  0
LINE
  5
69713
  8
S-OBRYS
  6
CONTINUOUS
 10
23095.910387938271
 20
398726.8933431154
 30
0.0
 11
23409.910387938271
 21
398616.8933431154
 31
0.0
  0
LINE
  5
69714
  8
S-OBRYS
  6
CONTINUOUS
 10
23105.910387938271
 20
398603.39334311528
 30
0.0
 11
23105.910387938271
 21
398656.3933431154
 31
0.0
  0
LINE
  5
69715
  8
S-OBRYS
  6
CONTINUOUS
 10
23095.934670393061
 20
398648.3933431154
 30
0.0
 11
23095.934670393061
 21
398608.39334311528
 31
0.0
  0
LINE
  5
69716
  8
S-OBRYS
  6
CONTINUOUS
 10
23110.910387938271
 20
398600.3933431154
 30
0.0
 11
23110.910387938271
 21
398656.3933431154
 31
0.0
  0
LINE
  5
69717
  8
S-OBRYS
  6
CONTINUOUS
 10
22928.03113751582
 20
398588.70145112509
 30
0.0
 11
22928.03113751582
 21
398668.62480854389
 31
0.0
  0
LINE
  5
69718
  8
S-OBRYS
  6
CONTINUOUS
 10
22936.01118340631
 20
398643.71135953051
 30
0.0
 11
22936.03113751582
 21
398613.70145112497
 31
0.0
  0
LINE
  5
69719
  8
S-OBRYS
  6
CONTINUOUS
 10
22988.910387938271
 20
398660.8933431154
 30
0.0
 11
22988.910387938271
 21
398595.8933431154
 31
0.0
  0
LINE
  5
6971A
  8
S-OBRYS
  6
CONTINUOUS
 10
22948.910387938271
 20
398650.89334311528
 30
0.0
 11
22948.910387938271
 21
398597.8933431154
 31
0.0
  0
LINE
  5
6971B
  8
S-OBRYS
  6
CONTINUOUS
 10
22860.04102405228
 20
398498.8933431154
 30
0.0
 11
22860.008038731081
 21
398726.7956923226
 31
0.0
  0
LINE
  5
6971C
  8
S-OBRYS
  6
CONTINUOUS
 10
22824.910387938271
 20
398536.3933431154
 30
0.0
 11
22824.914926283229
 21
398726.78461036558
 31
0.0
  0
LINE
  5
6971D
  8
S-OBRYS
  6
CONTINUOUS
 10
22854.910387938271
 20
398536.3933431154
 30
0.0
 11
22854.914926266181
 21
398726.78389525739
 31
0.0
  0
LINE
  5
6971E
  8
S-OBRYS
  6
CONTINUOUS
 10
22870.03113751582
 20
398577.37041367282
 30
0.0
 11
22870.03113751582
 21
398687.3657952972
 31
0.0
  0
LINE
  5
6971F
  8
S-OBRYS
  6
CONTINUOUS
 10
23033.910387938271
 20
398565.3933431154
 30
0.0
 11
23033.910387938271
 21
398691.3933431154
 31
0.0
  0
LINE
  5
69720
  8
S-OBRYS
  6
CONTINUOUS
 10
22950.910387938271
 20
398595.8933431154
 30
0.0
 11
22983.910387938271
 21
398595.8933431154
 31
0.0
  0
LINE
  5
69721
  8
S-OBRYS
  6
CONTINUOUS
 10
22850.910387938271
 20
398529.3933431154
 30
0.0
 11
22850.910387938271
 21
398509.3933431154
 31
0.0
  0
LINE
  5
69722
  8
S-OBRYS
  6
CONTINUOUS
 10
22854.910387938271
 20
398453.89334311528
 30
0.0
 11
22854.910387938271
 21
398536.3933431154
 31
0.0
  0
ARC
  5
69723
  8
S-OBRYS
  6
CONTINUOUS
 10
22853.910387938271
 20
398509.3933431154
 30
0.0
 40
3.0
 50
180.0
 51
270.0
  0
LINE
  5
69724
  8
S-OBRYS
  6
CONTINUOUS
 10
22853.910387938271
 20
398506.3933431154
 30
0.0
 11
22854.910387938271
 21
398506.3933431154
 31
0.0
  0
ARC
  5
69725
  8
S-OBRYS
  6
CONTINUOUS
 10
22844.910387938271
 20
398453.89334311528
 30
0.0
 40
15.0
 50
270.0
 51
0.0
  0
ARC
  5
69726
  8
S-OBRYS
  6
CONTINUOUS
 10
22844.910387938271
 20
398453.89334311528
 30
0.0
 40
10.0
 50
270.0
 51
0.0
  0
LINE
  5
69727
  8
S-OBRYS
  6
CONTINUOUS
 10
22809.910387938271
 20
398438.8933431154
 30
0.0
 11
22809.910387938271
 21
398443.89334311528
 31
0.0
  0
LINE
  5
69728
  8
S-OBRYS
  6
CONTINUOUS
 10
22809.910387938271
 20
398443.89334311528
 30
0.0
 11
22844.910387938271
 21
398443.89334311528
 31
0.0
  0
LINE
  5
69729
  8
S-OBRYS
  6
CONTINUOUS
 10
22844.910387938271
 20
398438.8933431154
 30
0.0
 11
22809.910387938271
 21
398438.8933431154
 31
0.0
  0
LINE
  5
6972A
  8
S-OBRYS
  6
CONTINUOUS
 10
22859.910387938271
 20
398453.89334311528
 30
0.0
 11
22859.910387938271
 21
398498.8933431154
 31
0.0
  0
LINE
  5
6972B
  8
S-OBRYS
  6
CONTINUOUS
 10
22920.031137515831
 20
398581.20145112509
 30
0.0
 11
22872.22854046815
 21
398579.60803122353
 31
0.0
  0
ARC
  5
6972C
  8
S-OBRYS
  6
CONTINUOUS
 10
22872.562296464192
 20
398577.08250918851
 30
0.0
 40
2.5474800517290328
 50
91.936774901738502
 51
178.027313883825
  0
ARC
  5
6972D
  8
S-OBRYS
  6
CONTINUOUS
 10
22847.910387938271
 20
398529.3933431154
 30
0.0
 40
3.0
 50
0.0
 51
90.0
  0
LINE
  5
6972E
  8
S-OBRYS
  6
CONTINUOUS
 10
22838.910387938271
 20
398521.3933431154
 30
0.0
 11
22872.910387938271
 21
398521.3933431154
 31
0.0
  0
LINE
  5
6972F
  8
S-OBRYS
  6
CONTINUOUS
 10
22849.410387938271
 20
398562.3933431154
 30
0.0
 11
22874.910387938271
 21
398562.3933431154
 31
0.0
  0
LINE
  5
69730
  8
S-OBRYS
  6
CONTINUOUS
 10
22827.910387938271
 20
398532.3933431154
 30
0.0
 11
22847.910387938271
 21
398532.3933431154
 31
0.0
  0
ARC
  5
69731
  8
S-OBRYS
  6
CONTINUOUS
 10
22827.910387938271
 20
398535.3933431154
 30
0.0
 40
3.0
 50
180.0
 51
270.0
  0
LINE
  5
69732
  8
S-OBRYS
  6
CONTINUOUS
 10
22824.910387938271
 20
398536.3933431154
 30
0.0
 11
22824.910387938271
 21
398535.3933431154
 31
0.0
  0
LINE
  5
69733
  8
S-OBRYS
  6
CONTINUOUS
 10
22860.035596510399
 20
398536.3933431154
 30
0.0
 11
22854.910387938271
 21
398536.3933431154
 31
0.0
  0
ARC
  5
69734
  8
S-OBRYS
  6
CONTINUOUS
 10
22867.03113751582
 20
398561.20145112497
 30
0.0
 40
3.0
 50
270.0
 51
0.0
  0
LINE
  5
69735
  8
S-OBRYS
  6
CONTINUOUS
 10
22867.03113751582
 20
398558.20145112497
 30
0.0
 11
22860.03113751582
 21
398558.20145112497
 31
0.0
  0
LINE
  5
69736
  8
S-OBRYS
  6
CONTINUOUS
 10
22870.03113751582
 20
398577.37041367282
 30
0.0
 11
22870.03113751582
 21
398561.20145112497
 31
0.0
  0
LINE
  5
69737
  8
S-OBRYS
  6
CONTINUOUS
 10
22949.01256490756
 20
398613.70145112497
 30
0.0
 11
22936.03113751582
 21
398613.70145112497
 31
0.0
  0
LINE
  5
69738
  8
S-OBRYS
  6
CONTINUOUS
 10
22936.03113751582
 20
398590.70145112497
 30
0.0
 11
22936.03113751582
 21
398613.70145112497
 31
0.0
  0
ARC
  5
69739
  8
S-OBRYS
  6
CONTINUOUS
 10
22934.03113751582
 20
398590.70145112497
 30
0.0
 40
2.0
 50
270.0
 51
0.0
  0
LINE
  5
6973A
  8
S-OBRYS
  6
CONTINUOUS
 10
22928.03113751582
 20
398588.70145112509
 30
0.0
 11
22934.03113751582
 21
398588.70145112509
 31
0.0
  0
ARC
  5
6973B
  8
S-OBRYS
  6
CONTINUOUS
 10
22926.03113751582
 20
398583.20145112509
 30
0.0
 40
2.0
 50
270.0
 51
0.0
  0
LINE
  5
6973C
  8
S-OBRYS
  6
CONTINUOUS
 10
22920.031137515831
 20
398581.20145112509
 30
0.0
 11
22926.03113751582
 21
398581.20145112509
 31
0.0
  0
LINE
  5
6973D
  8
S-OBRYS
  6
CONTINUOUS
 10
22920.031137515831
 20
398588.70145112509
 30
0.0
 11
22920.031137515831
 21
398581.20145112509
 31
0.0
  0
LINE
  5
6973E
  8
S-OBRYS
  6
CONTINUOUS
 10
22928.03113751582
 20
398583.20145112509
 30
0.0
 11
22928.03113751582
 21
398588.70145112509
 31
0.0
  0
LINE
  5
6973F
  8
S-OBRYS
  6
CONTINUOUS
 10
22948.910387938271
 20
398597.8933431154
 30
0.0
 11
22950.910387938271
 21
398595.8933431154
 31
0.0
  0
LINE
  5
69740
  8
S-OBRYS
  6
CONTINUOUS
 10
23135.910387938271
 20
398538.3933431154
 30
0.0
 11
23135.910387938271
 21
398497.8933431154
 31
0.0
  0
LINE
  5
69741
  8
S-OBRYS
  6
CONTINUOUS
 10
23110.910387938271
 20
398527.3933431154
 30
0.0
 11
23110.910387938271
 21
398503.3933431154
 31
0.0
  0
LINE
  5
69742
  8
S-OBRYS
  6
CONTINUOUS
 10
23033.910387938271
 20
398590.89334311528
 30
0.0
 11
23093.910387938271
 21
398590.89334311528
 31
0.0
  0
ARC
  5
69743
  8
S-OBRYS
  6
CONTINUOUS
 10
22983.910387938271
 20
398590.89334311528
 30
0.0
 40
5.0
 50
0.0
 51
90.0
  0
LINE
  5
69744
  8
S-OBRYS
  6
CONTINUOUS
 10
23031.910387938271
 20
398563.3933431154
 30
0.0
 11
23033.910387938271
 21
398565.3933431154
 31
0.0
  0
LINE
  5
69745
  8
S-OBRYS
  6
CONTINUOUS
 10
22988.910387938271
 20
398565.3933431154
 30
0.0
 11
22990.910387938271
 21
398563.3933431154
 31
0.0
  0
LINE
  5
69746
  8
S-OBRYS
  6
CONTINUOUS
 10
22990.910387938271
 20
398563.3933431154
 30
0.0
 11
23031.910387938271
 21
398563.3933431154
 31
0.0
  0
LINE
  5
69747
  8
S-OBRYS
  6
CONTINUOUS
 10
22988.910387938271
 20
398595.8933431154
 30
0.0
 11
22988.910387938271
 21
398565.3933431154
 31
0.0
  0
LINE
  5
69748
  8
S-OBRYS
  6
CONTINUOUS
 10
23105.910387938271
 20
398600.3933431154
 30
0.0
 11
23110.910387938271
 21
398600.3933431154
 31
0.0
  0
LINE
  5
69749
  8
S-OBRYS
  6
CONTINUOUS
 10
23095.934670393061
 20
398608.39334311528
 30
0.0
 11
23095.934670393061
 21
398603.39334311528
 31
0.0
  0
LINE
  5
6974A
  8
S-OBRYS
  6
CONTINUOUS
 10
23093.910387938271
 20
398590.89334311528
 30
0.0
 11
23095.910387938271
 21
398592.8933431154
 31
0.0
  0
LINE
  5
6974B
  8
S-OBRYS
  6
CONTINUOUS
 10
23095.910387938271
 20
398592.8933431154
 30
0.0
 11
23095.910387938271
 21
398603.39334311528
 31
0.0
  0
LINE
  5
6974C
  8
S-OBRYS
  6
CONTINUOUS
 10
23105.910387938271
 20
398603.39334311528
 30
0.0
 11
23105.910387938271
 21
398600.3933431154
 31
0.0
  0
LINE
  5
6974D
  8
S-OBRYS
  6
CONTINUOUS
 10
23095.934670393061
 20
398603.39334311528
 30
0.0
 11
23105.910387938271
 21
398603.39334311528
 31
0.0
  0
LINE
  5
6974E
  8
S-OBRYS
  6
CONTINUOUS
 10
23110.910387938271
 20
398600.3933431154
 30
0.0
 11
23110.910387938271
 21
398527.3933431154
 31
0.0
  0
LINE
  5
6974F
  8
S-OBRYS
  6
CONTINUOUS
 10
22860.008038731081
 20
398726.7956923226
 30
0.0
 11
23094.910691540608
 21
398726.7956923226
 31
0.0
  0
LINE
  5
69750
  8
S-OBRYS
  6
CONTINUOUS
 10
22983.910387938271
 20
398660.8933431154
 30
0.0
 11
22958.910387938271
 21
398660.8933431154
 31
0.0
  0
LINE
  5
69751
  8
S-OBRYS
  6
CONTINUOUS
 10
22866.593448642481
 20
398710.39334311528
 30
0.0
 11
22866.593448642481
 21
398752.3933431154
 31
0.0
  0
LINE
  5
69752
  8
S-OBRYS
  6
CONTINUOUS
 10
22900.306984508708
 20
398693.68825283012
 30
0.0
 11
22892.310542538838
 21
398693.9268232024
 31
0.0
  0
LINE
  5
69753
  8
S-OBRYS
  6
CONTINUOUS
 10
22900.366627101761
 20
398695.68736332259
 30
0.0
 11
22892.370185131891
 21
398695.92593369482
 31
0.0
  0
LINE
  5
69754
  8
S-OBRYS
  6
CONTINUOUS
 10
22893.160991302429
 20
398688.89922567463
 30
0.0
 11
22892.05783795645
 21
398688.23182630941
 31
0.0
  0
LINE
  5
69755
  8
S-OBRYS
  6
CONTINUOUS
 10
22893.041706116321
 20
398684.90100468969
 30
0.0
 11
22891.980302585482
 21
398685.63298266922
 31
0.0
  0
LINE
  5
69756
  8
S-OBRYS
  6
CONTINUOUS
 10
22910.71488843215
 20
398684.08624177187
 30
0.0
 11
22872.210737843401
 21
398685.36971345817
 31
0.0
  0
LINE
  5
69757
  8
S-OBRYS
  6
CONTINUOUS
 10
22848.910387938271
 20
398694.3933431154
 30
0.0
 11
22874.410387938271
 21
398694.3933431154
 31
0.0
  0
LINE
  5
69758
  8
S-OBRYS
  6
CONTINUOUS
 10
22892.310542538838
 20
398693.9268232024
 30
0.0
 11
22891.097509932159
 21
398694.76336946449
 31
0.0
  0
LINE
  5
69759
  8
S-OBRYS
  6
CONTINUOUS
 10
22892.370185131891
 20
398695.92593369482
 30
0.0
 11
22891.109438450771
 21
398695.16319156298
 31
0.0
  0
LINE
  5
6975A
  8
S-OBRYS
  6
CONTINUOUS
 10
22891.097509932159
 20
398694.76336946449
 30
0.0
 11
22891.109438450771
 21
398695.16319156298
 31
0.0
  0
LINE
  5
6975B
  8
S-OBRYS
  6
CONTINUOUS
 10
22891.980302585482
 20
398685.63298266922
 30
0.0
 11
22892.05783795645
 21
398688.23182630941
 31
0.0
  0
ARC
  5
6975C
  8
S-OBRYS
  6
CONTINUOUS
 10
22867.013334891079
 20
398696.20343671832
 30
0.0
 40
3.0
 50
0.0
 51
90.0
  0
LINE
  5
6975D
  8
S-OBRYS
  6
CONTINUOUS
 10
22867.013334891079
 20
398699.20343671832
 30
0.0
 11
22860.013334891079
 21
398699.20343671832
 31
0.0
  0
ARC
  5
6975E
  8
S-OBRYS
  6
CONTINUOUS
 10
22872.544493839439
 20
398687.8952354932
 30
0.0
 40
2.5474800517290328
 50
191.97731647331409
 51
268.06322509826151
  0
LINE
  5
6975F
  8
S-OBRYS
  6
CONTINUOUS
 10
22870.013334891071
 20
398696.20343671832
 30
0.0
 11
22870.052472844262
 21
398687.36657116341
 31
0.0
  0
LINE
  5
69760
  8
S-OBRYS
  6
CONTINUOUS
 10
22909.564173159699
 20
398694.21242458973
 30
0.0
 11
22909.576101678311
 21
398694.61224668822
 31
0.0
  0
ARC
  5
69761
  8
S-OBRYS
  6
CONTINUOUS
 10
22926.01118340631
 20
398679.90686723217
 30
0.0
 40
2.0
 50
0.0
 51
90.0
  0
LINE
  5
69762
  8
S-OBRYS
  6
CONTINUOUS
 10
22920.01118340631
 20
398681.90686723217
 30
0.0
 11
22926.01118340631
 21
398681.90686723217
 31
0.0
  0
LINE
  5
69763
  8
S-OBRYS
  6
CONTINUOUS
 10
22920.013334891071
 20
398681.91912888607
 30
0.0
 11
22912.421949813812
 21
398682.17314031592
 31
0.0
  0
ARC
  5
69764
  8
S-OBRYS
  6
CONTINUOUS
 10
22912.453815341461
 20
398683.91973053041
 30
0.0
 40
1.7468808744380571
 50
174.53030951565239
 51
268.95478762091142
  0
LINE
  5
69765
  8
S-OBRYS
  6
CONTINUOUS
 10
22900.306984508708
 20
398693.68825283012
 30
0.0
 11
22908.303426478578
 21
398693.4496824579
 31
0.0
  0
LINE
  5
69766
  8
S-OBRYS
  6
CONTINUOUS
 10
22900.366627101761
 20
398695.68736332259
 30
0.0
 11
22908.363069071631
 21
398695.44879295042
 31
0.0
  0
LINE
  5
69767
  8
S-OBRYS
  6
CONTINUOUS
 10
22907.03547956359
 20
398684.48350653832
 30
0.0
 11
22908.138632909569
 21
398685.15090590372
 31
0.0
  0
LINE
  5
69768
  8
S-OBRYS
  6
CONTINUOUS
 10
22908.138632909569
 20
398685.15090590372
 30
0.0
 11
22908.216168280549
 21
398687.74974954379
 31
0.0
  0
LINE
  5
69769
  8
S-OBRYS
  6
CONTINUOUS
 10
22907.07030772229
 20
398684.47909438971
 30
0.0
 11
22907.07030772229
 21
398684.2266924078
 31
0.0
  0
LINE
  5
6976A
  8
S-OBRYS
  6
CONTINUOUS
 10
22907.154764749699
 20
398688.48172752321
 30
0.0
 11
22908.216168280549
 21
398687.74974954379
 31
0.0
  0
LINE
  5
6976B
  8
S-OBRYS
  6
CONTINUOUS
 10
22893.027853551572
 20
398684.88294145011
 30
0.0
 11
22892.977341065289
 21
398684.68101791979
 31
0.0
  0
LINE
  5
6976C
  8
S-OBRYS
  6
CONTINUOUS
 10
22900.038592839948
 20
398684.69225561398
 30
0.0
 11
22893.041706116321
 21
398684.90100468969
 31
0.0
  0
LINE
  5
6976D
  8
S-OBRYS
  6
CONTINUOUS
 10
22900.157878026072
 20
398688.69047659892
 30
0.0
 11
22893.160991302429
 21
398688.89922567463
 31
0.0
  0
LINE
  5
6976E
  8
S-OBRYS
  6
CONTINUOUS
 10
22900.157878026072
 20
398688.69047659892
 30
0.0
 11
22907.154764749699
 21
398688.48172752321
 31
0.0
  0
LINE
  5
6976F
  8
S-OBRYS
  6
CONTINUOUS
 10
22900.038592839948
 20
398684.69225561398
 30
0.0
 11
22907.03547956359
 21
398684.48350653832
 31
0.0
  0
LINE
  5
69770
  8
S-OBRYS
  6
CONTINUOUS
 10
22906.155209503471
 20
398688.51154881978
 30
0.0
 11
22906.304315986112
 21
398693.50932505092
 31
0.0
  0
LINE
  5
69771
  8
S-OBRYS
  6
CONTINUOUS
 10
22894.160546548661
 20
398688.86940437811
 30
0.0
 11
22894.309653031309
 21
398693.86718060932
 31
0.0
  0
LINE
  5
69772
  8
S-OBRYS
  6
CONTINUOUS
 10
22908.303426478578
 20
398693.4496824579
 30
0.0
 11
22909.564173159699
 21
398694.21242458973
 31
0.0
  0
LINE
  5
69773
  8
S-OBRYS
  6
CONTINUOUS
 10
22908.363069071631
 20
398695.44879295042
 30
0.0
 11
22909.576101678311
 21
398694.61224668822
 31
0.0
  0
LINE
  5
69774
  8
S-OBRYS
  6
CONTINUOUS
 10
22949.01256490756
 20
398643.70145112497
 30
0.0
 11
22936.01118999458
 21
398643.70145112497
 31
0.0
  0
LINE
  5
69775
  8
S-OBRYS
  6
CONTINUOUS
 10
22936.01118340631
 20
398666.71135953057
 30
0.0
 11
22936.01118340631
 21
398643.71135953051
 31
0.0
  0
ARC
  5
69776
  8
S-OBRYS
  6
CONTINUOUS
 10
22934.01118340631
 20
398666.71135953057
 30
0.0
 40
2.0
 50
0.0
 51
90.0
  0
LINE
  5
69777
  8
S-OBRYS
  6
CONTINUOUS
 10
22928.01118340631
 20
398674.21135953051
 30
0.0
 11
22928.01118340631
 21
398668.71135953051
 31
0.0
  0
LINE
  5
69778
  8
S-OBRYS
  6
CONTINUOUS
 10
22928.01118340631
 20
398668.71135953051
 30
0.0
 11
22934.01118340631
 21
398668.71135953051
 31
0.0
  0
LINE
  5
69779
  8
S-OBRYS
  6
CONTINUOUS
 10
22948.910387938271
 20
398658.8933431154
 30
0.0
 11
22948.910387938271
 21
398650.89334311528
 31
0.0
  0
LINE
  5
6977A
  8
S-OBRYS
  6
CONTINUOUS
 10
22950.910387938271
 20
398660.8933431154
 30
0.0
 11
22948.910387938271
 21
398658.8933431154
 31
0.0
  0
LINE
  5
6977B
  8
S-OBRYS
  6
CONTINUOUS
 10
22958.910387938271
 20
398660.8933431154
 30
0.0
 11
22950.910387938271
 21
398660.8933431154
 31
0.0
  0
LINE
  5
6977C
  8
S-OBRYS
  6
CONTINUOUS
 10
22928.01118340631
 20
398674.21135953051
 30
0.0
 11
22928.01118340631
 21
398679.90686723217
 31
0.0
  0
LINE
  5
6977D
  8
S-OBRYS
  6
CONTINUOUS
 10
22824.914926283229
 20
398726.78461036558
 30
0.0
 11
22860.008038731081
 21
398726.7956923226
 31
0.0
  0
LINE
  5
6977E
  8
S-OBRYS
  6
CONTINUOUS
 10
23110.910387938271
 20
398656.3933431154
 30
0.0
 11
23110.910387938271
 21
398721.63856604532
 31
0.0
  0
LINE
  5
6977F
  8
S-OBRYS
  6
CONTINUOUS
 10
23093.910387938271
 20
398665.89334311528
 30
0.0
 11
23033.910387938271
 21
398665.89334311528
 31
0.0
  0
LINE
  5
69780
  8
S-OBRYS
  6
CONTINUOUS
 10
23031.910387938271
 20
398693.39334311528
 30
0.0
 11
23033.910387938271
 21
398691.3933431154
 31
0.0
  0
LINE
  5
69781
  8
S-OBRYS
  6
CONTINUOUS
 10
22988.910387938271
 20
398691.3933431154
 30
0.0
 11
22990.910387938271
 21
398693.39334311528
 31
0.0
  0
LINE
  5
69782
  8
S-OBRYS
  6
CONTINUOUS
 10
23031.910387938271
 20
398693.39334311528
 30
0.0
 11
22990.910387938271
 21
398693.39334311528
 31
0.0
  0
ARC
  5
69783
  8
S-OBRYS
  6
CONTINUOUS
 10
22983.910387938271
 20
398665.89334311528
 30
0.0
 40
5.0
 50
270.0
 51
0.0
  0
LINE
  5
69784
  8
S-OBRYS
  6
CONTINUOUS
 10
22988.910387938271
 20
398691.3933431154
 30
0.0
 11
22988.910387938271
 21
398660.8933431154
 31
0.0
  0
LINE
  5
69785
  8
S-OBRYS
  6
CONTINUOUS
 10
23143.01038793827
 20
398710.39334311528
 30
0.0
 11
23110.910387938271
 21
398710.39334311528
 31
0.0
  0
LINE
  5
69786
  8
S-OBRYS
  6
CONTINUOUS
 10
23110.910387938271
 20
398656.3933431154
 30
0.0
 11
23105.910387938271
 21
398656.3933431154
 31
0.0
  0
LINE
  5
69787
  8
S-OBRYS
  6
CONTINUOUS
 10
23095.910387938271
 20
398653.3933431154
 30
0.0
 11
23095.910387938271
 21
398663.8933431154
 31
0.0
  0
LINE
  5
69788
  8
S-OBRYS
  6
CONTINUOUS
 10
23095.934670393061
 20
398653.3933431154
 30
0.0
 11
23105.910387938271
 21
398653.3933431154
 31
0.0
  0
LINE
  5
69789
  8
S-OBRYS
  6
CONTINUOUS
 10
23095.934670393061
 20
398648.3933431154
 30
0.0
 11
23095.934670393061
 21
398653.3933431154
 31
0.0
  0
LINE
  5
6978A
  8
S-OBRYS
  6
CONTINUOUS
 10
23093.910387938271
 20
398665.89334311528
 30
0.0
 11
23095.910387938271
 21
398663.8933431154
 31
0.0
  0
LINE
  5
6978B
  8
S-OBRYS
  6
CONTINUOUS
 10
23110.910387938271
 20
398721.63856604532
 30
0.0
 11
23110.910387938271
 21
398763.3933431154
 31
0.0
  0
LINE
  5
6978C
  8
S-OBRYS
  6
CONTINUOUS
 10
23357.299258383609
 20
398635.32399359642
 30
0.0
 11
23357.299258383609
 21
398533.39334311528
 31
0.0
  0
LINE
  5
6978D
  8
S-OBRYS
  6
CONTINUOUS
 10
23333.299258383609
 20
398643.73163690837
 30
0.0
 11
23333.299258383609
 21
398533.39334311528
 31
0.0
  0
LINE
  5
6978E
  8
S-OBRYS
  6
CONTINUOUS
 10
23367.267540838398
 20
398538.4804743937
 30
0.0
 11
23367.267540838398
 21
398631.83192012488
 31
0.0
  0
LINE
  5
6978F
  8
S-OBRYS
  6
CONTINUOUS
 10
23409.910387938271
 20
398503.3933431154
 30
0.0
 11
23409.910387938271
 21
398616.8933431154
 31
0.0
  0
LINE
  5
69790
  8
S-OBRYS
  6
CONTINUOUS
 10
23395.799258383609
 20
398533.39334311528
 30
0.0
 11
23336.924258383609
 21
398533.39334311528
 31
0.0
  0
LINE
  5
69791
  8
S-OBRYS
  6
CONTINUOUS
 10
23270.910387938271
 20
398503.3933431154
 30
0.0
 11
23395.79925838362
 21
398503.3933431154
 31
0.0
  0
LINE
  5
69792
  8
S-OBRYS
  6
CONTINUOUS
 10
23188.910387938271
 20
398508.8933431154
 30
0.0
 11
23267.910387938271
 21
398508.8933431154
 31
0.0
  0
LINE
  5
69793
  8
S-OBRYS
  6
CONTINUOUS
 10
23185.910387938271
 20
398505.8933431154
 30
0.0
 11
23188.910387938271
 21
398508.8933431154
 31
0.0
  0
LINE
  5
69794
  8
S-OBRYS
  6
CONTINUOUS
 10
23185.910387938271
 20
398503.3933431154
 30
0.0
 11
23185.910387938271
 21
398505.8933431154
 31
0.0
  0
LINE
  5
69795
  8
S-OBRYS
  6
CONTINUOUS
 10
23270.910387938271
 20
398505.8933431154
 30
0.0
 11
23267.910387938271
 21
398508.8933431154
 31
0.0
  0
LINE
  5
69796
  8
S-OBRYS
  6
CONTINUOUS
 10
23270.910387938271
 20
398503.3933431154
 30
0.0
 11
23270.910387938271
 21
398505.8933431154
 31
0.0
  0
LINE
  5
69797
  8
S-OBRYS
  6
CONTINUOUS
 10
23185.910387938271
 20
398608.39334311528
 30
0.0
 11
23320.299258383609
 21
398608.39334311528
 31
0.0
  0
LINE
  5
69798
  8
S-OBRYS
  6
CONTINUOUS
 10
23185.910387938271
 20
398533.39334311528
 30
0.0
 11
23169.785387938271
 21
398533.39334311528
 31
0.0
  0
LINE
  5
69799
  8
S-OBRYS
  6
CONTINUOUS
 10
23185.910387938271
 20
398533.39334311528
 30
0.0
 11
23185.910387938271
 21
398608.39334311528
 31
0.0
  0
LINE
  5
6979A
  8
S-OBRYS
  6
CONTINUOUS
 10
23336.924258383609
 20
398533.39334311528
 30
0.0
 11
23320.299258383609
 21
398533.39334311528
 31
0.0
  0
LINE
  5
6979B
  8
S-OBRYS
  6
CONTINUOUS
 10
23320.299258383609
 20
398608.39334311528
 30
0.0
 11
23320.299258383609
 21
398533.39334311528
 31
0.0
  0
LINE
  5
6979C
  8
S-OBRYS
  6
CONTINUOUS
 10
23395.799258383609
 20
398533.39334311528
 30
0.0
 11
23395.799258383609
 21
398503.3933431154
 31
0.0
  0
LINE
  5
6979D
  8
S-OBRYS
  6
CONTINUOUS
 10
23373.295540838411
 20
398538.4804743937
 30
0.0
 11
23373.295540838411
 21
398497.8933431154
 31
0.0
  0
LINE
  5
6979E
  8
S-OBRYS
  6
CONTINUOUS
 10
23409.910387938271
 20
398498.8933431154
 30
0.0
 11
23409.910387938271
 21
398503.3933431154
 31
0.0
  0
LINE
  5
6979F
  8
S-OBRYS
  6
CONTINUOUS
 10
23367.29925838362
 20
398586.39334311528
 30
0.0
 11
23409.910387938271
 21
398586.39334311528
 31
0.0
  0
LINE
  5
697A0
  8
S-OBRYS
  6
CONTINUOUS
 10
23367.29925838362
 20
398613.3933431154
 30
0.0
 11
23409.910387938271
 21
398613.3933431154
 31
0.0
  0
LINE
  5
697A1
  8
S-OBRYS
  6
CONTINUOUS
 10
23367.29925838362
 20
398546.3933431154
 30
0.0
 11
23409.910387938271
 21
398546.3933431154
 31
0.0
  0
LINE
  5
697A2
  8
S-OBRYS
  6
CONTINUOUS
 10
23409.910387938271
 20
398538.4804743937
 30
0.0
 11
23367.267540838398
 21
398538.4804743937
 31
0.0
  0
LINE
  5
697A3
  8
S-OBRYS
  6
CONTINUOUS
 10
23367.29925838362
 20
398561.39334311528
 30
0.0
 11
23409.910387938271
 21
398561.39334311528
 31
0.0
  0
LINE
  5
697A4
  8
S-OBRYS
  6
CONTINUOUS
 10
23519.049258383609
 20
398538.4804743937
 30
0.0
 11
23529.017540838398
 21
398538.4804743937
 31
0.0
  0
LINE
  5
697A5
  8
S-OBRYS
  6
CONTINUOUS
 10
23333.299258383609
 20
398643.73163690837
 30
0.0
 11
23333.299258383609
 21
398763.3933431154
 31
0.0
  0
LINE
  5
697A6
  8
S-OBRYS
  6
CONTINUOUS
 10
23291.299258383609
 20
398763.3933431154
 30
0.0
 11
23291.299258383609
 21
398658.44501270459
 31
0.0
  0
LINE
  5
697A7
  8
S-OBRYS
  6
CONTINUOUS
 10
23291.299258383609
 20
398657.8933431154
 30
0.0
 11
23333.299258383609
 21
398657.8933431154
 31
0.0
  0
LINE
  5
697A8
  8
S-OBRYS
  6
CONTINUOUS
 10
23357.299258383609
 20
398763.3933431154
 30
0.0
 11
23357.299258383609
 21
398635.32399359642
 31
0.0
  0
LINE
  5
697A9
  8
S-OBRYS
  6
CONTINUOUS
 10
23367.267540838398
 20
398718.48047439358
 30
0.0
 11
23367.267540838398
 21
398631.83192012488
 31
0.0
  0
LINE
  5
697AA
  8
S-OBRYS
  6
CONTINUOUS
 10
23431.230040838411
 20
398714.07047439372
 30
0.0
 11
23522.557040838401
 21
398714.07047439372
 31
0.0
  0
LINE
  5
697AB
  8
S-OBRYS
  6
CONTINUOUS
 10
23431.230040838411
 20
398754.07047439372
 30
0.0
 11
23522.557040838401
 21
398754.07047439372
 31
0.0
  0
LINE
  5
697AC
  8
S-OBRYS
  6
CONTINUOUS
 10
23431.230040838411
 20
398744.07047439372
 30
0.0
 11
23522.557040838401
 21
398744.07047439372
 31
0.0
  0
LINE
  5
697AD
  8
S-OBRYS
  6
CONTINUOUS
 10
23431.230040838411
 20
398714.07047439372
 30
0.0
 11
23431.230040838411
 21
398754.07047439372
 31
0.0
  0
LINE
  5
697AE
  8
S-OBRYS
  6
CONTINUOUS
 10
23367.267540838398
 20
398718.48047439358
 30
0.0
 11
23431.230040838411
 21
398718.48047439358
 31
0.0
  0
LINE
  5
697AF
  8
S-OBRYS
  6
CONTINUOUS
 10
23522.557040838401
 20
398754.07047439372
 30
0.0
 11
23522.557040838401
 21
398714.07047439372
 31
0.0
  0
LINE
  5
697B0
  8
S-OBRYS
  6
CONTINUOUS
 10
23595.517540838398
 20
398538.4804743937
 30
0.0
 11
23595.517540838398
 21
398628.4804743937
 31
0.0
  0
LINE
  5
697B1
  8
S-OBRYS
  6
CONTINUOUS
 10
23643.267540838398
 20
398712.5404743937
 30
0.0
 11
23643.267540838398
 21
398544.4204743937
 31
0.0
  0
LINE
  5
697B2
  8
S-OBRYS
  6
CONTINUOUS
 10
23653.017540838398
 20
398703.72047439369
 30
0.0
 11
23653.017540838398
 21
398553.24047439371
 31
0.0
  0
LINE
  5
697B3
  8
S-OBRYS
  6
CONTINUOUS
 10
23595.517540838398
 20
398538.4804743937
 30
0.0
 11
23643.267540838398
 21
398544.4204743937
 31
0.0
  0
LINE
  5
697B4
  8
S-OBRYS
  6
CONTINUOUS
 10
23574.017540838398
 20
398538.4804743937
 30
0.0
 11
23595.517540838398
 21
398538.4804743937
 31
0.0
  0
LINE
  5
697B5
  8
S-OBRYS
  6
CONTINUOUS
 10
23643.267540838398
 20
398544.4204743937
 30
0.0
 11
23653.017540838398
 21
398553.24047439371
 31
0.0
  0
LINE
  5
697B6
  8
S-OBRYS
  6
CONTINUOUS
 10
23643.267540838398
 20
398712.5404743937
 30
0.0
 11
23653.017540838398
 21
398703.72047439369
 31
0.0
  0
LINE
  5
697B7
  8
S-OBRYS
  6
CONTINUOUS
 10
23595.517540838398
 20
398718.48047439358
 30
0.0
 11
23595.517540838398
 21
398628.4804743937
 31
0.0
  0
LINE
  5
697B8
  8
S-OBRYS
  6
CONTINUOUS
 10
23595.517540838398
 20
398718.48047439358
 30
0.0
 11
23643.267540838398
 21
398712.5404743937
 31
0.0
  0
INSERT
  5
697B9
  8
S-OBRYS
  6
CONTINUOUS
  2
*U97
 10
0.0
 20
0.0
 30
0.0
  0
LINE
  5
69888
  8
S-OBRYS
  6
CONTINUOUS
 10
19079.71411426325
 20
403464.88593052659
 30
0.0
 11
21079.71411426325
 21
403464.83825664932
 31
0.0
  0
LINE
  5
69889
  8
S-OBRYS
  6
CONTINUOUS
 10
19079.71411426325
 20
403482.42168348067
 30
0.0
 11
21079.71411426325
 21
403482.42168348067
 31
0.0
  0
LINE
  5
6988A
  8
S-OBRYS
  6
CONTINUOUS
 10
17003.696311638501
 20
403366.47536492551
 30
0.0
 11
24372.720156877211
 21
403366.47536492551
 31
0.0
  0
LINE
  5
6988B
  8
S-OBRYS
  6
CONTINUOUS
 10
21049.71411426325
 20
403274.38823364727
 30
0.0
 11
19109.71411426325
 21
403274.38823364727
 31
0.0
  0
DIMENSION
  5
6988C
  8
S-OBRYS
  6
CONTINUOUS
  2
*D42
 10
21079.71411426325
 20
403686.88823364727
 30
0.0
 11
20079.71411426325
 21
403774.38823364727
 31
0.0
 70
     0
 13
19079.71411426325
 23
403482.42168348067
 33
0.0
 14
21079.71411426325
 24
403457.63823364727
 34
0.0
  0
LINE
  5
6988D
  8
S-OBRYS
  6
CONTINUOUS
 10
17426.702565135769
 20
403366.47536492551
 30
0.0
 11
17426.702565135769
 21
403261.47536492551
 31
0.0
  0
LINE
  5
6988E
  8
S-OBRYS
  6
CONTINUOUS
 10
17212.702565135769
 20
403366.47536492551
 30
0.0
 11
17212.702565135769
 21
403261.47536492551
 31
0.0
  0
LINE
  5
6988F
  8
S-OBRYS
  6
CONTINUOUS
 10
17319.702565135769
 20
403366.47536492551
 30
0.0
 11
17319.702565135769
 21
403261.47536492551
 31
0.0
  0
ARC
  5
69890
  8
S-OBRYS
  6
CONTINUOUS
 10
19106.71411426325
 20
403273.38823364722
 30
0.0
 40
3.0
 50
270.0
 51
0.0
  0
LINE
  5
69891
  8
S-OBRYS
  6
CONTINUOUS
 10
19083.71411426325
 20
403464.88583517889
 30
0.0
 11
19083.71411426325
 21
403244.88823364727
 31
0.0
  0
LINE
  5
69892
  8
S-OBRYS
  6
CONTINUOUS
 10
19079.71411426325
 20
403274.38823364727
 30
0.0
 11
19079.71411426325
 21
403244.38823364722
 31
0.0
  0
LINE
  5
69893
  8
S-OBRYS
  6
CONTINUOUS
 10
19079.71411426325
 20
403274.38823364727
 30
0.0
 11
19079.71411426325
 21
403244.38823364722
 31
0.0
  0
LINE
  5
69894
  8
S-OBRYS
  6
CONTINUOUS
 10
19075.71411426325
 20
403464.88602587441
 30
0.0
 11
19075.71411426325
 21
403247.38823364727
 31
0.0
  0
ARC
  5
69895
  8
S-OBRYS
  6
CONTINUOUS
 10
19052.71411426325
 20
403273.38823364722
 30
0.0
 40
3.0
 50
180.0
 51
270.0
  0
LINE
  5
69896
  8
S-OBRYS
  6
CONTINUOUS
 10
17088.81706121605
 20
403464.92146894831
 30
0.0
 11
17088.81706121605
 21
403247.42168348061
 31
0.0
  0
ARC
  5
69897
  8
S-OBRYS
  6
CONTINUOUS
 10
17111.817061216061
 20
403273.42168348061
 30
0.0
 40
3.0
 50
270.0
 51
0.0
  0
LINE
  5
69898
  8
S-OBRYS
  6
CONTINUOUS
 10
17079.817061216061
 20
403274.38823364727
 30
0.0
 11
17079.817061216061
 21
403236.92168348067
 31
0.0
  0
LINE
  5
69899
  8
S-OBRYS
  6
CONTINUOUS
 10
17084.81706121605
 20
403464.921564296
 30
0.0
 11
17084.81706121605
 21
403244.42168348061
 31
0.0
  0
LINE
  5
6989A
  8
S-OBRYS
  6
CONTINUOUS
 10
17185.202565135769
 20
403261.47536492551
 30
0.0
 11
17454.202565135769
 21
403261.47536492551
 31
0.0
  0
LINE
  5
6989B
  8
S-OBRYS
  6
CONTINUOUS
 10
17129.817061216061
 20
403181.92168348067
 30
0.0
 11
17094.817061216061
 21
403181.92168348067
 31
0.0
  0
LINE
  5
6989C
  8
S-OBRYS
  6
CONTINUOUS
 10
17094.817061216061
 20
403176.92168348061
 30
0.0
 11
17129.817061216061
 21
403176.92168348061
 31
0.0
  0
ARC
  5
6989D
  8
S-OBRYS
  6
CONTINUOUS
 10
17094.817061216061
 20
403191.92168348067
 30
0.0
 40
15.0
 50
180.0
 51
270.0
  0
LINE
  5
6989E
  8
S-OBRYS
  6
CONTINUOUS
 10
17111.817061216061
 20
403270.42168348067
 30
0.0
 11
17091.817061216061
 21
403270.42168348067
 31
0.0
  0
ARC
  5
6989F
  8
S-OBRYS
  6
CONTINUOUS
 10
17091.817061216061
 20
403267.42168348067
 30
0.0
 40
3.0
 50
90.0
 51
180.0
  0
LINE
  5
698A0
  8
S-OBRYS
  6
CONTINUOUS
 10
17100.817061216061
 20
403259.42168348067
 30
0.0
 11
17066.817061216061
 21
403259.42168348067
 31
0.0
  0
LINE
  5
698A1
  8
S-OBRYS
  6
CONTINUOUS
 10
17084.81706121605
 20
403244.42168348061
 30
0.0
 11
17084.81706121605
 21
403230.42168348061
 31
0.0
  0
LINE
  5
698A2
  8
S-OBRYS
  6
CONTINUOUS
 10
17085.817061216061
 20
403244.42168348061
 30
0.0
 11
17084.81706121605
 21
403244.42168348061
 31
0.0
  0
ARC
  5
698A3
  8
S-OBRYS
  6
CONTINUOUS
 10
17085.817061216061
 20
403247.42168348061
 30
0.0
 40
3.0
 50
270.0
 51
0.0
  0
ARC
  5
698A4
  8
S-OBRYS
  6
CONTINUOUS
 10
17094.817061216061
 20
403191.92168348067
 30
0.0
 40
10.0
 50
180.0
 51
270.0
  0
LINE
  5
698A5
  8
S-OBRYS
  6
CONTINUOUS
 10
17079.817061216061
 20
403236.92168348067
 30
0.0
 11
17079.817061216061
 21
403191.92168348067
 31
0.0
  0
LINE
  5
698A6
  8
S-OBRYS
  6
CONTINUOUS
 10
17084.81706121605
 20
403191.92168348067
 30
0.0
 11
17084.81706121605
 21
403230.42168348061
 31
0.0
  0
LINE
  5
698A7
  8
S-OBRYS
  6
CONTINUOUS
 10
17129.817061216061
 20
403176.92168348061
 30
0.0
 11
17129.817061216061
 21
403181.92168348067
 31
0.0
  0
ARC
  5
698A8
  8
S-OBRYS
  6
CONTINUOUS
 10
19073.71411426325
 20
403192.38823364727
 30
0.0
 40
15.0
 50
270.0
 51
0.0
  0
LINE
  5
698A9
  8
S-OBRYS
  6
CONTINUOUS
 10
19073.71411426325
 20
403177.38823364722
 30
0.0
 11
19038.71411426325
 21
403177.38823364722
 31
0.0
  0
LINE
  5
698AA
  8
S-OBRYS
  6
CONTINUOUS
 10
19038.71411426325
 20
403182.38823364727
 30
0.0
 11
19073.71411426325
 21
403182.38823364727
 31
0.0
  0
LINE
  5
698AB
  8
S-OBRYS
  6
CONTINUOUS
 10
19038.71411426325
 20
403177.38823364722
 30
0.0
 11
19038.71411426325
 21
403182.38823364727
 31
0.0
  0
ARC
  5
698AC
  8
S-OBRYS
  6
CONTINUOUS
 10
19086.71411426325
 20
403267.38823364727
 30
0.0
 40
3.0
 50
90.0
 51
180.0
  0
LINE
  5
698AD
  8
S-OBRYS
  6
CONTINUOUS
 10
19095.21411426325
 20
403270.38823364722
 30
0.0
 11
19086.71411426325
 21
403270.38823364722
 31
0.0
  0
LINE
  5
698AE
  8
S-OBRYS
  6
CONTINUOUS
 10
19052.71411426325
 20
403270.38823364722
 30
0.0
 11
19072.71411426325
 21
403270.38823364722
 31
0.0
  0
LINE
  5
698AF
  8
S-OBRYS
  6
CONTINUOUS
 10
19064.21411426325
 20
403270.38823364722
 30
0.0
 11
19072.71411426325
 21
403270.38823364722
 31
0.0
  0
ARC
  5
698B0
  8
S-OBRYS
  6
CONTINUOUS
 10
19072.71411426325
 20
403267.38823364727
 30
0.0
 40
3.0
 50
0.0
 51
90.0
  0
LINE
  5
698B1
  8
S-OBRYS
  6
CONTINUOUS
 10
19106.71411426325
 20
403270.38823364722
 30
0.0
 11
19086.71411426325
 21
403270.38823364722
 31
0.0
  0
LINE
  5
698B2
  8
S-OBRYS
  6
CONTINUOUS
 10
19067.71411426325
 20
403259.88823364727
 30
0.0
 11
19101.71411426325
 21
403259.88823364727
 31
0.0
  0
LINE
  5
698B3
  8
S-OBRYS
  6
CONTINUOUS
 10
19082.71411426325
 20
403244.88823364727
 30
0.0
 11
19083.71411426325
 21
403244.88823364727
 31
0.0
  0
ARC
  5
698B4
  8
S-OBRYS
  6
CONTINUOUS
 10
19080.71411426325
 20
403247.38823364727
 30
0.0
 40
3.0
 50
270.0
 51
0.0
  0
LINE
  5
698B5
  8
S-OBRYS
  6
CONTINUOUS
 10
19080.71411426325
 20
403244.38823364722
 30
0.0
 11
19079.71411426325
 21
403244.38823364722
 31
0.0
  0
LINE
  5
698B6
  8
S-OBRYS
  6
CONTINUOUS
 10
19078.71411426325
 20
403244.38823364722
 30
0.0
 11
19079.71411426325
 21
403244.38823364722
 31
0.0
  0
ARC
  5
698B7
  8
S-OBRYS
  6
CONTINUOUS
 10
19078.71411426325
 20
403247.38823364727
 30
0.0
 40
3.0
 50
180.0
 51
270.0
  0
LINE
  5
698B8
  8
S-OBRYS
  6
CONTINUOUS
 10
19088.71411426325
 20
403241.88823364727
 30
0.0
 11
19088.71411426325
 21
403237.38823364722
 31
0.0
  0
LINE
  5
698B9
  8
S-OBRYS
  6
CONTINUOUS
 10
19083.71411426325
 20
403244.88823364727
 30
0.0
 11
19083.71411426325
 21
403230.88823364722
 31
0.0
  0
LINE
  5
698BA
  8
S-OBRYS
  6
CONTINUOUS
 10
19083.71411426325
 20
403267.38823364727
 30
0.0
 11
19083.71411426325
 21
403247.38823364727
 31
0.0
  0
ARC
  5
698BB
  8
S-OBRYS
  6
CONTINUOUS
 10
19073.71411426325
 20
403192.38823364727
 30
0.0
 40
10.0
 50
270.0
 51
0.0
  0
LINE
  5
698BC
  8
S-OBRYS
  6
CONTINUOUS
 10
19083.71411426325
 20
403192.38823364727
 30
0.0
 11
19083.71411426325
 21
403230.88823364722
 31
0.0
  0
LINE
  5
698BD
  8
S-OBRYS
  6
CONTINUOUS
 10
19088.71411426325
 20
403270.38823364722
 30
0.0
 11
19088.71411426325
 21
403192.38823364727
 31
0.0
  0
DIMENSION
  5
698BE
  8
S-OBRYS
  6
CONTINUOUS
  2
*D43
 10
19079.71411426325
 20
403687.23533786961
 30
0.0
 11
18079.76558773965
 21
403774.73533786967
 31
0.0
 70
     0
  1
2000
 13
17079.817061216061
 23
403464.92168348061
 33
0.0
 14
19079.71411426325
 24
403482.42168348067
 34
0.0
  0
LINE
  5
698BF
  8
S-OBRYS
  6
CONTINUOUS
 10
19049.71411426325
 20
403274.38823364727
 30
0.0
 11
17426.702565135769
 21
403274.38823364727
 31
0.0
  0
LINE
  5
698C0
  8
S-OBRYS
  6
CONTINUOUS
 10
17179.569211074981
 20
403482.42168348067
 30
0.0
 11
19079.71411426325
 21
403482.42168348067
 31
0.0
  0
LINE
  5
698C1
  8
S-OBRYS
  6
CONTINUOUS
 10
17179.569211074981
 20
403464.9312241642
 30
0.0
 11
19079.71411426325
 21
403464.88593052659
 31
0.0
  0
LINE
  5
698C2
  8
S-OBRYS
  6
CONTINUOUS
 10
17212.702565135769
 20
403322.71180000552
 30
0.0
 11
17426.702565135769
 21
403322.71180000552
 31
0.0
  0
LINE
  5
698C3
  8
S-OBRYS
  6
CONTINUOUS
 10
17114.817061216061
 20
403274.38823364727
 30
0.0
 11
17114.821602930318
 21
403464.92084907962
 31
0.0
  0
LINE
  5
698C4
  8
S-OBRYS
  6
CONTINUOUS
 10
17149.569211074991
 20
403485.88823364727
 30
0.0
 11
17149.569211074991
 21
403433.88823364727
 31
0.0
  0
LINE
  5
698C5
  8
S-OBRYS
  6
CONTINUOUS
 10
17179.569211074981
 20
403433.88823364727
 30
0.0
 11
17179.569211074981
 21
403485.88823364727
 31
0.0
  0
LINE
  5
698C6
  8
S-OBRYS
  6
CONTINUOUS
 10
17079.71411426325
 20
403428.23177708359
 30
0.0
 11
17079.71411426325
 21
403464.92168348061
 31
0.0
  0
LINE
  5
698C7
  8
S-OBRYS
  6
CONTINUOUS
 10
17212.702565135769
 20
403274.38823364727
 30
0.0
 11
17114.81706121605
 21
403274.38823364727
 31
0.0
  0
LINE
  5
698C8
  8
S-OBRYS
  6
CONTINUOUS
 10
17003.696311638501
 20
403328.72979149042
 30
0.0
 11
17003.696311638501
 21
403404.7396998959
 31
0.0
  0
LINE
  5
698C9
  8
S-OBRYS
  6
CONTINUOUS
 10
17011.696311638501
 20
403326.72979149042
 30
0.0
 11
17011.696311638501
 21
403406.65314890922
 31
0.0
  0
LINE
  5
698CA
  8
S-OBRYS
  6
CONTINUOUS
 10
17069.696311638501
 20
403315.39875403821
 30
0.0
 11
17069.696311638501
 21
403425.39413566247
 31
0.0
  0
LINE
  5
698CB
  8
S-OBRYS
  6
CONTINUOUS
 10
17023.11488557938
 20
403312.8894691405
 30
0.0
 11
17023.11488557938
 21
403419.83040526172
 31
0.0
  0
LINE
  5
698CC
  8
S-OBRYS
  6
CONTINUOUS
 10
17079.696311638501
 20
403305.22979149042
 30
0.0
 11
17079.71411426325
 21
403428.23177708359
 31
0.0
  0
LINE
  5
698CD
  8
S-OBRYS
  6
CONTINUOUS
 10
17029.012560722182
 20
403310.83614771388
 30
0.0
 11
17067.516711310931
 21
403309.55267602758
 31
0.0
  0
ARC
  5
698CE
  8
S-OBRYS
  6
CONTINUOUS
 10
17027.27363381286
 20
403311.00265895529
 30
0.0
 40
1.7468808744380571
 50
354.53030951565239
 51
88.954787620911375
  0
LINE
  5
698CF
  8
S-OBRYS
  6
CONTINUOUS
 10
17019.716265748011
 20
403313.01552225358
 30
0.0
 11
17013.696311638501
 21
403313.01552225358
 31
0.0
  0
ARC
  5
698D0
  8
S-OBRYS
  6
CONTINUOUS
 10
17013.696311638501
 20
403315.01552225358
 30
0.0
 40
2.0
 50
180.0
 51
270.0
  0
LINE
  5
698D1
  8
S-OBRYS
  6
CONTINUOUS
 10
17019.347662498039
 20
403313.01552225358
 30
0.0
 11
17027.305499340509
 21
403312.74924916989
 31
0.0
  0
ARC
  5
698D2
  8
S-OBRYS
  6
CONTINUOUS
 10
17005.696311638501
 20
403328.72979149042
 30
0.0
 40
2.0
 50
180.0
 51
270.0
  0
LINE
  5
698D3
  8
S-OBRYS
  6
CONTINUOUS
 10
17011.696311638501
 20
403326.72979149042
 30
0.0
 11
17005.696311638501
 21
403326.72979149042
 31
0.0
  0
LINE
  5
698D4
  8
S-OBRYS
  6
CONTINUOUS
 10
17011.696311638501
 20
403315.01552225358
 30
0.0
 11
17011.696311638501
 21
403326.72979149042
 31
0.0
  0
ARC
  5
698D5
  8
S-OBRYS
  6
CONTINUOUS
 10
17067.182955314889
 20
403307.02715399262
 30
0.0
 40
2.5474800517290328
 50
11.977316473314101
 51
88.063225098261498
  0
LINE
  5
698D6
  8
S-OBRYS
  6
CONTINUOUS
 10
17084.81706121605
 20
403274.38823364727
 30
0.0
 11
17079.817061216061
 21
403274.38823364727
 31
0.0
  0
LINE
  5
698D7
  8
S-OBRYS
  6
CONTINUOUS
 10
17072.696311638501
 20
403296.22979149042
 30
0.0
 11
17079.696311638501
 21
403296.22979149042
 31
0.0
  0
LINE
  5
698D8
  8
S-OBRYS
  6
CONTINUOUS
 10
17079.696311638501
 20
403296.22979149042
 30
0.0
 11
17079.696311638501
 21
403305.22979149042
 31
0.0
  0
ARC
  5
698D9
  8
S-OBRYS
  6
CONTINUOUS
 10
17072.696311638501
 20
403299.22979149042
 30
0.0
 40
3.0
 50
180.0
 51
270.0
  0
LINE
  5
698DA
  8
S-OBRYS
  6
CONTINUOUS
 10
17069.696311638501
 20
403315.39875403821
 30
0.0
 11
17069.696311638501
 21
403299.22979149042
 31
0.0
  0
LINE
  5
698DB
  8
S-OBRYS
  6
CONTINUOUS
 10
17090.317061216061
 20
403300.42168348067
 30
0.0
 11
17064.81706121605
 21
403300.42168348067
 31
0.0
  0
LINE
  5
698DC
  8
S-OBRYS
  6
CONTINUOUS
 10
17114.817061216061
 20
403274.42168348067
 30
0.0
 11
17114.817061216061
 21
403273.42168348061
 31
0.0
  0
LINE
  5
698DD
  8
S-OBRYS
  6
CONTINUOUS
 10
17079.817061216061
 20
403296.42168348061
 30
0.0
 11
17079.817061216061
 21
403274.38823364727
 31
0.0
  0
LINE
  5
698DE
  8
S-OBRYS
  6
CONTINUOUS
 10
17031.42402267575
 20
403431.47802282323
 30
0.0
 11
17030.16327599463
 21
403432.240764955
 31
0.0
  0
LINE
  5
698DF
  8
S-OBRYS
  6
CONTINUOUS
 10
17031.364380082701
 20
403433.4771333157
 30
0.0
 11
17030.151347476021
 21
403432.64058705361
 31
0.0
  0
LINE
  5
698E0
  8
S-OBRYS
  6
CONTINUOUS
 10
17029.012560722182
 20
403422.1145821372
 30
0.0
 11
17067.516711310931
 21
403423.3980538235
 31
0.0
  0
LINE
  5
698E1
  8
S-OBRYS
  6
CONTINUOUS
 10
17030.16327599463
 20
403432.240764955
 30
0.0
 11
17030.151347476021
 21
403432.64058705361
 31
0.0
  0
ARC
  5
698E2
  8
S-OBRYS
  6
CONTINUOUS
 10
17005.696311638501
 20
403404.7396998959
 30
0.0
 40
2.0
 50
90.0
 51
180.0
  0
LINE
  5
698E3
  8
S-OBRYS
  6
CONTINUOUS
 10
17011.716265748011
 20
403412.2396998959
 30
0.0
 11
17011.716265748011
 21
403406.7396998959
 31
0.0
  0
LINE
  5
698E4
  8
S-OBRYS
  6
CONTINUOUS
 10
17019.71411426325
 20
403419.9474692514
 30
0.0
 11
17027.305499340509
 21
403420.20148068119
 31
0.0
  0
ARC
  5
698E5
  8
S-OBRYS
  6
CONTINUOUS
 10
17027.27363381286
 20
403421.9480708958
 30
0.0
 40
1.7468808744380571
 50
271.04521237908858
 51
5.4696904843475611
  0
LINE
  5
698E6
  8
S-OBRYS
  6
CONTINUOUS
 10
17019.716265748011
 20
403419.9352075975
 30
0.0
 11
17013.716265748011
 21
403419.9352075975
 31
0.0
  0
LINE
  5
698E7
  8
S-OBRYS
  6
CONTINUOUS
 10
17011.716265748011
 20
403412.2396998959
 30
0.0
 11
17011.716265748011
 21
403417.93520759762
 31
0.0
  0
ARC
  5
698E8
  8
S-OBRYS
  6
CONTINUOUS
 10
17013.716265748011
 20
403417.93520759762
 30
0.0
 40
2.0
 50
90.0
 51
180.0
  0
LINE
  5
698E9
  8
S-OBRYS
  6
CONTINUOUS
 10
17011.716265748011
 20
403406.7396998959
 30
0.0
 11
17005.696311638501
 21
403406.7396998959
 31
0.0
  0
LINE
  5
698EA
  8
S-OBRYS
  6
CONTINUOUS
 10
17033.572239650861
 20
403426.53988918511
 30
0.0
 11
17033.423133168209
 21
403431.5376654162
 31
0.0
  0
LINE
  5
698EB
  8
S-OBRYS
  6
CONTINUOUS
 10
17032.572684404618
 20
403426.51006788859
 30
0.0
 11
17031.511280873779
 21
403425.77808990917
 31
0.0
  0
LINE
  5
698EC
  8
S-OBRYS
  6
CONTINUOUS
 10
17033.122185387369
 20
403422.2515696261
 30
0.0
 11
17031.588816244752
 21
403423.17924626899
 31
0.0
  0
LINE
  5
698ED
  8
S-OBRYS
  6
CONTINUOUS
 10
17031.588816244752
 20
403423.17924626899
 30
0.0
 11
17031.511280873779
 21
403425.77808990917
 31
0.0
  0
LINE
  5
698EE
  8
S-OBRYS
  6
CONTINUOUS
 10
17045.56690260566
 20
403426.89774474339
 30
0.0
 11
17045.41779612302
 21
403431.89552097459
 31
0.0
  0
LINE
  5
698EF
  8
S-OBRYS
  6
CONTINUOUS
 10
17046.566457851892
 20
403426.9275660399
 30
0.0
 11
17047.669611197882
 21
403426.26016667462
 31
0.0
  0
LINE
  5
698F0
  8
S-OBRYS
  6
CONTINUOUS
 10
17047.74714656885
 20
403423.66132303438
 30
0.0
 11
17047.669611197882
 21
403426.26016667462
 31
0.0
  0
LINE
  5
698F1
  8
S-OBRYS
  6
CONTINUOUS
 10
17039.569571128261
 20
403426.71881696419
 30
0.0
 11
17046.566457851892
 21
403426.9275660399
 31
0.0
  0
LINE
  5
698F2
  8
S-OBRYS
  6
CONTINUOUS
 10
17047.41690661549
 20
403431.95516356768
 30
0.0
 11
17048.62993922217
 21
403432.7917098297
 31
0.0
  0
LINE
  5
698F3
  8
S-OBRYS
  6
CONTINUOUS
 10
17039.42046464562
 20
403431.71659319539
 30
0.0
 11
17047.41690661549
 21
403431.95516356768
 31
0.0
  0
LINE
  5
698F4
  8
S-OBRYS
  6
CONTINUOUS
 10
17047.357264022441
 20
403433.95427406009
 30
0.0
 11
17048.618010703562
 21
403433.19153192831
 31
0.0
  0
LINE
  5
698F5
  8
S-OBRYS
  6
CONTINUOUS
 10
17048.62993922217
 20
403432.7917098297
 30
0.0
 11
17048.618010703562
 21
403433.19153192831
 31
0.0
  0
LINE
  5
698F6
  8
S-OBRYS
  6
CONTINUOUS
 10
17039.36082205256
 20
403433.71570368792
 30
0.0
 11
17047.357264022441
 21
403433.95427406009
 31
0.0
  0
LINE
  5
698F7
  8
S-OBRYS
  6
CONTINUOUS
 10
17069.71411426325
 20
403434.23177708348
 30
0.0
 11
17069.674976310071
 21
403425.3949115288
 31
0.0
  0
LINE
  5
698F8
  8
S-OBRYS
  6
CONTINUOUS
 10
17072.71411426325
 20
403437.23177708359
 30
0.0
 11
17079.71411426325
 21
403437.23177708359
 31
0.0
  0
ARC
  5
698F9
  8
S-OBRYS
  6
CONTINUOUS
 10
17072.71411426325
 20
403434.23177708348
 30
0.0
 40
3.0
 50
90.0
 51
180.0
  0
ARC
  5
698FA
  8
S-OBRYS
  6
CONTINUOUS
 10
17067.182955314889
 20
403425.92357585853
 30
0.0
 40
2.5474800517290328
 50
271.93677490173849
 51
348.02268352668591
  0
LINE
  5
698FB
  8
S-OBRYS
  6
CONTINUOUS
 10
17040.07643132261
 20
403409.72979149042
 30
0.0
 11
17039.331000756039
 21
403434.71525893413
 31
0.0
  0
LINE
  5
698FC
  8
S-OBRYS
  6
CONTINUOUS
 10
17046.341910562282
 20
403422.69222713192
 30
0.0
 11
17047.74714656885
 21
403423.66132303438
 31
0.0
  0
LINE
  5
698FD
  8
S-OBRYS
  6
CONTINUOUS
 10
17090.817061216061
 20
403432.42168348061
 30
0.0
 11
17065.317061216061
 21
403432.42168348061
 31
0.0
  0
LINE
  5
698FE
  8
S-OBRYS
  6
CONTINUOUS
 10
17039.569571128261
 20
403426.71881696419
 30
0.0
 11
17032.572684404618
 21
403426.51006788859
 31
0.0
  0
LINE
  5
698FF
  8
S-OBRYS
  6
CONTINUOUS
 10
17039.42046464562
 20
403431.71659319539
 30
0.0
 11
17031.42402267575
 21
403431.47802282323
 31
0.0
  0
LINE
  5
69900
  8
S-OBRYS
  6
CONTINUOUS
 10
17039.36082205256
 20
403433.71570368792
 30
0.0
 11
17031.364380082701
 21
403433.4771333157
 31
0.0
  0
LINE
  5
69901
  8
S-OBRYS
  6
CONTINUOUS
 10
17164.569211074991
 20
403433.88823364727
 30
0.0
 11
17164.569211074991
 21
403362.88823364727
 31
0.0
  0
ARC
  5
69902
  8
S-OBRYS
  6
CONTINUOUS
 10
17183.069211074991
 20
403366.88823364727
 30
0.0
 40
4.0
 50
262.8749836510982
 51
0.0
  0
LINE
  5
69903
  8
S-OBRYS
  6
CONTINUOUS
 10
17189.569211074991
 20
403358.38823364727
 30
0.0
 11
17189.569211074991
 21
403431.38823364727
 31
0.0
  0
ARC
  5
69904
  8
S-OBRYS
  6
CONTINUOUS
 10
17146.069211074991
 20
403366.88823364727
 30
0.0
 40
4.0
 50
180.0
 51
270.0
  0
LINE
  5
69905
  8
S-OBRYS
  6
CONTINUOUS
 10
17139.569211074991
 20
403431.38823364727
 30
0.0
 11
17139.569211074991
 21
403358.38823364727
 31
0.0
  0
LINE
  5
69906
  8
S-OBRYS
  6
CONTINUOUS
 10
17139.569211074991
 20
403358.38823364727
 30
0.0
 11
17189.569211074991
 21
403358.38823364727
 31
0.0
  0
LINE
  5
69907
  8
S-OBRYS
  6
CONTINUOUS
 10
17183.069211074991
 20
403362.88823364727
 30
0.0
 11
17146.069211074991
 21
403362.88823364727
 31
0.0
  0
LINE
  5
69908
  8
S-OBRYS
  6
CONTINUOUS
 10
17187.069211074981
 20
403420.88823364722
 30
0.0
 11
17187.069211074981
 21
403366.88823364727
 31
0.0
  0
ARC
  5
69909
  8
S-OBRYS
  6
CONTINUOUS
 10
17183.069211074991
 20
403420.88823364722
 30
0.0
 40
4.0
 50
0.0
 51
90.0
  0
LINE
  5
6990A
  8
S-OBRYS
  6
CONTINUOUS
 10
17149.569211074991
 20
403433.88823364727
 30
0.0
 11
17179.569211074981
 21
403433.88823364727
 31
0.0
  0
LINE
  5
6990B
  8
S-OBRYS
  6
CONTINUOUS
 10
17167.069211074991
 20
403431.88823364727
 30
0.0
 11
17167.069211074991
 21
403431.38823364727
 31
0.0
  0
ARC
  5
6990C
  8
S-OBRYS
  6
CONTINUOUS
 10
17166.569211074991
 20
403431.88823364727
 30
0.0
 40
0.5
 50
0.0
 51
90.0
  0
LINE
  5
6990D
  8
S-OBRYS
  6
CONTINUOUS
 10
17162.069211074991
 20
403431.88823364727
 30
0.0
 11
17162.069211074991
 21
403431.38823364727
 31
0.0
  0
ARC
  5
6990E
  8
S-OBRYS
  6
CONTINUOUS
 10
17162.569211074991
 20
403431.88823364727
 30
0.0
 40
0.5
 50
90.0
 51
180.0
  0
LINE
  5
6990F
  8
S-OBRYS
  6
CONTINUOUS
 10
17167.069211074991
 20
403431.38823364727
 30
0.0
 11
17162.069211074991
 21
403431.38823364727
 31
0.0
  0
LINE
  5
69910
  8
S-OBRYS
  6
CONTINUOUS
 10
17166.569211074991
 20
403432.38823364722
 30
0.0
 11
17162.569211074991
 21
403432.38823364722
 31
0.0
  0
ARC
  5
69911
  8
S-OBRYS
  6
CONTINUOUS
 10
17164.569211074991
 20
403432.38823364722
 30
0.0
 40
1.5
 50
0.0
 51
180.0
  0
LINE
  5
69912
  8
S-OBRYS
  6
CONTINUOUS
 10
17158.569211074991
 20
403429.88823364722
 30
0.0
 11
17158.569211074991
 21
403427.88823364722
 31
0.0
  0
ARC
  5
69913
  8
S-OBRYS
  6
CONTINUOUS
 10
17160.069211074991
 20
403429.88823364722
 30
0.0
 40
1.5
 50
90.0
 51
180.0
  0
LINE
  5
69914
  8
S-OBRYS
  6
CONTINUOUS
 10
17170.569211074991
 20
403429.88823364722
 30
0.0
 11
17170.569211074991
 21
403427.88823364722
 31
0.0
  0
ARC
  5
69915
  8
S-OBRYS
  6
CONTINUOUS
 10
17169.069211074981
 20
403429.88823364722
 30
0.0
 40
1.5
 50
0.0
 51
90.0
  0
ARC
  5
69916
  8
S-OBRYS
  6
CONTINUOUS
 10
17172.569211074991
 20
403425.88823364722
 30
0.0
 40
2.0
 50
0.0
 51
90.0
  0
ARC
  5
69917
  8
S-OBRYS
  6
CONTINUOUS
 10
17156.569211074981
 20
403425.88823364722
 30
0.0
 40
2.0
 50
90.0
 51
180.0
  0
LINE
  5
69918
  8
S-OBRYS
  6
CONTINUOUS
 10
17172.569211074991
 20
403427.88823364722
 30
0.0
 11
17156.569211074981
 21
403427.88823364722
 31
0.0
  0
LINE
  5
69919
  8
S-OBRYS
  6
CONTINUOUS
 10
17142.069211074991
 20
403420.88823364722
 30
0.0
 11
17142.069211074991
 21
403366.88823364727
 31
0.0
  0
ARC
  5
6991A
  8
S-OBRYS
  6
CONTINUOUS
 10
17146.069211074991
 20
403420.88823364722
 30
0.0
 40
4.0
 50
90.0
 51
180.0
  0
LINE
  5
6991B
  8
S-OBRYS
  6
CONTINUOUS
 10
17183.069211074991
 20
403424.88823364727
 30
0.0
 11
17146.069211074991
 21
403424.88823364727
 31
0.0
  0
LINE
  5
6991C
  8
S-OBRYS
  6
CONTINUOUS
 10
17189.569211074991
 20
403431.38823364727
 30
0.0
 11
17139.569211074991
 21
403431.38823364727
 31
0.0
  0
LINE
  5
6991D
  8
S-OBRYS
  6
CONTINUOUS
 10
17079.817061216061
 20
403464.92168348061
 30
0.0
 11
17149.569211074991
 21
403464.92002080299
 31
0.0
  0
LINE
  5
6991E
  8
S-OBRYS
  6
CONTINUOUS
 10
17097.317061216061
 20
403482.42168348067
 30
0.0
 11
17149.569211074991
 21
403482.42168348067
 31
0.0
  0
LINE
  5
6991F
  8
S-OBRYS
  6
CONTINUOUS
 10
17097.569211074991
 20
403522.88823364727
 30
0.0
 11
17137.569211074981
 21
403522.88823364727
 31
0.0
  0
LINE
  5
69920
  8
S-OBRYS
  6
CONTINUOUS
 10
17097.569211074991
 20
403522.88823364727
 30
0.0
 11
17097.569211074991
 21
403482.42168348067
 31
0.0
  0
LINE
  5
69921
  8
S-OBRYS
  6
CONTINUOUS
 10
17079.817061216061
 20
403464.92168348061
 30
0.0
 11
17097.817061216061
 21
403482.92168348067
 31
0.0
  0
LINE
  5
69922
  8
S-OBRYS
  6
CONTINUOUS
 10
17117.569211074981
 20
403469.67168348067
 30
0.0
 11
17117.569211074981
 21
403530.63823364722
 31
0.0
  0
LINE
  5
69923
  8
S-OBRYS
  6
CONTINUOUS
 10
17172.569211074991
 20
403490.38823364727
 30
0.0
 11
17172.569211074991
 21
403474.88823364722
 31
0.0
  0
LINE
  5
69924
  8
S-OBRYS
  6
CONTINUOUS
 10
17156.069211074991
 20
403490.38823364727
 30
0.0
 11
17156.069211074991
 21
403474.88823364722
 31
0.0
  0
LINE
  5
69925
  8
S-OBRYS
  6
CONTINUOUS
 10
17179.569211074981
 20
403485.88823364727
 30
0.0
 11
17149.569211074991
 21
403485.88823364727
 31
0.0
  0
LINE
  5
69926
  8
S-OBRYS
  6
CONTINUOUS
 10
17137.569211074981
 20
403522.88823364727
 30
0.0
 11
17137.569211074981
 21
403482.38823364727
 31
0.0
  0
LINE
  5
69927
  8
S-OBRYS
  6
CONTINUOUS
 10
19109.71411426325
 20
403274.38823364727
 30
0.0
 11
19109.718655128119
 21
403464.88521531032
 31
0.0
  0
LINE
  5
69928
  8
S-OBRYS
  6
CONTINUOUS
 10
19049.71411426325
 20
403274.38823364727
 30
0.0
 11
19049.718655162211
 21
403464.88664552663
 31
0.0
  0
LINE
  5
69929
  8
S-OBRYS
  6
CONTINUOUS
 10
19079.71411426325
 20
403274.38823364727
 30
0.0
 11
19079.71411426325
 21
403482.42168348067
 31
0.0
  0
LINE
  5
6992A
  8
S-OBRYS
  6
CONTINUOUS
 10
19109.71411426325
 20
403274.38823364727
 30
0.0
 11
19109.71411426325
 21
403273.38823364722
 31
0.0
  0
LINE
  5
6992B
  8
S-OBRYS
  6
CONTINUOUS
 10
19049.71411426325
 20
403274.38823364727
 30
0.0
 11
19049.71411426325
 21
403273.38823364722
 31
0.0
  0
LINE
  5
6992C
  8
S-OBRYS
  6
CONTINUOUS
 10
19068.21411426325
 20
403500.38127822807
 30
0.0
 11
19068.21411426325
 21
403501.38823364727
 31
0.0
  0
LINE
  5
6992D
  8
S-OBRYS
  6
CONTINUOUS
 10
19062.194748132599
 20
403500.38127822807
 30
0.0
 11
19052.694748132599
 21
403500.38127822807
 31
0.0
  0
LINE
  5
6992E
  8
S-OBRYS
  6
CONTINUOUS
 10
19071.694748132599
 20
403500.38127822807
 30
0.0
 11
19073.164398132601
 21
403499.53277580062
 31
0.0
  0
LINE
  5
6992F
  8
S-OBRYS
  6
CONTINUOUS
 10
19062.194748132599
 20
403500.38127822807
 30
0.0
 11
19071.694748132599
 21
403500.38127822807
 31
0.0
  0
LINE
  5
69930
  8
S-OBRYS
  6
CONTINUOUS
 10
19057.21411426325
 20
403502.38823364727
 30
0.0
 11
19056.21411426325
 21
403501.38823364727
 31
0.0
  0
LINE
  5
69931
  8
S-OBRYS
  6
CONTINUOUS
 10
19067.21411426325
 20
403502.38823364727
 30
0.0
 11
19068.21411426325
 21
403501.38823364727
 31
0.0
  0
LINE
  5
69932
  8
S-OBRYS
  6
CONTINUOUS
 10
19068.21411426325
 20
403501.38823364727
 30
0.0
 11
19056.21411426325
 21
403501.38823364727
 31
0.0
  0
LINE
  5
69933
  8
S-OBRYS
  6
CONTINUOUS
 10
19057.21411426325
 20
403502.38823364727
 30
0.0
 11
19067.21411426325
 21
403502.38823364727
 31
0.0
  0
LINE
  5
69934
  8
S-OBRYS
  6
CONTINUOUS
 10
19056.21411426325
 20
403501.38823364727
 30
0.0
 11
19056.21411426325
 21
403500.38127822807
 31
0.0
  0
LINE
  5
69935
  8
S-OBRYS
  6
CONTINUOUS
 10
19062.194748132599
 20
403493.40032163041
 30
0.0
 11
19071.694748132599
 21
403493.40032163041
 31
0.0
  0
LINE
  5
69936
  8
S-OBRYS
  6
CONTINUOUS
 10
19071.694748132599
 20
403493.40032163041
 30
0.0
 11
19073.164398132601
 21
403492.5518192029
 31
0.0
  0
LINE
  5
69937
  8
S-OBRYS
  6
CONTINUOUS
 10
19062.194748132599
 20
403493.40032163041
 30
0.0
 11
19052.694748132599
 21
403493.40032163041
 31
0.0
  0
LINE
  5
69938
  8
S-OBRYS
  6
CONTINUOUS
 10
19052.694748132599
 20
403493.38127822807
 30
0.0
 11
19062.194748132599
 21
403493.38127822807
 31
0.0
  0
LINE
  5
69939
  8
S-OBRYS
  6
CONTINUOUS
 10
19071.694748132599
 20
403493.38127822807
 30
0.0
 11
19062.194748132599
 21
403493.38127822807
 31
0.0
  0
LINE
  5
6993A
  8
S-OBRYS
  6
CONTINUOUS
 10
19073.164398132601
 20
403494.22978065559
 30
0.0
 11
19071.694748132599
 21
403493.38127822807
 31
0.0
  0
LINE
  5
6993B
  8
S-OBRYS
  6
CONTINUOUS
 10
19072.21411426325
 20
403486.38823364722
 30
0.0
 11
19052.21411426325
 21
403486.38823364722
 31
0.0
  0
LINE
  5
6993C
  8
S-OBRYS
  6
CONTINUOUS
 10
19056.21411426325
 20
403486.40032163041
 30
0.0
 11
19056.21411426325
 21
403486.38823364722
 31
0.0
  0
LINE
  5
6993D
  8
S-OBRYS
  6
CONTINUOUS
 10
19057.21411426325
 20
403486.38823364722
 30
0.0
 11
19057.21411426325
 21
403486.40032163041
 31
0.0
  0
LINE
  5
6993E
  8
S-OBRYS
  6
CONTINUOUS
 10
19071.694748132599
 20
403486.40032163041
 30
0.0
 11
19062.194748132599
 21
403486.40032163041
 31
0.0
  0
LINE
  5
6993F
  8
S-OBRYS
  6
CONTINUOUS
 10
19073.164398132601
 20
403487.24882405793
 30
0.0
 11
19071.694748132599
 21
403486.40032163041
 31
0.0
  0
LINE
  5
69940
  8
S-OBRYS
  6
CONTINUOUS
 10
19052.694748132599
 20
403486.40032163041
 30
0.0
 11
19062.194748132599
 21
403486.40032163041
 31
0.0
  0
LINE
  5
69941
  8
S-OBRYS
  6
CONTINUOUS
 10
19075.21411426325
 20
403482.38823364727
 30
0.0
 11
19075.21411426325
 21
403483.38823364727
 31
0.0
  0
ARC
  5
69942
  8
S-OBRYS
  6
CONTINUOUS
 10
19072.21411426325
 20
403483.38823364727
 30
0.0
 40
3.0
 50
0.0
 51
90.0
  0
LINE
  5
69943
  8
S-OBRYS
  6
CONTINUOUS
 10
19073.164398132601
 20
403492.5518192029
 30
0.0
 11
19073.164398132601
 21
403487.24882405793
 31
0.0
  0
LINE
  5
69944
  8
S-OBRYS
  6
CONTINUOUS
 10
19073.164398132601
 20
403499.53277580062
 30
0.0
 11
19073.164398132601
 21
403494.22978065559
 31
0.0
  0
LINE
  5
69945
  8
S-OBRYS
  6
CONTINUOUS
 10
19046.21411426325
 20
403512.38823364727
 30
0.0
 11
19045.21411426325
 21
403512.38823364727
 31
0.0
  0
ARC
  5
69946
  8
S-OBRYS
  6
CONTINUOUS
 10
19046.21411426325
 20
403509.38823364727
 30
0.0
 40
3.0
 50
0.0
 51
90.0
  0
LINE
  5
69947
  8
S-OBRYS
  6
CONTINUOUS
 10
19051.2250981326
 20
403492.5518192029
 30
0.0
 11
19051.2250981326
 21
403487.24882405793
 31
0.0
  0
LINE
  5
69948
  8
S-OBRYS
  6
CONTINUOUS
 10
19045.21411426325
 20
403482.38823364727
 30
0.0
 11
19045.21411426325
 21
403512.38823364727
 31
0.0
  0
LINE
  5
69949
  8
S-OBRYS
  6
CONTINUOUS
 10
19049.21411426325
 20
403489.38823364722
 30
0.0
 11
19049.21411426325
 21
403509.38823364727
 31
0.0
  0
LINE
  5
6994A
  8
S-OBRYS
  6
CONTINUOUS
 10
19051.2250981326
 20
403499.53277580062
 30
0.0
 11
19051.2250981326
 21
403494.22978065559
 31
0.0
  0
LINE
  5
6994B
  8
S-OBRYS
  6
CONTINUOUS
 10
19052.694748132599
 20
403493.40032163041
 30
0.0
 11
19051.2250981326
 21
403492.5518192029
 31
0.0
  0
LINE
  5
6994C
  8
S-OBRYS
  6
CONTINUOUS
 10
19051.2250981326
 20
403487.24882405793
 30
0.0
 11
19052.694748132599
 21
403486.40032163041
 31
0.0
  0
LINE
  5
6994D
  8
S-OBRYS
  6
CONTINUOUS
 10
19045.21411426325
 20
403482.38823364727
 30
0.0
 11
19075.21411426325
 21
403482.38823364727
 31
0.0
  0
LINE
  5
6994E
  8
S-OBRYS
  6
CONTINUOUS
 10
19051.2250981326
 20
403494.22978065559
 30
0.0
 11
19052.694748132599
 21
403493.38127822807
 31
0.0
  0
ARC
  5
6994F
  8
S-OBRYS
  6
CONTINUOUS
 10
19052.21411426325
 20
403489.38823364722
 30
0.0
 40
3.0
 50
180.0
 51
270.0
  0
LINE
  5
69950
  8
S-OBRYS
  6
CONTINUOUS
 10
19052.694748132599
 20
403500.38127822807
 30
0.0
 11
19051.2250981326
 21
403499.53277580062
 31
0.0
  0
LINE
  5
69951
  8
S-OBRYS
  6
CONTINUOUS
 10
21083.71411426325
 20
403464.83816130162
 30
0.0
 11
21083.71411426325
 21
403244.88823364727
 31
0.0
  0
LINE
  5
69952
  8
S-OBRYS
  6
CONTINUOUS
 10
21079.71411426325
 20
403274.38823364727
 30
0.0
 11
21079.71411426325
 21
403244.38823364722
 31
0.0
  0
ARC
  5
69953
  8
S-OBRYS
  6
CONTINUOUS
 10
21106.71411426325
 20
403273.38823364722
 30
0.0
 40
3.0
 50
270.0
 51
0.0
  0
LINE
  5
69954
  8
S-OBRYS
  6
CONTINUOUS
 10
21079.71411426325
 20
403274.38823364727
 30
0.0
 11
21079.71411426325
 21
403244.38823364722
 31
0.0
  0
LINE
  5
69955
  8
S-OBRYS
  6
CONTINUOUS
 10
21075.71411426325
 20
403464.83835199708
 30
0.0
 11
21075.71411426325
 21
403247.38823364727
 31
0.0
  0
ARC
  5
69956
  8
S-OBRYS
  6
CONTINUOUS
 10
21052.714114263261
 20
403273.38823364722
 30
0.0
 40
3.0
 50
180.0
 51
270.0
  0
ARC
  5
69957
  8
S-OBRYS
  6
CONTINUOUS
 10
23547.61300397708
 20
403273.38823364722
 30
0.0
 40
3.0
 50
180.0
 51
270.0
  0
LINE
  5
69958
  8
S-OBRYS
  6
CONTINUOUS
 10
24129.61300397708
 20
403241.38823364727
 30
0.0
 11
24129.61300397708
 21
403354.88823364722
 31
0.0
  0
LINE
  5
69959
  8
S-OBRYS
  6
CONTINUOUS
 10
23574.61300397708
 20
403191.88823364722
 30
0.0
 11
23574.61300397708
 21
403274.38823364727
 31
0.0
  0
LINE
  5
6995A
  8
S-OBRYS
  6
CONTINUOUS
 10
23579.743640091081
 20
403236.88823364727
 30
0.0
 11
23579.71065476989
 21
403464.79058285448
 31
0.0
  0
LINE
  5
6995B
  8
S-OBRYS
  6
CONTINUOUS
 10
24092.998156877209
 20
403276.47536492557
 30
0.0
 11
24092.998156877209
 21
403235.88823364727
 31
0.0
  0
LINE
  5
6995C
  8
S-OBRYS
  6
CONTINUOUS
 10
23855.61300397708
 20
403276.38823364727
 30
0.0
 11
23855.61300397708
 21
403235.88823364727
 31
0.0
  0
LINE
  5
6995D
  8
S-OBRYS
  6
CONTINUOUS
 10
24115.501874422411
 20
403271.38823364722
 30
0.0
 11
24115.501874422411
 21
403241.38823364727
 31
0.0
  0
LINE
  5
6995E
  8
S-OBRYS
  6
CONTINUOUS
 10
23830.61300397708
 20
403338.38823364722
 30
0.0
 11
23830.61300397708
 21
403265.38823364727
 31
0.0
  0
ARC
  5
6995F
  8
S-OBRYS
  6
CONTINUOUS
 10
21073.714114263261
 20
403192.38823364727
 30
0.0
 40
15.0
 50
270.0
 51
0.0
  0
LINE
  5
69960
  8
S-OBRYS
  6
CONTINUOUS
 10
21073.714114263261
 20
403177.38823364722
 30
0.0
 11
21038.71411426325
 21
403177.38823364722
 31
0.0
  0
LINE
  5
69961
  8
S-OBRYS
  6
CONTINUOUS
 10
21038.71411426325
 20
403182.38823364727
 30
0.0
 11
21073.714114263261
 21
403182.38823364727
 31
0.0
  0
LINE
  5
69962
  8
S-OBRYS
  6
CONTINUOUS
 10
21052.714114263261
 20
403270.38823364722
 30
0.0
 11
21072.71411426325
 21
403270.38823364722
 31
0.0
  0
LINE
  5
69963
  8
S-OBRYS
  6
CONTINUOUS
 10
21038.71411426325
 20
403177.38823364722
 30
0.0
 11
21038.71411426325
 21
403182.38823364727
 31
0.0
  0
LINE
  5
69964
  8
S-OBRYS
  6
CONTINUOUS
 10
21067.714114263261
 20
403259.88823364727
 30
0.0
 11
21101.71411426325
 21
403259.88823364727
 31
0.0
  0
LINE
  5
69965
  8
S-OBRYS
  6
CONTINUOUS
 10
21088.714114263261
 20
403241.88823364727
 30
0.0
 11
21088.714114263261
 21
403237.38823364722
 31
0.0
  0
LINE
  5
69966
  8
S-OBRYS
  6
CONTINUOUS
 10
21082.71411426325
 20
403244.88823364727
 30
0.0
 11
21083.71411426325
 21
403244.88823364727
 31
0.0
  0
LINE
  5
69967
  8
S-OBRYS
  6
CONTINUOUS
 10
21083.71411426325
 20
403244.88823364727
 30
0.0
 11
21083.71411426325
 21
403230.88823364722
 31
0.0
  0
ARC
  5
69968
  8
S-OBRYS
  6
CONTINUOUS
 10
21073.714114263261
 20
403192.38823364727
 30
0.0
 40
10.0
 50
270.0
 51
0.0
  0
LINE
  5
69969
  8
S-OBRYS
  6
CONTINUOUS
 10
21083.71411426325
 20
403192.38823364727
 30
0.0
 11
21083.71411426325
 21
403230.88823364722
 31
0.0
  0
LINE
  5
6996A
  8
S-OBRYS
  6
CONTINUOUS
 10
21088.714114263261
 20
403270.38823364722
 30
0.0
 11
21088.714114263261
 21
403192.38823364727
 31
0.0
  0
ARC
  5
6996B
  8
S-OBRYS
  6
CONTINUOUS
 10
21086.714114263261
 20
403267.38823364727
 30
0.0
 40
3.0
 50
90.0
 51
180.0
  0
ARC
  5
6996C
  8
S-OBRYS
  6
CONTINUOUS
 10
21080.71411426325
 20
403247.38823364727
 30
0.0
 40
3.0
 50
270.0
 51
0.0
  0
LINE
  5
6996D
  8
S-OBRYS
  6
CONTINUOUS
 10
21080.71411426325
 20
403244.38823364722
 30
0.0
 11
21079.71411426325
 21
403244.38823364722
 31
0.0
  0
LINE
  5
6996E
  8
S-OBRYS
  6
CONTINUOUS
 10
21083.71411426325
 20
403267.38823364727
 30
0.0
 11
21083.71411426325
 21
403247.38823364727
 31
0.0
  0
LINE
  5
6996F
  8
S-OBRYS
  6
CONTINUOUS
 10
21106.71411426325
 20
403270.38823364722
 30
0.0
 11
21086.714114263261
 21
403270.38823364722
 31
0.0
  0
LINE
  5
69970
  8
S-OBRYS
  6
CONTINUOUS
 10
21095.21411426325
 20
403270.38823364722
 30
0.0
 11
21086.714114263261
 21
403270.38823364722
 31
0.0
  0
ARC
  5
69971
  8
S-OBRYS
  6
CONTINUOUS
 10
21072.71411426325
 20
403267.38823364727
 30
0.0
 40
3.0
 50
0.0
 51
90.0
  0
ARC
  5
69972
  8
S-OBRYS
  6
CONTINUOUS
 10
21078.71411426325
 20
403247.38823364727
 30
0.0
 40
3.0
 50
180.0
 51
270.0
  0
LINE
  5
69973
  8
S-OBRYS
  6
CONTINUOUS
 10
21078.71411426325
 20
403244.38823364722
 30
0.0
 11
21079.71411426325
 21
403244.38823364722
 31
0.0
  0
LINE
  5
69974
  8
S-OBRYS
  6
CONTINUOUS
 10
21064.21411426325
 20
403270.38823364722
 30
0.0
 11
21072.71411426325
 21
403270.38823364722
 31
0.0
  0
LINE
  5
69975
  8
S-OBRYS
  6
CONTINUOUS
 10
23830.61300397708
 20
403241.38823364727
 30
0.0
 11
23905.613003977069
 21
403241.38823364727
 31
0.0
  0
LINE
  5
69976
  8
S-OBRYS
  6
CONTINUOUS
 10
23579.61300397708
 20
403236.88823364727
 30
0.0
 11
24129.61300397708
 21
403236.88823364727
 31
0.0
  0
ARC
  5
69977
  8
S-OBRYS
  6
CONTINUOUS
 10
23564.613003977069
 20
403191.88823364722
 30
0.0
 40
15.0
 50
270.0
 51
0.0
  0
LINE
  5
69978
  8
S-OBRYS
  6
CONTINUOUS
 10
23579.61300397708
 20
403191.88823364722
 30
0.0
 11
23579.61300397708
 21
403236.88823364727
 31
0.0
  0
LINE
  5
69979
  8
S-OBRYS
  6
CONTINUOUS
 10
23558.61300397708
 20
403259.38823364727
 30
0.0
 11
23592.61300397708
 21
403259.38823364727
 31
0.0
  0
ARC
  5
6997A
  8
S-OBRYS
  6
CONTINUOUS
 10
23573.61300397708
 20
403247.38823364727
 30
0.0
 40
3.0
 50
180.0
 51
270.0
  0
ARC
  5
6997B
  8
S-OBRYS
  6
CONTINUOUS
 10
23567.61300397708
 20
403267.38823364727
 30
0.0
 40
3.0
 50
0.0
 51
90.0
  0
LINE
  5
6997C
  8
S-OBRYS
  6
CONTINUOUS
 10
23573.61300397708
 20
403244.38823364722
 30
0.0
 11
23574.61300397708
 21
403244.38823364722
 31
0.0
  0
LINE
  5
6997D
  8
S-OBRYS
  6
CONTINUOUS
 10
23570.61300397708
 20
403267.38823364727
 30
0.0
 11
23570.61300397708
 21
403247.38823364727
 31
0.0
  0
LINE
  5
6997E
  8
S-OBRYS
  6
CONTINUOUS
 10
23547.61300397708
 20
403270.38823364722
 30
0.0
 11
23567.61300397708
 21
403270.38823364722
 31
0.0
  0
ARC
  5
6997F
  8
S-OBRYS
  6
CONTINUOUS
 10
23564.613003977069
 20
403191.88823364722
 30
0.0
 40
10.0
 50
270.0
 51
0.0
  0
LINE
  5
69980
  8
S-OBRYS
  6
CONTINUOUS
 10
23529.61300397708
 20
403181.88823364722
 30
0.0
 11
23564.613003977069
 21
403181.88823364722
 31
0.0
  0
LINE
  5
69981
  8
S-OBRYS
  6
CONTINUOUS
 10
23529.61300397708
 20
403176.88823364722
 30
0.0
 11
23529.61300397708
 21
403181.88823364722
 31
0.0
  0
LINE
  5
69982
  8
S-OBRYS
  6
CONTINUOUS
 10
23564.613003977069
 20
403176.88823364722
 30
0.0
 11
23529.61300397708
 21
403176.88823364722
 31
0.0
  0
LINE
  5
69983
  8
S-OBRYS
  6
CONTINUOUS
 10
23830.61300397708
 20
403265.38823364727
 30
0.0
 11
23830.61300397708
 21
403241.38823364727
 31
0.0
  0
LINE
  5
69984
  8
S-OBRYS
  6
CONTINUOUS
 10
23990.61300397708
 20
403241.38823364727
 30
0.0
 11
24115.501874422422
 21
403241.38823364727
 31
0.0
  0
LINE
  5
69985
  8
S-OBRYS
  6
CONTINUOUS
 10
23908.61300397708
 20
403246.88823364722
 30
0.0
 11
23987.613003977069
 21
403246.88823364722
 31
0.0
  0
LINE
  5
69986
  8
S-OBRYS
  6
CONTINUOUS
 10
23905.613003977069
 20
403243.88823364727
 30
0.0
 11
23908.61300397708
 21
403246.88823364722
 31
0.0
  0
LINE
  5
69987
  8
S-OBRYS
  6
CONTINUOUS
 10
23905.613003977069
 20
403241.38823364727
 30
0.0
 11
23905.613003977069
 21
403243.88823364727
 31
0.0
  0
LINE
  5
69988
  8
S-OBRYS
  6
CONTINUOUS
 10
23990.61300397708
 20
403243.88823364727
 30
0.0
 11
23987.613003977069
 21
403246.88823364722
 31
0.0
  0
LINE
  5
69989
  8
S-OBRYS
  6
CONTINUOUS
 10
23990.61300397708
 20
403241.38823364727
 30
0.0
 11
23990.61300397708
 21
403243.88823364727
 31
0.0
  0
LINE
  5
6998A
  8
S-OBRYS
  6
CONTINUOUS
 10
24129.61300397708
 20
403236.88823364727
 30
0.0
 11
24129.61300397708
 21
403241.38823364727
 31
0.0
  0
LINE
  5
6998B
  8
S-OBRYS
  6
CONTINUOUS
 10
21079.71411426325
 20
403464.83825664932
 30
0.0
 11
23579.710656494892
 21
403464.77866438508
 31
0.0
  0
LINE
  5
6998C
  8
S-OBRYS
  6
CONTINUOUS
 10
21079.71411426325
 20
403482.42168348067
 30
0.0
 11
23562.079554143631
 21
403482.42168348067
 31
0.0
  0
LINE
  5
6998D
  8
S-OBRYS
  6
CONTINUOUS
 10
23544.61300397708
 20
403274.38823364727
 30
0.0
 11
21109.714114263261
 21
403274.38823364727
 31
0.0
  0
DIMENSION
  5
6998E
  8
S-OBRYS
  6
CONTINUOUS
  2
*D44
 10
23579.710656494892
 20
403686.63823364722
 30
0.0
 11
22329.71238537908
 21
403774.13823364727
 31
0.0
 70
     0
 13
21079.71411426325
 23
403482.42168348067
 33
0.0
 14
23579.710656494892
 24
403464.77866438508
 34
0.0
  0
LINE
  5
6998F
  8
S-OBRYS
  6
CONTINUOUS
 10
21109.714114263261
 20
403274.38823364727
 30
0.0
 11
21109.71865399172
 21
403464.83754143288
 31
0.0
  0
LINE
  5
69990
  8
S-OBRYS
  6
CONTINUOUS
 10
21049.71411426325
 20
403274.38823364727
 30
0.0
 11
21049.718654025812
 21
403464.83897164918
 31
0.0
  0
LINE
  5
69991
  8
S-OBRYS
  6
CONTINUOUS
 10
21079.71411426325
 20
403274.38823364727
 30
0.0
 11
21079.71411426325
 21
403482.42168348067
 31
0.0
  0
LINE
  5
69992
  8
S-OBRYS
  6
CONTINUOUS
 10
21049.71411426325
 20
403274.38823364727
 30
0.0
 11
21049.71411426325
 21
403273.38823364722
 31
0.0
  0
LINE
  5
69993
  8
S-OBRYS
  6
CONTINUOUS
 10
21109.714114263261
 20
403274.38823364727
 30
0.0
 11
21109.714114263261
 21
403273.38823364722
 31
0.0
  0
LINE
  5
69994
  8
S-OBRYS
  6
CONTINUOUS
 10
21062.194748132599
 20
403493.43377146393
 30
0.0
 11
21052.694748132599
 21
403493.43377146393
 31
0.0
  0
LINE
  5
69995
  8
S-OBRYS
  6
CONTINUOUS
 10
21052.694748132599
 20
403486.43377146393
 30
0.0
 11
21062.194748132599
 21
403486.43377146393
 31
0.0
  0
LINE
  5
69996
  8
S-OBRYS
  6
CONTINUOUS
 10
21072.21411426325
 20
403486.42168348067
 30
0.0
 11
21052.21411426325
 21
403486.42168348067
 31
0.0
  0
LINE
  5
69997
  8
S-OBRYS
  6
CONTINUOUS
 10
21045.21411426325
 20
403482.42168348067
 30
0.0
 11
21075.214114263261
 21
403482.42168348067
 31
0.0
  0
LINE
  5
69998
  8
S-OBRYS
  6
CONTINUOUS
 10
21052.694748132599
 20
403493.41472806153
 30
0.0
 11
21062.194748132599
 21
403493.41472806153
 31
0.0
  0
LINE
  5
69999
  8
S-OBRYS
  6
CONTINUOUS
 10
21062.194748132599
 20
403500.41472806153
 30
0.0
 11
21052.694748132599
 21
403500.41472806153
 31
0.0
  0
LINE
  5
6999A
  8
S-OBRYS
  6
CONTINUOUS
 10
21052.694748132599
 20
403493.43377146393
 30
0.0
 11
21051.2250981326
 21
403492.5852690363
 31
0.0
  0
LINE
  5
6999B
  8
S-OBRYS
  6
CONTINUOUS
 10
21051.2250981326
 20
403487.28227389138
 30
0.0
 11
21052.694748132599
 21
403486.43377146393
 31
0.0
  0
LINE
  5
6999C
  8
S-OBRYS
  6
CONTINUOUS
 10
21051.2250981326
 20
403492.5852690363
 30
0.0
 11
21051.2250981326
 21
403487.28227389138
 31
0.0
  0
ARC
  5
6999D
  8
S-OBRYS
  6
CONTINUOUS
 10
21052.21411426325
 20
403489.42168348061
 30
0.0
 40
3.0
 50
180.0
 51
270.0
  0
LINE
  5
6999E
  8
S-OBRYS
  6
CONTINUOUS
 10
21046.21411426325
 20
403512.42168348067
 30
0.0
 11
21045.21411426325
 21
403512.42168348067
 31
0.0
  0
ARC
  5
6999F
  8
S-OBRYS
  6
CONTINUOUS
 10
21046.21411426325
 20
403509.42168348061
 30
0.0
 40
3.0
 50
0.0
 51
90.0
  0
LINE
  5
699A0
  8
S-OBRYS
  6
CONTINUOUS
 10
21045.21411426325
 20
403482.42168348067
 30
0.0
 11
21045.21411426325
 21
403512.42168348067
 31
0.0
  0
LINE
  5
699A1
  8
S-OBRYS
  6
CONTINUOUS
 10
21049.21411426325
 20
403489.42168348061
 30
0.0
 11
21049.21411426325
 21
403509.42168348061
 31
0.0
  0
LINE
  5
699A2
  8
S-OBRYS
  6
CONTINUOUS
 10
21051.2250981326
 20
403494.2632304891
 30
0.0
 11
21052.694748132599
 21
403493.41472806153
 31
0.0
  0
LINE
  5
699A3
  8
S-OBRYS
  6
CONTINUOUS
 10
21051.2250981326
 20
403499.56622563401
 30
0.0
 11
21051.2250981326
 21
403494.2632304891
 31
0.0
  0
LINE
  5
699A4
  8
S-OBRYS
  6
CONTINUOUS
 10
21052.694748132599
 20
403500.41472806153
 30
0.0
 11
21051.2250981326
 21
403499.56622563401
 31
0.0
  0
LINE
  5
699A5
  8
S-OBRYS
  6
CONTINUOUS
 10
21056.214114263261
 20
403486.43377146393
 30
0.0
 11
21056.214114263261
 21
403486.42168348067
 31
0.0
  0
LINE
  5
699A6
  8
S-OBRYS
  6
CONTINUOUS
 10
21057.21411426325
 20
403486.42168348067
 30
0.0
 11
21057.21411426325
 21
403486.43377146393
 31
0.0
  0
LINE
  5
699A7
  8
S-OBRYS
  6
CONTINUOUS
 10
21068.21411426325
 20
403500.41472806153
 30
0.0
 11
21068.21411426325
 21
403501.42168348067
 31
0.0
  0
LINE
  5
699A8
  8
S-OBRYS
  6
CONTINUOUS
 10
21062.194748132599
 20
403493.43377146393
 30
0.0
 11
21071.694748132599
 21
403493.43377146393
 31
0.0
  0
LINE
  5
699A9
  8
S-OBRYS
  6
CONTINUOUS
 10
21071.694748132599
 20
403493.43377146393
 30
0.0
 11
21073.164398132601
 21
403492.5852690363
 31
0.0
  0
LINE
  5
699AA
  8
S-OBRYS
  6
CONTINUOUS
 10
21071.694748132599
 20
403486.43377146393
 30
0.0
 11
21062.194748132599
 21
403486.43377146393
 31
0.0
  0
LINE
  5
699AB
  8
S-OBRYS
  6
CONTINUOUS
 10
21073.164398132601
 20
403487.28227389138
 30
0.0
 11
21071.694748132599
 21
403486.43377146393
 31
0.0
  0
LINE
  5
699AC
  8
S-OBRYS
  6
CONTINUOUS
 10
21073.164398132601
 20
403492.5852690363
 30
0.0
 11
21073.164398132601
 21
403487.28227389138
 31
0.0
  0
LINE
  5
699AD
  8
S-OBRYS
  6
CONTINUOUS
 10
21075.214114263261
 20
403482.42168348067
 30
0.0
 11
21075.214114263261
 21
403483.42168348067
 31
0.0
  0
ARC
  5
699AE
  8
S-OBRYS
  6
CONTINUOUS
 10
21072.21411426325
 20
403483.42168348067
 30
0.0
 40
3.0
 50
0.0
 51
90.0
  0
LINE
  5
699AF
  8
S-OBRYS
  6
CONTINUOUS
 10
21071.694748132599
 20
403493.41472806153
 30
0.0
 11
21062.194748132599
 21
403493.41472806153
 31
0.0
  0
LINE
  5
699B0
  8
S-OBRYS
  6
CONTINUOUS
 10
21073.164398132601
 20
403494.2632304891
 30
0.0
 11
21071.694748132599
 21
403493.41472806153
 31
0.0
  0
LINE
  5
699B1
  8
S-OBRYS
  6
CONTINUOUS
 10
21073.164398132601
 20
403499.56622563401
 30
0.0
 11
21073.164398132601
 21
403494.2632304891
 31
0.0
  0
LINE
  5
699B2
  8
S-OBRYS
  6
CONTINUOUS
 10
21071.694748132599
 20
403500.41472806153
 30
0.0
 11
21073.164398132601
 21
403499.56622563401
 31
0.0
  0
LINE
  5
699B3
  8
S-OBRYS
  6
CONTINUOUS
 10
21062.194748132599
 20
403500.41472806153
 30
0.0
 11
21071.694748132599
 21
403500.41472806153
 31
0.0
  0
LINE
  5
699B4
  8
S-OBRYS
  6
CONTINUOUS
 10
21057.21411426325
 20
403502.42168348061
 30
0.0
 11
21056.214114263261
 21
403501.42168348067
 31
0.0
  0
LINE
  5
699B5
  8
S-OBRYS
  6
CONTINUOUS
 10
21067.21411426325
 20
403502.42168348061
 30
0.0
 11
21068.21411426325
 21
403501.42168348067
 31
0.0
  0
LINE
  5
699B6
  8
S-OBRYS
  6
CONTINUOUS
 10
21068.21411426325
 20
403501.42168348067
 30
0.0
 11
21056.214114263261
 21
403501.42168348067
 31
0.0
  0
LINE
  5
699B7
  8
S-OBRYS
  6
CONTINUOUS
 10
21057.21411426325
 20
403502.42168348061
 30
0.0
 11
21067.21411426325
 21
403502.42168348061
 31
0.0
  0
LINE
  5
699B8
  8
S-OBRYS
  6
CONTINUOUS
 10
21056.214114263261
 20
403501.42168348067
 30
0.0
 11
21056.214114263261
 21
403500.41472806153
 31
0.0
  0
DIMENSION
  5
699B9
  8
S-OBRYS
  6
CONTINUOUS
  2
*D45
 10
24372.720156877211
 20
403685.88823364727
 30
0.0
 11
23976.216357611062
 21
403773.38823364727
 31
0.0
 70
     0
  1
793
 13
23579.71255834492
 23
403451.63839251827
 33
0.0
 14
24372.720156877211
 24
403451.63839251827
 34
0.0
  0
LINE
  5
699BA
  8
S-OBRYS
  6
CONTINUOUS
 10
24086.970156877211
 20
403448.56249620387
 30
0.0
 11
24315.251874422411
 21
403448.56249620387
 31
0.0
  0
LINE
  5
699BB
  8
S-OBRYS
  6
CONTINUOUS
 10
24086.970156877211
 20
403433.56249620387
 30
0.0
 11
24315.251874422411
 21
403433.56249620387
 31
0.0
  0
LINE
  5
699BC
  8
S-OBRYS
  6
CONTINUOUS
 10
24086.970156877211
 20
403408.56249620381
 30
0.0
 11
24315.251874422411
 21
403408.56249620381
 31
0.0
  0
LINE
  5
699BD
  8
S-OBRYS
  6
CONTINUOUS
 10
24086.970156877211
 20
403381.56249620387
 30
0.0
 11
24315.251874422411
 21
403381.56249620387
 31
0.0
  0
LINE
  5
699BE
  8
S-OBRYS
  6
CONTINUOUS
 10
24129.61300397708
 20
403324.38823364727
 30
0.0
 11
24315.251874422411
 21
403324.38823364727
 31
0.0
  0
LINE
  5
699BF
  8
S-OBRYS
  6
CONTINUOUS
 10
24129.61300397708
 20
403299.38823364722
 30
0.0
 11
24315.251874422411
 21
403299.38823364722
 31
0.0
  0
LINE
  5
699C0
  8
S-OBRYS
  6
CONTINUOUS
 10
24129.61300397708
 20
403284.38823364722
 30
0.0
 11
24315.251874422411
 21
403284.38823364722
 31
0.0
  0
LINE
  5
699C1
  8
S-OBRYS
  6
CONTINUOUS
 10
24129.61300397708
 20
403351.38823364727
 30
0.0
 11
24315.251874422411
 21
403351.38823364727
 31
0.0
  0
LINE
  5
699C2
  8
S-OBRYS
  6
CONTINUOUS
 10
24242.25965687721
 20
403456.47536492551
 30
0.0
 11
24315.220156877211
 21
403456.47536492551
 31
0.0
  0
LINE
  5
699C3
  8
S-OBRYS
  6
CONTINUOUS
 10
24129.61300397708
 20
403276.47536492557
 30
0.0
 11
24293.720156877211
 21
403276.47536492557
 31
0.0
  0
LINE
  5
699C4
  8
S-OBRYS
  6
CONTINUOUS
 10
23815.61300397708
 20
403464.88823364727
 30
0.0
 11
24129.61300397708
 21
403354.88823364722
 31
0.0
  0
LINE
  5
699C5
  8
S-OBRYS
  6
CONTINUOUS
 10
23862.713003977071
 20
403448.38823364727
 30
0.0
 11
24011.001874422422
 21
403448.38823364727
 31
0.0
  0
LINE
  5
699C6
  8
S-OBRYS
  6
CONTINUOUS
 10
23830.61300397708
 20
403501.38823364727
 30
0.0
 11
24077.001874422411
 21
403501.38823364727
 31
0.0
  0
LINE
  5
699C7
  8
S-OBRYS
  6
CONTINUOUS
 10
23889.48800397708
 20
403271.38823364722
 30
0.0
 11
23830.61300397708
 21
403271.38823364722
 31
0.0
  0
LINE
  5
699C8
  8
S-OBRYS
  6
CONTINUOUS
 10
23574.61300397708
 20
403274.38823364727
 30
0.0
 11
23574.61754230499
 21
403464.77878578939
 31
0.0
  0
LINE
  5
699C9
  8
S-OBRYS
  6
CONTINUOUS
 10
23544.61300397708
 20
403274.38823364727
 30
0.0
 11
23544.61754232203
 21
403464.77950089739
 31
0.0
  0
LINE
  5
699CA
  8
S-OBRYS
  6
CONTINUOUS
 10
23830.61300397708
 20
403459.6334565772
 30
0.0
 11
23830.61300397708
 21
403501.38823364727
 31
0.0
  0
LINE
  5
699CB
  8
S-OBRYS
  6
CONTINUOUS
 10
23670.61300397708
 20
403333.88823364722
 30
0.0
 11
23703.613003977069
 21
403333.88823364722
 31
0.0
  0
LINE
  5
699CC
  8
S-OBRYS
  6
CONTINUOUS
 10
23703.613003977069
 20
403398.88823364727
 30
0.0
 11
23678.61300397708
 21
403398.88823364727
 31
0.0
  0
LINE
  5
699CD
  8
S-OBRYS
  6
CONTINUOUS
 10
23589.733753554628
 20
403315.36530420469
 30
0.0
 11
23589.733753554628
 21
403425.36068582901
 31
0.0
  0
LINE
  5
699CE
  8
S-OBRYS
  6
CONTINUOUS
 10
23647.733753554628
 20
403326.69634165691
 30
0.0
 11
23647.733753554628
 21
403406.6196990757
 31
0.0
  0
LINE
  5
699CF
  8
S-OBRYS
  6
CONTINUOUS
 10
23655.713799445119
 20
403381.70625006239
 30
0.0
 11
23655.733753554628
 21
403351.69634165702
 31
0.0
  0
LINE
  5
699D0
  8
S-OBRYS
  6
CONTINUOUS
 10
23668.61300397708
 20
403388.88823364722
 30
0.0
 11
23668.61300397708
 21
403335.88823364722
 31
0.0
  0
LINE
  5
699D1
  8
S-OBRYS
  6
CONTINUOUS
 10
23639.733753554628
 20
403319.19634165702
 30
0.0
 11
23591.931156506951
 21
403317.60292175529
 31
0.0
  0
LINE
  5
699D2
  8
S-OBRYS
  6
CONTINUOUS
 10
23579.7382125492
 20
403274.38823364727
 30
0.0
 11
23574.61300397708
 21
403274.38823364727
 31
0.0
  0
LINE
  5
699D3
  8
S-OBRYS
  6
CONTINUOUS
 10
23544.61300397708
 20
403274.38823364727
 30
0.0
 11
23544.61300397708
 21
403273.38823364722
 31
0.0
  0
LINE
  5
699D4
  8
S-OBRYS
  6
CONTINUOUS
 10
23569.11300397708
 20
403300.38823364727
 30
0.0
 11
23594.61300397708
 21
403300.38823364727
 31
0.0
  0
ARC
  5
699D5
  8
S-OBRYS
  6
CONTINUOUS
 10
23592.264912503
 20
403315.07739972038
 30
0.0
 40
2.5474800517290328
 50
91.936774901738502
 51
178.027313883825
  0
ARC
  5
699D6
  8
S-OBRYS
  6
CONTINUOUS
 10
23586.733753554628
 20
403299.19634165691
 30
0.0
 40
3.0
 50
270.0
 51
0.0
  0
LINE
  5
699D7
  8
S-OBRYS
  6
CONTINUOUS
 10
23586.733753554628
 20
403296.19634165691
 30
0.0
 11
23579.733753554628
 21
403296.19634165691
 31
0.0
  0
LINE
  5
699D8
  8
S-OBRYS
  6
CONTINUOUS
 10
23589.733753554628
 20
403315.36530420469
 30
0.0
 11
23589.733753554628
 21
403299.19634165691
 31
0.0
  0
LINE
  5
699D9
  8
S-OBRYS
  6
CONTINUOUS
 10
23668.61300397708
 20
403335.88823364722
 30
0.0
 11
23670.61300397708
 21
403333.88823364722
 31
0.0
  0
LINE
  5
699DA
  8
S-OBRYS
  6
CONTINUOUS
 10
23668.715180946368
 20
403351.69634165702
 30
0.0
 11
23655.733753554628
 21
403351.69634165702
 31
0.0
  0
ARC
  5
699DB
  8
S-OBRYS
  6
CONTINUOUS
 10
23653.733753554628
 20
403328.69634165702
 30
0.0
 40
2.0
 50
270.0
 51
0.0
  0
ARC
  5
699DC
  8
S-OBRYS
  6
CONTINUOUS
 10
23645.733753554628
 20
403321.19634165702
 30
0.0
 40
2.0
 50
270.0
 51
0.0
  0
LINE
  5
699DD
  8
S-OBRYS
  6
CONTINUOUS
 10
23639.733753554628
 20
403319.19634165702
 30
0.0
 11
23645.733753554628
 21
403319.19634165702
 31
0.0
  0
LINE
  5
699DE
  8
S-OBRYS
  6
CONTINUOUS
 10
23639.733753554628
 20
403326.69634165691
 30
0.0
 11
23639.733753554628
 21
403319.19634165702
 31
0.0
  0
LINE
  5
699DF
  8
S-OBRYS
  6
CONTINUOUS
 10
23647.733753554628
 20
403321.19634165702
 30
0.0
 11
23647.733753554628
 21
403326.69634165691
 31
0.0
  0
LINE
  5
699E0
  8
S-OBRYS
  6
CONTINUOUS
 10
23647.733753554628
 20
403326.69634165691
 30
0.0
 11
23653.733753554628
 21
403326.69634165691
 31
0.0
  0
LINE
  5
699E1
  8
S-OBRYS
  6
CONTINUOUS
 10
23655.733753554628
 20
403328.69634165702
 30
0.0
 11
23655.733753554628
 21
403351.69634165702
 31
0.0
  0
LINE
  5
699E2
  8
S-OBRYS
  6
CONTINUOUS
 10
23612.863607341242
 20
403426.8941162065
 30
0.0
 11
23611.760453995259
 21
403426.22671684111
 31
0.0
  0
LINE
  5
699E3
  8
S-OBRYS
  6
CONTINUOUS
 10
23612.744322155129
 20
403422.89589522162
 30
0.0
 11
23611.68291862429
 21
403423.62787320092
 31
0.0
  0
LINE
  5
699E4
  8
S-OBRYS
  6
CONTINUOUS
 10
23630.417504470948
 20
403422.08113230381
 30
0.0
 11
23591.913353882199
 21
403423.36460399011
 31
0.0
  0
LINE
  5
699E5
  8
S-OBRYS
  6
CONTINUOUS
 10
23620.00960054751
 20
403431.683143362
 30
0.0
 11
23612.01315857764
 21
403431.92171373422
 31
0.0
  0
LINE
  5
699E6
  8
S-OBRYS
  6
CONTINUOUS
 10
23620.06924314057
 20
403433.68225385441
 30
0.0
 11
23612.0728011707
 21
403433.92082422669
 31
0.0
  0
LINE
  5
699E7
  8
S-OBRYS
  6
CONTINUOUS
 10
23568.61300397708
 20
403432.38823364722
 30
0.0
 11
23594.11300397708
 21
403432.38823364722
 31
0.0
  0
LINE
  5
699E8
  8
S-OBRYS
  6
CONTINUOUS
 10
23612.01315857764
 20
403431.92171373422
 30
0.0
 11
23610.80012597096
 21
403432.75825999642
 31
0.0
  0
LINE
  5
699E9
  8
S-OBRYS
  6
CONTINUOUS
 10
23612.0728011707
 20
403433.92082422669
 30
0.0
 11
23610.812054489568
 21
403433.15808209492
 31
0.0
  0
LINE
  5
699EA
  8
S-OBRYS
  6
CONTINUOUS
 10
23610.80012597096
 20
403432.75825999642
 30
0.0
 11
23610.812054489568
 21
403433.15808209492
 31
0.0
  0
LINE
  5
699EB
  8
S-OBRYS
  6
CONTINUOUS
 10
23611.68291862429
 20
403423.62787320092
 30
0.0
 11
23611.760453995259
 21
403426.22671684111
 31
0.0
  0
ARC
  5
699EC
  8
S-OBRYS
  6
CONTINUOUS
 10
23586.71595092988
 20
403434.1983272502
 30
0.0
 40
3.0
 50
0.0
 51
90.0
  0
ARC
  5
699ED
  8
S-OBRYS
  6
CONTINUOUS
 10
23592.247109878241
 20
403425.89012602501
 30
0.0
 40
2.5474800517290328
 50
191.97731647331409
 51
268.06322509826151
  0
LINE
  5
699EE
  8
S-OBRYS
  6
CONTINUOUS
 10
23589.71595092988
 20
403434.1983272502
 30
0.0
 11
23589.755088883059
 21
403425.36146169528
 31
0.0
  0
LINE
  5
699EF
  8
S-OBRYS
  6
CONTINUOUS
 10
23586.71595092988
 20
403437.19832725008
 30
0.0
 11
23579.71595092988
 21
403437.19832725008
 31
0.0
  0
LINE
  5
699F0
  8
S-OBRYS
  6
CONTINUOUS
 10
23670.61300397708
 20
403398.88823364727
 30
0.0
 11
23668.61300397708
 21
403396.88823364722
 31
0.0
  0
LINE
  5
699F1
  8
S-OBRYS
  6
CONTINUOUS
 10
23668.61300397708
 20
403396.88823364722
 30
0.0
 11
23668.61300397708
 21
403388.88823364722
 31
0.0
  0
LINE
  5
699F2
  8
S-OBRYS
  6
CONTINUOUS
 10
23678.61300397708
 20
403398.88823364727
 30
0.0
 11
23670.61300397708
 21
403398.88823364727
 31
0.0
  0
LINE
  5
699F3
  8
S-OBRYS
  6
CONTINUOUS
 10
23668.715180946368
 20
403381.69634165691
 30
0.0
 11
23655.713806033389
 21
403381.69634165691
 31
0.0
  0
LINE
  5
699F4
  8
S-OBRYS
  6
CONTINUOUS
 10
23628.00604251738
 20
403431.44457298971
 30
0.0
 11
23629.2667891985
 21
403432.2073151216
 31
0.0
  0
LINE
  5
699F5
  8
S-OBRYS
  6
CONTINUOUS
 10
23628.065685110429
 20
403433.44368348218
 30
0.0
 11
23629.278717717109
 21
403432.6071372201
 31
0.0
  0
LINE
  5
699F6
  8
S-OBRYS
  6
CONTINUOUS
 10
23629.2667891985
 20
403432.2073151216
 30
0.0
 11
23629.278717717109
 21
403432.6071372201
 31
0.0
  0
LINE
  5
699F7
  8
S-OBRYS
  6
CONTINUOUS
 10
23620.00960054751
 20
403431.683143362
 30
0.0
 11
23628.00604251738
 21
403431.44457298971
 31
0.0
  0
LINE
  5
699F8
  8
S-OBRYS
  6
CONTINUOUS
 10
23620.06924314057
 20
403433.68225385441
 30
0.0
 11
23628.065685110429
 21
403433.44368348218
 31
0.0
  0
LINE
  5
699F9
  8
S-OBRYS
  6
CONTINUOUS
 10
23626.738095602399
 20
403422.4783970702
 30
0.0
 11
23627.841248948382
 21
403423.14579643548
 31
0.0
  0
LINE
  5
699FA
  8
S-OBRYS
  6
CONTINUOUS
 10
23627.841248948382
 20
403423.14579643548
 30
0.0
 11
23627.91878431935
 21
403425.74464007572
 31
0.0
  0
LINE
  5
699FB
  8
S-OBRYS
  6
CONTINUOUS
 10
23626.772923761091
 20
403422.47398492141
 30
0.0
 11
23626.772923761091
 21
403422.22158293967
 31
0.0
  0
LINE
  5
699FC
  8
S-OBRYS
  6
CONTINUOUS
 10
23626.857380788511
 20
403426.47661805508
 30
0.0
 11
23627.91878431935
 21
403425.74464007572
 31
0.0
  0
LINE
  5
699FD
  8
S-OBRYS
  6
CONTINUOUS
 10
23619.860494064869
 20
403426.68536713079
 30
0.0
 11
23626.857380788511
 21
403426.47661805508
 31
0.0
  0
LINE
  5
699FE
  8
S-OBRYS
  6
CONTINUOUS
 10
23619.741208878761
 20
403422.68714614579
 30
0.0
 11
23626.738095602399
 21
403422.4783970702
 31
0.0
  0
LINE
  5
699FF
  8
S-OBRYS
  6
CONTINUOUS
 10
23625.85782554228
 20
403426.50643935159
 30
0.0
 11
23626.006932024909
 21
403431.5042155828
 31
0.0
  0
LINE
  5
69A00
  8
S-OBRYS
  6
CONTINUOUS
 10
23612.73046959038
 20
403422.87783198192
 30
0.0
 11
23612.67995710409
 21
403422.67590845173
 31
0.0
  0
LINE
  5
69A01
  8
S-OBRYS
  6
CONTINUOUS
 10
23613.86316258747
 20
403426.86429490999
 30
0.0
 11
23614.01226907011
 21
403431.86207114108
 31
0.0
  0
LINE
  5
69A02
  8
S-OBRYS
  6
CONTINUOUS
 10
23619.741208878761
 20
403422.68714614579
 30
0.0
 11
23612.744322155129
 21
403422.89589522162
 31
0.0
  0
LINE
  5
69A03
  8
S-OBRYS
  6
CONTINUOUS
 10
23619.860494064869
 20
403426.68536713079
 30
0.0
 11
23612.863607341242
 21
403426.8941162065
 31
0.0
  0
ARC
  5
69A04
  8
S-OBRYS
  6
CONTINUOUS
 10
23653.713799445119
 20
403404.70625006239
 30
0.0
 40
2.0
 50
0.0
 51
90.0
  0
ARC
  5
69A05
  8
S-OBRYS
  6
CONTINUOUS
 10
23645.713799445119
 20
403417.90175776411
 30
0.0
 40
2.0
 50
0.0
 51
90.0
  0
LINE
  5
69A06
  8
S-OBRYS
  6
CONTINUOUS
 10
23647.713799445119
 20
403412.20625006239
 30
0.0
 11
23647.713799445119
 21
403417.90175776411
 31
0.0
  0
LINE
  5
69A07
  8
S-OBRYS
  6
CONTINUOUS
 10
23639.713799445119
 20
403419.90175776399
 30
0.0
 11
23645.713799445119
 21
403419.90175776399
 31
0.0
  0
LINE
  5
69A08
  8
S-OBRYS
  6
CONTINUOUS
 10
23647.713799445119
 20
403412.20625006239
 30
0.0
 11
23647.713799445119
 21
403406.70625006239
 31
0.0
  0
LINE
  5
69A09
  8
S-OBRYS
  6
CONTINUOUS
 10
23639.71595092988
 20
403419.91401941812
 30
0.0
 11
23632.12456585261
 21
403420.16803084768
 31
0.0
  0
LINE
  5
69A0A
  8
S-OBRYS
  6
CONTINUOUS
 10
23647.713799445119
 20
403406.70625006239
 30
0.0
 11
23653.713799445119
 21
403406.70625006239
 31
0.0
  0
LINE
  5
69A0B
  8
S-OBRYS
  6
CONTINUOUS
 10
23655.713799445119
 20
403404.70625006239
 30
0.0
 11
23655.713799445119
 21
403381.70625006239
 31
0.0
  0
ARC
  5
69A0C
  8
S-OBRYS
  6
CONTINUOUS
 10
23632.15643138027
 20
403421.91462106229
 30
0.0
 40
1.7468808744380571
 50
174.53030951565239
 51
268.95478762091142
  0
LINE
  5
69A0D
  8
S-OBRYS
  6
CONTINUOUS
 10
23708.61300397708
 20
403398.88823364727
 30
0.0
 11
23708.61300397708
 21
403333.88823364722
 31
0.0
  0
LINE
  5
69A0E
  8
S-OBRYS
  6
CONTINUOUS
 10
23753.61300397708
 20
403303.38823364722
 30
0.0
 11
23753.61300397708
 21
403429.38823364727
 31
0.0
  0
LINE
  5
69A0F
  8
S-OBRYS
  6
CONTINUOUS
 10
23830.61300397708
 20
403338.38823364722
 30
0.0
 11
23830.61300397708
 21
403394.38823364727
 31
0.0
  0
LINE
  5
69A10
  8
S-OBRYS
  6
CONTINUOUS
 10
23825.613003977069
 20
403341.38823364727
 30
0.0
 11
23825.613003977069
 21
403394.38823364727
 31
0.0
  0
LINE
  5
69A11
  8
S-OBRYS
  6
CONTINUOUS
 10
23815.637286431869
 20
403386.38823364727
 30
0.0
 11
23815.637286431869
 21
403346.38823364722
 31
0.0
  0
LINE
  5
69A12
  8
S-OBRYS
  6
CONTINUOUS
 10
23753.61300397708
 20
403328.88823364722
 30
0.0
 11
23813.61300397708
 21
403328.88823364722
 31
0.0
  0
LINE
  5
69A13
  8
S-OBRYS
  6
CONTINUOUS
 10
23751.61300397708
 20
403301.38823364722
 30
0.0
 11
23753.61300397708
 21
403303.38823364722
 31
0.0
  0
LINE
  5
69A14
  8
S-OBRYS
  6
CONTINUOUS
 10
23708.61300397708
 20
403303.38823364722
 30
0.0
 11
23710.61300397708
 21
403301.38823364722
 31
0.0
  0
ARC
  5
69A15
  8
S-OBRYS
  6
CONTINUOUS
 10
23703.613003977069
 20
403328.88823364722
 30
0.0
 40
5.0
 50
0.0
 51
90.0
  0
LINE
  5
69A16
  8
S-OBRYS
  6
CONTINUOUS
 10
23710.61300397708
 20
403301.38823364722
 30
0.0
 11
23751.61300397708
 21
403301.38823364722
 31
0.0
  0
LINE
  5
69A17
  8
S-OBRYS
  6
CONTINUOUS
 10
23708.61300397708
 20
403333.88823364722
 30
0.0
 11
23708.61300397708
 21
403303.38823364722
 31
0.0
  0
LINE
  5
69A18
  8
S-OBRYS
  6
CONTINUOUS
 10
23813.61300397708
 20
403328.88823364722
 30
0.0
 11
23815.61300397708
 21
403330.88823364727
 31
0.0
  0
LINE
  5
69A19
  8
S-OBRYS
  6
CONTINUOUS
 10
23815.61300397708
 20
403330.88823364727
 30
0.0
 11
23815.61300397708
 21
403341.38823364727
 31
0.0
  0
LINE
  5
69A1A
  8
S-OBRYS
  6
CONTINUOUS
 10
23825.613003977069
 20
403338.38823364722
 30
0.0
 11
23830.61300397708
 21
403338.38823364722
 31
0.0
  0
LINE
  5
69A1B
  8
S-OBRYS
  6
CONTINUOUS
 10
23825.613003977069
 20
403341.38823364727
 30
0.0
 11
23825.613003977069
 21
403338.38823364722
 31
0.0
  0
LINE
  5
69A1C
  8
S-OBRYS
  6
CONTINUOUS
 10
23815.637286431869
 20
403341.38823364727
 30
0.0
 11
23825.613003977069
 21
403341.38823364727
 31
0.0
  0
LINE
  5
69A1D
  8
S-OBRYS
  6
CONTINUOUS
 10
23815.637286431869
 20
403346.38823364722
 30
0.0
 11
23815.637286431869
 21
403341.38823364727
 31
0.0
  0
LINE
  5
69A1E
  8
S-OBRYS
  6
CONTINUOUS
 10
23813.61300397708
 20
403403.88823364727
 30
0.0
 11
23753.61300397708
 21
403403.88823364727
 31
0.0
  0
LINE
  5
69A1F
  8
S-OBRYS
  6
CONTINUOUS
 10
23751.61300397708
 20
403431.38823364727
 30
0.0
 11
23753.61300397708
 21
403429.38823364727
 31
0.0
  0
LINE
  5
69A20
  8
S-OBRYS
  6
CONTINUOUS
 10
23708.61300397708
 20
403429.38823364727
 30
0.0
 11
23710.61300397708
 21
403431.38823364727
 31
0.0
  0
ARC
  5
69A21
  8
S-OBRYS
  6
CONTINUOUS
 10
23703.613003977069
 20
403403.88823364727
 30
0.0
 40
5.0
 50
270.0
 51
0.0
  0
LINE
  5
69A22
  8
S-OBRYS
  6
CONTINUOUS
 10
23708.61300397708
 20
403429.38823364727
 30
0.0
 11
23708.61300397708
 21
403398.88823364727
 31
0.0
  0
LINE
  5
69A23
  8
S-OBRYS
  6
CONTINUOUS
 10
23751.61300397708
 20
403431.38823364727
 30
0.0
 11
23710.61300397708
 21
403431.38823364727
 31
0.0
  0
LINE
  5
69A24
  8
S-OBRYS
  6
CONTINUOUS
 10
23862.713003977071
 20
403448.38823364727
 30
0.0
 11
23830.61300397708
 21
403448.38823364727
 31
0.0
  0
LINE
  5
69A25
  8
S-OBRYS
  6
CONTINUOUS
 10
23813.61300397708
 20
403403.88823364727
 30
0.0
 11
23815.61300397708
 21
403401.88823364722
 31
0.0
  0
LINE
  5
69A26
  8
S-OBRYS
  6
CONTINUOUS
 10
23815.61300397708
 20
403391.38823364727
 30
0.0
 11
23815.61300397708
 21
403401.88823364722
 31
0.0
  0
LINE
  5
69A27
  8
S-OBRYS
  6
CONTINUOUS
 10
23830.61300397708
 20
403394.38823364727
 30
0.0
 11
23830.61300397708
 21
403459.6334565772
 31
0.0
  0
LINE
  5
69A28
  8
S-OBRYS
  6
CONTINUOUS
 10
23830.61300397708
 20
403394.38823364727
 30
0.0
 11
23825.613003977069
 21
403394.38823364727
 31
0.0
  0
LINE
  5
69A29
  8
S-OBRYS
  6
CONTINUOUS
 10
23815.637286431869
 20
403391.38823364727
 30
0.0
 11
23825.613003977069
 21
403391.38823364727
 31
0.0
  0
LINE
  5
69A2A
  8
S-OBRYS
  6
CONTINUOUS
 10
23815.637286431869
 20
403386.38823364727
 30
0.0
 11
23815.637286431869
 21
403391.38823364727
 31
0.0
  0
LINE
  5
69A2B
  8
S-OBRYS
  6
CONTINUOUS
 10
23579.710654769879
 20
403464.79058285448
 30
0.0
 11
23814.61330757941
 21
403464.79058285448
 31
0.0
  0
LINE
  5
69A2C
  8
S-OBRYS
  6
CONTINUOUS
 10
23579.710654769879
 20
403464.79058285448
 30
0.0
 11
23562.079554143631
 21
403482.42168348067
 31
0.0
  0
LINE
  5
69A2D
  8
S-OBRYS
  6
CONTINUOUS
 10
24053.001874422422
 20
403381.7265274403
 30
0.0
 11
24053.001874422422
 21
403501.38823364727
 31
0.0
  0
LINE
  5
69A2E
  8
S-OBRYS
  6
CONTINUOUS
 10
24011.001874422422
 20
403501.38823364727
 30
0.0
 11
24011.001874422422
 21
403396.43990323652
 31
0.0
  0
LINE
  5
69A2F
  8
S-OBRYS
  6
CONTINUOUS
 10
24077.001874422411
 20
403501.38823364727
 30
0.0
 11
24077.001874422411
 21
403373.31888412812
 31
0.0
  0
LINE
  5
69A30
  8
S-OBRYS
  6
CONTINUOUS
 10
24150.932656877209
 20
403452.06536492548
 30
0.0
 11
24150.932656877209
 21
403492.0653649256
 31
0.0
  0
LINE
  5
69A31
  8
S-OBRYS
  6
CONTINUOUS
 10
24242.25965687721
 20
403492.0653649256
 30
0.0
 11
24242.25965687721
 21
403452.06536492548
 31
0.0
  0
LINE
  5
69A32
  8
S-OBRYS
  6
CONTINUOUS
 10
24115.501874422411
 20
403271.38823364722
 30
0.0
 11
24056.626874422422
 21
403271.38823364722
 31
0.0
  0
LINE
  5
69A33
  8
S-OBRYS
  6
CONTINUOUS
 10
24053.001874422422
 20
403381.7265274403
 30
0.0
 11
24053.001874422422
 21
403271.38823364722
 31
0.0
  0
LINE
  5
69A34
  8
S-OBRYS
  6
CONTINUOUS
 10
23905.613003977069
 20
403346.38823364722
 30
0.0
 11
24040.001874422422
 21
403346.38823364722
 31
0.0
  0
LINE
  5
69A35
  8
S-OBRYS
  6
CONTINUOUS
 10
23905.613003977069
 20
403271.38823364722
 30
0.0
 11
23905.613003977069
 21
403346.38823364722
 31
0.0
  0
LINE
  5
69A36
  8
S-OBRYS
  6
CONTINUOUS
 10
23905.613003977069
 20
403271.38823364722
 30
0.0
 11
23889.48800397708
 21
403271.38823364722
 31
0.0
  0
LINE
  5
69A37
  8
S-OBRYS
  6
CONTINUOUS
 10
24040.001874422422
 20
403346.38823364722
 30
0.0
 11
24040.001874422422
 21
403271.38823364722
 31
0.0
  0
LINE
  5
69A38
  8
S-OBRYS
  6
CONTINUOUS
 10
24056.626874422422
 20
403271.38823364722
 30
0.0
 11
24040.001874422422
 21
403271.38823364722
 31
0.0
  0
LINE
  5
69A39
  8
S-OBRYS
  6
CONTINUOUS
 10
24011.001874422422
 20
403395.88823364727
 30
0.0
 11
24053.001874422422
 21
403395.88823364727
 31
0.0
  0
LINE
  5
69A3A
  8
S-OBRYS
  6
CONTINUOUS
 10
24077.001874422411
 20
403373.31888412812
 30
0.0
 11
24077.001874422411
 21
403271.38823364722
 31
0.0
  0
LINE
  5
69A3B
  8
S-OBRYS
  6
CONTINUOUS
 10
24086.970156877211
 20
403276.47536492557
 30
0.0
 11
24086.970156877211
 21
403369.82681065681
 31
0.0
  0
LINE
  5
69A3C
  8
S-OBRYS
  6
CONTINUOUS
 10
24087.001874422422
 20
403284.38823364722
 30
0.0
 11
24129.61300397708
 21
403284.38823364722
 31
0.0
  0
LINE
  5
69A3D
  8
S-OBRYS
  6
CONTINUOUS
 10
24087.001874422422
 20
403299.38823364722
 30
0.0
 11
24129.61300397708
 21
403299.38823364722
 31
0.0
  0
LINE
  5
69A3E
  8
S-OBRYS
  6
CONTINUOUS
 10
24087.001874422422
 20
403324.38823364727
 30
0.0
 11
24129.61300397708
 21
403324.38823364727
 31
0.0
  0
LINE
  5
69A3F
  8
S-OBRYS
  6
CONTINUOUS
 10
24087.001874422422
 20
403351.38823364727
 30
0.0
 11
24129.61300397708
 21
403351.38823364727
 31
0.0
  0
LINE
  5
69A40
  8
S-OBRYS
  6
CONTINUOUS
 10
24129.61300397708
 20
403276.47536492557
 30
0.0
 11
24086.970156877211
 21
403276.47536492557
 31
0.0
  0
LINE
  5
69A41
  8
S-OBRYS
  6
CONTINUOUS
 10
24238.751874422411
 20
403276.47536492557
 30
0.0
 11
24248.720156877211
 21
403276.47536492557
 31
0.0
  0
LINE
  5
69A42
  8
S-OBRYS
  6
CONTINUOUS
 10
24150.932656877209
 20
403452.06536492548
 30
0.0
 11
24242.25965687721
 21
403452.06536492548
 31
0.0
  0
LINE
  5
69A43
  8
S-OBRYS
  6
CONTINUOUS
 10
24086.970156877211
 20
403456.47536492551
 30
0.0
 11
24150.932656877209
 21
403456.47536492551
 31
0.0
  0
LINE
  5
69A44
  8
S-OBRYS
  6
CONTINUOUS
 10
24086.970156877211
 20
403456.47536492551
 30
0.0
 11
24086.970156877211
 21
403369.82681065681
 31
0.0
  0
LINE
  5
69A45
  8
S-OBRYS
  6
CONTINUOUS
 10
24150.932656877209
 20
403492.0653649256
 30
0.0
 11
24242.25965687721
 21
403492.0653649256
 31
0.0
  0
LINE
  5
69A46
  8
S-OBRYS
  6
CONTINUOUS
 10
24150.932656877209
 20
403482.06536492548
 30
0.0
 11
24242.25965687721
 21
403482.06536492548
 31
0.0
  0
LINE
  5
69A47
  8
S-OBRYS
  6
CONTINUOUS
 10
24372.720156877211
 20
403441.71536492562
 30
0.0
 11
24372.720156877211
 21
403291.23536492552
 31
0.0
  0
LINE
  5
69A48
  8
S-OBRYS
  6
CONTINUOUS
 10
24362.970156877211
 20
403450.53536492551
 30
0.0
 11
24362.970156877211
 21
403282.41536492557
 31
0.0
  0
LINE
  5
69A49
  8
S-OBRYS
  6
CONTINUOUS
 10
24315.220156877211
 20
403456.47536492551
 30
0.0
 11
24315.220156877211
 21
403366.47536492551
 31
0.0
  0
LINE
  5
69A4A
  8
S-OBRYS
  6
CONTINUOUS
 10
24315.220156877211
 20
403276.47536492557
 30
0.0
 11
24362.970156877211
 21
403282.41536492557
 31
0.0
  0
LINE
  5
69A4B
  8
S-OBRYS
  6
CONTINUOUS
 10
24293.720156877211
 20
403276.47536492557
 30
0.0
 11
24315.220156877211
 21
403276.47536492557
 31
0.0
  0
LINE
  5
69A4C
  8
S-OBRYS
  6
CONTINUOUS
 10
24315.220156877211
 20
403276.47536492557
 30
0.0
 11
24315.220156877211
 21
403366.47536492551
 31
0.0
  0
LINE
  5
69A4D
  8
S-OBRYS
  6
CONTINUOUS
 10
24362.970156877211
 20
403282.41536492557
 30
0.0
 11
24372.720156877211
 21
403291.23536492552
 31
0.0
  0
LINE
  5
69A4E
  8
S-OBRYS
  6
CONTINUOUS
 10
24315.220156877211
 20
403456.47536492551
 30
0.0
 11
24362.970156877211
 21
403450.53536492551
 31
0.0
  0
LINE
  5
69A4F
  8
S-OBRYS
  6
CONTINUOUS
 10
24362.970156877211
 20
403450.53536492551
 30
0.0
 11
24372.720156877211
 21
403441.71536492562
 31
0.0
  0
LINE
  5
69A50
  8
S-OBRYS
  6
CONTINUOUS
 10
16803.696311638501
 20
402889.14534591261
 30
0.0
 11
16803.696311638501
 21
403952.73615512601
 31
0.0
  0
LINE
  5
69A51
  8
S-OBRYS
  6
CONTINUOUS
 10
16803.696311638501
 20
403952.73615512601
 30
0.0
 11
16678.18714537816
 21
403865.02558577131
 31
0.0
  0
LINE
  5
69A52
  8
S-OBRYS
  6
CONTINUOUS
 10
16803.696311638501
 20
403888.67527667881
 30
0.0
 11
16678.18714537816
 21
403800.96470732399
 31
0.0
  0
LINE
  5
69A53
  8
S-OBRYS
  6
CONTINUOUS
 10
16803.696311638501
 20
403817.68890473532
 30
0.0
 11
16678.18714537816
 21
403729.9783353805
 31
0.0
  0
LINE
  5
69A54
  8
S-OBRYS
  6
CONTINUOUS
 10
16803.696311638501
 20
403744.97119758202
 30
0.0
 11
16678.18714537816
 21
403657.2606282272
 31
0.0
  0
LINE
  5
69A55
  8
S-OBRYS
  6
CONTINUOUS
 10
16803.696311638501
 20
403673.98482563841
 30
0.0
 11
16678.18714537816
 21
403586.27425628359
 31
0.0
  0
LINE
  5
69A56
  8
S-OBRYS
  6
CONTINUOUS
 10
16803.696311638501
 20
403587.41608060693
 30
0.0
 11
16678.18714537816
 21
403499.70551125222
 31
0.0
  0
LINE
  5
69A57
  8
S-OBRYS
  6
CONTINUOUS
 10
16803.696311638501
 20
403502.57867078512
 30
0.0
 11
16678.18714537816
 21
403414.86810143047
 31
0.0
  0
LINE
  5
69A58
  8
S-OBRYS
  6
CONTINUOUS
 10
16803.696311638501
 20
403416.00992575358
 30
0.0
 11
16678.18714537816
 21
403328.29935639887
 31
0.0
  0
LINE
  5
69A59
  8
S-OBRYS
  6
CONTINUOUS
 10
16803.696311638501
 20
403329.44118072209
 30
0.0
 11
16678.18714537816
 21
403241.73061136738
 31
0.0
  0
LINE
  5
69A5A
  8
S-OBRYS
  6
CONTINUOUS
 10
16803.696311638501
 20
403246.33520788158
 30
0.0
 11
16678.18714537816
 21
403158.62463852688
 31
0.0
  0
LINE
  5
69A5B
  8
S-OBRYS
  6
CONTINUOUS
 10
16803.696311638501
 20
403161.49784894561
 30
0.0
 11
16678.18714537816
 21
403073.78727959091
 31
0.0
  0
LINE
  5
69A5C
  8
S-OBRYS
  6
CONTINUOUS
 10
16803.696311638501
 20
403083.58598350582
 30
0.0
 11
16678.18714537816
 21
402995.87541415117
 31
0.0
  0
LINE
  5
69A5D
  8
S-OBRYS
  6
CONTINUOUS
 10
16803.696311638501
 20
403010.86822546681
 30
0.0
 11
16678.18714537816
 21
402923.1576561121
 31
0.0
  0
LINE
  5
69A5E
  8
S-OBRYS
  6
CONTINUOUS
 10
16803.696311638501
 20
402920.8367082444
 30
0.0
 11
16678.18714537816
 21
402833.12613888958
 31
0.0
  0
DIMENSION
  5
69A5F
  8
S-OBRYS
  6
CONTINUOUS
  2
*D46
 10
16803.696311638501
 20
403998.17993884062
 30
0.0
 11
16300.12488306707
 21
404085.67993884062
 31
0.0
 70
     0
  1
MIN.200
 13
17003.696311638501
 23
403366.47536492551
 33
0.0
 14
16803.696311638501
 24
403366.47536492551
 34
0.0
  0
LINE
  5
69A60
  8
S-OBRYS
  6
CONTINUOUS
 10
24772.720156877211
 20
402889.14534591261
 30
0.0
 11
24772.720156877211
 21
403952.73615512601
 31
0.0
  0
LINE
  5
69A61
  8
S-OBRYS
  6
CONTINUOUS
 10
24772.720156877211
 20
403952.73615512601
 30
0.0
 11
24898.229323137541
 21
403865.02558577131
 31
0.0
  0
LINE
  5
69A62
  8
S-OBRYS
  6
CONTINUOUS
 10
24772.720156877211
 20
403888.67527667881
 30
0.0
 11
24898.229323137541
 21
403800.96470732399
 31
0.0
  0
LINE
  5
69A63
  8
S-OBRYS
  6
CONTINUOUS
 10
24772.720156877211
 20
403817.68890473532
 30
0.0
 11
24898.229323137541
 21
403729.9783353805
 31
0.0
  0
LINE
  5
69A64
  8
S-OBRYS
  6
CONTINUOUS
 10
24772.720156877211
 20
403744.97119758202
 30
0.0
 11
24898.229323137541
 21
403657.2606282272
 31
0.0
  0
LINE
  5
69A65
  8
S-OBRYS
  6
CONTINUOUS
 10
24772.720156877211
 20
403673.98482563841
 30
0.0
 11
24898.229323137541
 21
403586.27425628359
 31
0.0
  0
LINE
  5
69A66
  8
S-OBRYS
  6
CONTINUOUS
 10
24772.720156877211
 20
403587.41608060693
 30
0.0
 11
24898.229323137541
 21
403499.70551125222
 31
0.0
  0
LINE
  5
69A67
  8
S-OBRYS
  6
CONTINUOUS
 10
24772.720156877211
 20
403502.57867078512
 30
0.0
 11
24898.229323137541
 21
403414.86810143047
 31
0.0
  0
LINE
  5
69A68
  8
S-OBRYS
  6
CONTINUOUS
 10
24772.720156877211
 20
403416.00992575358
 30
0.0
 11
24898.229323137541
 21
403328.29935639887
 31
0.0
  0
LINE
  5
69A69
  8
S-OBRYS
  6
CONTINUOUS
 10
24772.720156877211
 20
403329.44118072209
 30
0.0
 11
24898.229323137541
 21
403241.73061136738
 31
0.0
  0
LINE
  5
69A6A
  8
S-OBRYS
  6
CONTINUOUS
 10
24772.720156877211
 20
403246.33520788158
 30
0.0
 11
24898.229323137541
 21
403158.62463852688
 31
0.0
  0
LINE
  5
69A6B
  8
S-OBRYS
  6
CONTINUOUS
 10
24772.720156877211
 20
403161.49784894561
 30
0.0
 11
24898.229323137541
 21
403073.78727959091
 31
0.0
  0
LINE
  5
69A6C
  8
S-OBRYS
  6
CONTINUOUS
 10
24772.720156877211
 20
403083.58598350582
 30
0.0
 11
24898.229323137541
 21
402995.87541415117
 31
0.0
  0
LINE
  5
69A6D
  8
S-OBRYS
  6
CONTINUOUS
 10
24772.720156877211
 20
403010.86822546681
 30
0.0
 11
24898.229323137541
 21
402923.1576561121
 31
0.0
  0
LINE
  5
69A6E
  8
S-OBRYS
  6
CONTINUOUS
 10
24772.720156877211
 20
402920.8367082444
 30
0.0
 11
24898.229323137541
 21
402833.12613888958
 31
0.0
  0
DIMENSION
  5
69A6F
  8
S-OBRYS
  6
CONTINUOUS
  2
*D47
 10
24772.720156877211
 20
404003.71655791841
 30
0.0
 11
25176.291585448638
 21
404003.71655791841
 31
0.0
 70
   128
  1
MIN.400
 13
24372.720156877211
 23
403611.74336555542
 33
0.0
 14
24772.720156877211
 24
403611.74336555542
 34
0.0
  0
VIEWPORT
  5
1FAB5
 67
     1
  8
0
  6
ČERCHOVANÁ
 10
12.669026204836801
 20
9.4585013259736659
 30
0.0
 40
41.707206501782828
 41
24.2248555085413
 68
     1
 69
     1
1001
ACAD
1000
MVIEW
1002
{
1070
    16
1010
0.0
1020
0.0
1030
0.0
1010
0.0
1020
0.0
1030
1.0
1040
0.0
1040
24.2248555085413
1040
12.669026204836801
1040
9.4585013259736659
1040
50.0
1040
0.0
1040
0.0
1070
     0
1070
   100
1070
     1
1070
     1
1070
     0
1070
     0
1070
     0
1070
     0
1040
0.0
1040
0.0
1040
0.0
1040
10.0
1040
10.0
1040
10.0
1040
10.0
1070
     0
1002
{
1002
}
1002
}
  0
VIEWPORT
  5
1FAB7
 67
     1
  8
2-VZT
  6
ČERCHOVANÁ
 10
5.24999976158142
 20
3.99999976158142
 30
0.0
 40
8.3999996185302717
 41
6.3999996185302717
 68
     2
 69
     2
1001
ACAD
1000
MVIEW
1002
{
1070
    16
1010
0.0
1020
0.0
1030
0.0
1010
0.0
1020
0.0
1030
1.0
1040
0.0
1040
517776.44812413253
1040
-335493.7046016907
1040
-205251.99203018961
1040
50.0
1040
0.0
1040
0.0
1070
     0
1070
   100
1070
     1
1070
     0
1070
     0
1070
     0
1070
     0
1070
     0
1040
0.0
1040
0.0
1040
0.0
1040
1.0
1040
1.0
1040
1.0
1040
1.0
1070
     0
1002
{
1002
}
1002
}
  0
ENDSEC
  0
EOF
